osu file format v14

[General]
AudioFilename: audio.mp3
AudioLeadIn: 0
PreviewTime: 17807
Countdown: 0
SampleSet: Soft
StackLeniency: 0.4
Mode: 0
LetterboxInBreaks: 0
WidescreenStoryboard: 1

[Editor]
Bookmarks: 6835,17807,23292,31521,34264,39750,45235,57578,63064,68550,76778,82264,82607,82950,83121,83635,83807,84150,84492,87750,93235,98721,104207
DistanceSpacing: 1.1
BeatDivisor: 4
GridSize: 8
TimelineZoom: 2.4

[Metadata]
Title:PEKORANDOMBRAIN!
TitleUnicode:ぺこらんだむぶれいん!
Artist:Usada Pekora
ArtistUnicode:兎田ぺこら
Creator:Dudamesh
Version:SONCAK'S HARD
Source:
Tags:klaksoncakfish soncak dooe -doodle ホロライブファンタジー video game dig delight direct drive dj d4dj groovy mix gurumiku グルミク グルーヴィーミクス rhythm オリジナル vtuber バーチャル ユーチューバー えいりな刃物 eiri7hamono 湯浅順司 Sizuk Entertainment キング関口台スタジオ King Sekiguchidai Studio 石井満 Mitsuru Ishii よる。 Yoru. 俊龍 畑亜貴 Aki Hata hololive production ホロライブ J-Pop jpop japanese pop
BeatmapID:3262311
BeatmapSetID:1404869

[Difficulty]
HPDrainRate:4
CircleSize:3.8
OverallDifficulty:6.3
ApproachRate:8
SliderMultiplier:1.3
SliderTickRate:1

[Events]
//Background and Video events
0,0,"bg.jpg",0,0
Video,0,"pekovideo.mp4"
//Break Periods
//Storyboard Layer 0 (Background)
//Storyboard Layer 1 (Fail)
//Storyboard Layer 2 (Pass)
//Storyboard Layer 3 (Foreground)
//Storyboard Layer 4 (Overlay)
//Storyboard Sound Samples

[TimingPoints]
1350,342.857142857143,4,2,1,50,1,0
1350,-83.3333333333333,4,2,1,50,0,0
6492,-100,4,2,1,50,0,0
6835,-166.666666666667,4,2,1,50,0,0
9407,-90.9090909090909,4,2,1,60,0,0
12321,-90.9090909090909,4,2,1,55,0,0
15064,-90.9090909090909,4,2,1,50,0,0
16435,-76.9230769230769,4,2,1,50,0,0
17807,-90.9090909090909,4,2,1,50,0,0
23292,-74.0740740740741,4,2,1,55,0,1
31521,-74.0740740740741,4,2,1,60,0,1
32892,-90.9090909090909,4,2,1,60,0,1
34264,-100,4,2,1,70,0,0
39407,-100,4,2,1,70,0,0
39750,-90.9090909090909,4,2,1,60,0,0
43178,-74.0740740740741,4,2,1,60,0,0
45235,-90.9090909090909,4,2,1,65,0,0
51064,-83.3333333333333,4,2,1,70,0,0
52607,-66.6666666666667,4,2,1,70,0,0
53121,-90.9090909090909,4,2,1,70,0,0
57578,-100,4,2,1,65,0,0
63064,-100,4,2,1,70,0,0
68550,-90.9090909090909,4,2,1,70,0,0
72664,-80,4,2,1,70,0,0
73178,-83.3333333333333,4,2,1,70,0,0
74035,-100,4,2,1,70,0,0
76778,-90.9090909090909,4,2,1,70,0,0
95978,-90.9090909090909,4,2,1,60,0,0
97350,-76.9230769230769,4,2,1,60,0,0
98721,-90.9090909090909,4,2,1,50,0,0
104207,-74.0740740740741,4,2,1,60,0,1
106950,-83.3333333333333,4,2,1,70,0,0
107978,-100,4,2,1,70,0,0
108321,-74.0740740740741,4,2,1,70,0,0

[Colours]
Combo1 : 147,255,255
Combo2 : 121,188,255
Combo3 : 255,182,108
Combo4 : 245,215,107

[HitObjects]
58,47,1350,5,2,1:2:0:0:
58,47,1521,2,0,L|158:41,1,77.999997619629,2|8,0:0|1:2,0:0:0:0:
182,40,1778,2,0,B|171:78|171:78|191:127,1,77.999997619629,2|2,0:0|0:0,0:0:0:0:
202,157,2035,2,0,L|279:161,1,77.999997619629,2|0,0:0|1:0,0:0:0:0:
345,97,2378,1,8,0:0:0:0:
345,97,2550,1,8,0:0:0:0:
416,157,2721,5,2,1:2:0:0:
416,157,2892,2,0,L|420:234,1,77.999997619629,2|10,0:0|1:2,0:0:0:0:
427,281,3150,2,0,P|387:268|343:297,1,77.999997619629,2|2,0:0|0:0,0:0:0:0:
316,307,3407,2,0,P|276:320|232:291,1,77.999997619629,2|0,0:0|1:0,0:0:0:0:
202,228,3750,1,8,0:0:0:0:
202,228,3921,1,8,0:0:0:0:
143,300,4092,6,0,L|150:378,1,77.999997619629,2|2,1:2|1:2,0:0:0:0:
51,307,4435,1,14,1:2:0:0:
51,307,4521,2,0,L|44:229,1,77.999997619629,2|0,0:0|0:0,0:0:0:0:
25,193,4778,6,0,L|102:197,1,77.999997619629,2|2,1:2|1:2,0:0:0:0:
200,209,5121,1,14,1:2:0:0:
200,209,5207,2,0,P|216:170|192:120,1,77.999997619629,2|0,0:0|0:0,0:0:0:0:
176,101,5464,6,0,L|168:35,3,38.9999988098145,8|2|2|2,1:2|0:0|0:0|0:0,0:0:0:0:
250,31,5807,2,0,L|254:69,3,38.9999988098145,10|2|2|2,1:2|0:0|0:0|0:0,0:0:0:0:
330,120,6150,6,0,L|339:30,1,77.999997619629,10|0,1:2|0:0,0:0:0:0:
422,41,6492,2,0,L|415:105,1,65,10|0,1:2|0:0,0:0:0:0:
414,118,6750,1,0,0:0:0:0:
413,132,6835,2,0,B|424:203|288:227|218:170|218:170|259:95|375:54|409:118,1,467.999985717774,6|2,1:0|0:1,0:0:0:0:
448,232,9407,5,0,1:0:0:0:
450,245,9492,1,0,1:0:0:0:
452,259,9578,2,0,L|372:252,1,71.5000021820069,2|0,1:0|1:0,0:0:0:0:
307,227,9921,2,0,B|281:302|359:289|314:394,1,143.000004364014,8|2,1:2|1:0,0:0:0:0:
248,337,10435,1,0,1:0:0:0:
147,268,10607,1,8,1:2:0:0:
147,268,10778,6,0,P|148:222|148:109,1,143.000004364014,0|0,0:0|1:0,0:0:0:0:
69,119,11292,1,8,1:2:0:0:
70,204,11464,1,0,0:0:0:0:
69,219,11550,1,8,0:0:0:0:
68,234,11635,2,0,P|26:248|-11:227,1,71.5000021820069,8|8,1:2|1:2,0:0:0:0:
152,169,11978,2,0,L|204:160,3,35.7500010910034,8|8|8|8,1:2|0:0|0:0|0:0,0:0:0:0:
226,234,12321,6,0,P|279:225|322:217,1,71.5000021820069,6|0,1:2|0:0,0:0:0:0:
340,148,12664,2,0,P|393:157|428:169,1,71.5000021820069,10|0,1:2|1:0,0:0:0:0:
423,166,12921,1,8,0:0:0:0:
436,170,13007,2,0,P|446:128|448:100,1,71.5000021820069,2|0,1:2|1:0,0:0:0:0:
500,231,13350,1,10,1:2:0:0:
500,231,13521,6,0,B|450:293|413:224|362:310,1,143.000004364014,10|2,0:2|1:2,0:0:0:0:
440,344,14035,1,10,0:0:0:0:
299,315,14207,1,2,1:2:0:0:
290,326,14292,1,8,0:0:0:0:
281,337,14378,2,0,P|274:274|269:243,1,71.5000021820069,0|0,1:0|1:0,0:0:0:0:
194,201,14721,2,0,P|189:236|185:272,1,71.5000021820069,10|10,1:2|0:0,0:0:0:0:
174,280,14978,1,8,0:0:0:0:
164,290,15064,6,0,P|111:272|93:205,1,107.25000327301,10|2,1:2|0:0,0:0:0:0:
32,116,15579,1,10,0:0:0:0:
46,117,15664,1,8,0:0:0:0:
60,118,15750,6,0,P|56:77|54:38,1,71.5000021820069,10|8,1:2|0:0,0:0:0:0:
155,30,16092,2,0,P|158:70|160:109,1,71.5000021820069,8|10,0:0|0:0,0:0:0:0:
66,204,16435,6,0,B|157:188|157:188|196:216,1,126.749994197846,10|0,1:2|0:0,0:0:0:0:
194,221,16778,2,0,B|285:237|285:237|324:209,1,126.749994197846,10|0,1:2|0:0,0:0:0:0:
325,208,17121,6,0,P|368:200|399:163,1,84.4999961318971,10|8,1:2|0:0,0:0:0:0:
412,99,17378,1,8,0:0:0:0:
414,82,17464,2,0,P|406:39|369:8,1,84.4999961318971,8|8,1:2|0:0,0:0:0:0:
302,4,17721,1,8,0:0:0:0:
289,8,17807,6,0,P|247:5|199:-1,2,71.5000021820069,6|0|8,1:2|1:0|1:2,0:0:0:0:
262,88,18321,1,2,0:0:0:0:
262,88,18492,2,0,P|220:85|172:79,2,71.5000021820069,2|0|8,1:2|1:0|1:2,0:0:0:0:
286,171,19007,1,2,0:0:0:0:
286,171,19178,6,0,P|225:166|185:160,1,71.5000021820069,0|2,1:0|1:2,0:0:0:0:
128,138,19521,2,0,P|109:102|114:52,1,71.5000021820069,10|2,1:2|1:2,0:0:0:0:
214,164,19864,2,0,P|204:220|198:252,1,71.5000021820069,10|0,1:2|1:0,0:0:0:0:
184,318,20207,1,8,1:2:0:0:
369,361,20550,6,0,B|405:368|405:368|450:348,2,71.5000021820069,2|0|8,1:2|1:0|1:2,0:0:0:0:
354,273,21064,1,2,0:0:0:0:
351,258,21150,1,8,0:0:0:0:
348,244,21235,2,0,B|379:229|379:229|415:236,2,71.5000021820069,2|0|8,1:2|1:0|1:2,0:0:0:0:
276,309,21750,1,2,0:0:0:0:
276,309,21921,6,0,P|270:260|268:221,1,71.5000021820069,2|10,1:2|0:0,0:0:0:0:
177,287,22264,2,0,P|183:238|192:199,1,71.5000021820069,2|10,1:2|0:0,0:0:0:0:
87,240,22607,2,0,P|106:194|124:159,1,71.5000021820069,2|8,1:2|0:0,0:0:0:0:
57,115,22950,1,12,1:2:0:0:
235,20,23292,6,0,L|245:164,1,131.62500050211,4|0,1:0|0:0,0:0:0:0:
276,180,23635,2,0,L|267:79,1,87.7500003347397,2|8,1:2|0:0,0:0:0:0:
318,35,23892,1,2,0:0:0:0:
331,23,23978,2,0,P|375:36|417:12,1,87.7500003347397,0|8,1:0|0:0,0:0:0:0:
497,138,24321,2,0,B|400:126|400:126|371:162,1,131.62500050211,2|0,1:2|0:0,0:0:0:0:
360,192,24664,6,0,L|367:279,1,87.7500003347397,2|10,1:2|0:0,0:0:0:0:
454,304,25007,2,0,L|446:216,1,87.7500003347397,2|8,1:2|0:0,0:0:0:0:
282,266,25350,2,0,L|285:309,2,43.8750001673698,0|0|10,1:0|1:0|0:0,0:0:0:0:
360,192,25692,2,0,P|375:148|352:93,1,87.7500003347397,2|8,1:2|0:0,0:0:0:0:
242,43,26035,6,0,P|192:28|131:88,1,131.62500050211,6|0,1:2|0:0,0:0:0:0:
167,103,26378,2,0,P|203:134|196:187,1,87.7500003347397,2|8,1:2|0:0,0:0:0:0:
171,240,26635,1,2,0:0:0:0:
153,238,26721,1,0,1:0:0:0:
79,167,26892,1,8,0:0:0:0:
31,242,27064,2,0,B|25:338|25:338|57:363,1,131.62500050211,2|0,1:2|0:0,0:0:0:0:
91,380,27407,5,2,1:2:0:0:
154,319,27578,1,10,0:0:0:0:
154,319,27750,2,0,L|249:329,1,87.7500003347397,2|8,1:2|0:0,0:0:0:0:
413,290,28092,2,0,L|419:333,2,43.8750001673698,2|0|8,1:2|1:0|0:0,0:0:0:0:
341,367,28435,2,0,B|325:327|325:327|332:277,1,87.7500003347397,2|8,1:2|0:0,0:0:0:0:
502,341,28778,6,0,L|481:196,1,131.62500050211,6|0,1:2|0:0,0:0:0:0:
510,176,29121,2,0,L|406:189,1,87.7500003347397,2|8,1:2|0:0,0:0:0:0:
366,113,29378,1,2,0:0:0:0:
374,104,29464,2,0,L|461:93,1,87.7500003347397,0|8,1:0|0:0,0:0:0:0:
337,194,29807,2,0,P|296:160|294:72,1,131.62500050211,2|0,1:2|0:0,0:0:0:0:
315,51,30150,6,0,L|227:40,1,87.7500003347397,2|10,1:2|0:0,0:0:0:0:
140,38,30492,2,0,L|150:125,1,87.7500003347397,2|10,1:2|0:0,0:0:0:0:
273,157,30835,2,0,L|229:151,2,43.8750001673698,0|0|10,1:0|1:0|0:0,0:0:0:0:
81,235,31178,2,0,P|122:212|179:223,1,87.7500003347397,2|8,1:2|0:0,0:0:0:0:
228,275,31521,6,0,P|277:270|318:262,1,87.7500003347397,6|10,1:2|0:0,0:0:0:0:
268,361,31864,2,0,P|317:356|358:348,1,87.7500003347397,2|10,1:2|0:0,0:0:0:0:
421,291,32207,1,2,1:2:0:0:
383,211,32378,1,10,0:0:0:0:
431,137,32550,2,0,P|387:132|344:124,1,87.7500003347397,2|10,1:2|0:0,0:0:0:0:
279,45,32892,6,0,B|244:-13|141:30|108:100|108:100|174:148|295:120|281:52,1,429.000013092041,2|8,1:2|0:0,0:0:0:0:
256,192,34264,5,6,1:2:0:0:
267,192,34607,2,0,B|305:183|329:170|329:170|317:259|309:319,1,195,8|2,0:0|1:2,0:0:0:0:
373,354,35292,1,10,0:0:0:0:
365,364,35635,5,10,1:2:0:0:
281,352,35807,1,10,1:2:0:0:
197,340,35978,1,10,1:2:0:0:
185,337,36321,6,0,P|160:304|160:265,1,65,2|2,0:0|1:2,0:0:0:0:
190,208,36664,1,10,0:0:0:0:
79,114,37007,5,10,1:2:0:0:
86,103,37350,2,0,B|195:79|161:184|263:149,1,195,8|2,0:0|1:2,0:0:0:0:
307,82,38035,1,10,0:0:0:0:
317,73,38378,5,10,1:2:0:0:
400,88,38550,1,10,1:2:0:0:
459,28,38721,1,10,1:2:0:0:
424,166,39235,6,0,P|457:170|489:177,2,65,2|10|2,1:2|0:0|0:0,0:0:0:0:
356,216,39750,6,0,P|339:174|388:91,1,143.000004364014,6|8,1:0|1:2,0:0:0:0:
475,83,40264,1,2,0:0:0:0:
489,177,40435,2,0,P|498:240|503:276,1,71.5000021820069,2|2,1:2|0:0,0:0:0:0:
431,341,40778,2,0,P|426:305|420:270,1,71.5000021820069,10|2,1:2|0:0,0:0:0:0:
265,218,41121,6,0,B|185:203|208:287|114:249,2,143.000004364014,2|8|2,1:0|1:2|1:2,0:0:0:0:
261,303,41978,1,0,0:0:0:0:
261,303,42150,2,0,P|259:351|256:383,1,71.5000021820069,8|2,1:2|0:0,0:0:0:0:
134,256,42492,2,0,P|108:311|40:314,1,107.25000327301,2|0,1:2|0:0,0:0:0:0:
48,321,42835,2,0,L|43:285,2,35.7500010910034,10|2|2,1:2|0:0|0:0,0:0:0:0:
55,191,43178,6,0,P|48:136|40:74,1,87.7500003347397,14|0,1:2|1:0,0:0:0:0:
176,191,43521,2,0,P|183:136|191:74,1,87.7500003347397,14|0,1:2|1:0,0:0:0:0:
114,49,43864,1,14,1:2:0:0:
188,104,44035,2,0,B|230:118|230:118|274:99,1,87.7500003347397,2|0,0:0|1:0,0:0:0:0:
395,8,44378,6,0,B|354:50|354:50|377:169,1,175.500000669479,14|0,1:2|1:0,0:0:0:0:
397,263,44892,1,8,1:2:0:0:
305,205,45064,1,8,0:0:0:0:
307,222,45150,1,8,0:0:0:0:
310,235,45235,6,0,P|345:255|398:250,1,71.5000021820069,6|0,1:2|0:0,0:0:0:0:
312,118,45578,2,0,P|276:121|246:139,1,71.5000021820069,8|2,1:2|0:0,0:0:0:0:
221,237,45921,2,0,P|225:296|228:327,1,71.5000021820069,2|2,1:2|0:0,0:0:0:0:
140,337,46264,2,0,P|136:278|133:247,1,71.5000021820069,10|2,1:2|0:0,0:0:0:0:
50,249,46607,6,0,L|52:301,2,35.7500010910034,2|2|2,1:2|0:0|0:0,0:0:0:0:
213,229,46950,2,0,P|188:192|137:177,1,71.5000021820069,10|0,1:2|0:0,0:0:0:0:
49,160,47292,5,2,1:2:0:0:
87,85,47464,1,2,0:0:0:0:
87,85,47635,2,0,P|130:91|178:94,1,71.5000021820069,10|0,1:2|0:0,0:0:0:0:
323,62,47978,6,0,B|304:54|286:47|286:47|307:164,1,143.000004364014,2|8,1:2|1:2,0:0:0:0:
389,119,48492,1,2,0:0:0:0:
389,119,48664,2,0,P|437:125|467:130,1,71.5000021820069,2|2,1:2|0:0,0:0:0:0:
377,198,49007,2,0,P|425:204|455:209,1,71.5000021820069,10|2,1:2|0:0,0:0:0:0:
494,297,49350,5,2,1:2:0:0:
405,285,49521,1,2,0:0:0:0:
358,357,49692,2,0,B|272:373|304:303|213:331,1,143.000004364014,10|2,1:2|1:2,0:0:0:0:
172,251,50207,5,2,0:0:0:0:
88,285,50378,1,10,1:2:0:0:
30,258,50550,1,2,0:0:0:0:
22,238,50721,6,0,P|19:179|15:140,1,71.5000021820069,2|0,1:2|1:0,0:0:0:0:
156,118,51064,2,0,B|91:114|91:114|68:88|68:88|-20:82,1,155.999995239258,14|2,1:2|1:2,0:0:0:0:
53,9,51578,1,0,1:0:0:0:
132,34,51750,6,0,P|179:35|239:34,1,77.999997619629,12|2,1:2|0:0,0:0:0:0:
298,27,52092,1,10,1:2:0:0:
240,168,52264,1,10,1:2:0:0:
248,152,52607,6,0,B|290:137|326:161|326:161|356:148|356:148|399:173|443:152,1,195.00000743866,6|0,1:0|1:0,0:0:0:0:
470,71,53121,2,0,P|443:47|409:41,1,71.5000021820069,10|2,1:2|0:0,0:0:0:0:
391,46,53378,1,8,0:2:0:0:
377,57,53464,5,10,1:2:0:0:
358,164,53635,1,8,1:2:0:0:
453,296,54150,5,8,1:2:0:0:
352,290,54321,1,10,1:2:0:0:
352,309,54664,6,0,B|271:346|271:346|200:309,1,143.000004364014,6|0,1:2|1:0,0:0:0:0:
76,252,55178,1,8,1:2:0:0:
155,271,55350,1,0,0:0:0:0:
150,284,55435,1,8,0:0:0:0:
145,297,55521,2,0,L|150:379,1,71.5000021820069,2|0,1:2|1:0,0:0:0:0:
275,262,55864,5,8,1:2:0:0:
286,174,56035,1,2,1:2:0:0:
155,271,56378,1,10,1:2:0:0:
291,165,56721,6,0,P|256:123|165:133,1,143.000004364014,10|0,1:2|1:0,0:0:0:0:
134,198,57235,1,8,1:2:0:0:
295,181,57578,6,0,B|344:172|367:119|367:119|393:167|454:176,1,195,6|0,1:0|1:0,0:0:0:0:
378,241,58264,1,10,1:2:0:0:
378,241,58435,2,0,P|380:292|383:376,1,130,0|8,0:0|0:0,0:0:0:0:
360,363,58864,5,8,0:0:0:0:
339,353,58950,2,0,P|337:293|337:275,1,65,2|8,1:2|0:0,0:0:0:0:
294,195,59292,1,2,1:2:0:0:
137,301,59635,6,0,B|112:327|101:355|101:355|90:200,1,195,10|8,1:2|0:0,0:0:0:0:
64,140,60321,6,0,B|164:120|144:208|247:174,1,195,2|0,1:2|1:2,0:0:0:0:
206,100,61007,6,0,B|163:63|201:13|201:13|253:49|224:98,1,195,10|10,1:2|0:0,0:0:0:0:
229,117,61607,1,10,0:0:0:0:
235,138,61692,6,0,P|283:139|316:141,1,65,2|8,1:2|0:0,0:0:0:0:
383,64,62035,2,0,P|350:62|318:62,1,65,0|0,0:0|1:2,0:0:0:0:
299,139,62378,6,0,P|307:198|317:287,1,130,8|0,1:2|0:0,0:0:0:0:
113,384,63064,5,6,1:2:0:0:
121,286,63235,1,2,1:2:0:0:
129,188,63407,1,2,1:2:0:0:
129,188,65292,5,0,1:0:0:0:
129,188,65464,2,0,P|160:172|202:183,1,65,8|0,1:2|0:0,0:0:0:0:
203,183,65721,1,8,0:0:0:0:
217,190,65807,5,6,1:2:0:0:
291,118,65978,1,2,1:2:0:0:
382,168,66150,1,2,1:2:0:0:
426,198,67178,6,0,P|438:239|423:278,1,65,10|2,1:2|1:2,0:0:0:0:
348,291,67521,1,6,0:3:0:0:
336,212,67692,2,0,P|324:171|339:132,1,65,10|2,1:2|1:2,0:0:0:0:
398,87,68035,5,2,1:2:0:0:
375,68,68207,1,10,1:2:0:0:
300,61,68378,1,0,1:0:0:0:
241,120,68550,6,0,L|163:113,1,71.5000021820069,4|0,1:2|0:0,0:0:0:0:
48,43,68892,2,0,P|56:77|84:99,1,71.5000021820069,10|0,1:2|0:0,0:0:0:0:
82,241,69235,2,0,P|108:216|113:181,1,71.5000021820069,2|0,1:2|0:0,0:0:0:0:
237,111,69578,2,0,P|203:101|170:114,1,71.5000021820069,10|0,1:2|0:0,0:0:0:0:
192,261,69921,5,6,1:2:0:0:
192,261,70092,1,0,0:0:0:0:
252,331,70264,2,0,P|297:323|333:318,1,71.5000021820069,10|0,1:2|0:0,0:0:0:0:
440,257,70607,2,0,P|394:249|358:244,1,71.5000021820069,2|0,1:2|0:0,0:0:0:0:
252,183,70950,2,0,P|297:175|333:170,1,71.5000021820069,10|0,1:2|0:0,0:0:0:0:
465,156,71292,5,6,1:2:0:0:
464,66,71464,1,2,1:2:0:0:
464,66,71635,2,0,P|418:32|380:34,1,71.5000021820069,8|0,1:2|1:0,0:0:0:0:
252,71,71978,1,6,1:2:0:0:
317,157,72150,1,2,1:2:0:0:
317,157,72321,2,0,P|391:143|412:139,1,71.5000021820069,8|0,1:2|1:0,0:0:0:0:
323,32,72664,6,0,B|233:31|274:102|179:96,1,162.5,6|8,1:2|1:2,0:0:0:0:
86,34,73178,2,0,B|138:64|138:64|120:179,1,155.999995239258,2|0,0:0|1:0,0:0:0:0:
49,106,73692,2,0,L|33:196,1,77.999997619629,8|0,1:2|1:0,0:0:0:0:
97,233,74035,6,0,P|131:214|172:223,1,65,2|2,1:2|1:2,0:0:0:0:
231,259,74378,2,0,P|250:293|241:334,1,65,14|2,1:2|0:0,0:0:0:0:
195,375,74635,1,8,0:0:0:0:
183,364,74721,2,0,P|164:330|173:289,1,65,2|2,1:2|1:2,0:0:0:0:
232,174,75064,2,0,P|264:174|291:191,1,65,14|2,1:2|0:0,0:0:0:0:
345,253,75407,5,2,1:2:0:0:
345,253,75578,1,0,1:0:0:0:
442,281,75750,2,0,L|447:198,1,65,8|8,1:2|0:0,0:0:0:0:
475,142,76007,1,8,0:0:0:0:
466,128,76092,6,0,B|435:139|435:139|400:131,1,65,2|8,1:2|0:0,0:0:0:0:
381,54,76350,1,8,0:0:0:0:
378,38,76435,2,0,B|347:27|347:27|312:35,1,65,2|8,1:2|0:0,0:0:0:0:
269,95,76692,1,8,0:0:0:0:
269,112,76778,6,0,L|273:194,1,71.5000021820069,4|0,1:0|0:0,0:0:0:0:
355,259,77121,2,0,L|346:108,1,143.000004364014,10|0,1:2|1:0,0:0:0:0:
298,44,77635,1,0,0:0:0:0:
298,44,77807,1,10,1:2:0:0:
235,113,77978,6,0,P|195:111|152:107,2,71.5000021820069,2|0|2,0:0|1:0|0:0,0:0:0:0:
297,178,78492,1,10,1:2:0:0:
228,225,78664,2,0,B|204:302|276:295|240:374,1,143.000004364014,2|0,0:0|0:0,0:0:0:0:
151,338,79178,2,0,L|145:254,1,71.5000021820069,8|2,1:2|0:0,0:0:0:0:
34,338,79521,6,0,B|69:357|69:357|62:241,1,143.000004364014,0|10,1:0|1:2,0:0:0:0:
24,179,80035,1,2,0:0:0:0:
24,179,80207,2,0,P|13:142|34:98,1,71.5000021820069,0|0,1:0|0:0,0:0:0:0:
88,56,80550,1,10,1:2:0:0:
144,119,80721,6,0,B|199:112|199:112|218:119|218:119|305:105,1,143.000004364014,2|2,0:0|0:0,0:0:0:0:
349,46,81235,1,14,1:2:0:0:
280,119,81407,2,0,B|318:160|318:160|407:138,1,143.000004364014,2|0,0:0|0:0,0:0:0:0:
504,154,81921,2,0,L|515:246,1,71.5000021820069,12|0,1:2|0:0,0:0:0:0:
374,299,82264,6,0,B|366:334|366:334|387:374,1,71.5000021820069,4|0,1:0|0:0,0:0:0:0:
454,286,82607,2,0,B|470:317|470:317|462:352,1,71.5000021820069,10|0,1:2|0:0,0:0:0:0:
372,368,82950,2,0,B|355:336|355:336|363:301,1,71.5000021820069,2|0,1:2|0:0,0:0:0:0:
400,218,83292,1,10,1:2:0:0:
285,262,83464,6,0,B|242:246|242:246|143:273,1,143.000004364014,2|2,0:0|0:0,0:0:0:0:
142,359,83978,2,0,L|227:336,1,71.5000021820069,10|2,1:2|0:0,0:0:0:0:
138,269,84321,2,0,P|116:239|122:191,1,71.5000021820069,0|0,1:0|0:0,0:0:0:0:
195,168,84664,2,0,P|193:132|172:104,1,71.5000021820069,10|2,1:2|0:0,0:0:0:0:
218,24,85007,6,0,B|293:8|293:8|334:28,2,107.25000327301,14|2|2,1:2|1:2|1:2,0:0:0:0:
172,104,85692,2,0,B|97:88|97:88|56:108,2,107.25000327301,14|2|2,1:2|1:2|1:2,0:0:0:0:
201,177,86378,6,0,L|254:164,3,35.7500010910034,12|0|0|0,1:2|0:0|0:0|0:0,0:0:0:0:
290,111,86721,2,0,L|325:119,3,35.7500010910034,8|0|0|0,1:2|0:0|1:0|1:0,0:0:0:0:
399,138,87064,6,0,L|405:186,3,35.7500010910034,2|0|8|0,1:2|0:0|0:0|0:0,0:0:0:0:
473,118,87407,2,0,L|479:166,3,35.7500010910034,2|0|0|0,1:2|0:0|1:0|0:0,0:0:0:0:
457,41,87750,6,0,L|375:58,1,71.5000021820069,4|0,1:0|0:0,0:0:0:0:
325,119,88092,2,0,L|243:102,1,71.5000021820069,10|0,1:2|0:0,0:0:0:0:
192,40,88435,2,0,B|153:74|153:74|178:189,1,143.000004364014,0|10,1:0|1:2,0:0:0:0:
282,221,88950,6,0,B|213:206|227:271|141:243,1,143.000004364014,2|2,0:0|0:0,0:0:0:0:
70,210,89464,2,0,P|56:177|67:129,1,71.5000021820069,10|2,1:2|0:0,0:0:0:0:
12,281,89807,2,0,P|21:336|29:375,1,71.5000021820069,0|0,1:0|0:0,0:0:0:0:
110,378,90150,2,0,P|103:342|97:307,1,71.5000021820069,8|2,1:2|0:0,0:0:0:0:
148,245,90492,6,0,P|186:231|232:250,1,71.5000021820069,0|2,1:0|0:0,0:0:0:0:
262,309,90835,2,0,P|300:323|346:304,1,71.5000021820069,10|2,1:2|0:0,0:0:0:0:
364,242,91178,6,0,L|380:386,1,143.000004364014,0|10,1:0|1:2,0:0:0:0:
461,334,91692,1,2,0:0:0:0:
461,334,91864,2,0,L|453:252,1,71.5000021820069,0|2,1:0|0:0,0:0:0:0:
453,127,92207,5,14,1:2:0:0:
453,127,92378,2,0,B|418:105|418:105|316:151,1,143.000004364014,2|0,0:0|0:0,0:0:0:0:
247,175,92892,2,0,L|226:108,3,35.7500010910034,12|0|0|0,1:2|0:0|0:0|0:0,0:0:0:0:
236,113,93235,6,0,P|177:105|150:102,1,71.5000021820069,4|0,1:0|0:0,0:0:0:0:
14,194,93578,2,0,P|49:198|84:203,1,71.5000021820069,10|0,1:2|0:0,0:0:0:0:
158,251,93921,2,0,B|172:219|172:219|156:167,2,71.5000021820069,2|0|10,1:2|0:0|1:2,0:0:0:0:
38,306,94435,6,0,B|101:316|101:316|116:329|116:329|184:338,1,143.000004364014,2|2,0:0|0:0,0:0:0:0:
245,286,94950,1,10,1:2:0:0:
326,313,95121,1,2,0:0:0:0:
326,313,95292,2,0,P|331:360|335:396,1,71.5000021820069,0|0,1:0|0:0,0:0:0:0:
241,275,95635,2,0,P|237:239|233:203,1,71.5000021820069,10|2,1:2|0:0,0:0:0:0:
219,121,95978,5,10,1:2:0:0:
459,249,96664,5,10,1:2:0:0:
485,173,97350,6,0,B|442:145|389:159|389:159|357:213,1,126.749994197846,12|0,1:2|0:0,0:0:0:0:
358,210,97692,2,0,B|315:238|262:224|262:224|230:170,1,126.749994197846,12|0,1:2|0:0,0:0:0:0:
231,171,98035,6,0,P|186:168|135:163,1,84.4999961318971,14|8,1:2|0:0,0:0:0:0:
82,126,98292,1,8,0:0:0:0:
66,120,98378,2,0,B|55:78|55:78|76:31,1,84.4999961318971,0|8,1:2|0:0,0:0:0:0:
144,7,98635,1,8,0:0:0:0:
158,8,98721,6,0,P|215:15|244:16,2,71.5000021820069,6|0|8,1:2|1:0|1:2,0:0:0:0:
143,87,99235,1,2,0:0:0:0:
156,166,99407,2,0,P|213:173|242:174,2,71.5000021820069,2|0|8,1:2|1:0|1:2,0:0:0:0:
151,89,99921,6,0,P|217:97|295:105,1,143.000004364014,2|2,0:0|1:2,0:0:0:0:
367,61,100435,2,0,P|382:98|370:147,1,71.5000021820069,10|2,1:2|1:2,0:0:0:0:
330,230,100778,2,0,P|378:221|412:214,1,71.5000021820069,10|0,1:2|1:0,0:0:0:0:
471,260,101121,2,0,B|490:290|490:290|481:334,1,71.5000021820069,8|0,1:2|0:0,0:0:0:0:
363,365,101464,6,0,P|324:369|285:345,2,71.5000021820069,2|0|8,1:2|1:0|1:2,0:0:0:0:
374,281,101978,1,2,0:0:0:0:
376,266,102064,1,8,0:0:0:0:
378,251,102150,2,0,P|345:236|310:241,2,71.5000021820069,2|0|8,1:2|1:0|1:2,0:0:0:0:
454,317,102664,1,2,0:0:0:0:
454,317,102835,6,0,P|457:272|461:224,1,71.5000021820069,2|10,1:2|0:0,0:0:0:0:
367,154,103178,2,0,P|363:109|359:61,1,71.5000021820069,2|10,1:2|0:0,0:0:0:0:
460,0,103521,2,0,P|457:35|453:71,1,71.5000021820069,2|8,1:2|0:0,0:0:0:0:
446,149,103778,1,8,0:0:0:0:
445,163,103864,2,0,P|407:172|361:142,1,71.5000021820069,0|8,1:0|0:0,0:0:0:0:
314,104,104121,1,8,0:0:0:0:
307,91,104207,6,0,P|261:99|211:105,1,87.7500003347397,6|8,1:2|1:2,0:0:0:0:
55,130,104550,2,0,P|53:101|49:61,2,43.8750001673698,0|0|10,1:0|1:0|0:0,0:0:0:0:
111,214,104892,2,0,B|72:236|72:236|29:225,1,87.7500003347397,2|8,0:0|1:2,0:0:0:0:
139,113,105235,1,0,1:0:0:0:
249,177,105407,1,10,1:2:0:0:
189,237,105578,6,0,L|179:338,1,87.7500003347397,0|10,1:0|1:2,0:0:0:0:
259,384,105921,2,0,L|265:329,2,43.8750001673698,2|0|10,1:2|1:0|0:0,0:0:0:0:
274,257,106264,1,2,0:0:0:0:
349,305,106435,2,0,B|350:305|454:316,1,87.7500003347397,8|0,1:2|1:0,0:0:0:0:
454,316,106692,1,8,0:0:0:0:
472,318,106778,1,8,0:0:0:0:
480,210,106950,6,0,P|439:229|389:215,1,77.999997619629,12|0,1:2|1:0,0:0:0:0:
356,66,107292,1,8,1:2:0:0:
346,151,107464,1,2,0:0:0:0:
330,155,107550,1,8,0:0:0:0:
315,159,107635,2,0,L|235:178,1,77.999997619629,6|0,1:2|1:0,0:0:0:0:
202,99,107978,2,0,L|280:81,1,65,8|2,1:2|1:2,0:0:0:0:
356,66,108321,6,0,B|380:103|380:103|369:152,1,87.7500003347397,6|10,1:2|1:2,0:0:0:0:
202,99,108664,2,0,B|178:62|178:62|189:13,1,87.7500003347397,14|10,1:2|1:2,0:0:0:0:
256,192,109007,5,12,1:0:0:0:
