osu file format v14

[General]
AudioFilename: audio.mp3
AudioLeadIn: 0
PreviewTime: 17807
Countdown: 0
SampleSet: Soft
StackLeniency: 0.4
Mode: 0
LetterboxInBreaks: 0
WidescreenStoryboard: 1

[Editor]
Bookmarks: 6835,17807,23292,31521,34264,39750,45235,57578,63064,68550,76778,82264,82607,82950,83121,83635,83807,84150,84492,87750,93235,98721,104207
DistanceSpacing: 1
BeatDivisor: 4
GridSize: 8
TimelineZoom: 2.4

[Metadata]
Title:PEKORANDOMBRAIN!
TitleUnicode:ぺこらんだむぶれいん!
Artist:Usada Pekora
ArtistUnicode:兎田ぺこら
Creator:Dudamesh
Version:INSANE
Source:
Tags:klaksoncakfish soncak dooe -doodle ホロライブファンタジー video game dig delight direct drive dj d4dj groovy mix gurumiku グルミク グルーヴィーミクス rhythm オリジナル vtuber バーチャル ユーチューバー えいりな刃物 eiri7hamono 湯浅順司 Sizuk Entertainment キング関口台スタジオ King Sekiguchidai Studio 石井満 Mitsuru Ishii よる。 Yoru. 俊龍 畑亜貴 Aki Hata hololive production ホロライブ J-Pop jpop japanese pop
BeatmapID:3262310
BeatmapSetID:1404869

[Difficulty]
HPDrainRate:5
CircleSize:4
OverallDifficulty:7.5
ApproachRate:9
SliderMultiplier:1.5
SliderTickRate:1

[Events]
//Background and Video events
0,0,"bg.jpg",0,0
Video,0,"pekovideo.mp4"
//Break Periods
//Storyboard Layer 0 (Background)
//Storyboard Layer 1 (Fail)
//Storyboard Layer 2 (Pass)
//Storyboard Layer 3 (Foreground)
//Storyboard Layer 4 (Overlay)
//Storyboard Sound Samples

[TimingPoints]
1350,342.857142857143,4,2,1,50,1,0
1350,-83.3333333333333,4,2,1,50,0,0
6835,-125,4,2,1,50,0,0
9407,-125,4,2,1,60,0,0
12321,-100,4,2,1,55,0,0
15064,-100,4,2,1,50,0,0
23292,-57.1428571428571,4,2,1,55,0,1
31521,-83.3333333333333,4,2,1,60,0,1
34264,-142.857142857143,4,2,1,70,0,0
39407,-100,4,2,1,70,0,0
39750,-100,4,2,1,60,0,0
45235,-100,4,2,1,65,0,0
51064,-100,4,2,1,70,0,0
57578,-125,4,2,1,65,0,0
63064,-100,4,2,1,70,0,0
76778,-100,4,2,1,70,0,0
85007,-83.3333333333333,4,2,1,70,0,0
87750,-100,4,2,1,70,0,0
95978,-83.3333333333333,4,2,1,60,0,0
97350,-100,4,2,1,60,0,0
98721,-100,4,2,1,50,0,0
104207,-57.1428571428571,4,2,1,60,0,1
106950,-83.3333333333333,4,2,1,70,0,0

[Colours]
Combo1 : 147,255,255
Combo2 : 121,188,255
Combo3 : 255,182,108
Combo4 : 245,215,107

[HitObjects]
53,195,1350,6,0,L|142:211,1,89.9999972534181,2|2,1:2|0:0,0:0:0:0:
262,171,1692,1,8,1:2:0:0:
262,171,1778,2,0,L|210:181,1,44.999998626709,2|0,0:0|1:0,0:0:0:0:
187,105,1950,1,2,0:0:0:0:
187,105,2035,2,0,L|276:89,1,89.9999972534181,2|0,0:0|1:0,0:0:0:0:
425,151,2378,2,0,B|397:161|397:161|334:149,1,89.9999972534181,8|8,0:0|0:0,0:0:0:0:
436,73,2721,6,0,P|475:89|501:135,1,89.9999972534181,2|2,1:2|0:0,0:0:0:0:
422,195,3064,1,10,1:2:0:0:
422,195,3150,2,0,L|425:140,1,44.999998626709,2|0,0:0|1:0,0:0:0:0:
477,258,3321,1,2,0:0:0:0:
477,258,3407,2,0,P|430:281|393:275,1,89.9999972534181,2|0,0:0|1:0,0:0:0:0:
252,221,3750,2,0,L|355:207,1,89.9999972534181,8|8,0:0|0:0,0:0:0:0:
182,276,4092,6,0,P|165:234|169:190,1,89.9999972534181,2|2,1:2|1:2,0:0:0:0:
280,138,4435,1,14,1:2:0:0:
280,138,4521,2,0,L|190:150,1,89.9999972534181,2|0,0:0|0:0,0:0:0:0:
84,29,4778,6,0,P|110:60|102:114,1,89.9999972534181,2|2,1:2|1:2,0:0:0:0:
33,135,5121,1,14,1:2:0:0:
33,135,5207,2,0,L|89:143,1,44.999998626709,2|0,0:0|0:0,0:0:0:0:
47,247,5464,5,8,1:2:0:0:
63,241,5549,1,2,0:0:0:0:
81,240,5635,1,2,0:0:0:0:
98,246,5721,1,2,0:0:0:0:
113,255,5806,1,10,1:2:0:0:
125,269,5892,1,2,0:0:0:0:
131,286,5978,1,2,0:0:0:0:
133,304,6063,1,2,0:0:0:0:
132,322,6150,2,0,B|184:332|184:332|229:320|229:320|311:337,1,179.999994506836,10|10,1:2|1:2,0:0:0:0:
479,313,6835,6,0,P|437:314|385:367,1,120,6|0,1:0|0:0,0:0:0:0:
312,197,7521,2,0,B|341:223|341:223|425:234,1,120,2|0,0:1|0:0,0:0:0:0:
336,114,8207,2,0,P|288:112|231:161,1,120,2|0,0:1|0:0,0:0:0:0:
172,302,8892,2,0,L|151:172,1,120,2|0,0:1|0:0,0:0:0:0:
76,148,9407,5,0,1:0:0:0:
73,167,9492,1,0,1:0:0:0:
70,186,9578,2,0,L|80:255,1,60,2|0,1:0|1:0,0:0:0:0:
21,355,9921,2,0,L|11:286,1,60,8|0,1:2|0:0,0:0:0:0:
142,303,10264,5,2,1:0:0:0:
142,303,10435,1,0,1:0:0:0:
261,355,10607,2,0,L|198:363,1,60,8|0,1:2|0:0,0:0:0:0:
307,282,10950,5,2,1:0:0:0:
307,282,11121,1,0,1:0:0:0:
399,367,11292,2,0,L|386:297,1,60,8|0,1:2|0:0,0:0:0:0:
413,270,11550,1,8,0:0:0:0:
413,270,11635,2,0,L|400:200,1,60,8|8,1:2|1:2,0:0:0:0:
362,81,11978,1,8,1:2:0:0:
358,97,12063,1,8,0:0:0:0:
354,115,12149,1,8,0:0:0:0:
351,133,12235,1,8,0:0:0:0:
347,150,12321,6,0,P|312:142|270:151,1,75,6|0,1:2|0:0,0:0:0:0:
239,71,12664,2,0,P|202:65|170:45,1,75,10|0,1:2|1:0,0:0:0:0:
145,20,12921,1,8,0:0:0:0:
145,20,13007,2,0,L|135:104,1,75,2|0,1:2|1:0,0:0:0:0:
126,176,13350,1,10,1:2:0:0:
18,248,13521,6,0,B|94:227|72:284|163:259,1,150,10|2,0:2|1:2,0:0:0:0:
216,187,14035,1,10,0:0:0:0:
305,197,14207,1,2,1:2:0:0:
308,211,14292,1,8,0:0:0:0:
311,226,14378,2,0,L|326:308,1,75,0|0,1:0|1:0,0:0:0:0:
431,154,14721,1,10,1:2:0:0:
413,309,14893,1,10,0:0:0:0:
351,135,15064,6,0,P|373:95|433:71,2,112.5,10|2|10,1:2|0:0|0:0,0:0:0:0:
165,145,15750,2,0,P|218:132|266:159,1,112.5,10|2,1:2|0:0,0:0:0:0:
90,188,16264,1,10,0:0:0:0:
86,210,16350,1,2,0:0:0:0:
82,232,16435,6,0,L|68:325,1,75,10|0,1:2|0:0,0:0:0:0:
320,214,16778,2,0,L|333:307,1,75,10|0,1:2|0:0,0:0:0:0:
155,301,17121,2,0,L|141:394,1,75,10|8,1:2|0:0,0:0:0:0:
235,328,17378,1,8,0:0:0:0:
235,328,17464,2,0,L|245:253,1,75,8|8,1:2|0:0,0:0:0:0:
320,214,17721,5,8,0:0:0:0:
320,214,17807,2,0,L|309:139,1,75,6|0,1:2|1:0,0:0:0:0:
296,52,18150,1,8,1:2:0:0:
157,117,18321,1,2,0:0:0:0:
157,117,18407,1,8,0:0:0:0:
157,117,18492,2,0,P|194:122|233:99,1,75,2|0,1:2|1:0,0:0:0:0:
98,43,18835,2,0,P|69:81|68:127,1,75,8|2,1:2|0:0,0:0:0:0:
139,278,19178,5,0,1:0:0:0:
65,106,19350,1,2,1:2:0:0:
47,267,19521,1,10,1:2:0:0:
157,117,19692,1,2,1:2:0:0:
283,235,19864,5,10,1:2:0:0:
139,278,20035,1,0,1:0:0:0:
282,328,20207,1,8,1:2:0:0:
195,204,20378,1,0,0:0:0:0:
192,354,20550,6,0,P|154:371|119:369,1,75,2|0,1:2|1:0,0:0:0:0:
139,278,20892,1,8,1:2:0:0:
282,328,21064,1,2,0:0:0:0:
282,328,21150,1,8,0:0:0:0:
282,328,21235,2,0,L|358:321,2,75,2|0|8,1:2|1:0|1:2,0:0:0:0:
363,170,21750,1,2,0:0:0:0:
444,325,21921,5,2,1:2:0:0:
451,174,22092,1,10,0:0:0:0:
356,321,22264,1,2,1:2:0:0:
491,251,22435,1,10,0:0:0:0:
316,244,22607,5,2,1:2:0:0:
410,96,22778,1,8,0:0:0:0:
491,251,22950,1,12,1:2:0:0:
322,70,23292,6,0,B|177:85|177:85|131:60,1,196.875001877546,4|0,1:0|0:0,0:0:0:0:
68,0,23635,2,0,P|45:60|68:119,1,131.250001251698,2|8,1:2|0:0,0:0:0:0:
113,194,23892,1,2,0:0:0:0:
113,194,23978,2,0,P|83:204|47:202,1,65.6250006258488,0|2,1:0|0:0,0:0:0:0:
177,322,24150,2,0,P|162:292|137:271,1,65.6250006258488,8|2,0:0|0:0,0:0:0:0:
311,216,24321,2,0,P|253:188|193:211,1,131.250001251698,2|8,1:2|0:0,0:0:0:0:
354,143,24664,6,0,P|384:173|396:203,1,65.6250006258488,2|0,1:2|0:0,0:0:0:0:
452,254,24835,2,0,P|473:220|472:178,1,65.6250006258488,10|0,0:0|0:0,0:0:0:0:
411,63,25007,2,0,L|393:196,1,131.250001251698,2|8,1:2|0:0,0:0:0:0:
304,75,25350,1,0,1:0:0:0:
304,75,25435,1,0,1:0:0:0:
304,75,25521,1,10,0:0:0:0:
145,198,25692,2,0,B|189:173|189:173|284:190|284:190|318:228,1,196.875001877546,2|0,1:2|0:0,0:0:0:0:
244,272,26035,6,0,B|208:266|208:266|171:285|171:285|48:261,1,196.875001877546,6|0,1:2|0:0,0:0:0:0:
35,175,26378,2,0,P|48:125|2:65,1,131.250001251698,2|8,1:2|0:0,0:0:0:0:
90,27,26635,1,2,0:0:0:0:
90,27,26721,2,0,L|155:41,1,65.6250006258488,0|2,1:0|0:0,0:0:0:0:
226,0,26892,2,0,P|235:34|231:67,1,65.6250006258488,8|2,0:0|0:0,0:0:0:0:
358,176,27064,2,0,P|299:183|241:140,1,131.250001251698,2|8,1:2|0:0,0:0:0:0:
480,105,27407,6,0,L|416:117,1,65.6250006258488,2|0,1:2|0:0,0:0:0:0:
438,199,27578,2,0,L|502:187,1,65.6250006258488,10|0,0:0|0:0,0:0:0:0:
367,300,27750,2,0,B|346:262|346:262|357:175,1,131.250001251698,2|8,1:2|0:0,0:0:0:0:
279,321,28092,5,2,1:2:0:0:
279,321,28178,1,0,1:0:0:0:
279,321,28264,2,0,L|201:314,1,65.6250006258488,8|0,0:0|0:0,0:0:0:0:
139,365,28435,2,0,L|106:293,1,65.6250006258488,2|0,1:2|0:0,0:0:0:0:
30,265,28607,2,0,L|75:200,1,65.6250006258488,8|0,0:0|0:0,0:0:0:0:
61,121,28778,6,0,B|193:133|193:133|247:98,1,196.875001877546,6|0,1:2|0:0,0:0:0:0:
286,23,29121,2,0,P|320:54|324:135,1,131.250001251698,2|8,1:2|0:0,0:0:0:0:
413,133,29378,1,2,0:0:0:0:
413,133,29464,2,0,P|445:127|476:135,1,65.6250006258488,0|2,1:0|0:0,0:0:0:0:
401,261,29635,2,0,P|387:221|362:198,1,65.6250006258488,8|2,0:0|0:0,0:0:0:0:
195,260,29807,2,0,P|252:288|315:273,1,131.250001251698,2|8,1:2|0:0,0:0:0:0:
113,272,30150,6,0,P|122:303|145:328,1,65.6250006258488,2|0,1:2|0:0,0:0:0:0:
224,203,30321,2,0,P|214:233|191:262,1,65.6250006258488,10|0,0:0|0:0,0:0:0:0:
15,182,30492,2,0,B|51:168|51:168|158:195,1,131.250001251698,2|10,1:2|0:0,0:0:0:0:
272,131,30835,1,0,1:0:0:0:
272,131,30921,1,0,1:0:0:0:
272,131,31007,1,10,0:0:0:0:
275,275,31178,2,0,B|323:253|323:253|465:288,1,196.875001877546,2|0,1:2|0:0,0:0:0:0:
493,296,31521,5,6,1:2:0:0:
462,164,31692,1,10,0:0:0:0:
330,195,31864,1,2,1:2:0:0:
361,327,32035,1,10,0:0:0:0:
375,87,32207,5,2,1:2:0:0:
412,245,32378,1,10,0:0:0:0:
253,282,32550,1,2,1:2:0:0:
216,124,32721,1,10,0:0:0:0:
187,348,32892,6,0,P|148:336|96:347,1,89.9999972534181,2|8,1:2|0:0,0:0:0:0:
15,320,33235,1,8,1:2:0:0:
19,298,33320,1,0,0:0:0:0:
23,276,33406,1,8,0:0:0:0:
27,254,33492,1,0,0:0:0:0:
31,232,33578,2,0,L|41:180,1,44.999998626709,8|0,1:2|0:0,0:0:0:0:
6,89,33750,2,0,L|58:99,1,44.999998626709,0|0,1:0|1:0,0:0:0:0:
174,207,33921,2,0,L|122:197,1,44.999998626709,8|0,0:0|0:0,0:0:0:0:
149,64,34092,2,0,L|139:116,1,44.999998626709
222,276,34264,5,6,1:2:0:0:
222,276,34778,6,0,L|228:328,2,52.4999983978272,2|2|2,1:2|0:0|1:2,0:0:0:0:
308,300,35292,2,0,L|315:248,1,52.4999983978272,10|2,0:0|1:2,0:0:0:0:
405,132,35635,5,10,1:2:0:0:
393,216,35807,1,10,1:2:0:0:
327,164,35978,1,10,1:2:0:0:
327,164,36321,6,0,L|270:169,2,52.4999983978272,2|2|10,0:0|1:2|0:0,0:0:0:0:
208,116,37007,5,10,1:2:0:0:
208,116,37521,2,0,L|216:64,2,52.4999983978272,2|2|2,1:2|0:0|1:2,0:0:0:0:
125,11,38035,2,0,L|131:64,1,52.4999983978272,10|2,0:0|1:2,0:0:0:0:
149,193,38378,5,10,1:2:0:0:
79,144,38550,1,10,1:2:0:0:
72,230,38721,1,10,1:2:0:0:
72,230,39235,5,2,1:2:0:0:
143,280,39407,2,0,B|224:287|224:287|251:271,1,112.5,10|0,0:0|0:0,0:0:0:0:
250,271,39750,6,0,P|254:307|240:342,1,75,6|0,1:0|0:0,0:0:0:0:
323,232,40092,2,0,P|300:203|257:187,1,75,8|2,1:2|0:0,0:0:0:0:
182,172,40435,1,2,1:2:0:0:
281,105,40607,1,2,0:0:0:0:
265,188,40778,1,10,1:2:0:0:
198,89,40950,1,2,0:0:0:0:
347,164,41121,6,0,P|369:125|331:32,1,150,2|8,1:0|1:2,0:0:0:0:
281,105,41635,1,0,0:0:0:0:
331,246,41807,2,0,B|297:274|297:274|229:268|229:268|200:291,1,150,2|8,1:2|1:2,0:0:0:0:
142,350,42321,1,2,0:0:0:0:
140,234,42492,2,0,P|116:203|81:191,1,75,2|0,1:2|0:0,0:0:0:0:
25,60,42835,5,10,1:2:0:0:
22,74,42920,1,2,0:0:0:0:
20,89,43006,1,2,0:0:0:0:
17,104,43092,1,2,0:0:0:0:
15,119,43178,6,0,L|100:111,1,75,14|0,1:2|1:0,0:0:0:0:
262,45,43521,2,0,L|187:37,1,75,14|0,1:2|1:0,0:0:0:0:
102,25,43864,1,14,1:2:0:0:
173,122,44035,2,0,L|248:130,1,75,2|0,0:0|1:0,0:0:0:0:
423,186,44378,2,0,P|397:118|328:98,1,150,14|0,1:2|1:0,0:0:0:0:
255,250,44892,2,0,L|244:341,1,75,8|8,1:2|0:0,0:0:0:0:
247,350,45150,5,8,0:0:0:0:
247,350,45235,2,0,B|187:344|187:344|160:325|160:325|93:318,1,150,6|8,1:2|1:2,0:0:0:0:
45,254,45750,1,2,0:0:0:0:
73,172,45921,2,0,L|50:100,2,75,2|2|10,1:2|0:0|1:2,0:0:0:0:
131,237,46435,1,2,0:0:0:0:
244,137,46607,5,2,1:2:0:0:
244,137,46692,1,2,0:0:0:0:
244,137,46778,1,2,0:0:0:0:
302,202,46950,2,0,L|315:284,1,75,10|0,1:2|0:0,0:0:0:0:
186,73,47292,5,2,1:2:0:0:
216,219,47464,1,2,0:0:0:0:
330,120,47635,2,0,P|361:108|404:111,1,75,10|0,1:2|0:0,0:0:0:0:
436,253,47978,6,0,B|384:244|384:244|356:212|356:212|301:201,1,150,2|8,1:2|1:2,0:0:0:0:
216,219,48492,1,2,0:0:0:0:
188,302,48664,2,0,L|201:378,2,75,2|2|10,1:2|0:0|1:2,0:0:0:0:
130,236,49178,1,2,0:0:0:0:
274,285,49350,5,2,1:2:0:0:
159,154,49521,1,2,0:0:0:0:
102,319,49692,2,0,P|61:336|26:333,1,75,10|0,1:2|0:0,0:0:0:0:
73,171,50035,5,2,1:2:0:0:
216,219,50207,1,2,0:0:0:0:
102,89,50378,1,10,1:2:0:0:
130,236,50550,1,2,0:0:0:0:
245,137,50721,5,2,1:2:0:0:
245,137,50892,1,0,1:0:0:0:
375,188,51064,2,0,L|302:202,1,75,14|0,1:2|0:0,0:0:0:0:
273,54,51407,5,2,1:2:0:0:
273,54,51578,1,0,1:0:0:0:
113,57,51750,2,0,L|186:70,1,75,12|2,1:2|0:0,0:0:0:0:
358,36,52092,5,10,1:2:0:0:
302,202,52264,1,10,1:2:0:0:
302,202,52607,2,0,B|315:314|315:314|301:296|281:284,1,150,6|0,1:0|1:0,0:0:0:0:
217,231,53121,2,0,P|168:224|110:253,1,112.5,10|8,1:2|0:2,0:0:0:0:
97,272,53464,5,10,1:2:0:0:
68,149,53635,1,8,1:2:0:0:
68,149,54150,5,8,1:2:0:0:
191,120,54321,1,10,1:2:0:0:
191,120,54664,6,0,B|240:119|240:119|284:149|284:149|333:148,1,150,6|0,1:2|1:0,0:0:0:0:
468,115,55178,2,0,P|429:137|416:205,1,112.5,8|8,1:2|0:0,0:0:0:0:
423,228,55521,2,0,L|407:308,2,75,2|0|8,1:2|1:0|1:2,0:0:0:0:
345,356,56035,6,0,B|321:332|321:332|231:319,1,112.5,2|0,1:2|0:0,0:0:0:0:
212,316,56378,2,0,P|235:270|220:210,1,112.5,10|0,1:2|0:0,0:0:0:0:
205,186,56721,2,0,B|93:168,1,112.5,10|0,1:2|0:0,0:0:0:0:
64,164,57064,1,0,1:0:0:0:
126,67,57235,1,8,1:2:0:0:
126,67,57578,6,0,B|189:89|178:50|245:73,1,120,6|2,1:0|0:0,0:0:0:0:
314,32,58092,1,0,1:0:0:0:
314,32,58264,2,0,P|345:42|377:37,1,60,10|0,1:2|0:0,0:0:0:0:
449,68,58607,2,0,P|439:99|444:131,1,60,2|8,0:0|0:0,0:0:0:0:
456,152,58864,5,8,0:0:0:0:
456,152,58950,2,0,L|449:211,1,60,2|8,1:2|0:0,0:0:0:0:
368,227,59292,2,0,L|375:286,1,60,2|0,1:2|0:0,0:0:0:0:
326,356,59635,2,0,P|294:368|258:363,1,60,10|0,1:2|0:0,0:0:0:0:
216,300,59978,2,0,P|188:289|158:290,1,60,2|8,0:0|0:0,0:0:0:0:
67,358,60321,6,0,B|82:317|82:317|69:237,1,120,2|0,1:2|0:0,0:0:0:0:
54,157,60835,1,0,1:2:0:0:
54,157,61007,2,0,P|94:124|161:131,1,120,10|0,1:2|0:0,0:0:0:0:
232,192,61521,5,10,0:0:0:0:
232,192,61607,1,10,0:0:0:0:
232,192,61692,2,0,L|244:130,1,60,2|8,1:2|0:0,0:0:0:0:
335,65,62035,2,0,P|321:104|323:134,1,60,0|0,0:0|1:2,0:0:0:0:
444,149,62378,2,0,P|417:117|390:104,1,60,8|0,1:2|0:0,0:0:0:0:
439,229,62721,2,0,P|479:221|504:204,1,60,0|10,0:0|0:0,0:0:0:0:
363,345,63064,5,6,1:2:0:0:
373,185,63235,1,2,1:2:0:0:
229,255,63407,1,2,1:2:0:0:
229,255,65292,5,0,1:0:0:0:
172,318,65464,2,0,B|99:308|99:308|59:321,1,112.5,8|8,1:2|0:0,0:0:0:0:
39,341,65807,5,6,1:2:0:0:
4,197,65978,1,2,1:2:0:0:
146,238,66150,1,2,1:2:0:0:
146,238,67007,5,0,0:0:0:0:
146,238,67092,1,0,0:0:0:0:
146,238,67178,2,0,L|137:157,2,75,10|2|6,1:2|1:2|0:3,0:0:0:0:
293,226,67692,2,0,L|284:300,2,75,10|2|2,1:2|1:2|1:2,0:0:0:0:
301,68,68207,1,10,1:2:0:0:
297,86,68292,1,0,0:0:0:0:
293,105,68378,1,0,1:0:0:0:
290,123,68464,1,0,0:0:0:0:
285,141,68550,6,0,P|246:154|218:181,1,75,4|0,1:2|0:0,0:0:0:0:
221,287,68892,2,0,P|196:253|162:235,1,75,10|0,1:2|0:0,0:0:0:0:
62,271,69235,2,0,P|85:237|92:199,1,75,2|0,1:2|0:0,0:0:0:0:
28,114,69578,2,0,P|67:126|105:121,1,75,10|0,1:2|0:0,0:0:0:0:
166,33,69921,6,0,P|166:74|183:109,1,75,6|0,1:2|0:0,0:0:0:0:
264,125,70264,2,0,P|263:83|246:48,1,75,10|0,1:2|0:0,0:0:0:0:
205,189,70607,2,0,P|205:230|222:265,1,75,2|0,1:2|0:0,0:0:0:0:
303,281,70950,2,0,P|302:239|285:204,1,75,10|0,1:2|0:0,0:0:0:0:
264,125,71292,5,6,1:2:0:0:
219,260,71464,2,0,P|187:275|144:277,1,75,2|8,1:2|1:2,0:0:0:0:
349,147,71807,5,0,1:0:0:0:
349,147,71892,1,8,0:0:0:0:
349,147,71978,1,6,1:2:0:0:
303,281,72150,2,0,P|282:321|255:341,1,75,2|8,1:2|1:2,0:0:0:0:
434,169,72492,5,0,1:0:0:0:
388,303,72664,2,0,B|384:321|371:337|371:337|441:320|438:249,1,150,6|8,1:2|1:2,0:0:0:0:
468,100,73178,2,0,B|428:122|428:122|324:107,1,150,2|0,0:0|1:0,0:0:0:0:
183,28,73692,2,0,P|219:40|244:67,1,75,8|0,1:2|1:0,0:0:0:0:
250,157,74035,6,0,L|268:239,2,75,2|2|14,1:2|1:2|1:2,0:0:0:0:
170,118,74550,1,2,0:0:0:0:
165,131,74635,1,8,0:0:0:0:
160,145,74721,2,0,L|143:184,2,37.5,2|8|2,1:2|0:0|1:2,0:0:0:0:
90,79,75064,2,0,P|53:78|11:95,1,75,14|2,1:2|0:0,0:0:0:0:
0,178,75407,6,0,L|15:257,1,75,2|0,1:2|1:0,0:0:0:0:
89,298,75750,2,0,B|123:285|123:285|169:292,1,75,8|8,1:2|0:0,0:0:0:0:
193,296,76007,1,8,0:0:0:0:
193,296,76092,2,0,P|211:264|205:218,1,75,2|8,1:2|0:0,0:0:0:0:
194,189,76350,1,8,0:0:0:0:
194,189,76435,2,0,L|270:198,1,75,2|8,1:2|0:0,0:0:0:0:
465,196,76778,6,0,P|430:182|393:186,1,75,4|0,1:0|0:0,0:0:0:0:
376,321,77121,2,0,P|405:298|419:264,1,75,10|0,1:2|0:0,0:0:0:0:
325,103,77464,2,0,B|351:195|351:195|338:247,1,150,0|10,1:0|1:2,0:0:0:0:
237,286,77978,6,0,L|257:213,1,75,2|0,0:0|1:0,0:0:0:0:
166,93,78321,1,2,0:0:0:0:
107,232,78492,1,10,1:2:0:0:
246,127,78664,2,0,P|286:132|342:220,1,150,2|0,0:0|0:0,0:0:0:0:
176,179,79178,1,8,1:2:0:0:
107,232,79350,6,0,L|92:317,1,75,2|0,0:0|1:0,0:0:0:0:
96,145,79692,1,2,0:0:0:0:
176,179,79864,1,10,1:2:0:0:
27,198,80035,2,0,P|9:147|60:66,1,150,2|0,0:0|0:0,0:0:0:0:
165,92,80550,5,10,1:2:0:0:
245,126,80721,2,0,L|259:204,2,75,2|0|2,0:0|1:0|0:0,0:0:0:0:
315,74,81235,1,14,1:2:0:0:
405,194,81407,2,0,B|389:306|389:306|381:289|364:273,1,150,2|0,0:0|0:0,0:0:0:0:
277,235,81921,1,12,1:2:0:0:
250,233,82006,1,0,0:0:0:0:
226,240,82092,1,0,0:0:0:0:
205,256,82178,1,0,0:0:0:0:
192,279,82264,6,0,L|179:203,1,75,4|0,1:0|0:0,0:0:0:0:
125,144,82607,2,0,P|99:188|100:224,1,75,10|0,1:2|0:0,0:0:0:0:
257,174,82950,2,0,P|237:143|204:127,1,75,2|0,1:2|0:0,0:0:0:0:
148,67,83292,1,10,1:2:0:0:
179,205,83464,6,0,P|224:250|305:241,1,150,2|2,0:0|0:0,0:0:0:0:
339,167,83978,1,10,1:2:0:0:
359,300,84150,2,0,B|369:347|369:347|406:309|403:251,1,150,2|0,0:0|0:0,0:0:0:0:
363,90,84664,2,0,P|328:86|289:104,1,75,10|2,1:2|0:0,0:0:0:0:
179,204,85007,6,0,B|200:167|200:167|189:65,2,134.999995880127,14|2|2,1:2|1:2|1:2,0:0:0:0:
100,241,85692,2,0,B|79:278|79:278|90:380,2,134.999995880127,14|2|2,1:2|1:2|1:2,0:0:0:0:
251,254,86378,5,12,1:2:0:0:
273,268,86463,1,0,0:0:0:0:
300,270,86549,1,0,0:0:0:0:
324,260,86635,1,0,0:0:0:0:
342,240,86720,1,8,1:2:0:0:
347,214,86806,1,0,0:0:0:0:
341,188,86892,1,0,1:0:0:0:
323,168,86978,1,0,1:0:0:0:
297,159,87064,6,0,L|245:167,1,44.999998626709,2|0,1:2|0:0,0:0:0:0:
179,243,87235,2,0,L|171:191,1,44.999998626709,8|0,0:0|0:0,0:0:0:0:
213,41,87407,2,0,L|221:93,1,44.999998626709,2|0,1:2|0:0,0:0:0:0:
95,125,87578,2,0,L|147:117,1,44.999998626709,0|0,1:0|0:0,0:0:0:0:
48,58,87750,6,0,P|17:99|13:125,1,75,4|0,1:0|0:0,0:0:0:0:
54,266,88092,2,0,P|61:229|52:193,1,75,10|0,1:2|0:0,0:0:0:0:
111,0,88435,2,0,P|136:67|94:126,1,150,0|10,1:0|1:2,0:0:0:0:
208,212,88950,6,0,L|128:200,1,75,2|0,0:0|1:0,0:0:0:0:
264,153,89292,1,2,0:0:0:0:
231,289,89464,1,10,1:2:0:0:
344,172,89635,2,0,P|340:119|259:70,1,150,2|0,0:0|0:0,0:0:0:0:
184,133,90150,1,8,1:2:0:0:
286,232,90321,6,0,P|314:250|356:255,1,75,2|0,0:0|1:0,0:0:0:0:
421,205,90664,1,2,0:0:0:0:
344,171,90835,1,10,1:2:0:0:
430,288,91007,2,0,B|454:318|454:318|401:312|351:350,1,150,2|0,0:0|0:0,0:0:0:0:
273,316,91521,5,10,1:2:0:0:
206,366,91692,2,0,L|125:358,2,75,2|0|2,0:0|1:0|0:0,0:0:0:0:
201,233,92207,1,14,1:2:0:0:
350,350,92378,2,0,P|354:301|284:232,1,150,2|0,0:0|0:0,0:0:0:0:
352,117,92892,1,12,1:2:0:0:
341,93,92978,1,0,0:0:0:0:
322,76,93064,1,0,0:0:0:0:
296,69,93149,1,0,0:0:0:0:
270,65,93235,6,0,L|188:58,1,75,4|0,1:0|0:0,0:0:0:0:
119,96,93578,2,0,P|149:131|178:143,1,75,10|0,1:2|0:0,0:0:0:0:
303,179,93921,2,0,P|257:187|232:206,1,75,2|0,1:2|0:0,0:0:0:0:
150,225,94264,1,10,1:2:0:0:
299,265,94435,6,0,P|344:256|369:237,1,75,2|0,0:0|1:0,0:0:0:0:
427,113,94778,1,2,0:0:0:0:
303,179,94950,1,10,1:2:0:0:
443,199,95121,2,0,P|452:249|390:324,1,150,2|0,0:0|0:0,0:0:0:0:
316,276,95635,2,0,P|274:268|244:280,1,75,10|2,1:2|0:0,0:0:0:0:
183,338,95978,6,0,B|131:349|131:349|50:332,2,134.999995880127,10|0|0,1:2|0:0|0:0,0:0:0:0:
173,147,96664,2,0,P|135:190|132:272,1,134.999995880127,10|0,1:2|0:0,0:0:0:0:
302,100,97178,5,0,0:0:0:0:
308,124,97264,1,0,0:0:0:0:
315,151,97350,2,0,L|335:232,1,75,12|0,1:2|0:0,0:0:0:0:
450,149,97692,2,0,P|413:118|382:112,1,75,12|0,1:2|0:0,0:0:0:0:
239,5,98035,6,0,L|324:16,1,75,14|8,1:2|0:0,0:0:0:0:
302,100,98292,1,8,0:0:0:0:
302,100,98378,2,0,L|217:89,1,75,0|8,1:2|0:0,0:0:0:0:
127,127,98635,5,8,0:0:0:0:
127,127,98721,2,0,L|53:118,1,75,6|0,1:2|1:0,0:0:0:0:
202,194,99064,1,8,1:2:0:0:
175,332,99235,1,2,0:0:0:0:
175,332,99321,1,8,0:0:0:0:
175,332,99407,2,0,P|156:300|151:263,1,75,2|0,1:2|1:0,0:0:0:0:
284,216,99750,2,0,P|265:248|236:271,1,75,8|2,1:2|0:0,0:0:0:0:
262,133,100092,5,0,1:0:0:0:
366,238,100264,1,2,1:2:0:0:
404,94,100435,1,10,1:2:0:0:
284,216,100607,1,2,1:2:0:0:
426,177,100778,5,10,1:2:0:0:
489,301,100950,1,0,1:0:0:0:
366,238,101121,1,8,1:2:0:0:
501,215,101292,1,0,0:0:0:0:
405,314,101464,6,0,P|365:323|327:313,1,75,2|0,1:2|1:0,0:0:0:0:
283,248,101807,1,8,1:2:0:0:
205,274,101978,1,2,0:0:0:0:
205,274,102064,1,8,0:0:0:0:
205,274,102150,2,0,L|124:253,2,75,2|0|8,1:2|1:0|1:2,0:0:0:0:
83,188,102664,1,2,0:0:0:0:
98,330,102835,5,2,1:2:0:0:
166,180,103007,1,10,0:0:0:0:
181,322,103178,1,2,1:2:0:0:
49,263,103350,1,10,0:0:0:0:
215,247,103521,6,0,P|239:221|249:180,1,75,2|8,1:2|0:0,0:0:0:0:
241,156,103778,1,8,0:0:0:0:
233,129,103864,2,0,L|221:83,1,37.5,0|0,1:0|0:0,0:0:0:0:
334,33,104035,1,8,0:0:0:0:
327,64,104121,1,8,0:0:0:0:
319,99,104207,6,0,P|382:126|444:113,1,131.250001251698,6|8,1:2|1:2,0:0:0:0:
499,176,104464,1,0,0:0:0:0:
499,176,104550,2,0,P|480:212|479:245,1,65.6250006258488,0|0,1:0|1:0,0:0:0:0:
484,319,104721,2,0,P|451:314|423:297,1,65.6250006258488,10|0,0:0|1:0,0:0:0:0:
348,264,104892,6,0,B|300:246|300:246|216:263,1,131.250001251698,2|8,0:0|1:2,0:0:0:0:
160,320,105150,1,0,0:0:0:0:
160,320,105235,2,0,L|83:309,1,65.6250006258488,0|0,1:0|0:0,0:0:0:0:
35,257,105407,2,0,P|61:238|99:230,1,65.6250006258488,10|0,1:2|0:0,0:0:0:0:
153,177,105578,6,0,P|127:157|84:151,1,65.6250006258488,0|0,1:0|0:0,0:0:0:0:
230,159,105750,2,0,P|217:128|183:101,1,65.6250006258488,10|0,1:2|0:0,0:0:0:0:
305,181,105921,2,0,P|309:148|293:108,1,65.6250006258488,2|0,1:2|1:0,0:0:0:0:
358,237,106092,2,0,P|378:210|384:167,1,65.6250006258488,10|0,0:0|1:0,0:0:0:0:
312,300,106264,6,0,P|375:312|427:274,1,131.250001251698,2|8,0:0|1:2,0:0:0:0:
330,52,106607,1,0,1:0:0:0:
323,84,106692,1,8,0:0:0:0:
317,116,106778,1,8,0:0:0:0:
310,148,106864,1,8,0:0:0:0:
304,180,106950,6,0,L|285:275,1,89.9999972534181,12|0,1:2|1:0,0:0:0:0:
191,149,107292,2,0,L|208:237,1,89.9999972534181,8|2,1:2|0:0,0:0:0:0:
132,268,107550,1,8,0:0:0:0:
132,268,107635,2,0,L|114:179,1,89.9999972534181,6|0,1:2|1:0,0:0:0:0:
19,323,107978,2,0,L|36:234,1,89.9999972534181,8|2,1:2|1:2,0:0:0:0:
99,100,108321,5,6,1:2:0:0:
277,198,108492,1,10,1:2:0:0:
74,223,108664,1,14,1:2:0:0:
224,84,108835,1,10,1:2:0:0:
185,284,109007,1,12,1:0:0:0:
