osu file format v14

[General]
AudioFilename: audio.mp3
AudioLeadIn: 0
PreviewTime: 136397
Countdown: 0
SampleSet: Normal
StackLeniency: 0.7
Mode: 1
LetterboxInBreaks: 0
WidescreenStoryboard: 1

[Editor]
Bookmarks: 867,12162,23456,34750,46044,57338,68279,68632,79573,79926,89809,91220,102515,113809,125103,136397,147691,158985,169926,170279,181220,181573,191456,197103,206985
DistanceSpacing: 0.5
BeatDivisor: 4
GridSize: 32
TimelineZoom: 1.6

[Metadata]
Title:Discommunication Alien
TitleUnicode:ディスコミュ星人
Artist:Usada Pekora
ArtistUnicode:兎田ぺこら
Creator:eiri-
Version:Quibby's Kantan Peko
Source:
Tags:Ayyri カバー Japanese Pop Rock Cover fieryrage yenmaster Quibby VTuber バーチャルYouTuber Virtual YouTuber ホロライブ hololive ナナヲアカリ Nanawo Akari ナユタン星人 NayutalieN Nayutan Seijin
BeatmapID:2633376
BeatmapSetID:1260310

[Difficulty]
HPDrainRate:8
CircleSize:2
OverallDifficulty:3
ApproachRate:10
SliderMultiplier:1.4
SliderTickRate:1

[Events]
//Background and Video events
0,0,"Discommunication Alien.jpg",0,0
Video,150,"Pekora.mp4"
//Break Periods
//Storyboard Layer 0 (Background)
//Storyboard Layer 1 (Fail)
//Storyboard Layer 2 (Pass)
//Storyboard Layer 3 (Foreground)
//Storyboard Layer 4 (Overlay)
//Storyboard Sound Samples

[TimingPoints]
868,352.941176470588,4,1,0,50,1,0
12117,-100,4,1,0,70,0,0
23412,-100,4,1,0,50,0,0
34706,-100,4,1,0,60,0,0
46000,-100,4,1,0,60,0,0
51647,-100,4,1,0,70,0,0
57338,-100,4,1,0,75,0,1
68279,-100,4,1,0,75,0,0
68632,-100,4,1,0,75,0,1
79573,-100,4,1,0,75,0,0
79926,-100,4,1,0,75,0,1
89809,-100,4,1,0,75,0,0
91176,-100,4,1,0,70,0,0
102470,-100,4,1,0,60,0,0
113765,-100,4,1,0,70,0,0
125059,-100,4,1,0,60,0,0
130706,-100,4,1,0,70,0,0
136353,-100,4,1,0,50,0,0
147647,-100,4,1,0,60,0,0
158985,-100,4,1,0,75,0,1
169926,-100,4,1,0,75,0,0
170279,-100,4,1,0,75,0,1
181220,-100,4,1,0,75,0,0
181573,-100,4,1,0,75,0,1
191456,-100,4,1,0,75,0,0
194235,-100,4,1,0,80,0,0
196706,-100,4,1,0,60,0,0
197059,-100,4,1,0,70,0,0

[HitObjects]
311,264,867,5,4,0:0:0:0:
206,97,1573,1,0,0:0:0:0:
233,297,2279,1,0,0:0:0:0:
287,65,2985,1,8,0:0:0:0:
256,192,3338,1,8,0:0:0:0:
292,173,3691,1,0,0:0:0:0:
286,204,4397,1,0,0:0:0:0:
283,44,5103,1,0,0:0:0:0:
209,149,6162,1,8,0:0:0:0:
217,280,6515,1,0,0:0:0:0:
180,147,7220,1,0,0:0:0:0:
207,146,7926,1,0,0:0:0:0:
261,85,8632,1,8,0:0:0:0:
256,192,8985,1,8,0:0:0:0:
319,171,9338,1,0,0:0:0:0:
138,211,9691,1,0,0:0:0:0:
355,233,10044,1,0,0:0:0:0:
256,192,10750,1,8,0:0:0:0:
321,229,12162,1,4,0:0:0:0:
192,192,12515,1,8,0:0:0:0:
298,195,13220,1,8,0:0:0:0:
298,195,13573,1,0,0:0:0:0:
298,195,14279,1,0,0:0:0:0:
256,96,14632,1,8,0:0:0:0:
298,195,14985,1,0,0:0:0:0:
288,120,16044,1,8,0:0:0:0:
288,120,16397,1,0,0:0:0:0:
134,171,17103,1,8,0:0:0:0:
288,120,17456,1,8,0:0:0:0:
456,234,17809,1,4,0:0:0:0:
245,201,18162,1,8,0:0:0:0:
320,128,18867,1,8,0:0:0:0:
245,201,19220,1,0,0:0:0:0:
245,201,19926,1,0,0:0:0:0:
352,160,20279,1,0,0:0:0:0:
245,201,20632,1,12,0:0:0:0:
245,201,21162,1,0,0:0:0:0:
321,168,21515,1,0,0:0:0:0:
334,155,22044,1,12,0:0:0:0:
258,276,23456,1,4,0:0:0:0:
258,151,23809,1,8,0:0:0:0:
258,151,24515,1,8,0:0:0:0:
258,151,24867,1,0,0:0:0:0:
363,111,25573,1,0,0:0:0:0:
224,192,25926,1,8,0:0:0:0:
256,192,26632,1,8,0:0:0:0:
363,111,26985,1,0,0:0:0:0:
230,47,27338,1,8,0:0:0:0:
230,47,27691,1,0,0:0:0:0:
230,47,29103,1,4,0:0:0:0:
256,192,29456,1,8,0:0:0:0:
245,164,30162,1,8,0:0:0:0:
245,164,30515,1,0,0:0:0:0:
327,152,31220,1,0,0:0:0:0:
352,224,31573,1,8,0:0:0:0:
320,192,32279,1,8,0:0:0:0:
327,152,32632,1,0,0:0:0:0:
327,152,32985,1,8,0:0:0:0:
410,102,33338,1,0,0:0:0:0:
316,117,34044,1,8,0:0:0:0:
316,117,34750,1,4,0:0:0:0:
165,186,35456,1,0,0:0:0:0:
374,200,35809,1,8,0:0:0:0:
105,329,36162,1,0,0:0:0:0:
192,192,37220,1,8,0:0:0:0:
326,186,37926,1,0,0:0:0:0:
326,186,38279,1,8,0:0:0:0:
326,186,38985,1,8,0:0:0:0:
326,186,39338,1,8,0:0:0:0:
326,186,39691,1,8,0:0:0:0:
156,200,40397,1,4,0:0:0:0:
223,286,41103,1,0,0:0:0:0:
223,286,41456,1,8,0:0:0:0:
223,286,41809,1,0,0:0:0:0:
362,235,43220,1,0,0:0:0:0:
362,235,43926,1,0,0:0:0:0:
256,192,44279,1,8,0:0:0:0:
362,235,44632,1,0,0:0:0:0:
426,181,44985,1,0,0:0:0:0:
426,181,45338,1,0,0:0:0:0:
383,209,46044,1,4,0:0:0:0:
383,209,47279,1,0,0:0:0:0:
256,192,47632,1,0,0:0:0:0:
313,169,48162,1,8,0:0:0:0:
313,169,48867,1,0,0:0:0:0:
227,206,50103,1,0,0:0:0:0:
227,206,50456,1,0,0:0:0:0:
227,206,50985,1,0,0:0:0:0:
227,206,51338,1,8,0:0:0:0:
227,206,51691,1,4,0:0:0:0:
186,196,52926,1,8,0:0:0:0:
186,196,53279,1,0,0:0:0:0:
186,196,53809,1,0,0:0:0:0:
186,196,54692,1,8,0:0:0:0:
186,196,55044,1,8,0:0:0:0:
186,196,55397,1,8,0:0:0:0:
303,148,55926,1,0,0:0:0:0:
330,107,56279,1,0,0:0:0:0:
303,148,56632,1,0,0:0:0:0:
203,184,57338,1,12,0:0:0:0:
203,184,57691,1,8,0:0:0:0:
205,140,58044,1,8,0:0:0:0:
203,184,58750,1,0,0:0:0:0:
320,160,59103,1,0,0:0:0:0:
235,249,59456,1,8,0:0:0:0:
235,249,60162,1,0,0:0:0:0:
235,249,60515,1,8,0:0:0:0:
222,199,60867,1,0,0:0:0:0:
235,249,61573,1,0,0:0:0:0:
235,249,62632,1,8,0:0:0:0:
310,166,62985,1,4,0:0:0:0:
277,121,63691,1,8,0:0:0:0:
365,133,64397,1,0,0:0:0:0:
284,259,65809,1,8,0:0:0:0:
284,259,66515,1,8,0:0:0:0:
284,259,67220,1,0,0:0:0:0:
284,259,67573,1,8,0:0:0:0:
175,215,67926,1,0,0:0:0:0:
317,193,68632,1,12,0:0:0:0:
317,193,68985,1,8,0:0:0:0:
317,193,69338,1,8,0:0:0:0:
257,133,70044,1,0,0:0:0:0:
257,133,70750,1,8,0:0:0:0:
141,185,71456,1,0,0:0:0:0:
141,185,71809,1,8,0:0:0:0:
141,185,72162,1,8,0:0:0:0:
141,185,72867,1,0,0:0:0:0:
342,191,73926,1,8,0:0:0:0:
281,127,74279,1,4,0:0:0:0:
281,127,74985,1,8,0:0:0:0:
281,127,75691,1,0,0:0:0:0:
281,127,77103,1,8,0:0:0:0:
281,127,77809,1,8,0:0:0:0:
281,127,78515,1,0,0:0:0:0:
281,127,78867,1,8,0:0:0:0:
281,127,79220,1,0,0:0:0:0:
281,127,79926,1,4,0:0:0:0:
281,127,80632,1,8,0:0:0:0:
292,125,81338,1,8,0:0:0:0:
292,125,81691,1,8,0:0:0:0:
292,125,82044,1,8,0:0:0:0:
292,125,82750,1,0,0:0:0:0:
292,125,83456,1,8,0:0:0:0:
288,224,83809,1,0,0:0:0:0:
286,188,84162,1,8,0:0:0:0:
277,213,85573,1,4,0:0:0:0:
388,106,85926,1,8,0:0:0:0:
277,213,86279,1,0,0:0:0:0:
277,213,86985,1,0,0:0:0:0:
277,213,87338,1,8,0:0:0:0:
277,213,87691,1,0,0:0:0:0:
188,190,88397,1,0,0:0:0:0:
320,160,89103,1,0,0:0:0:0:
270,99,89809,1,8,0:0:0:0:
270,99,90162,1,8,0:0:0:0:
270,99,90515,1,8,0:0:0:0:
321,229,91220,1,4,0:0:0:0:
298,195,91573,1,8,0:0:0:0:
298,195,92632,1,0,0:0:0:0:
298,195,93338,1,0,0:0:0:0:
256,64,93691,1,8,0:0:0:0:
298,195,94044,1,0,0:0:0:0:
384,160,94750,1,8,0:0:0:0:
288,120,95456,1,0,0:0:0:0:
115,168,96162,1,8,0:0:0:0:
288,120,96515,1,8,0:0:0:0:
456,234,96867,1,4,0:0:0:0:
245,201,97220,1,8,0:0:0:0:
245,201,98279,1,0,0:0:0:0:
245,201,98985,1,0,0:0:0:0:
245,201,99338,1,0,0:0:0:0:
245,201,99691,1,12,0:0:0:0:
245,201,100220,1,0,0:0:0:0:
321,168,100573,1,0,0:0:0:0:
334,155,101103,1,12,0:0:0:0:
321,279,102515,1,4,0:0:0:0:
444,199,103220,1,0,0:0:0:0:
444,199,103926,1,0,0:0:0:0:
256,192,104279,1,8,0:0:0:0:
256,192,104632,1,0,0:0:0:0:
180,209,105338,1,0,0:0:0:0:
180,209,106044,1,0,0:0:0:0:
180,209,106750,1,8,0:0:0:0:
320,192,107103,1,0,0:0:0:0:
158,169,107456,1,8,0:0:0:0:
203,202,108162,1,4,0:0:0:0:
203,202,108867,1,8,0:0:0:0:
352,192,109220,1,8,0:0:0:0:
203,202,109573,1,0,0:0:0:0:
203,202,110985,1,0,0:0:0:0:
203,202,111691,1,0,0:0:0:0:
320,192,112044,1,8,0:0:0:0:
203,202,112397,1,0,0:0:0:0:
372,111,113103,1,8,0:0:0:0:
167,221,113809,1,4,0:0:0:0:
494,197,114867,1,8,0:0:0:0:
494,197,115220,1,0,0:0:0:0:
494,197,115926,1,0,0:0:0:0:
494,197,116279,1,8,0:0:0:0:
494,197,116632,1,0,0:0:0:0:
262,160,117691,1,8,0:0:0:0:
262,160,118044,1,0,0:0:0:0:
262,160,118750,1,8,0:0:0:0:
262,160,119103,1,8,0:0:0:0:
183,198,119456,1,4,0:0:0:0:
320,160,120162,1,0,0:0:0:0:
126,215,120515,1,8,0:0:0:0:
126,215,120867,1,0,0:0:0:0:
320,192,121573,1,0,0:0:0:0:
261,148,121926,1,8,0:0:0:0:
261,148,122279,1,0,0:0:0:0:
257,206,122985,1,0,0:0:0:0:
257,206,123338,1,8,0:0:0:0:
192,211,123691,1,0,0:0:0:0:
235,150,124044,1,0,0:0:0:0:
235,150,124397,1,0,0:0:0:0:
383,209,125103,1,4,0:0:0:0:
383,209,126338,1,0,0:0:0:0:
256,192,126691,1,0,0:0:0:0:
313,169,127220,1,8,0:0:0:0:
313,169,127926,1,0,0:0:0:0:
103,189,128279,1,8,0:0:0:0:
227,206,128985,1,8,0:0:0:0:
352,192,129338,1,0,0:0:0:0:
227,206,130044,1,0,0:0:0:0:
227,206,130750,1,4,0:0:0:0:
186,196,131985,1,8,0:0:0:0:
186,196,132338,1,0,0:0:0:0:
186,196,132867,1,0,0:0:0:0:
326,196,133220,1,0,0:0:0:0:
186,196,133750,1,8,0:0:0:0:
186,196,134103,1,8,0:0:0:0:
197,110,134456,1,8,0:0:0:0:
256,192,134809,1,8,0:0:0:0:
103,189,136397,1,4,0:0:0:0:
103,189,137809,1,0,0:0:0:0:
103,189,139220,1,8,0:0:0:0:
103,189,140632,1,0,0:0:0:0:
221,180,142044,1,8,0:0:0:0:
221,180,143456,1,8,0:0:0:0:
52,180,144867,1,0,0:0:0:0:
52,180,145573,1,0,0:0:0:0:
52,180,146279,1,8,0:0:0:0:
210,149,147691,1,4,0:0:0:0:
210,149,148397,1,0,0:0:0:0:
210,149,149103,1,0,0:0:0:0:
210,149,149456,1,0,0:0:0:0:
210,149,149809,1,0,0:0:0:0:
230,102,150515,1,8,0:0:0:0:
230,102,151220,1,0,0:0:0:0:
230,102,151926,1,8,0:0:0:0:
230,102,152279,1,8,0:0:0:0:
230,102,152632,1,8,0:0:0:0:
230,102,153338,1,4,0:0:0:0:
230,102,154750,1,0,0:0:0:0:
320,192,155103,1,8,0:0:0:0:
215,135,155456,1,0,0:0:0:0:
219,131,156162,1,8,0:0:0:0:
263,137,157573,1,8,0:0:0:0:
263,137,157926,1,8,0:0:0:0:
263,137,158279,1,8,0:0:0:0:
203,184,158985,1,12,0:0:0:0:
203,184,159338,1,8,0:0:0:0:
205,140,159691,1,8,0:0:0:0:
277,132,160044,1,0,0:0:0:0:
203,184,160397,1,8,0:0:0:0:
235,249,161103,1,0,0:0:0:0:
235,249,161809,1,0,0:0:0:0:
235,249,162162,1,8,0:0:0:0:
222,199,162515,1,8,0:0:0:0:
312,92,162867,1,0,0:0:0:0:
235,249,163220,1,8,0:0:0:0:
235,249,164279,1,8,0:0:0:0:
310,166,164632,1,4,0:0:0:0:
277,121,165338,1,8,0:0:0:0:
365,133,166044,1,0,0:0:0:0:
284,259,167456,1,8,0:0:0:0:
284,259,168162,1,8,0:0:0:0:
284,259,168867,1,0,0:0:0:0:
284,259,169220,1,8,0:0:0:0:
175,215,169573,1,0,0:0:0:0:
281,127,170279,1,4,0:0:0:0:
281,127,170632,1,8,0:0:0:0:
281,127,170985,1,0,0:0:0:0:
292,125,171691,1,8,0:0:0:0:
292,125,172044,1,8,0:0:0:0:
292,125,172397,1,8,0:0:0:0:
292,125,173103,1,0,0:0:0:0:
352,160,173456,1,8,0:0:0:0:
292,125,173809,1,8,0:0:0:0:
256,192,174162,1,0,0:0:0:0:
286,188,174515,1,8,0:0:0:0:
277,213,175926,1,4,0:0:0:0:
388,106,176279,1,8,0:0:0:0:
277,213,176632,1,0,0:0:0:0:
277,213,177338,1,0,0:0:0:0:
277,213,177691,1,8,0:0:0:0:
277,213,178044,1,0,0:0:0:0:
188,190,178750,1,8,0:0:0:0:
188,190,179456,1,8,0:0:0:0:
256,192,179809,1,0,0:0:0:0:
270,99,180162,1,8,0:0:0:0:
281,127,181573,1,4,0:0:0:0:
281,127,182279,1,8,0:0:0:0:
292,125,182985,1,8,0:0:0:0:
292,125,183338,1,8,0:0:0:0:
292,125,183691,1,8,0:0:0:0:
292,125,184397,1,0,0:0:0:0:
292,125,185103,1,8,0:0:0:0:
256,192,185456,1,0,0:0:0:0:
286,188,185809,1,8,0:0:0:0:
277,213,187220,1,4,0:0:0:0:
388,106,187573,1,8,0:0:0:0:
277,213,187926,1,0,0:0:0:0:
277,213,188632,1,0,0:0:0:0:
277,213,188985,1,8,0:0:0:0:
277,213,189338,1,8,0:0:0:0:
188,190,190044,1,8,0:0:0:0:
270,99,191456,1,0,0:0:0:0:
270,99,191809,1,0,0:0:0:0:
270,99,192162,1,0,0:0:0:0:
305,267,192867,1,8,0:0:0:0:
305,267,193220,1,8,0:0:0:0:
305,267,193573,1,8,0:0:0:0:
305,267,194279,1,0,0:0:0:0:
305,267,194632,1,0,0:0:0:0:
305,267,194985,1,8,0:0:0:0:
305,267,195338,1,8,0:0:0:0:
305,267,195691,1,0,0:0:0:0:
157,189,196750,1,8,0:0:0:0:
321,229,197103,1,4,0:0:0:0:
298,195,197456,1,8,0:0:0:0:
298,195,198162,1,8,0:0:0:0:
298,195,198515,1,0,0:0:0:0:
298,195,199220,1,0,0:0:0:0:
256,96,199573,1,8,0:0:0:0:
298,195,199926,1,0,0:0:0:0:
288,120,200985,1,8,0:0:0:0:
288,120,201338,1,0,0:0:0:0:
134,171,202044,1,8,0:0:0:0:
288,120,202397,1,8,0:0:0:0:
456,234,202750,1,4,0:0:0:0:
320,224,203103,1,8,0:0:0:0:
245,201,203809,1,8,0:0:0:0:
245,201,204162,1,0,0:0:0:0:
245,201,204867,1,0,0:0:0:0:
245,201,205220,1,0,0:0:0:0:
245,201,205573,1,12,0:0:0:0:
245,201,206103,1,0,0:0:0:0:
321,168,206456,1,0,0:0:0:0:
334,155,206985,1,12,0:0:0:0:
