osu file format v14

[General]
AudioFilename: audio.mp3
AudioLeadIn: 0
PreviewTime: 156779
Countdown: 0
SampleSet: Soft
StackLeniency: 0.7
Mode: 0
LetterboxInBreaks: 0
WidescreenStoryboard: 1

[Editor]
Bookmarks: 75338
DistanceSpacing: 0.5
BeatDivisor: 4
GridSize: 32
TimelineZoom: 2.1

[Metadata]
Title:Discommunication Alien
TitleUnicode:ディスコミュ星人
Artist:Usada Pekora
ArtistUnicode:兎田ぺこら
Creator:Yugu
Version:Normal
Source:
Tags:カバー japanese pop cover vtuber バーチャルyoutuber virtual youtuber ホロライブ hololive ナナヲアカリ nanawo akari ナユタン星人 nayutalien nayutan seijin CoLouRed GlaZeE kanor X light eiri- ayyri wiken
BeatmapID:2479121
BeatmapSetID:1181343

[Difficulty]
HPDrainRate:4
CircleSize:3
OverallDifficulty:4
ApproachRate:5
SliderMultiplier:1.1
SliderTickRate:1

[Events]
//Background and Video events
0,0,"18.png",0,0
//Break Periods
2,46244,48867
2,102714,110985
2,136596,144867
//Storyboard Layer 0 (Background)
//Storyboard Layer 1 (Fail)
//Storyboard Layer 2 (Pass)
//Storyboard Layer 3 (Foreground)
//Storyboard Layer 4 (Overlay)
//Storyboard Sound Samples

[TimingPoints]
868,352.941176470588,4,2,1,40,1,0
9338,-100,4,2,1,60,0,0
12162,-100,4,2,1,70,0,0
23456,-100,4,2,1,60,0,0
28750,-100,4,2,1,60,0,0
29103,-100,4,2,1,60,0,0
34397,-100,4,2,1,60,0,0
34750,-100,4,2,1,60,0,0
40044,-100,4,2,1,60,0,0
40397,-100,4,2,1,60,0,0
46044,-100,4,2,1,50,0,0
51691,-100,4,2,1,60,0,0
57338,-100,4,2,1,70,0,0
90867,-100,4,2,1,70,0,0
91220,-100,4,2,1,70,0,0
101456,-100,4,3,0,50,0,0
102515,-100,4,2,1,50,0,0
113809,-100,4,2,1,60,0,0
125103,-100,4,2,1,60,0,0
147691,-100,4,2,1,60,0,0
157573,-100,4,2,1,70,0,0
196397,-100,4,2,1,70,0,0
197103,-100,4,2,1,70,0,0

[Colours]
Combo1 : 255,168,51
Combo2 : 115,184,253
Combo3 : 223,223,223

[HitObjects]
54,55,867,6,0,P|107:66|152:98,1,110,0|2,1:0|0:0,0:0:0:0:
224,181,1573,2,0,P|277:169|322:137,1,110,0|2,1:0|0:0,0:0:0:0:
408,68,2279,2,0,L|525:57,2,110,0|2|0,1:0|0:0|1:0,0:0:0:0:
315,7,3338,1,2,0:0:0:0:
225,70,3691,6,0,P|220:125|231:179,1,110,0|2,1:0|0:0,0:0:0:0:
308,258,4397,2,0,P|312:312|301:366,1,110,0|2,1:0|0:0,0:0:0:0:
191,365,5103,2,0,L|73:351,2,110,0|2|0,1:0|0:0|1:0,0:0:0:0:
271,289,6162,2,0,P|271:261|265:234,1,55,0|2,1:0|0:0,0:0:0:0:
226,195,6515,6,0,L|108:181,1,110,0|2,1:0|0:0,0:0:0:0:
66,84,7220,2,0,L|184:70,1,110,0|2,1:0|0:0,0:0:0:0:
276,113,7926,2,0,P|279:42|261:-2,2,110,0|2|0,1:0|0:0|1:0,0:0:0:0:
209,200,8985,1,2,0:0:0:0:
279,284,9338,5,10,1:2:0:0:
388,277,9691,1,10,1:2:0:0:
496,270,10044,2,0,P|498:215|481:163,1,110,10|10,1:2|0:0,0:0:0:0:
436,130,10573,1,10,0:3:0:0:
436,130,10750,5,0,2:0:0:0:
337,178,11103,1,0,2:0:0:0:
237,130,11456,1,0,2:0:0:0:
138,178,11809,1,0,2:0:0:0:
39,129,12162,6,0,P|36:75|72:25,1,110,4|8,1:0|0:0,0:0:0:0:
119,18,12691,1,2,0:0:0:0:
119,18,12867,2,0,L|189:29,1,55,0|0,1:0|0:0,0:0:0:0:
257,98,13397,2,0,L|266:278,1,165,2|8,0:0|0:0,0:0:0:0:
298,307,14103,1,2,0:0:0:0:
298,307,14279,2,0,P|353:307|398:276,1,110,0|10,1:0|0:0,0:0:0:0:
428,170,14985,6,0,L|422:56,1,110,0|8,1:0|0:0,0:0:0:0:
385,19,15515,1,2,0:0:0:0:
385,19,15691,2,0,P|357:15|330:18,1,55,0|0,1:0|0:0,0:0:0:0:
262,103,16220,2,0,P|180:104|116:54,1,165,2|8,0:0|0:0,0:0:0:0:
70,24,16926,1,2,0:0:0:0:
70,24,17103,2,0,L|55:152,1,110,0|10,1:0|0:0,0:0:0:0:
29,239,17809,6,0,P|82:249|130:226,1,110,4|8,1:0|0:0,0:0:0:0:
165,183,18338,1,2,0:0:0:0:
165,183,18515,2,0,L|223:189,1,55,0|0,1:0|0:0,0:0:0:0:
308,253,19044,2,0,B|362:255|386:305|386:305|409:355|455:347,1,165,2|8,0:0|0:0,0:0:0:0:
488,347,19750,1,2,0:0:0:0:
488,347,19926,2,0,L|501:229,1,110,0|10,1:0|0:0,0:0:0:0:
434,148,20632,5,14,1:2:0:0:
434,148,20809,2,0,L|421:30,2,110,10|10|10,1:2|1:2|1:2,0:0:0:0:
345,212,21867,1,10,1:2:0:0:
345,212,22044,1,10,1:2:0:0:
129,72,23456,5,4,1:0:0:0:
41,137,23809,2,0,P|33:191|56:241,1,110,8|0,0:0|1:0,0:0:0:0:
128,324,24515,2,0,L|189:319,1,55,8|2,0:0|0:0,0:0:0:0:
283,364,25044,2,0,P|282:298|285:242,1,110,2|2,0:0|0:0,0:0:0:0:
325,218,25573,2,0,P|326:152|323:96,1,110,0|8,1:0|0:0,0:0:0:0:
256,20,26279,5,0,1:0:0:0:
188,108,26632,2,0,P|185:163|187:218,1,110,8|0,0:0|1:0,0:0:0:0:
130,312,27338,2,0,L|58:297,1,55,8|2,0:0|0:0,0:0:0:0:
40,258,27691,2,0,P|31:191|22:138,2,110,0|8|0,1:0|0:0|1:0,0:0:0:0:
142,218,28750,1,8,0:0:0:0:
235,275,29103,5,4,1:0:0:0:
319,206,29456,2,0,P|374:213|423:237,1,110,8|0,0:0|1:0,0:0:0:0:
464,340,30162,2,0,L|396:351,1,55,8|2,0:0|0:0,0:0:0:0:
303,377,30691,2,0,L|169:362,1,110,2|2,0:0|0:0,0:0:0:0:
153,327,31220,2,0,L|19:342,1,110,0|8,1:0|0:0,0:0:0:0:
10,234,31926,5,0,1:0:0:0:
90,158,32279,2,0,P|143:167|187:199,1,110,8|0,0:0|1:0,0:0:0:0:
274,268,32985,2,0,P|301:268|327:260,1,55,8|2,0:0|0:0,0:0:0:0:
349,209,33338,2,0,L|465:206,2,110,0|8|0,1:0|0:0|1:0,0:0:0:0:
272,129,34397,1,8,0:3:0:0:
306,24,34750,5,4,1:0:0:0:
198,46,35103,2,0,P|143:41|95:15,1,110,8|0,0:0|1:0,0:0:0:0:
43,31,35632,1,2,0:0:0:0:
43,31,35809,2,0,L|33:95,1,55,8|2,0:0|0:0,0:0:0:0:
52,192,36338,6,0,P|107:197|160:184,1,110,2|2,0:0|0:0,0:0:0:0:
194,140,36867,2,0,P|248:135|301:148,1,110,0|8,1:0|0:0,0:0:0:0:
345,250,37573,5,0,1:0:0:0:
433,185,37926,2,0,P|433:130|416:77,1,110,8|0,0:0|1:0,0:0:0:0:
369,49,38456,1,2,0:0:0:0:
369,49,38632,2,0,L|302:38,1,55,8|2,0:0|0:0,0:0:0:0:
259,34,38985,1,0,1:0:0:0:
210,132,39338,1,0,1:0:0:0:
258,229,39691,2,0,P|260:283|227:326,1,110,0|8,1:0|0:0,0:0:0:0:
124,366,40397,5,4,1:0:0:0:
43,291,40750,2,0,L|38:171,1,110,8|0,0:0|1:0,0:0:0:0:
36,125,41279,1,2,0:0:0:0:
36,125,41456,2,0,L|33:53,1,55,8|2,0:0|0:0,0:0:0:0:
74,32,41809,1,0,1:0:0:0:
165,93,42162,1,8,0:0:0:0:
244,17,42515,1,0,1:0:0:0:
335,78,42868,1,8,0:0:0:0:
414,2,43220,5,0,1:0:0:0:
468,95,43573,2,0,P|463:150|456:205,1,110,8|0,0:0|1:0,0:0:0:0:
408,233,44103,1,2,0:0:0:0:
408,232,44279,2,0,P|409:260|412:287,1,55,8|10,0:0|0:0,0:0:0:0:
447,330,44632,2,0,L|320:317,2,110,8|8|8,0:3|0:3|0:3,0:0:0:0:
489,113,46044,5,6,1:2:0:0:
203,118,50985,5,10,0:0:0:0:
110,57,51338,1,8,0:0:0:0:
4,89,51691,6,0,L|17:214,1,110,4|0,1:0|1:0,0:0:0:0:
124,213,52397,2,0,L|111:338,1,110,0|0,1:0|1:0,0:0:0:0:
107,377,52926,1,10,0:0:0:0:
204,325,53279,1,2,1:2:0:0:
305,368,53632,1,2,1:2:0:0:
305,368,53809,2,0,L|293:258,1,110,8|0,0:0|1:0,0:0:0:0:
354,166,54515,5,0,1:0:0:0:
354,166,54691,2,0,P|422:152|447:106,1,110,10|10,0:0|0:0,0:0:0:0:
394,22,55397,2,0,P|326:36|301:82,1,110,10|10,0:0|0:0,0:0:0:0:
252,84,55926,2,0,L|120:67,1,110,2|2,1:2|1:2,0:0:0:0:
87,62,56456,1,2,1:2:0:0:
87,62,56632,2,0,P|62:111|59:166,1,110,2|8,1:2|0:0,0:0:0:0:
130,249,57338,5,4,1:0:0:0:
238,265,57691,1,8,0:0:0:0:
346,281,58044,1,0,1:0:0:0:
454,297,58397,1,8,0:0:0:0:
454,297,58573,2,0,P|466:243|457:189,1,110,2|2,1:2|1:2,0:0:0:0:
414,152,59103,2,0,P|402:98|411:44,2,110,8|0|8,0:0|1:0|0:0,0:0:0:0:
326,218,60162,5,0,1:0:0:0:
216,206,60515,1,8,0:0:0:0:
106,194,60867,1,0,1:0:0:0:
0,182,61220,1,8,0:0:0:0:
0,182,61397,2,0,P|8:129|50:96,1,110,2|2,1:2|1:2,0:0:0:0:
60,41,61926,2,0,P|110:21|160:41,1,110,8|0,0:0|1:0,0:0:0:0:
242,115,62632,1,10,0:0:0:0:
337,61,62985,6,0,L|452:50,1,110,4|8,1:0|0:0,0:0:0:0:
487,152,63691,2,0,L|377:162,1,110,0|8,1:0|0:0,0:0:0:0:
271,192,64397,1,0,1:0:0:0:
336,281,64750,1,8,0:0:0:0:
271,370,65103,1,0,1:0:0:0:
167,336,65456,1,8,0:0:0:0:
167,226,65809,6,0,P|113:211|59:206,1,110,0|12,1:0|0:0,0:0:0:0:
15,105,66515,2,0,P|68:90|122:85,1,110,0|12,1:0|0:0,0:0:0:0:
212,22,67220,1,0,1:0:0:0:
313,64,67573,1,0,1:0:0:0:
327,172,67926,1,8,1:3:0:0:
327,172,68103,2,0,L|394:162,2,55,8|10|10,0:3|0:0|0:0,0:0:0:0:
293,215,68632,5,4,1:0:0:0:
183,203,68985,1,8,0:0:0:0:
73,191,69338,1,0,1:0:0:0:
61,301,69691,1,8,0:0:0:0:
61,301,69867,2,0,P|106:333|160:341,1,110,2|2,0:0|0:0,0:0:0:0:
248,275,70573,1,2,0:0:0:0:
248,275,70750,2,0,P|292:243|346:235,1,110,0|8,1:0|0:0,0:0:0:0:
440,294,71456,5,0,1:0:0:0:
457,185,71809,1,8,0:0:0:0:
474,76,72162,1,0,1:0:0:0:
365,59,72515,1,8,0:0:0:0:
365,59,72691,2,0,P|310:55|258:72,1,110,2|2,1:2|1:2,0:0:0:0:
215,107,73220,2,0,P|160:110|108:93,1,110,8|0,0:0|1:0,0:0:0:0:
20,26,73926,1,10,0:0:0:0:
4,134,74279,6,0,L|13:257,1,110,4|8,1:0|0:0,0:0:0:0:
120,264,74985,2,0,L|129:141,1,110,0|8,1:0|0:0,0:0:0:0:
236,134,75691,1,0,1:0:0:0:
317,208,76044,1,8,0:0:0:0:
412,153,76397,1,0,1:0:0:0:
331,79,76750,1,8,0:0:0:0:
235,134,77103,6,0,P|224:187|221:242,1,110,0|12,1:0|0:0,0:0:0:0:
331,258,77809,2,0,P|342:311|345:366,1,110,0|12,1:0|0:0,0:0:0:0:
237,340,78515,1,0,1:0:0:0:
130,367,78867,1,0,1:0:0:0:
50,290,79220,1,0,1:0:0:0:
50,290,79397,2,0,L|-5:295,2,55,10|2|2,0:0|1:2|1:2,0:0:0:0:
87,249,79926,5,4,1:0:0:0:
125,145,80279,2,0,P|121:117|114:91,1,55,8|2,0:0|0:0,0:0:0:0:
82,46,80632,2,0,L|208:66,1,110,0|8,1:0|0:0,0:0:0:0:
298,39,81338,6,0,L|278:165,1,110,0|8,1:0|0:0,0:0:0:0:
238,182,81867,1,2,0:0:0:0:
238,182,82044,2,0,L|242:245,2,55,0|2|8,1:0|0:0|0:0,0:0:0:0:
336,133,82750,5,0,1:0:0:0:
434,182,83103,2,0,L|430:245,1,55,8|2,0:0|0:0,0:0:0:0:
425,291,83456,2,0,P|385:327|325:335,1,110,0|8,1:0|0:0,0:0:0:0:
223,355,84162,2,0,P|179:321|127:305,1,110,0|8,1:0|0:0,0:0:0:0:
75,323,84691,1,2,0:0:0:0:
75,323,84867,2,0,L|59:215,1,110,0|10,1:0|0:0,0:0:0:0:
7,116,85573,5,4,1:0:0:0:
99,56,85926,2,0,P|139:60|200:96,1,110,8|0,0:0|1:0,0:0:0:0:
229,140,86456,1,2,0:0:0:0:
229,140,86632,2,0,L|224:203,1,55,8|2,0:0|0:0,0:0:0:0:
219,249,86985,5,0,1:0:0:0:
308,312,87338,2,0,P|363:309|408:279,1,110,8|0,0:0|1:0,0:0:0:0:
431,229,87867,1,2,0:0:0:0:
431,229,88044,2,0,L|433:151,1,55,8|2,0:0|0:0,0:0:0:0:
433,118,88397,5,0,1:0:0:0:
330,76,88750,1,8,0:0:0:0:
225,110,89103,1,0,1:0:0:0:
122,68,89456,1,8,0:0:0:0:
32,131,89809,2,0,P|23:186|21:241,2,110,14|10|10,1:2|1:2|1:2,0:0:0:0:
122,68,90867,1,10,0:0:0:0:
211,131,91220,6,0,P|220:186|222:241,1,110,4|8,1:0|0:0,0:0:0:0:
184,281,91750,1,2,0:0:0:0:
184,281,91926,2,0,P|182:308|185:335,1,55,0|0,1:0|1:0,0:0:0:0:
287,376,92456,2,0,P|365:360|402:289,1,165,2|8,0:0|0:0,0:0:0:0:
388,235,93162,1,2,0:0:0:0:
388,235,93338,2,0,P|380:175|385:120,1,110,0|10,1:0|0:0,0:0:0:0:
293,63,94044,6,0,L|181:49,1,110,0|8,1:0|0:0,0:0:0:0:
134,74,94573,1,2,0:0:0:0:
134,74,94750,2,0,L|61:63,1,55,0|0,1:0|1:0,0:0:0:0:
21,159,95279,2,0,P|34:236|108:261,1,165,2|8,0:0|0:0,0:0:0:0:
158,237,95985,1,2,0:0:0:0:
158,237,96162,2,0,L|284:222,1,110,0|10,1:0|0:0,0:0:0:0:
362,168,96867,6,0,P|378:219|363:271,1,110,4|8,1:0|0:0,0:0:0:0:
321,307,97397,1,2,0:0:0:0:
321,306,97573,2,0,P|309:331|305:359,1,55,0|0,1:0|1:0,0:0:0:0:
194,359,98103,2,0,B|90:349|143:303|50:288,1,165,2|8,0:0|0:0,0:0:0:0:
28,238,98809,1,2,0:0:0:0:
28,238,98985,2,0,L|41:120,1,110,0|2,1:0|1:2,0:0:0:0:
131,66,99691,5,14,1:2:0:0:
131,66,99867,2,0,P|85:25|22:23,2,110,10|10|10,1:2|1:2|1:2,0:0:0:0:
225,122,100925,1,10,1:2:0:0:
225,122,101103,2,0,L|335:114,1,110,10|0,1:2|0:0,0:0:0:0:
399,203,101809,2,0,L|509:195,2,110,0|0|4,0:0|0:0|0:0,0:0:0:0:
228,330,113103,5,2,0:3:0:0:
274,230,113456,1,2,0:3:0:0:
209,140,113809,6,0,L|79:125,1,110,4|8,1:0|0:0,0:0:0:0:
18,201,114515,2,0,L|3:331,1,110,0|8,1:0|0:0,0:0:0:0:
89,380,115220,1,0,1:0:0:0:
161,297,115573,1,8,0:0:0:0:
259,347,115926,2,0,P|296:349|372:301,1,110,0|10,1:0|0:0,0:0:0:0:
446,249,116632,6,0,P|446:206|452:118,1,110,0|8,1:0|0:0,0:0:0:0:
375,57,117338,2,0,P|332:57|244:51,1,110,0|8,1:0|0:0,0:0:0:0:
158,24,118044,1,0,1:0:0:0:
109,122,118397,1,8,0:0:0:0:
185,200,118750,2,0,L|260:207,2,55,0|10|2,1:0|0:0|1:2,0:0:0:0:
113,283,119456,6,0,P|58:278|16:244,1,110,4|8,1:0|0:0,0:0:0:0:
3,191,119985,1,2,0:0:0:0:
3,191,120162,2,0,L|22:70,1,110,0|8,1:0|0:0,0:0:0:0:
118,32,120867,2,0,P|183:36|224:69,1,110,0|8,1:0|0:0,0:0:0:0:
250,106,121397,1,2,0:0:0:0:
250,106,121573,2,0,P|315:102|356:69,1,110,0|10,1:0|0:0,0:0:0:0:
457,52,122279,5,0,1:0:0:0:
505,150,122632,1,8,0:0:0:0:
427,227,122985,2,0,P|423:287|422:353,1,110,0|10,1:0|0:0,0:0:0:0:
317,301,123691,2,0,P|247:295|189:288,2,110,10|10|10,1:2|1:2|1:2,0:0:0:0:
232,97,125103,6,0,P|164:114|113:115,1,110,6|2,1:2|1:2,0:0:0:0:
43,190,125809,2,0,P|60:258|61:309,1,110,2|2,1:2|1:2,0:0:0:0:
43,349,126338,1,2,0:0:0:0:
151,367,126691,1,2,0:0:0:0:
236,298,127044,1,2,0:0:0:0:
235,298,127220,2,0,P|290:292|345:292,1,110,2|2,1:2|1:2,0:0:0:0:
398,195,127926,6,0,L|362:77,1,110,2|10,1:2|0:0,0:0:0:0:
263,48,128632,2,0,L|227:166,1,110,2|10,1:2|0:0,0:0:0:0:
189,189,129162,1,2,0:0:0:0:
115,107,129515,1,10,0:0:0:0:
22,166,129867,1,2,1:2:0:0:
22,166,130044,2,0,P|12:219|28:272,1,110,10|2,0:0|0:0,0:0:0:0:
122,329,130750,5,6,1:2:0:0:
219,277,131103,1,2,1:2:0:0:
167,180,131456,1,2,1:2:0:0:
264,128,131809,1,10,0:0:0:0:
264,128,131985,2,0,P|324:142|389:161,1,110,2|2,1:2|1:2,0:0:0:0:
429,248,132691,1,2,1:2:0:0:
429,248,132867,2,0,P|415:308|396:373,1,110,8|0,0:0|1:0,0:0:0:0:
312,289,133573,5,0,1:0:0:0:
312,289,133750,2,0,P|262:288|196:321,1,110,10|10,0:0|0:0,0:0:0:0:
116,372,134456,2,0,P|66:373|0:340,1,110,10|10,0:0|0:0,0:0:0:0:
291,107,135867,1,2,0:0:0:0:
291,107,136044,2,0,P|291:52|276:0,1,110,2|4,0:0|0:0,0:0:0:0:
160,120,147691,6,0,L|39:92,2,110,4|0|0,1:0|1:0|1:0,0:0:0:0:
250,57,148750,1,0,1:0:0:0:
250,57,148926,2,0,L|357:81,1,110,0|0,0:0|0:0,0:0:0:0:
430,164,149632,1,0,0:0:0:0:
430,164,149809,2,0,L|405:271,1,110,0|0,1:0|1:0,0:0:0:0:
294,271,150515,6,0,B|282:337|294:380,2,110,0|0|0,1:0|1:0|1:0,0:0:0:0:
217,191,151573,1,0,1:0:0:0:
217,191,151750,2,0,P|159:203|103:229,1,110,0|0,0:0|0:0,0:0:0:0:
60,205,152279,2,0,P|48:147|22:91,1,110,0|0,1:0|1:0,0:0:0:0:
96,14,152985,1,0,1:0:0:0:
186,76,153338,6,0,P|239:86|294:82,1,110,4|0,1:0|1:0,0:0:0:0:
381,150,154044,2,0,P|370:203|374:258,1,110,0|0,1:0|1:0,0:0:0:0:
307,344,154750,2,0,P|253:333|198:337,1,110,0|0,1:0|1:0,0:0:0:0:
113,270,155456,2,0,P|123:216|119:161,1,110,0|0,1:0|1:0,0:0:0:0:
33,92,156162,1,0,1:0:0:0:
306,54,157573,5,8,0:0:0:0:
254,151,157926,1,8,0:0:0:0:
325,234,158279,2,0,P|335:287|309:347,1,110,8|8,0:0|0:0,0:0:0:0:
264,357,158809,1,8,0:0:0:0:
264,357,158985,5,4,1:0:0:0:
155,338,159338,1,8,0:0:0:0:
46,320,159691,1,0,1:0:0:0:
64,211,160044,1,8,0:0:0:0:
64,211,160220,2,0,P|45:160|69:112,1,110,2|2,1:2|1:2,0:0:0:0:
124,107,160750,2,0,P|142:56|118:8,2,110,8|0|8,0:0|1:0|0:0,0:0:0:0:
186,197,161809,5,0,1:0:0:0:
296,185,162162,1,8,0:0:0:0:
406,173,162514,1,0,1:0:0:0:
512,161,162867,1,8,0:0:0:0:
512,161,163044,2,0,P|504:108|462:75,1,110,2|2,1:2|1:2,0:0:0:0:
452,20,163573,2,0,P|402:0|352:20,1,110,8|0,0:0|1:0,0:0:0:0:
275,99,164279,1,10,0:0:0:0:
193,24,164632,6,0,P|138:30|84:40,1,110,4|8,1:0|0:0,0:0:0:0:
56,147,165338,2,0,P|110:140|164:130,1,110,0|8,1:0|0:0,0:0:0:0:
255,192,166044,1,0,1:0:0:0:
190,281,166397,1,8,0:0:0:0:
255,370,166750,1,0,1:0:0:0:
359,336,167103,1,8,0:0:0:0:
359,226,167456,6,0,L|340:93,1,110,0|12,1:0|0:0,0:0:0:0:
398,21,168162,2,0,L|531:2,1,110,0|12,1:0|0:0,0:0:0:0:
484,113,168867,1,0,1:0:0:0:
397,179,169220,1,0,1:0:0:0:
454,272,169573,1,0,1:0:0:0:
454,272,169750,2,0,L|509:267,2,55,8|0|0,0:0|1:0|1:0,0:0:0:0:
417,313,170279,5,4,1:0:0:0:
312,277,170632,2,0,P|284:280|258:288,1,55,8|2,0:0|0:0,0:0:0:0:
215,322,170985,2,0,L|94:308,1,110,0|8,1:0|0:0,0:0:0:0:
38,222,171691,6,0,L|52:101,1,110,0|8,1:0|0:0,0:0:0:0:
98,79,172220,1,2,0:0:0:0:
98,79,172397,2,0,L|94:16,2,55,0|2|8,1:0|0:0|0:0,0:0:0:0:
181,151,173103,5,0,1:0:0:0:
251,67,173456,2,0,P|279:68|306:72,1,55,8|2,0:0|0:0,0:0:0:0:
357,90,173809,2,0,P|376:142|365:195,1,110,0|8,1:0|0:0,0:0:0:0:
272,253,174515,2,0,P|253:304|264:357,1,110,0|8,1:0|0:0,0:0:0:0:
319,359,175044,1,2,0:0:0:0:
319,359,175220,2,0,L|434:347,1,110,0|10,1:0|0:0,0:0:0:0:
479,250,175926,5,4,1:0:0:0:
422,155,176279,2,0,L|312:166,1,110,8|0,0:0|1:0,0:0:0:0:
268,132,176809,1,2,0:0:0:0:
268,132,176985,2,0,L|190:120,1,55,8|2,0:0|0:0,0:0:0:0:
158,117,177338,5,0,1:0:0:0:
72,47,177691,2,0,P|43:93|47:147,1,110,8|0,0:0|1:0,0:0:0:0:
81,190,178220,1,2,0:0:0:0:
81,190,178397,2,0,L|83:268,1,55,8|2,0:0|0:0,0:0:0:0:
56,293,178750,6,0,P|104:320|158:326,1,110,0|8,1:0|0:0,0:0:0:0:
236,248,179456,2,0,P|283:221|337:215,1,110,0|8,1:0|0:0,0:0:0:0:
444,244,180162,2,0,P|453:299|455:354,2,110,0|8|0,1:0|0:0|1:0,0:0:0:0:
418,195,181044,1,8,0:3:0:0:
418,195,181220,2,0,L|422:138,1,55,10|10,0:0|0:0,0:0:0:0:
463,103,181573,5,4,1:0:0:0:
367,47,181926,1,8,0:0:0:0:
289,124,182279,1,0,1:0:0:0:
193,68,182632,1,8,0:0:0:0:
115,145,182985,1,0,1:0:0:0:
19,89,183338,1,8,0:0:0:0:
11,198,183691,2,0,P|14:252|26:306,1,110,0|8,1:0|0:0,0:0:0:0:
127,262,184397,5,0,1:0:0:0:
223,318,184750,1,8,0:0:0:0:
301,241,185103,1,0,1:0:0:0:
397,297,185456,1,8,0:0:0:0:
475,220,185809,2,0,P|469:165|453:113,1,110,0|8,1:0|0:0,0:0:0:0:
359,55,186515,2,0,L|298:46,1,55,0|2,1:0|1:2,0:0:0:0:
260,13,186867,2,0,P|241:65|236:120,1,110,10|4,0:0|1:0,0:0:0:0:
151,190,187573,5,8,0:0:0:0:
67,118,187926,2,0,L|3:110,2,55,0|2|8,1:0|1:2|0:0,0:0:0:0:
151,190,188632,1,0,1:0:0:0:
95,285,188985,1,8,0:0:0:0:
196,328,189338,2,0,P|201:359|204:389,2,55,0|2|8,1:0|1:2|0:0,0:0:0:0:
276,252,190044,2,0,P|331:255|386:264,1,110,0|8,1:0|0:0,0:0:0:0:
459,182,190750,2,0,P|461:127|470:72,1,110,0|8,1:0|0:0,0:0:0:0:
374,19,191456,5,10,1:2:0:0:
264,29,191809,1,10,1:2:0:0:
154,39,192162,1,10,1:2:0:0:
44,50,192515,1,10,1:2:0:0:
109,139,192867,5,10,1:2:0:0:
219,128,193220,1,10,1:2:0:0:
329,118,193573,1,10,1:2:0:0:
439,108,193926,1,10,1:2:0:0:
392,208,194279,6,0,P|382:244|380:271,2,55,0|10|0,1:0|0:2|1:0,0:0:0:0:
329,118,194985,2,0,P|319:82|317:55,2,55,0|10|0,1:0|0:2|1:0,0:0:0:0:
266,208,195691,2,0,L|145:221,2,110,0|2|2,1:0|0:0|0:0,0:0:0:0:
299,312,196750,1,8,1:2:0:0:
209,375,197103,6,0,L|88:362,1,110,4|8,1:0|0:0,0:0:0:0:
47,345,197632,1,2,0:0:0:0:
47,345,197809,2,0,P|47:317|55:291,1,55,0|0,1:0|0:0,0:0:0:0:
152,239,198338,2,0,L|143:59,1,165,2|8,0:0|0:0,0:0:0:0:
111,30,199044,1,2,0:0:0:0:
111,30,199220,2,0,P|56:30|11:61,1,110,0|10,1:0|0:0,0:0:0:0:
2,169,199926,6,0,L|7:278,1,110,0|8,1:0|0:0,0:0:0:0:
15,333,200456,1,2,0:0:0:0:
15,333,200632,2,0,P|43:337|70:334,1,55,0|0,1:0|0:0,0:0:0:0:
152,262,201162,2,0,P|234:261|298:311,1,165,2|8,0:0|0:0,0:0:0:0:
344,341,201867,1,2,0:0:0:0:
344,341,202044,2,0,L|359:213,1,110,0|10,1:0|0:0,0:0:0:0:
396,128,202750,6,0,P|343:118|295:141,1,110,4|8,1:0|0:0,0:0:0:0:
260,184,203279,1,2,0:0:0:0:
260,184,203456,2,0,L|202:178,1,55,0|0,1:0|0:0,0:0:0:0:
128,99,203985,2,0,B|105:55|58:55|58:55|27:90|43:144,1,165,2|8,0:0|0:0,0:0:0:0:
65,175,204691,1,2,0:0:0:0:
65,175,204867,2,0,P|78:228|85:294,1,110,0|10,1:0|0:0,0:0:0:0:
185,327,205573,5,14,1:2:0:0:
185,327,205750,2,0,P|191:272|204:219,2,110,10|10|10,1:2|1:2|1:2,0:0:0:0:
289,361,206809,1,10,1:2:0:0:
289,361,206985,2,0,P|343:367|396:380,1,110,10|2,1:2|0:0,0:0:0:0:
