osu file format v14

[General]
AudioFilename: audio.mp3
AudioLeadIn: 0
PreviewTime: 57429
Countdown: 0
SampleSet: Soft
StackLeniency: 0.7
Mode: 2
LetterboxInBreaks: 0
WidescreenStoryboard: 0

[Editor]
Bookmarks: 91311
DistanceSpacing: 0.3
BeatDivisor: 4
GridSize: 8
TimelineZoom: 1.7

[Metadata]
Title:Discommunication Alien (Cut Ver.)
TitleUnicode:ディスコミュ星人 (Cut Ver.)
Artist:Usada Pekora
ArtistUnicode:兎田ぺこら
Creator:Naffu
Version:Disukomyunikeeshon
Source:
Tags:ホロライブ hololive vtuber virtual youtuber ナナヲアカリ nanawo akari ナユタン星人 nayutalien nayuta seijin cover cut short pop jpop jrock ナユタン星からの物体Y Japanese Yuuma amulet-pp My Angel RangE Secre -Hex- Hex Naofumi MARE chickenbible
BeatmapID:2872823
BeatmapSetID:1391301

[Difficulty]
HPDrainRate:5
CircleSize:4
OverallDifficulty:9.2
ApproachRate:9.2
SliderMultiplier:2.1
SliderTickRate:2

[Events]
//Background and Video events
0,0,"pleasethumbnailpleasechange.jpg",0,0
//Break Periods
//Storyboard Layer 0 (Background)
//Storyboard Layer 1 (Fail)
//Storyboard Layer 2 (Pass)
//Storyboard Layer 3 (Foreground)
//Storyboard Layer 4 (Overlay)
//Storyboard Sound Samples

[TimingPoints]
959,352.941176470588,4,2,2,50,1,0
9429,-100,4,2,1,60,0,0
12164,-100,4,2,1,5,0,0
12252,-100,4,2,1,60,0,0
44988,-100,4,2,1,5,0,0
45076,-100,4,2,1,60,0,0
45341,-100,4,2,1,5,0,0
45429,-100,4,2,1,60,0,0
54782,-100,4,2,1,60,0,0
57429,-100,4,2,1,70,0,1
68723,-100,4,2,1,70,0,1
80017,-100,4,2,1,60,0,0
91223,-100,4,2,1,5,0,0
91311,-100,4,2,1,60,0,0

[Colours]
Combo1 : 255,43,159
Combo2 : 40,148,255
Combo3 : 255,117,210

[HitObjects]
205,273,958,6,0,P|138:244|236:182,1,210,2|10,3:2|0:0,0:0:0:0:
328,166,1488,1,2,0:0:0:0:
171,84,1664,2,0,L|41:84,1,105,2|2,3:2|0:0,0:0:0:0:
224,146,2017,1,8,0:0:0:0:
98,173,2194,2,0,P|59:234|162:295,1,210,2|0,0:0|0:0,0:0:0:0:
278,228,2723,6,0,L|408:228,1,105,10|2,0:0|0:0,0:0:0:0:
141,227,3076,1,2,3:2:0:0:
267,229,3253,1,2,0:0:0:0:
110,143,3429,2,0,L|-4:143,1,105,10|2,0:0|0:0,0:0:0:0:
247,80,3782,6,0,P|259:166|143:203,1,210,2|10,3:2|0:0,0:0:0:0:
34,208,4311,1,2,0:0:0:0:
192,315,4488,2,0,L|319:315,1,105,2|2,3:2|0:0,0:0:0:0:
423,223,4841,1,8,0:0:0:0:
182,110,5017,2,0,P|104:174|173:207,1,210,2|0,0:0|0:0,0:0:0:0:
310,206,5547,1,10,0:0:0:0:
446,214,5723,5,2,0:0:0:0:
185,142,5900,2,0,L|182:19,1,105,2|2,3:2|0:0,0:0:0:0:
251,26,6164,1,2,0:0:0:0:
357,101,6253,2,0,L|480:102,1,105,10|2,0:0|0:0,0:0:0:0:
409,100,6517,1,2,0:0:0:0:
220,109,6606,6,0,P|152:196|239:202,1,210,2|10,3:2|0:0,0:0:0:0:
332,222,7135,1,2,0:0:0:0:
458,226,7311,2,0,L|314:222,1,105,2|2,3:2|0:0,0:0:0:0:
195,216,7664,1,8,0:0:0:0:
437,195,7841,2,0,P|469:111|347:88,1,210,2|0,0:0|0:0,0:0:0:0:
252,138,8370,6,0,L|104:138,1,105,10|2,0:0|0:0,0:0:0:0:
305,200,8723,2,0,L|305:334,1,105,2|2,3:2|0:0,0:0:0:0:
179,252,9076,2,0,L|52:252,1,105,10|2,0:0|0:0,0:0:0:0:
316,152,9429,6,0,L|469:152,1,105,10|0,0:0|0:0,0:0:0:0:
179,85,9782,2,0,L|332:85,1,105,10|2,0:0|0:0,0:0:0:0:
42,84,10135,1,10,0:0:0:0:
283,201,10311,1,10,0:0:0:0:
230,199,10399,1,8,0:0:0:0:
178,198,10487,1,10,0:0:0:0:
420,201,10664,1,10,0:0:0:0:
178,245,10841,5,2,0:3:0:0:
387,253,11194,1,2,0:3:0:0:
178,245,11547,1,2,0:3:0:0:
419,249,11900,2,0,L|425:58,1,157.5,2|0,0:3|0:0,0:0:0:0:
127,121,12253,6,0,P|128:245|198:231,1,210,6|10,3:2|0:0,0:0:0:0:
304,239,12782,1,2,0:0:0:0:
147,222,12958,2,0,L|26:222,1,105,2|2,3:2|0:0,0:0:0:0:
95,221,13223,1,0,3:0:0:0:
252,222,13311,2,0,L|372:221,1,105,8|2,0:0|0:0,0:0:0:0:
199,129,13664,6,0,L|188:14,1,105,0|0,3:0|0:0,0:0:0:0:
242,26,13929,1,0,3:0:0:0:
315,132,14017,1,10,0:0:0:0:
189,134,14194,1,2,0:0:0:0:
346,56,14370,2,0,L|462:55,1,105,2|2,3:2|0:0,0:0:0:0:
398,55,14635,1,0,3:0:0:0:
209,71,14723,2,0,L|87:73,1,105,10|2,0:0|0:0,0:0:0:0:
346,152,15076,6,0,L|346:289,1,105,2|0,3:2|0:0,0:0:0:0:
293,253,15341,1,0,3:0:0:0:
104,290,15429,2,0,L|103:167,1,105,10|2,0:0|0:0,0:0:0:0:
339,184,15782,1,2,3:2:0:0:
103,168,15958,2,0,L|32:168,1,52.5,2|0,0:0|3:0,0:0:0:0:
103,168,16135,1,8,0:0:0:0:
213,64,16311,2,0,L|350:64,1,105,2|0,0:0|3:0,0:0:0:0:
76,64,16664,5,0,0:0:0:0:
23,65,16753,1,0,3:0:0:0:
202,152,16841,2,0,L|205:283,1,105,10|2,0:0|0:0,0:0:0:0:
331,141,17194,2,0,L|458:141,1,105,2|2,3:2|0:0,0:0:0:0:
194,233,17547,2,0,L|114:233,1,52.5,10|8,0:0|0:0,0:0:0:0:
330,240,17723,2,0,L|389:240,1,52.5,10|8,0:0|0:0,0:0:0:0:
139,232,17900,6,0,P|81:173|170:95,1,210,6|10,3:2|0:0,0:0:0:0:
278,91,18429,1,2,0:0:0:0:
152,88,18606,2,0,L|32:88,1,105,2|2,3:2|0:0,0:0:0:0:
125,85,18870,1,0,3:0:0:0:
204,52,18958,1,8,0:0:0:0:
446,55,19135,2,0,L|446:203,1,105,2|0,0:0|3:0,0:0:0:0:
288,177,19488,5,0,0:0:0:0:
225,179,19576,1,0,3:0:0:0:
162,179,19664,1,10,0:0:0:0:
404,42,19841,2,0,L|400:151,1,105,0|2,0:0|3:2,0:0:0:0:
274,44,20194,1,2,0:0:0:0:
211,42,20282,1,0,3:0:0:0:
33,50,20370,2,0,L|147:50,1,105,10|2,0:0|0:0,0:0:0:0:
380,43,20723,5,2,3:2:0:0:
138,50,20900,1,10,0:0:0:0:
380,43,21253,1,10,0:0:0:0:
138,50,21606,1,10,0:0:0:0:
390,198,21958,1,10,0:0:0:0:
108,196,22135,1,10,0:0:0:0:
235,204,23017,5,8,0:0:0:0:
287,200,23105,1,8,0:0:0:0:
339,197,23193,1,8,0:0:0:0:
98,209,23370,1,8,0:0:0:0:
340,89,23547,6,0,L|456:88,1,105,4|2,3:2|0:0,0:0:0:0:
392,88,23811,1,2,3:2:0:0:
201,92,23900,2,0,L|91:92,1,105,10|2,0:0|0:0,0:0:0:0:
254,176,24253,2,0,L|254:294,1,105,2|2,3:2|0:0,0:0:0:0:
191,280,24517,1,0,3:0:0:0:
128,278,24606,1,10,0:0:0:0:
254,284,24782,1,2,0:0:0:0:
411,269,24958,5,0,3:0:0:0:
253,197,25135,2,0,P|190:125|292:86,1,210,2|2,0:0|0:0,0:0:0:0:
363,67,25664,1,2,3:2:0:0:
461,222,25841,1,0,0:0:0:0:
393,219,25929,1,0,3:0:0:0:
194,237,26017,2,0,P|118:198|204:174,1,210,10|0,0:0|3:0,0:0:0:0:
307,159,26547,5,2,0:0:0:0:
370,159,26635,1,2,3:2:0:0:
187,157,26723,2,0,L|69:157,1,105,10|2,0:0|0:0,0:0:0:0:
324,59,27076,2,0,L|443:59,1,105,2|2,3:2|0:0,0:0:0:0:
493,61,27341,1,0,3:0:0:0:
429,59,27429,1,10,0:0:0:0:
190,58,27606,2,0,L|300:58,1,105,2|2,0:0|3:2,0:0:0:0:
407,57,27958,5,2,0:0:0:0:
165,155,28135,2,0,L|40:155,1,105,10|0,0:0|0:0,0:0:0:0:
302,117,28488,2,0,L|411:117,1,105,2|0,3:2|0:0,0:0:0:0:
144,83,28841,2,0,L|146:196,1,105,10|0,0:0|0:0,0:0:0:0:
405,130,29194,1,4,3:2:0:0:
257,208,29370,5,2,0:0:0:0:
204,201,29458,1,0,3:0:0:0:
257,208,29547,1,10,0:0:0:0:
121,78,29723,1,2,0:0:0:0:
494,76,29900,2,0,P|480:159|343:191,1,210,2|10,3:2|0:0,0:0:0:0:
246,185,30429,2,0,P|169:239|256:258,1,210,2|2,0:0|0:0,0:0:0:0:
292,266,30870,5,0,3:0:0:0:
470,265,30958,2,0,L|477:148,1,105,8|2,0:0|0:0,0:0:0:0:
234,116,31311,2,0,L|121:116,1,105,2|0,3:2|0:0,0:0:0:0:
182,116,31576,1,0,3:0:0:0:
371,45,31664,2,0,P|391:126|266:173,1,210,10|0,0:0|3:0,0:0:0:0:
169,181,32194,5,2,0:0:0:0:
232,181,32282,1,2,3:2:0:0:
54,153,32370,2,0,L|53:35,1,105,10|2,0:0|0:0,0:0:0:0:
180,53,32723,2,0,L|301:53,2,105,2|2|10,3:2|0:0|0:0,0:0:0:0:
53,52,33253,1,2,0:0:0:0:
194,57,33429,5,0,0:0:0:0:
53,52,33606,1,0,0:0:0:0:
292,241,33782,2,0,P|357:162|263:128,1,210,10|10,0:0|0:0,0:0:0:0:
45,106,34311,1,8,0:0:0:0:
97,104,34399,1,8,0:0:0:0:
288,93,34488,2,0,L|412:83,1,105,10|0,0:0|0:0,0:0:0:0:
150,70,34841,6,0,L|31:70,1,105,4|2,3:2|0:0,0:0:0:0:
98,69,35106,1,2,3:2:0:0:
287,65,35194,2,0,L|394:65,1,105,10|2,0:0|0:0,0:0:0:0:
266,164,35547,2,0,L|267:299,1,105,2|2,3:2|0:0,0:0:0:0:
330,273,35811,1,0,3:0:0:0:
140,187,35900,2,0,L|32:187,1,105,10|2,0:0|0:0,0:0:0:0:
193,77,36253,6,0,L|305:77,1,105,0|2,3:0|0:0,0:0:0:0:
245,77,36517,1,0,3:0:0:0:
54,69,36606,2,0,L|53:191,1,105,10|2,0:0|0:0,0:0:0:0:
210,148,36958,1,2,3:2:0:0:
336,150,37135,1,2,0:0:0:0:
273,149,37223,1,0,3:0:0:0:
95,150,37311,2,0,P|65:254|152:265,1,210,10|0,0:0|3:0,0:0:0:0:
267,253,37841,5,2,0:0:0:0:
330,253,37929,1,2,3:2:0:0:
141,253,38017,2,0,L|1:253,1,105,10|2,0:0|0:0,0:0:0:0:
278,142,38370,2,0,L|418:142,1,105,2|2,3:2|0:0,0:0:0:0:
330,141,38635,1,0,3:0:0:0:
141,139,38723,2,0,L|148:252,1,105,10|2,0:0|0:0,0:0:0:0:
463,64,39076,6,0,L|358:64,1,105,10|2,0:0|0:0,0:0:0:0:
116,77,39429,1,10,0:0:0:0:
358,78,39606,1,2,0:0:0:0:
117,142,39782,2,0,P|69:197|165:257,1,210,10|10,0:0|0:0,0:0:0:0:
284,253,40311,1,0,0:0:0:0:
42,286,40488,6,0,L|33:135,1,105,4|2,3:2|0:0,0:0:0:0:
100,186,40753,1,2,3:2:0:0:
289,161,40841,2,0,L|402:161,1,105,10|2,0:0|0:0,0:0:0:0:
268,53,41194,2,0,L|139:53,1,105,2|2,3:2|0:0,0:0:0:0:
216,51,41458,1,0,3:0:0:0:
407,51,41547,2,0,L|402:170,1,105,10|2,0:0|0:0,0:0:0:0:
245,176,41900,6,0,L|124:175,1,105,2|0,3:2|0:0,0:0:0:0:
72,172,42164,1,0,3:0:0:0:
278,80,42253,2,0,L|399:80,1,105,10|0,0:0|0:0,0:0:0:0:
436,179,42517,1,0,0:0:0:0:
245,82,42606,2,0,L|124:82,1,105,2|2,3:2|0:0,0:0:0:0:
381,78,42958,1,10,0:0:0:0:
139,80,43135,2,0,P|73:160|152:182,1,210,2|2,0:0|0:0,0:0:0:0:
203,189,43576,5,2,3:2:0:0:
392,193,43664,2,0,L|515:193,1,105,10|2,0:0|0:0,0:0:0:0:
339,98,44017,2,0,L|202:98,1,105,2|2,3:2|0:0,0:0:0:0:
476,98,44370,1,10,0:0:0:0:
486,147,44458,1,8,0:0:0:0:
451,183,44546,1,10,0:0:0:0:
392,193,44634,1,8,0:0:0:0:
211,139,44723,6,0,P|122:165|159:200,1,157.5,10|0,0:0|0:0,0:0:0:0:
320,252,45076,2,0,B|469:256|469:256|470:291,1,157.5,10|0,0:0|0:0,0:0:0:0:
289,177,45429,2,0,L|407:177,1,105,10|0,0:0|0:0,0:0:0:0:
148,187,45782,2,0,L|35:190,1,105,2|2,0:0|0:0,0:0:0:0:
329,74,46135,6,0,P|371:132|252:176,1,210,6|0,0:0|0:0,0:0:0:0:
153,198,46664,1,0,3:0:0:0:
279,149,46841,2,0,L|492:149,1,210,8|2,0:0|0:3,0:0:0:0:
331,259,47370,2,0,L|206:259,1,105,0|2,3:0|0:0,0:0:0:0:
384,163,47723,6,0,L|256:163,1,105,0|2,3:0|0:3,0:0:0:0:
37,161,48076,1,0,3:0:0:0:
163,70,48253,1,8,0:0:0:0:
110,70,48341,1,0,0:0:0:0:
58,70,48429,1,0,0:0:0:0:
300,89,48606,2,0,L|447:90,1,105,0|8,3:0|0:0,0:0:0:0:
279,157,48958,6,0,L|276:298,1,105,0|0,3:0|0:0,0:0:0:0:
150,236,49311,2,0,L|18:235,1,105,2|0,0:3|3:0,0:0:0:0:
203,235,49664,2,0,L|457:236,1,210,8|2,0:0|0:3,0:0:0:0:
276,161,50194,1,0,3:0:0:0:
213,161,50282,1,0,3:0:0:0:
402,58,50370,6,0,L|403:173,1,105,2|0,0:3|3:0,0:0:0:0:
161,62,50723,2,0,L|9:62,1,105,2|0,0:3|3:0,0:0:0:0:
304,59,51076,2,0,P|389:119|289:151,1,210,10|10,0:0|0:0,0:0:0:0:
269,171,51517,1,8,0:0:0:0:
190,176,51606,2,0,L|126:176,1,52.5,10|8,0:0|0:0,0:0:0:0:
319,236,51782,6,0,L|436:236,1,105,6|0,3:2|0:0,0:0:0:0:
182,190,52135,2,0,L|182:79,1,105,2|0,3:2|0:0,0:0:0:0:
340,102,52488,2,0,L|447:102,1,105,2|0,3:2|0:0,0:0:0:0:
319,209,52841,2,0,L|212:209,1,105,10|2,3:2|1:2,0:0:0:0:
267,208,53106,1,0,0:0:0:0:
456,207,53194,6,0,L|474:94,1,105,0|10,0:0|0:0,0:0:0:0:
315,97,53547,2,0,L|183:97,1,105,0|2,0:0|0:0,0:0:0:0:
336,96,53900,1,10,0:0:0:0:
179,96,54076,2,0,L|292:96,1,105,2|8,1:2|0:0,0:0:0:0:
158,96,54429,1,2,3:2:0:0:
400,96,54606,6,0,L|507:96,1,105,2|10,3:2|0:0,0:0:0:0:
452,94,54870,1,10,0:0:0:0:
263,91,54958,2,0,L|150:91,1,105,10|10,0:0|0:0,0:0:0:0:
400,130,55311,6,0,L|295:130,1,105,10|10,0:0|0:0,0:0:0:0:
106,133,55575,1,10,0:0:0:0:
53,135,55664,2,0,L|206:135,1,105,10|10,0:0|0:0,0:0:0:0:
317,133,56017,5,10,0:0:0:0:
75,137,56194,1,10,0:0:0:0:
201,134,56370,1,10,0:0:0:0:
327,127,56547,1,10,0:0:0:0:
86,104,56723,1,10,0:0:0:0:
328,58,56900,1,0,3:0:0:0:
275,57,56988,1,0,3:0:0:0:
86,56,57076,1,8,0:0:0:0:
295,70,57429,6,0,L|450:70,1,105,6|0,3:2|0:0,0:0:0:0:
158,103,57782,2,0,L|157:241,1,105,10|0,0:0|0:0,0:0:0:0:
393,202,58135,2,0,L|522:202,1,105,2|0,3:2|0:0,0:0:0:0:
445,203,58400,1,0,0:0:0:0:
383,202,58488,1,10,0:0:0:0:
22,137,58664,2,0,L|253:139,1,210,2|2,0:0|0:0,0:0:0:0:
73,67,59194,6,0,L|76:205,1,105,10|0,0:0|0:0,0:0:0:0:
318,59,59547,2,0,L|456:59,1,105,2|0,3:2|0:0,0:0:0:0:
297,123,59900,2,0,L|298:243,1,105,10|0,0:0|0:0,0:0:0:0:
56,147,60253,6,0,L|56:40,1,105,2|0,3:2|0:0,0:0:0:0:
298,120,60606,2,0,L|422:120,1,105,10|0,0:0|0:0,0:0:0:0:
162,119,60958,2,0,P|119:178|232:209,1,210,2|10,3:2|0:0,0:0:0:0:
342,223,61488,2,0,L|96:223,1,210,2|2,0:0|0:0,0:0:0:0:
374,123,62017,6,0,L|490:123,1,105,10|0,0:0|0:0,0:0:0:0:
353,37,62370,2,0,L|223:37,1,105,2|0,3:2|0:0,0:0:0:0:
144,326,62723,2,0,L|208:326,1,52.5,8|8,0:0|0:0,0:0:0:0:
345,154,62900,2,0,L|418:154,1,52.5,8|8,0:0|0:0,0:0:0:0:
177,182,63076,6,0,P|116:232|211:280,1,210,6|10,3:2|0:0,0:0:0:0:
326,283,63606,1,0,0:0:0:0:
85,112,63782,2,0,L|85:223,1,105,2|0,3:2|0:0,0:0:0:0:
243,104,64135,2,0,L|364:104,1,105,10|0,0:0|0:0,0:0:0:0:
106,88,64488,6,0,L|106:204,1,105,2|0,3:2|0:0,0:0:0:0:
232,177,64841,2,0,L|104:177,1,105,10|0,0:0|0:0,0:0:0:0:
369,84,65194,2,0,P|411:153|287:201,1,210,2|10,3:2|0:0,0:0:0:0:
199,212,65723,1,0,0:0:0:0:
357,152,65900,6,0,L|357:283,1,105,2|0,3:2|0:0,0:0:0:0:
115,143,66253,2,0,L|11:143,1,105,6|0,0:0|0:0,0:0:0:0:
136,70,66606,2,0,L|136:182,1,105,2|0,3:2|0:0,0:0:0:0:
377,89,66958,2,0,L|487:89,1,105,6|0,0:0|0:0,0:0:0:0:
356,31,67311,6,0,L|356:177,1,105,10|10,0:0|0:0,0:0:0:0:
114,156,67664,1,10,0:0:0:0:
356,177,67841,2,0,L|446:177,1,52.5,10|8,0:0|0:0,0:0:0:0:
262,173,68017,1,10,0:0:0:0:
120,168,68194,1,10,0:0:0:0:
226,96,68370,1,10,0:0:0:0:
282,99,68458,1,8,0:0:0:0:
134,47,68546,1,10,0:0:0:0:
107,91,68634,1,8,0:0:0:0:
313,35,68723,6,0,L|454:35,1,105,6|0,3:2|0:0,0:0:0:0:
176,34,69076,2,0,L|40:34,1,105,10|0,0:0|0:0,0:0:0:0:
307,128,69429,2,0,L|452:128,1,105,2|0,3:2|0:0,0:0:0:0:
176,132,69782,1,10,0:0:0:0:
302,64,69958,2,0,L|302:180,1,105,2|0,0:0|0:0,0:0:0:0:
60,178,70311,5,2,0:0:0:0:
218,215,70488,2,0,L|103:215,1,105,10|2,0:0|0:0,0:0:0:0:
355,167,70841,2,0,P|393:217|273:298,1,210,2|10,3:2|0:0,0:0:0:0:
185,311,71370,1,0,0:0:0:0:
427,298,71547,6,0,L|483:186,1,105,2|0,3:2|0:0,0:0:0:0:
232,224,71900,2,0,L|123:224,1,105,10|0,0:0|0:0,0:0:0:0:
369,113,72253,2,0,P|422:159|318:219,1,210,2|10,3:2|0:0,0:0:0:0:
214,110,72782,1,2,0:0:0:0:
371,111,72958,6,0,L|481:111,1,105,0|2,0:0|0:0,0:0:0:0:
234,110,73311,2,0,L|120:110,1,105,10|0,0:0|0:0,0:0:0:0:
287,145,73664,2,0,L|287:254,1,105,2|0,3:2|0:0,0:0:0:0:
45,244,74017,2,0,L|124:244,1,52.5,8|8,0:0|0:0,0:0:0:0:
283,241,74194,2,0,L|200:241,1,52.5,8|8,0:0|0:0,0:0:0:0:
42,78,74370,6,0,L|42:220,1,105,6|0,3:2|0:0,0:0:0:0:
284,67,74723,2,0,L|417:66,1,105,10|0,0:0|0:0,0:0:0:0:
263,65,75076,2,0,L|263:206,1,105,2|0,3:2|0:0,0:0:0:0:
137,176,75429,2,0,L|289:176,1,105,10|0,0:0|0:0,0:0:0:0:
484,219,75782,6,0,L|484:88,1,105,2|0,3:2|0:0,0:0:0:0:
242,140,76135,2,0,L|119:140,1,105,10|0,0:0|0:0,0:0:0:0:
379,96,76488,2,0,P|439:158|331:196,1,210,2|10,3:2|0:0,0:0:0:0:
233,210,77017,1,0,0:0:0:0:
475,201,77194,6,0,L|330:201,1,105,2|0,3:2|0:0,0:0:0:0:
128,117,77547,2,0,L|128:238,1,105,6|0,0:0|0:0,0:0:0:0:
254,120,77900,2,0,L|373:120,1,105,2|0,3:2|0:0,0:0:0:0:
117,46,78253,2,0,L|117:190,1,105,6|0,0:0|0:0,0:0:0:0:
243,211,78606,6,0,L|373:211,1,105,2|10,3:2|0:0,0:0:0:0:
222,210,78958,1,10,0:0:0:0:
362,211,79135,2,0,L|435:211,1,52.5,10|8,0:0|0:0,0:0:0:0:
226,136,79311,2,0,L|162:136,1,52.5,10|0,0:0|0:0,0:0:0:0:
364,99,79488,2,0,L|441:99,1,52.5,10|0,0:0|0:0,0:0:0:0:
157,55,79664,2,0,L|262:55,1,105,10|0,0:0|0:0,0:0:0:0:
125,40,80017,5,4,0:0:0:0:
373,58,80194,1,2,0:3:0:0:
132,145,80370,2,0,L|18:145,1,105,10|2,0:0|0:3,0:0:0:0:
269,191,80723,2,0,L|384:191,2,105,2|2|10,3:2|0:3|0:0,0:0:0:0:
142,191,81253,1,2,0:3:0:0:
383,103,81429,6,0,L|383:209,1,105,2|2,3:2|0:3,0:0:0:0:
141,76,81782,2,0,L|23:76,1,105,10|2,0:0|0:3,0:0:0:0:
162,75,82135,1,2,3:2:0:0:
288,76,82311,1,2,0:3:0:0:
46,79,82488,1,10,0:0:0:0:
287,112,82664,1,2,0:3:0:0:
45,170,82841,6,0,L|45:305,1,105,2|2,3:2|0:3,0:0:0:0:
171,255,83194,2,0,L|281:255,1,105,10|2,0:0|0:3,0:0:0:0:
150,254,83547,1,2,3:2:0:0:
307,256,83723,1,2,0:3:0:0:
65,155,83900,2,0,L|65:47,1,105,10|2,0:0|0:3,0:0:0:0:
312,102,84253,6,0,L|433:102,1,105,2|2,3:2|0:3,0:0:0:0:
175,52,84606,2,0,L|64:52,1,105,10|2,0:0|0:3,0:0:0:0:
196,52,84958,1,2,3:2:0:0:
322,52,85135,1,0,0:3:0:0:
81,163,85311,2,0,L|24:163,1,52.5,8|8,0:0|0:0,0:0:0:0:
219,191,85488,2,0,L|272:191,1,52.5,8|8,0:0|0:0,0:0:0:0:
83,126,85664,5,6,0:0:0:0:
357,126,85841,1,2,0:3:0:0:
199,46,86017,2,0,L|91:46,1,105,10|2,0:0|0:3,0:0:0:0:
220,125,86370,2,0,L|326:125,1,105,2|2,3:2|0:3,0:0:0:0:
167,137,86723,2,0,L|167:243,1,105,10|2,0:0|0:3,0:0:0:0:
293,139,87076,5,2,3:2:0:0:
51,135,87253,1,2,0:3:0:0:
292,200,87429,2,0,L|413:199,1,105,10|2,0:0|0:3,0:0:0:0:
155,102,87782,2,0,L|47:102,1,105,2|2,3:2|0:3,0:0:0:0:
176,102,88135,1,10,0:0:0:0:
302,103,88311,1,2,0:3:0:0:
60,102,88488,6,0,L|60:216,1,105,2|2,3:2|0:3,0:0:0:0:
218,192,88841,2,0,L|327:192,1,105,10|2,0:0|0:3,0:0:0:0:
197,190,89194,2,0,L|76:190,1,105,2|2,3:2|0:3,0:0:0:0:
334,117,89547,2,0,L|334:229,1,105,10|2,0:0|0:3,0:0:0:0:
92,124,89900,5,10,0:0:0:0:
326,128,90253,1,10,0:0:0:0:
92,124,90606,1,10,0:0:0:0:
343,133,90958,2,0,P|391:178|310:201,1,157.5,10|6,0:0|3:2,0:0:0:0:
163,222,91311,2,0,L|295:222,1,105
198,153,91576,5,0,3:0:0:0:
48,150,91664,2,0,L|48:281,1,105,10|2,0:0|0:0,0:0:0:0:
206,273,92017,2,0,L|314:273,1,105,2|2,3:2|0:0,0:0:0:0:
258,273,92282,1,0,3:0:0:0:
69,274,92370,2,0,L|67:146,1,105,8|2,0:0|0:0,0:0:0:0:
310,164,92723,6,0,L|434:165,1,105,0|0,3:0|0:0,0:0:0:0:
362,164,92988,1,0,3:0:0:0:
173,160,93076,2,0,L|62:160,1,105,10|2,0:0|0:0,0:0:0:0:
310,73,93429,2,0,L|423:73,1,105,2|2,3:2|0:0,0:0:0:0:
362,70,93694,1,0,3:0:0:0:
173,71,93782,2,0,L|57:71,1,105,10|2,0:0|0:0,0:0:0:0:
310,168,94135,6,0,L|310:289,1,105,2|0,3:2|0:0,0:0:0:0:
257,262,94400,1,0,3:0:0:0:
68,208,94488,2,0,L|179:207,1,105,10|2,0:0|0:0,0:0:0:0:
415,178,94841,2,0,L|261:178,1,105,2|2,3:2|0:0,0:0:0:0:
246,179,95106,1,0,3:0:0:0:
435,77,95194,2,0,L|427:194,1,105,8|2,0:0|0:0,0:0:0:0:
301,68,95547,6,0,L|186:68,1,105,0|2,3:0|0:0,0:0:0:0:
249,67,95811,1,0,3:0:0:0:
440,66,95900,1,10,0:0:0:0:
199,169,96076,2,0,L|90:168,1,105,2|2,0:0|3:2,0:0:0:0:
220,167,96429,1,2,0:0:0:0:
378,184,96606,2,0,L|432:184,1,52.5,10|8,0:0|0:0,0:0:0:0:
242,92,96782,2,0,L|175:92,1,52.5,10|8,0:0|0:0,0:0:0:0:
378,64,96958,6,0,P|437:117|339:180,1,210,2|10,3:2|0:0,0:0:0:0:
233,189,97488,1,2,0:0:0:0:
474,87,97664,2,0,L|474:200,1,105,2|2,3:2|0:0,0:0:0:0:
421,188,97929,1,0,3:0:0:0:
232,89,98017,1,8,0:0:0:0:
358,85,98194,2,0,L|252:85,1,105,2|0,0:0|3:2,0:0:0:0:
127,85,98547,5,0,0:0:0:0:
64,84,98635,1,0,3:0:0:0:
253,79,98723,2,0,L|365:79,1,105,10|2,0:0|0:0,0:0:0:0:
116,153,99076,2,0,L|116:266,1,105,2|2,3:2|0:0,0:0:0:0:
181,269,99341,1,0,3:0:0:0:
333,175,99429,2,0,L|203:175,1,105,10|2,0:0|0:0,0:0:0:0:
470,227,99782,5,2,3:2:0:0:
229,240,99958,1,10,0:0:0:0:
440,229,100311,1,10,0:0:0:0:
187,234,100664,1,10,0:0:0:0:
461,216,101017,1,10,0:0:0:0:
145,217,101194,5,10,0:0:0:0:
