osu file format v14

[General]
AudioFilename: audiopeko.mp3
AudioLeadIn: 0
PreviewTime: 42926
Countdown: 0
SampleSet: Normal
StackLeniency: 0.7
Mode: 1
LetterboxInBreaks: 0
WidescreenStoryboard: 0

[Editor]
DistanceSpacing: 0.9
BeatDivisor: 4
GridSize: 32
TimelineZoom: 2.100001

[Metadata]
Title:Cinderella
TitleUnicode:シンデレラ
Artist:Usada Pekora
ArtistUnicode:兎田ぺこら
Creator:Maimaing
Version:Inner Oni
Source:
Tags:hololive ホロライブ vtuber virtual youtuber 3rd gen DECO*27 初音ミク hatsune miku vocaloid japanese pop jpop j-pop cover
BeatmapID:3252908
BeatmapSetID:1592734

[Difficulty]
HPDrainRate:6
CircleSize:5
OverallDifficulty:6
ApproachRate:5
SliderMultiplier:1.4
SliderTickRate:1

[Events]
//Background and Video events
0,0,"a.jpg",0,55
//Break Periods
2,104076,108752
//Storyboard Layer 0 (Background)
//Storyboard Layer 1 (Fail)
//Storyboard Layer 2 (Pass)
//Storyboard Layer 3 (Foreground)
//Storyboard Layer 4 (Overlay)
//Storyboard Sound Samples

[TimingPoints]
585,379.746835443038,4,1,0,70,1,0
585,-133.333333333333,4,1,0,70,0,0
3528,-111.111111111111,4,1,0,70,0,0
6471,-100,4,1,0,70,0,0
18622,-111.111111111111,4,1,0,70,0,0
30774,-133.333333333333,4,1,0,70,0,0
36945,-71.4285714285714,4,1,0,70,0,0
37610,-125,4,1,0,70,0,0
38369,-71.4285714285714,4,1,0,70,0,0
39129,-133.333333333333,4,1,0,70,0,0
39888,-71.4285714285714,4,1,0,70,0,0
40268,-100,4,1,0,70,0,0
40695,-71.4285714285714,4,1,0,70,0,0
41028,-98.159509202454,4,1,0,70,0,0
41360,-96.3855421686747,4,1,0,70,0,0
41455,-94.6745562130178,4,1,0,70,0,0
41550,-93.0232558139535,4,1,0,70,0,0
41645,-91.4285714285714,4,1,0,70,0,0
41740,-89.8876404494382,4,1,0,70,0,0
41835,-88.3977900552486,4,1,0,70,0,0
41929,-86.9565217391304,4,1,0,70,0,0
42024,-85.5614973262032,4,1,0,70,0,0
42119,-84.2105263157895,4,1,0,70,0,0
42214,-82.9015544041451,4,1,0,70,0,0
42309,-81.6326530612245,4,1,0,70,0,0
42404,-80.4020100502513,4,1,0,70,0,0
42499,-79.2079207920792,4,1,0,70,0,0
42594,-78.0487804878049,4,1,0,70,0,0
42689,-76.9230769230769,4,1,0,70,0,0
43116,-100,4,1,0,70,0,0
43448,-66.6666666666667,4,1,0,70,0,0
43496,-66.6666666666667,4,1,0,80,0,1
43828,-90.9090909090909,4,1,0,80,0,1
67372,-111.111111111111,4,1,0,80,0,1
67420,-111.111111111111,4,1,0,70,0,0
72689,-109.090909090909,4,1,0,70,0,0
72784,-107.142857142857,4,1,0,70,0,0
72879,-105.263157894737,4,1,0,70,0,0
72974,-103.448275862069,4,1,0,70,0,0
73069,-101.694915254237,4,1,0,70,0,0
73164,-100,4,1,0,70,0,0
73259,-98.3606557377049,4,1,0,70,0,0
73353,-96.7741935483871,4,1,0,70,0,0
73448,-95.2380952380952,4,1,0,70,0,0
79572,-100,4,1,0,70,0,0
79904,-71.4285714285714,4,1,0,70,0,0
79952,-71.4285714285714,4,1,0,80,0,1
80284,-90.9090909090909,4,1,0,80,0,1
91676,-100,4,1,0,80,0,1
91724,-100,4,1,0,70,0,0
97752,-76.9230769230769,4,1,0,70,0,0
99224,-100,4,1,0,70,0,0
100790,-76.9230769230769,4,1,0,70,0,0
102309,-83.3333333333333,4,1,0,70,0,0
103069,-90.9090909090909,4,1,0,70,0,0
103448,-66.6666666666667,4,1,0,70,0,0
103876,-100,4,1,0,70,0,0
111281,-90.9090909090909,4,1,0,70,0,0
112800,-83.3333333333333,4,1,0,70,0,0
113797,-81.3008130081301,4,1,0,70,0,0
113891,-79.3650793650794,4,1,0,70,0,0
113986,-77.5193798449612,4,1,0,70,0,0
114081,-75.7575757575758,4,1,0,70,0,0
114176,-74.0740740740741,4,1,0,70,0,0
114271,-72.463768115942,4,1,0,70,0,0
114366,-70.9219858156028,4,1,0,70,0,0
114651,-76.3358778625954,4,1,0,70,0,0
115031,-82.6446280991736,4,1,0,70,0,0
115221,-90.0900900900901,4,1,0,70,0,0
115600,-66.6666666666667,4,1,0,70,0,0
115980,-76.9230769230769,4,1,0,70,0,0
117547,-90.9090909090909,4,1,0,70,0,0
117879,-71.4285714285714,4,1,0,70,0,0
117926,-71.4285714285714,4,1,0,80,0,1
118116,-90.9090909090909,4,1,0,80,0,1
128085,-83.3333333333333,4,1,0,80,0,1
128274,-86.9565217391304,4,1,0,80,0,1
140236,-80,4,1,0,80,0,1
140426,-83.3333333333333,4,1,0,80,0,1
152483,-100,4,1,0,70,0,0

[HitObjects]
171,222,585,5,12,0:0:0:0:
156,102,964,1,8,0:0:0:0:
171,222,1344,1,12,0:0:0:0:
156,102,1534,1,0,0:0:0:0:
173,37,1724,1,8,0:0:0:0:
173,37,1914,1,8,0:0:0:0:
171,222,2103,1,4,0:0:0:0:
38,98,2483,1,8,0:0:0:0:
38,98,2673,1,8,0:0:0:0:
171,222,2863,1,4,0:0:0:0:
38,98,3053,1,8,0:0:0:0:
38,98,3433,1,8,0:0:0:0:
38,98,3622,1,4,0:0:0:0:
301,134,3812,1,0,0:0:0:0:
301,134,3907,1,0,0:0:0:0:
301,134,4002,1,8,0:0:0:0:
301,134,4192,1,0,0:0:0:0:
301,134,4382,1,8,0:0:0:0:
166,176,4477,1,0,0:0:0:0:
166,176,4572,1,0,0:0:0:0:
166,176,4667,1,0,0:0:0:0:
301,134,4762,1,8,0:0:0:0:
301,134,4952,1,4,0:0:0:0:
180,82,5331,1,8,0:0:0:0:
180,82,5426,1,8,0:0:0:0:
180,82,5521,1,8,0:0:0:0:
180,82,5711,1,0,0:0:0:0:
180,82,5901,1,8,0:0:0:0:
202,165,5996,1,0,0:0:0:0:
180,82,6091,1,8,0:0:0:0:
202,165,6186,1,0,0:0:0:0:
180,82,6281,1,8,0:0:0:0:
344,165,6660,1,4,0:0:0:0:
204,224,6945,1,8,0:0:0:0:
204,224,7040,1,0,0:0:0:0:
204,224,7230,1,8,0:0:0:0:
204,224,7420,1,0,0:0:0:0:
204,224,7610,1,8,0:0:0:0:
204,224,7705,1,0,0:0:0:0:
204,224,7800,1,8,0:0:0:0:
204,224,7990,1,8,0:0:0:0:
54,140,8179,1,0,0:0:0:0:
54,140,8369,1,8,0:0:0:0:
54,140,8464,1,8,0:0:0:0:
54,140,8559,1,0,0:0:0:0:
54,140,8749,1,8,0:0:0:0:
54,140,8939,1,0,0:0:0:0:
221,61,9034,1,0,0:0:0:0:
54,140,9129,1,8,0:0:0:0:
206,190,9224,1,0,0:0:0:0:
54,140,9319,1,8,0:0:0:0:
152,100,9509,1,8,0:0:0:0:
159,104,9698,1,0,0:0:0:0:
290,119,9983,1,8,0:0:0:0:
290,119,10078,1,0,0:0:0:0:
74,227,10268,1,8,0:0:0:0:
182,192,10458,1,0,0:0:0:0:
348,101,10648,1,8,0:0:0:0:
182,192,10743,1,8,0:0:0:0:
182,192,10838,1,0,0:0:0:0:
156,116,11028,1,8,0:0:0:0:
52,235,11217,1,0,0:0:0:0:
52,235,11407,1,8,0:0:0:0:
52,235,11502,1,0,0:0:0:0:
52,235,11597,1,8,0:0:0:0:
52,235,11787,1,8,0:0:0:0:
52,235,11977,1,0,0:0:0:0:
52,235,12072,1,0,0:0:0:0:
52,235,12167,1,8,0:0:0:0:
52,235,12262,1,0,0:0:0:0:
52,235,12357,1,8,0:0:0:0:
193,76,12452,1,8,0:0:0:0:
193,76,12547,1,8,0:0:0:0:
266,158,12736,1,4,0:0:0:0:
351,247,13021,1,8,0:0:0:0:
351,247,13116,1,0,0:0:0:0:
351,247,13306,1,8,0:0:0:0:
351,247,13496,1,0,0:0:0:0:
286,239,13686,1,8,0:0:0:0:
351,247,13781,1,0,0:0:0:0:
351,247,13876,1,8,0:0:0:0:
351,247,14066,1,8,0:0:0:0:
306,111,14255,1,0,0:0:0:0:
306,111,14445,1,8,0:0:0:0:
306,111,14540,1,8,0:0:0:0:
306,111,14635,1,0,0:0:0:0:
306,111,14825,1,8,0:0:0:0:
306,111,15015,1,0,0:0:0:0:
72,123,15110,1,0,0:0:0:0:
141,145,15205,1,8,0:0:0:0:
141,145,15300,1,0,0:0:0:0:
306,111,15395,1,8,0:0:0:0:
306,111,15585,1,8,0:0:0:0:
95,114,15774,1,0,0:0:0:0:
95,114,15964,1,0,0:0:0:0:
95,114,16059,1,8,0:0:0:0:
95,114,16154,1,0,0:0:0:0:
95,114,16344,1,8,0:0:0:0:
41,158,16534,1,0,0:0:0:0:
41,158,16724,1,0,0:0:0:0:
41,158,16819,1,8,0:0:0:0:
41,158,16914,1,0,0:0:0:0:
41,158,17009,1,0,0:0:0:0:
41,158,17103,1,8,0:0:0:0:
127,104,17198,1,0,0:0:0:0:
127,104,17293,1,8,0:0:0:0:
313,143,17483,1,8,0:0:0:0:
313,143,17578,1,8,0:0:0:0:
313,143,17673,1,0,0:0:0:0:
313,143,17768,1,8,0:0:0:0:
313,143,17863,1,0,0:0:0:0:
313,143,17958,1,0,0:0:0:0:
285,74,18053,1,8,0:0:0:0:
225,144,18148,1,0,0:0:0:0:
350,118,18243,1,0,0:0:0:0:
350,118,18306,1,0,0:0:0:0:
350,118,18369,1,0,0:0:0:0:
154,139,18433,1,8,0:0:0:0:
374,277,18812,1,0,0:0:0:0:
374,277,19002,1,8,0:0:0:0:
374,277,19097,1,8,0:0:0:0:
374,277,19192,1,0,0:0:0:0:
374,277,19287,1,8,0:0:0:0:
374,277,19477,1,8,0:0:0:0:
374,277,19572,1,0,0:0:0:0:
374,277,19762,1,0,0:0:0:0:
374,277,19857,1,8,0:0:0:0:
366,273,19952,1,0,0:0:0:0:
364,273,20047,1,0,0:0:0:0:
363,272,20141,1,8,0:0:0:0:
136,172,20331,1,0,0:0:0:0:
136,172,20521,1,8,0:0:0:0:
136,172,20616,1,8,0:0:0:0:
136,172,20711,1,0,0:0:0:0:
318,175,20806,1,0,0:0:0:0:
136,172,20901,1,8,0:0:0:0:
136,172,21091,1,0,0:0:0:0:
136,172,21186,1,8,0:0:0:0:
136,172,21376,1,8,0:0:0:0:
136,172,21471,1,0,0:0:0:0:
136,172,21566,1,0,0:0:0:0:
136,172,21660,1,8,0:0:0:0:
229,88,21850,1,0,0:0:0:0:
229,88,22040,1,8,0:0:0:0:
229,88,22135,1,0,0:0:0:0:
229,88,22230,1,8,0:0:0:0:
221,81,22420,1,0,0:0:0:0:
216,79,22610,1,8,0:0:0:0:
216,79,22800,1,8,0:0:0:0:
216,79,22990,1,0,0:0:0:0:
216,79,23179,1,8,0:0:0:0:
223,119,23274,1,8,0:0:0:0:
216,79,23369,1,0,0:0:0:0:
216,79,23559,1,0,0:0:0:0:
141,97,23749,1,8,0:0:0:0:
141,97,23939,1,8,0:0:0:0:
141,97,24129,1,0,0:0:0:0:
141,97,24224,1,8,0:0:0:0:
141,97,24319,1,0,0:0:0:0:
141,97,24414,1,0,0:0:0:0:
141,97,24509,1,8,0:0:0:0:
211,145,24888,1,0,0:0:0:0:
211,145,25078,1,8,0:0:0:0:
211,145,25173,1,0,0:0:0:0:
211,145,25268,1,0,0:0:0:0:
211,145,25363,1,8,0:0:0:0:
211,145,25553,1,8,0:0:0:0:
211,145,25648,1,0,0:0:0:0:
211,145,25838,1,0,0:0:0:0:
198,149,25933,1,8,0:0:0:0:
198,149,26028,1,8,0:0:0:0:
211,145,26122,1,0,0:0:0:0:
198,149,26217,1,8,0:0:0:0:
312,122,26407,1,0,0:0:0:0:
312,122,26597,1,8,0:0:0:0:
312,122,26692,1,8,0:0:0:0:
312,122,26787,1,0,0:0:0:0:
308,117,26882,1,8,0:0:0:0:
197,156,26977,1,0,0:0:0:0:
308,117,27072,1,0,0:0:0:0:
307,117,27167,1,8,0:0:0:0:
451,156,27262,1,8,0:0:0:0:
307,117,27452,1,8,0:0:0:0:
307,117,27547,1,0,0:0:0:0:
307,117,27641,1,0,0:0:0:0:
141,82,27736,1,8,0:0:0:0:
229,88,27926,1,0,0:0:0:0:
229,88,28116,1,8,0:0:0:0:
229,88,28211,1,0,0:0:0:0:
229,88,28306,1,8,0:0:0:0:
221,81,28496,1,0,0:0:0:0:
216,79,28686,1,8,0:0:0:0:
216,79,28876,1,8,0:0:0:0:
216,79,29066,1,0,0:0:0:0:
216,79,29255,1,8,0:0:0:0:
223,119,29350,1,8,0:0:0:0:
216,79,29445,1,0,0:0:0:0:
391,193,29635,1,0,0:0:0:0:
336,173,29730,1,0,0:0:0:0:
141,97,29825,1,8,0:0:0:0:
291,83,29920,1,0,0:0:0:0:
141,97,30015,1,8,0:0:0:0:
141,97,30205,1,8,0:0:0:0:
141,97,30300,1,0,0:0:0:0:
141,97,30395,1,0,0:0:0:0:
141,97,30458,1,0,0:0:0:0:
257,188,30521,1,0,0:0:0:0:
141,97,30585,1,8,0:0:0:0:
371,142,30964,1,12,0:0:0:0:
251,137,31344,1,0,0:0:0:0:
251,137,31724,1,8,0:0:0:0:
251,137,32009,1,8,0:0:0:0:
251,137,32293,1,8,0:0:0:0:
289,110,32483,1,0,0:0:0:0:
289,110,32578,1,0,0:0:0:0:
289,110,32673,1,0,0:0:0:0:
289,110,32863,1,8,0:0:0:0:
289,110,33148,1,8,0:0:0:0:
289,110,33338,1,8,0:0:0:0:
289,110,33433,1,0,0:0:0:0:
289,110,33528,1,0,0:0:0:0:
289,110,33622,1,8,0:0:0:0:
289,110,33812,1,8,0:0:0:0:
126,77,34002,1,0,0:0:0:0:
126,77,34382,1,0,0:0:0:0:
289,110,34762,1,8,0:0:0:0:
173,97,35047,1,8,0:0:0:0:
173,97,35141,1,0,0:0:0:0:
173,97,35331,1,8,0:0:0:0:
173,97,35521,1,0,0:0:0:0:
173,97,35616,1,0,0:0:0:0:
173,97,35711,1,0,0:0:0:0:
173,97,35901,1,8,0:0:0:0:
173,97,36091,1,0,0:0:0:0:
173,97,36186,1,0,0:0:0:0:
173,97,36281,1,8,0:0:0:0:
173,97,36471,1,0,0:0:0:0:
173,97,36660,1,8,0:0:0:0:
173,97,36755,1,8,0:0:0:0:
173,97,36850,1,8,0:0:0:0:
68,205,37040,1,4,0:0:0:0:
272,144,37800,1,8,0:0:0:0:
272,144,38559,1,4,0:0:0:0:
272,144,39319,1,8,0:0:0:0:
183,199,40078,1,4,0:0:0:0:
183,199,40458,1,8,0:0:0:0:
183,199,40838,1,4,0:0:0:0:
183,199,41217,1,8,0:0:0:0:
278,216,41407,1,0,0:0:0:0:
278,216,41502,1,0,0:0:0:0:
278,216,41597,1,8,0:0:0:0:
278,216,41787,1,0,0:0:0:0:
278,216,41977,1,8,0:0:0:0:
185,129,42072,1,8,0:0:0:0:
278,216,42167,1,0,0:0:0:0:
185,129,42262,1,0,0:0:0:0:
278,216,42357,1,8,0:0:0:0:
235,107,42547,1,8,0:0:0:0:
256,192,42736,8,8,43116,0:0:0:0:
161,116,43496,5,12,0:0:0:0:
314,204,43876,1,0,0:0:0:0:
314,204,44160,1,0,0:0:0:0:
314,204,44255,1,8,0:0:0:0:
314,204,44445,1,8,0:0:0:0:
314,204,44635,1,0,0:0:0:0:
314,204,44825,1,8,0:0:0:0:
164,158,44920,1,8,0:0:0:0:
314,204,45015,1,0,0:0:0:0:
314,204,45205,1,8,0:0:0:0:
314,204,45395,1,0,0:0:0:0:
314,204,45490,1,0,0:0:0:0:
314,204,45585,1,8,0:0:0:0:
314,204,45679,1,8,0:0:0:0:
314,204,45774,1,0,0:0:0:0:
156,78,45964,1,0,0:0:0:0:
156,78,46154,1,8,0:0:0:0:
156,78,46344,1,0,0:0:0:0:
156,78,46439,1,0,0:0:0:0:
156,78,46534,1,8,0:0:0:0:
156,78,46724,1,0,0:0:0:0:
156,78,46914,1,8,0:0:0:0:
156,78,47009,1,0,0:0:0:0:
156,78,47198,1,0,0:0:0:0:
156,78,47293,1,8,0:0:0:0:
156,78,47483,1,8,0:0:0:0:
251,138,47673,1,0,0:0:0:0:
251,138,47863,1,8,0:0:0:0:
251,138,47958,1,8,0:0:0:0:
251,138,48053,1,0,0:0:0:0:
251,138,48243,1,8,0:0:0:0:
302,144,48433,1,0,0:0:0:0:
251,138,48528,1,0,0:0:0:0:
251,138,48622,1,8,0:0:0:0:
251,138,48717,1,8,0:0:0:0:
251,138,48812,1,0,0:0:0:0:
153,154,49002,1,8,0:0:0:0:
72,188,49192,1,0,0:0:0:0:
72,188,49477,1,0,0:0:0:0:
72,187,49572,1,8,0:0:0:0:
72,187,49762,1,0,0:0:0:0:
72,187,49952,1,8,0:0:0:0:
327,65,50047,1,8,0:0:0:0:
71,115,50141,1,0,0:0:0:0:
71,115,50236,1,0,0:0:0:0:
71,115,50331,1,8,0:0:0:0:
201,119,50521,1,8,0:0:0:0:
201,119,50711,1,0,0:0:0:0:
201,119,50901,1,8,0:0:0:0:
84,168,50996,1,8,0:0:0:0:
158,95,51091,1,0,0:0:0:0:
123,107,51281,1,0,0:0:0:0:
123,107,51471,1,8,0:0:0:0:
123,107,51566,1,0,0:0:0:0:
123,107,51660,1,8,0:0:0:0:
123,107,51755,1,8,0:0:0:0:
123,107,51850,1,0,0:0:0:0:
37,150,52040,1,0,0:0:0:0:
37,150,52230,1,8,0:0:0:0:
37,150,52420,1,0,0:0:0:0:
37,150,52515,1,0,0:0:0:0:
37,150,52610,1,8,0:0:0:0:
37,150,52800,1,0,0:0:0:0:
37,150,52990,1,8,0:0:0:0:
37,150,53085,1,0,0:0:0:0:
264,239,53274,1,0,0:0:0:0:
264,239,53369,1,8,0:0:0:0:
337,201,53559,1,8,0:0:0:0:
337,201,53749,1,0,0:0:0:0:
337,201,53939,1,8,0:0:0:0:
337,201,54034,1,8,0:0:0:0:
337,201,54129,1,0,0:0:0:0:
337,201,54319,1,8,0:0:0:0:
337,201,54509,1,0,0:0:0:0:
337,201,54603,1,0,0:0:0:0:
337,201,54698,1,8,0:0:0:0:
337,201,54793,1,8,0:0:0:0:
337,201,54888,1,8,0:0:0:0:
337,201,55078,1,0,0:0:0:0:
126,107,55268,1,12,0:0:0:0:
88,96,55553,1,0,0:0:0:0:
73,91,55648,1,8,0:0:0:0:
73,91,55838,1,0,0:0:0:0:
196,237,56028,1,8,0:0:0:0:
196,237,56122,1,8,0:0:0:0:
196,237,56217,1,0,0:0:0:0:
196,237,56312,1,0,0:0:0:0:
196,237,56407,1,8,0:0:0:0:
196,237,56597,1,8,0:0:0:0:
196,237,56787,1,0,0:0:0:0:
196,237,56882,1,0,0:0:0:0:
196,237,57072,1,0,0:0:0:0:
196,237,57167,1,8,0:0:0:0:
196,237,57357,1,0,0:0:0:0:
338,178,57547,1,8,0:0:0:0:
192,77,57641,1,0,0:0:0:0:
338,178,57736,1,8,0:0:0:0:
338,178,57831,1,8,0:0:0:0:
338,178,57926,1,0,0:0:0:0:
338,178,58116,1,8,0:0:0:0:
221,71,58306,1,0,0:0:0:0:
221,71,58496,1,0,0:0:0:0:
221,71,58591,1,0,0:0:0:0:
221,71,58686,1,8,0:0:0:0:
276,106,58781,1,0,0:0:0:0:
221,71,58876,1,8,0:0:0:0:
221,71,59066,1,8,0:0:0:0:
194,138,59255,1,0,0:0:0:0:
194,138,59350,1,0,0:0:0:0:
194,138,59445,1,8,0:0:0:0:
182,178,59635,1,8,0:0:0:0:
182,178,59825,1,0,0:0:0:0:
182,178,60015,1,8,0:0:0:0:
182,178,60110,1,8,0:0:0:0:
182,178,60205,1,0,0:0:0:0:
182,178,60395,1,0,0:0:0:0:
182,178,60585,1,8,0:0:0:0:
182,178,60679,1,0,0:0:0:0:
182,178,60774,1,0,0:0:0:0:
182,178,60964,1,8,0:0:0:0:
171,222,61344,1,8,0:0:0:0:
299,237,61629,1,0,0:0:0:0:
156,102,61723,1,8,0:0:0:0:
420,153,61914,1,0,0:0:0:0:
171,222,62103,1,8,0:0:0:0:
426,122,62198,1,0,0:0:0:0:
156,102,62293,1,0,0:0:0:0:
426,122,62388,1,0,0:0:0:0:
173,37,62483,1,8,0:0:0:0:
173,37,62673,1,8,0:0:0:0:
171,222,62862,1,0,0:0:0:0:
306,140,62958,1,8,0:0:0:0:
306,140,63148,1,8,0:0:0:0:
38,98,63242,1,0,0:0:0:0:
38,98,63432,1,8,0:0:0:0:
171,222,63622,1,0,0:0:0:0:
333,131,63717,1,0,0:0:0:0:
38,98,63812,1,8,0:0:0:0:
333,131,63907,1,0,0:0:0:0:
333,131,64002,1,8,0:0:0:0:
38,98,64192,1,8,0:0:0:0:
38,98,64381,1,4,0:0:0:0:
301,134,64571,1,0,0:0:0:0:
301,134,64666,1,0,0:0:0:0:
301,134,64761,1,8,0:0:0:0:
301,134,64951,1,0,0:0:0:0:
301,134,65141,1,8,0:0:0:0:
166,176,65236,1,0,0:0:0:0:
166,176,65331,1,0,0:0:0:0:
166,176,65426,1,0,0:0:0:0:
301,134,65521,1,8,0:0:0:0:
301,134,65711,1,4,0:0:0:0:
180,82,66090,1,8,0:0:0:0:
180,82,66185,1,8,0:0:0:0:
180,82,66280,1,8,0:0:0:0:
180,82,66470,1,0,0:0:0:0:
180,82,66660,1,8,0:0:0:0:
202,165,66755,1,0,0:0:0:0:
180,82,66850,1,8,0:0:0:0:
202,165,66945,1,0,0:0:0:0:
180,82,67040,1,8,0:0:0:0:
75,230,67420,1,0,0:0:0:0:
75,230,67705,1,8,0:0:0:0:
75,230,67800,1,0,0:0:0:0:
75,230,67990,1,8,0:0:0:0:
75,230,68179,1,0,0:0:0:0:
156,162,68274,1,0,0:0:0:0:
156,162,68369,1,0,0:0:0:0:
234,113,68464,1,8,0:0:0:0:
234,113,68559,1,0,0:0:0:0:
234,113,68749,1,8,0:0:0:0:
75,230,68939,1,0,0:0:0:0:
96,89,69224,1,8,0:0:0:0:
96,89,69319,1,0,0:0:0:0:
96,89,69509,1,8,0:0:0:0:
96,89,69698,1,0,0:0:0:0:
143,235,69793,1,8,0:0:0:0:
232,193,69888,1,0,0:0:0:0:
232,193,69983,1,0,0:0:0:0:
232,193,70078,1,8,0:0:0:0:
96,89,70268,1,8,0:0:0:0:
236,256,70458,1,0,0:0:0:0:
236,256,70648,1,8,0:0:0:0:
236,256,70743,1,8,0:0:0:0:
236,256,70838,1,8,0:0:0:0:
236,256,71028,1,0,0:0:0:0:
236,256,71217,1,8,0:0:0:0:
81,224,71312,1,0,0:0:0:0:
236,256,71407,1,8,0:0:0:0:
236,256,71502,1,8,0:0:0:0:
236,256,71597,1,0,0:0:0:0:
191,171,71787,1,8,0:0:0:0:
360,140,71977,1,0,0:0:0:0:
360,140,72167,1,0,0:0:0:0:
360,140,72262,1,8,0:0:0:0:
360,140,72357,1,8,0:0:0:0:
360,140,72547,1,0,0:0:0:0:
360,140,72736,1,8,0:0:0:0:
149,171,72831,1,0,0:0:0:0:
360,140,73021,1,0,0:0:0:0:
360,140,73116,1,8,0:0:0:0:
360,140,73306,1,8,0:0:0:0:
73,137,73496,1,0,0:0:0:0:
248,117,73781,1,8,0:0:0:0:
248,117,73876,1,0,0:0:0:0:
248,117,74066,1,8,0:0:0:0:
221,141,74255,1,0,0:0:0:0:
221,141,74445,1,0,0:0:0:0:
221,141,74540,1,8,0:0:0:0:
221,141,74635,1,0,0:0:0:0:
221,141,74825,1,8,0:0:0:0:
221,141,75015,1,0,0:0:0:0:
247,41,75110,1,0,0:0:0:0:
197,100,75300,1,8,0:0:0:0:
197,100,75395,1,0,0:0:0:0:
197,100,75585,1,8,0:0:0:0:
197,100,75774,1,0,0:0:0:0:
264,192,75869,1,0,0:0:0:0:
197,100,75964,1,8,0:0:0:0:
197,100,76059,1,0,0:0:0:0:
197,100,76154,1,8,0:0:0:0:
32,131,76344,1,8,0:0:0:0:
32,131,76534,1,0,0:0:0:0:
32,131,76724,1,0,0:0:0:0:
32,131,76819,1,0,0:0:0:0:
32,131,76914,1,8,0:0:0:0:
32,131,77103,1,0,0:0:0:0:
32,131,77293,1,8,0:0:0:0:
32,131,77388,1,0,0:0:0:0:
32,131,77483,1,8,0:0:0:0:
32,131,77578,1,8,0:0:0:0:
32,131,77673,1,0,0:0:0:0:
260,138,77863,1,8,0:0:0:0:
334,205,78053,1,0,0:0:0:0:
334,205,78243,1,0,0:0:0:0:
334,205,78338,1,8,0:0:0:0:
330,195,78433,1,0,0:0:0:0:
328,193,78622,1,0,0:0:0:0:
326,191,78717,1,8,0:0:0:0:
326,191,78812,1,0,0:0:0:0:
324,178,79002,1,8,0:0:0:0:
256,192,79192,8,0,79572,0:0:0:0:
134,162,79952,5,12,0:0:0:0:
314,204,80331,1,0,0:0:0:0:
314,204,80615,1,0,0:0:0:0:
314,204,80710,1,8,0:0:0:0:
314,204,80900,1,8,0:0:0:0:
314,204,81090,1,0,0:0:0:0:
314,204,81280,1,8,0:0:0:0:
164,158,81375,1,8,0:0:0:0:
314,204,81470,1,0,0:0:0:0:
314,204,81660,1,8,0:0:0:0:
314,204,81850,1,0,0:0:0:0:
314,204,81945,1,0,0:0:0:0:
314,204,82040,1,8,0:0:0:0:
314,204,82134,1,8,0:0:0:0:
314,204,82229,1,0,0:0:0:0:
156,78,82419,1,0,0:0:0:0:
156,78,82609,1,8,0:0:0:0:
156,78,82799,1,0,0:0:0:0:
156,78,82894,1,0,0:0:0:0:
156,78,82989,1,8,0:0:0:0:
156,78,83179,1,0,0:0:0:0:
156,78,83369,1,8,0:0:0:0:
156,78,83464,1,0,0:0:0:0:
156,78,83654,1,0,0:0:0:0:
156,78,83748,1,8,0:0:0:0:
156,78,83938,1,8,0:0:0:0:
251,138,84128,1,0,0:0:0:0:
251,138,84318,1,8,0:0:0:0:
251,138,84413,1,8,0:0:0:0:
251,138,84508,1,0,0:0:0:0:
251,138,84698,1,8,0:0:0:0:
302,144,84888,1,0,0:0:0:0:
251,138,84983,1,0,0:0:0:0:
251,138,85077,1,8,0:0:0:0:
251,138,85172,1,8,0:0:0:0:
251,138,85267,1,0,0:0:0:0:
153,154,85457,1,8,0:0:0:0:
72,188,85647,1,0,0:0:0:0:
72,188,85932,1,0,0:0:0:0:
72,187,86027,1,8,0:0:0:0:
72,187,86217,1,0,0:0:0:0:
121,111,86407,1,8,0:0:0:0:
67,101,86502,1,0,0:0:0:0:
71,115,86596,1,0,0:0:0:0:
71,115,86691,1,0,0:0:0:0:
71,115,86786,1,8,0:0:0:0:
201,119,86976,1,8,0:0:0:0:
201,119,87166,1,0,0:0:0:0:
201,119,87356,1,8,0:0:0:0:
84,168,87452,1,8,0:0:0:0:
158,95,87547,1,0,0:0:0:0:
123,107,87736,1,0,0:0:0:0:
123,107,87926,1,8,0:0:0:0:
123,107,88021,1,8,0:0:0:0:
123,107,88115,1,0,0:0:0:0:
123,107,88210,1,8,0:0:0:0:
123,107,88305,1,0,0:0:0:0:
37,150,88495,1,0,0:0:0:0:
37,150,88685,1,8,0:0:0:0:
37,150,88875,1,0,0:0:0:0:
37,150,88970,1,0,0:0:0:0:
37,150,89065,1,8,0:0:0:0:
37,150,89255,1,0,0:0:0:0:
264,239,89445,1,8,0:0:0:0:
264,239,89540,1,0,0:0:0:0:
264,239,89729,1,0,0:0:0:0:
264,239,89824,1,8,0:0:0:0:
337,201,90014,1,8,0:0:0:0:
141,209,90205,1,0,0:0:0:0:
141,209,90300,1,0,0:0:0:0:
141,209,90395,1,8,0:0:0:0:
141,209,90490,1,0,0:0:0:0:
141,209,90585,1,8,0:0:0:0:
141,209,90679,1,8,0:0:0:0:
141,209,90774,1,8,0:0:0:0:
141,209,90869,1,0,0:0:0:0:
141,209,90964,1,8,0:0:0:0:
186,200,91154,1,0,0:0:0:0:
186,200,91249,1,8,0:0:0:0:
176,194,91344,1,8,0:0:0:0:
175,194,91534,1,8,0:0:0:0:
102,145,91724,1,0,0:0:0:0:
86,71,92483,1,8,0:0:0:0:
86,71,93053,1,0,0:0:0:0:
86,71,93243,1,0,0:0:0:0:
105,69,93812,1,0,0:0:0:0:
86,71,94002,1,8,0:0:0:0:
156,79,94382,1,8,0:0:0:0:
156,79,94762,1,0,0:0:0:0:
156,79,95331,1,0,0:0:0:0:
156,79,95521,1,8,0:0:0:0:
156,79,96091,1,0,0:0:0:0:
156,79,96281,1,0,0:0:0:0:
156,79,97040,1,8,0:0:0:0:
156,79,97230,1,0,0:0:0:0:
156,79,97420,1,8,0:0:0:0:
156,79,97800,1,12,0:0:0:0:
156,79,98179,1,12,0:0:0:0:
156,79,98559,1,4,0:0:0:0:
150,80,98939,1,12,0:0:0:0:
256,187,99319,1,0,0:0:0:0:
256,187,99509,1,0,0:0:0:0:
256,187,99603,1,0,0:0:0:0:
236,247,99698,1,8,0:0:0:0:
236,247,99762,1,8,0:0:0:0:
236,247,99825,1,8,0:0:0:0:
236,247,99888,1,0,0:0:0:0:
402,173,99983,1,8,0:0:0:0:
402,173,100078,1,0,0:0:0:0:
402,173,100173,1,8,0:0:0:0:
402,173,100268,1,0,0:0:0:0:
402,173,100363,1,0,0:0:0:0:
13,158,100458,1,8,0:0:0:0:
217,141,100648,1,8,0:0:0:0:
263,86,100838,1,4,0:0:0:0:
263,86,101217,1,4,0:0:0:0:
263,86,101597,1,12,0:0:0:0:
263,86,101977,1,12,0:0:0:0:
56,204,102357,1,0,0:0:0:0:
56,204,103116,1,0,0:0:0:0:
256,192,103496,8,8,103876,0:0:0:0:
355,242,109952,5,0,0:0:0:0:
355,242,110331,1,8,0:0:0:0:
355,242,110711,1,0,0:0:0:0:
355,242,111091,1,8,0:0:0:0:
355,242,111471,1,0,0:0:0:0:
355,242,111850,1,8,0:0:0:0:
355,242,112230,1,0,0:0:0:0:
355,242,112610,1,8,0:0:0:0:
355,242,112990,1,0,0:0:0:0:
355,242,113179,1,0,0:0:0:0:
355,242,113369,1,8,0:0:0:0:
355,242,113559,1,8,0:0:0:0:
355,242,113749,1,0,0:0:0:0:
189,143,113844,1,0,0:0:0:0:
355,242,113939,1,0,0:0:0:0:
189,143,114034,1,0,0:0:0:0:
355,242,114129,1,8,0:0:0:0:
189,143,114224,1,0,0:0:0:0:
355,242,114319,1,8,0:0:0:0:
309,107,114698,1,8,0:0:0:0:
309,107,115078,1,8,0:0:0:0:
309,107,115268,1,0,0:0:0:0:
238,76,115648,1,8,0:0:0:0:
251,76,116028,1,4,0:0:0:0:
251,76,116407,1,4,0:0:0:0:
251,76,116787,1,4,0:0:0:0:
195,125,116977,1,0,0:0:0:0:
286,132,117040,1,0,0:0:0:0:
286,132,117103,1,0,0:0:0:0:
162,62,117167,1,8,0:0:0:0:
314,211,117926,1,12,0:0:0:0:
314,204,118306,1,0,0:0:0:0:
314,204,118401,1,0,0:0:0:0:
314,204,118496,1,8,0:0:0:0:
314,204,118590,1,8,0:0:0:0:
314,204,118685,1,0,0:0:0:0:
156,78,118875,1,0,0:0:0:0:
156,78,119065,1,8,0:0:0:0:
156,78,119255,1,0,0:0:0:0:
156,78,119350,1,0,0:0:0:0:
156,78,119445,1,8,0:0:0:0:
156,78,119635,1,0,0:0:0:0:
156,78,119825,1,8,0:0:0:0:
156,78,119920,1,0,0:0:0:0:
156,78,120109,1,0,0:0:0:0:
156,78,120204,1,8,0:0:0:0:
156,78,120394,1,8,0:0:0:0:
251,138,120584,1,0,0:0:0:0:
251,138,120774,1,8,0:0:0:0:
251,138,120869,1,8,0:0:0:0:
251,138,120964,1,0,0:0:0:0:
251,138,121154,1,8,0:0:0:0:
302,144,121344,1,0,0:0:0:0:
251,138,121439,1,0,0:0:0:0:
251,138,121533,1,8,0:0:0:0:
251,138,121628,1,0,0:0:0:0:
251,138,121723,1,0,0:0:0:0:
153,154,121913,1,8,0:0:0:0:
62,188,122009,1,8,0:0:0:0:
72,188,122103,1,0,0:0:0:0:
72,188,122388,1,0,0:0:0:0:
72,187,122483,1,8,0:0:0:0:
72,187,122673,1,0,0:0:0:0:
363,112,122863,1,8,0:0:0:0:
356,112,122958,1,8,0:0:0:0:
71,115,123052,1,0,0:0:0:0:
71,115,123147,1,0,0:0:0:0:
71,115,123242,1,8,0:0:0:0:
201,119,123432,1,8,0:0:0:0:
201,119,123622,1,0,0:0:0:0:
201,119,123812,1,0,0:0:0:0:
84,168,123907,1,0,0:0:0:0:
158,95,124002,1,8,0:0:0:0:
123,107,124192,1,0,0:0:0:0:
123,107,124382,1,8,0:0:0:0:
123,107,124477,1,0,0:0:0:0:
123,107,124571,1,8,0:0:0:0:
123,107,124666,1,8,0:0:0:0:
123,107,124761,1,0,0:0:0:0:
37,150,124951,1,0,0:0:0:0:
37,150,125141,1,8,0:0:0:0:
37,150,125331,1,0,0:0:0:0:
37,150,125426,1,0,0:0:0:0:
37,150,125521,1,8,0:0:0:0:
37,150,125711,1,0,0:0:0:0:
37,150,125901,1,8,0:0:0:0:
264,239,125996,1,0,0:0:0:0:
264,239,126185,1,0,0:0:0:0:
264,239,126280,1,8,0:0:0:0:
337,201,126470,1,8,0:0:0:0:
337,201,126660,1,0,0:0:0:0:
337,201,126850,1,8,0:0:0:0:
337,201,126945,1,8,0:0:0:0:
337,201,127040,1,0,0:0:0:0:
337,201,127230,1,0,0:0:0:0:
337,201,127325,1,0,0:0:0:0:
337,201,127420,1,8,0:0:0:0:
337,201,127514,1,0,0:0:0:0:
337,201,127609,1,8,0:0:0:0:
337,201,127704,1,8,0:0:0:0:
337,201,127799,1,8,0:0:0:0:
337,201,127989,1,0,0:0:0:0:
126,107,128179,1,12,0:0:0:0:
88,96,128464,1,0,0:0:0:0:
73,91,128559,1,8,0:0:0:0:
73,91,128749,1,0,0:0:0:0:
196,237,128939,1,8,0:0:0:0:
196,237,129033,1,8,0:0:0:0:
196,237,129128,1,0,0:0:0:0:
196,237,129223,1,0,0:0:0:0:
196,237,129318,1,8,0:0:0:0:
196,237,129509,1,8,0:0:0:0:
196,237,129698,1,0,0:0:0:0:
323,91,129793,1,0,0:0:0:0:
196,237,129983,1,0,0:0:0:0:
196,237,130078,1,8,0:0:0:0:
196,237,130268,1,8,0:0:0:0:
338,178,130458,1,0,0:0:0:0:
192,77,130552,1,0,0:0:0:0:
338,178,130647,1,8,0:0:0:0:
338,178,130742,1,0,0:0:0:0:
338,178,130837,1,8,0:0:0:0:
338,178,131027,1,8,0:0:0:0:
221,71,131217,1,0,0:0:0:0:
221,71,131407,1,8,0:0:0:0:
221,71,131502,1,0,0:0:0:0:
221,71,131597,1,8,0:0:0:0:
276,106,131692,1,8,0:0:0:0:
221,71,131787,1,0,0:0:0:0:
221,71,131977,1,8,0:0:0:0:
194,138,132166,1,0,0:0:0:0:
194,138,132261,1,0,0:0:0:0:
194,138,132356,1,8,0:0:0:0:
182,178,132546,1,8,0:0:0:0:
182,178,132736,1,0,0:0:0:0:
182,178,132926,1,8,0:0:0:0:
182,178,133021,1,8,0:0:0:0:
182,178,133116,1,8,0:0:0:0:
182,178,133306,1,8,0:0:0:0:
182,178,133496,1,0,0:0:0:0:
182,178,133590,1,0,0:0:0:0:
182,178,133685,1,0,0:0:0:0:
306,102,133781,1,0,0:0:0:0:
182,178,133875,1,8,0:0:0:0:
171,222,134255,1,8,0:0:0:0:
299,237,134540,1,0,0:0:0:0:
156,102,134634,1,8,0:0:0:0:
420,153,134825,1,0,0:0:0:0:
171,222,135014,1,8,0:0:0:0:
426,122,135109,1,0,0:0:0:0:
156,102,135204,1,0,0:0:0:0:
426,122,135299,1,0,0:0:0:0:
173,37,135394,1,8,0:0:0:0:
173,37,135584,1,8,0:0:0:0:
171,222,135773,1,0,0:0:0:0:
240,72,135869,1,8,0:0:0:0:
306,140,136059,1,8,0:0:0:0:
38,98,136153,1,0,0:0:0:0:
38,98,136343,1,8,0:0:0:0:
171,222,136533,1,0,0:0:0:0:
333,131,136628,1,0,0:0:0:0:
38,98,136723,1,8,0:0:0:0:
333,131,136818,1,0,0:0:0:0:
333,131,136913,1,8,0:0:0:0:
38,98,137103,1,8,0:0:0:0:
38,98,137292,1,0,0:0:0:0:
301,134,137482,1,0,0:0:0:0:
301,134,137577,1,0,0:0:0:0:
301,134,137672,1,8,0:0:0:0:
301,134,137862,1,0,0:0:0:0:
301,134,138052,1,8,0:0:0:0:
166,176,138147,1,8,0:0:0:0:
166,176,138243,1,0,0:0:0:0:
166,176,138338,1,0,0:0:0:0:
301,134,138432,1,8,0:0:0:0:
301,134,138622,1,8,0:0:0:0:
55,151,138812,1,0,0:0:0:0:
180,82,139001,1,8,0:0:0:0:
180,82,139096,1,8,0:0:0:0:
180,82,139191,1,0,0:0:0:0:
180,82,139382,1,8,0:0:0:0:
180,82,139571,1,0,0:0:0:0:
202,165,139667,1,0,0:0:0:0:
180,82,139761,1,0,0:0:0:0:
430,167,139857,1,0,0:0:0:0:
180,82,139951,1,8,0:0:0:0:
126,107,140331,1,12,0:0:0:0:
88,96,140616,1,0,0:0:0:0:
73,91,140711,1,8,0:0:0:0:
73,91,140901,1,0,0:0:0:0:
196,237,141091,1,8,0:0:0:0:
196,237,141186,1,0,0:0:0:0:
196,237,141281,1,8,0:0:0:0:
196,237,141376,1,8,0:0:0:0:
196,237,141471,1,0,0:0:0:0:
196,237,141660,1,8,0:0:0:0:
196,237,141850,1,0,0:0:0:0:
196,237,141945,1,0,0:0:0:0:
196,237,142135,1,0,0:0:0:0:
196,237,142230,1,8,0:0:0:0:
196,237,142420,1,8,0:0:0:0:
338,178,142610,1,0,0:0:0:0:
192,77,142704,1,0,0:0:0:0:
338,178,142800,1,8,0:0:0:0:
338,178,142895,1,0,0:0:0:0:
338,178,142989,1,8,0:0:0:0:
338,178,143179,1,8,0:0:0:0:
221,71,143369,1,0,0:0:0:0:
221,71,143559,1,8,0:0:0:0:
221,71,143654,1,8,0:0:0:0:
221,71,143749,1,8,0:0:0:0:
221,71,143939,1,0,0:0:0:0:
221,71,144129,1,8,0:0:0:0:
412,135,144224,1,8,0:0:0:0:
194,138,144318,1,0,0:0:0:0:
194,138,144413,1,0,0:0:0:0:
194,138,144508,1,8,0:0:0:0:
182,178,144698,1,8,0:0:0:0:
182,178,144888,1,0,0:0:0:0:
182,178,145078,1,8,0:0:0:0:
182,178,145173,1,0,0:0:0:0:
182,178,145268,1,0,0:0:0:0:
182,178,145458,1,8,0:0:0:0:
182,178,145648,1,0,0:0:0:0:
182,178,145743,1,0,0:0:0:0:
182,178,145838,1,8,0:0:0:0:
412,135,145933,1,8,0:0:0:0:
182,178,146027,1,8,0:0:0:0:
171,222,146407,1,8,0:0:0:0:
299,237,146692,1,0,0:0:0:0:
156,102,146786,1,8,0:0:0:0:
420,153,146977,1,0,0:0:0:0:
171,222,147166,1,8,0:0:0:0:
426,122,147261,1,0,0:0:0:0:
131,142,147357,1,0,0:0:0:0:
426,122,147452,1,8,0:0:0:0:
173,37,147546,1,0,0:0:0:0:
173,37,147736,1,8,0:0:0:0:
171,222,147925,1,0,0:0:0:0:
306,140,148021,1,8,0:0:0:0:
306,140,148211,1,8,0:0:0:0:
38,98,148305,1,0,0:0:0:0:
38,98,148495,1,8,0:0:0:0:
171,222,148685,1,0,0:0:0:0:
333,131,148780,1,8,0:0:0:0:
38,98,148875,1,8,0:0:0:0:
333,131,148970,1,0,0:0:0:0:
333,131,149065,1,8,0:0:0:0:
38,98,149255,1,8,0:0:0:0:
38,98,149444,1,4,0:0:0:0:
301,134,149634,1,0,0:0:0:0:
301,134,149729,1,0,0:0:0:0:
301,134,149824,1,8,0:0:0:0:
301,134,150014,1,0,0:0:0:0:
301,134,150204,1,8,0:0:0:0:
166,176,150299,1,0,0:0:0:0:
166,176,150394,1,0,0:0:0:0:
166,176,150489,1,0,0:0:0:0:
301,134,150584,1,8,0:0:0:0:
301,134,150774,1,4,0:0:0:0:
180,82,151153,1,8,0:0:0:0:
180,82,151248,1,8,0:0:0:0:
180,82,151343,1,8,0:0:0:0:
180,82,151533,1,0,0:0:0:0:
180,82,151723,1,8,0:0:0:0:
202,165,151818,1,0,0:0:0:0:
180,82,151913,1,8,0:0:0:0:
202,165,152008,1,0,0:0:0:0:
180,82,152103,1,8,0:0:0:0:
