osu file format v14

[General]
AudioFilename: audiopeko.mp3
AudioLeadIn: 0
PreviewTime: 42926
Countdown: 0
SampleSet: Normal
StackLeniency: 0.7
Mode: 1
LetterboxInBreaks: 0
WidescreenStoryboard: 1

[Editor]
DistanceSpacing: 0.9
BeatDivisor: 2
GridSize: 32
TimelineZoom: 1.200001

[Metadata]
Title:Cinderella
TitleUnicode:シンデレラ
Artist:Usada Pekora
ArtistUnicode:兎田ぺこら
Creator:Maimaing
Version:Futsuu
Source:
Tags:hololive ホロライブ vtuber virtual youtuber 3rd gen DECO*27 初音ミク hatsune miku vocaloid japanese pop jpop j-pop cover
BeatmapID:3253168
BeatmapSetID:1592734

[Difficulty]
HPDrainRate:6
CircleSize:5
OverallDifficulty:4
ApproachRate:5
SliderMultiplier:1.4
SliderTickRate:1

[Events]
//Background and Video events
0,0,"a.jpg",0,55
//Break Periods
2,103316,108752
//Storyboard Layer 0 (Background)
//Storyboard Layer 1 (Fail)
//Storyboard Layer 2 (Pass)
//Storyboard Layer 3 (Foreground)
//Storyboard Layer 4 (Overlay)
//Storyboard Sound Samples

[TimingPoints]
585,379.746835443038,4,1,0,70,1,0
585,-100,4,1,0,70,0,0
3528,-100,4,1,0,70,0,0
6471,-100,4,1,0,70,0,0
18622,-100,4,1,0,70,0,0
30774,-100,4,1,0,70,0,0
36945,-100,4,1,0,70,0,0
39936,-100,4,1,0,70,0,0
43448,-100,4,1,0,70,0,0
43496,-100,4,1,0,80,0,1
43828,-100,4,1,0,80,0,1
67372,-100,4,1,0,80,0,1
67420,-100,4,1,0,70,0,0
72689,-100,4,1,0,70,0,0
72784,-100,4,1,0,70,0,0
72879,-100,4,1,0,70,0,0
72974,-100,4,1,0,70,0,0
73069,-100,4,1,0,70,0,0
73164,-100,4,1,0,70,0,0
73259,-100,4,1,0,70,0,0
73353,-100,4,1,0,70,0,0
73448,-100,4,1,0,70,0,0
79572,-100,4,1,0,70,0,0
79904,-100,4,1,0,70,0,0
79952,-100,4,1,0,80,0,1
80284,-100,4,1,0,80,0,1
91676,-100,4,1,0,80,0,1
91724,-100,4,1,0,70,0,0
97752,-100,4,1,0,70,0,0
102309,-100,4,1,0,70,0,0
103069,-100,4,1,0,70,0,0
103448,-100,4,1,0,70,0,0
103876,-100,4,1,0,70,0,0
112800,-100,4,1,0,70,0,0
115933,-100,4,1,0,70,0,0
117547,-100,4,1,0,70,0,0
117926,-100,4,1,0,80,0,1
118116,-100,4,1,0,80,0,1
128085,-100,4,1,0,80,0,1
140236,-100,4,1,0,80,0,1
152483,-100,4,1,0,70,0,0

[HitObjects]
171,222,585,1,12,0:0:0:0:
156,102,964,1,8,0:0:0:0:
171,222,1344,1,12,0:0:0:0:
156,102,1534,1,0,0:0:0:0:
173,37,1724,1,8,0:0:0:0:
171,222,2103,1,4,0:0:0:0:
38,98,2483,1,8,0:0:0:0:
171,222,2863,1,4,0:0:0:0:
38,98,3622,1,4,0:0:0:0:
301,134,4002,1,8,0:0:0:0:
301,134,4192,1,8,0:0:0:0:
301,134,4382,1,0,0:0:0:0:
301,134,4762,1,8,0:0:0:0:
301,134,4952,1,4,0:0:0:0:
180,82,5331,1,0,0:0:0:0:
180,82,5521,1,8,0:0:0:0:
180,82,5901,1,8,0:0:0:0:
180,82,6091,1,8,0:0:0:0:
180,82,6281,1,8,0:0:0:0:
344,165,6660,1,4,0:0:0:0:
204,224,7040,1,0,0:0:0:0:
204,224,7230,1,8,0:0:0:0:
204,224,7610,1,8,0:0:0:0:
204,224,7800,1,8,0:0:0:0:
54,140,8179,1,0,0:0:0:0:
54,140,8369,1,8,0:0:0:0:
54,140,8559,1,0,0:0:0:0:
54,140,8939,1,0,0:0:0:0:
374,102,9129,1,8,0:0:0:0:
374,102,9319,1,8,0:0:0:0:
159,104,9698,1,0,0:0:0:0:
74,227,10078,1,8,0:0:0:0:
182,192,10268,1,0,0:0:0:0:
348,101,10648,1,8,0:0:0:0:
182,192,10838,1,8,0:0:0:0:
52,235,11217,1,0,0:0:0:0:
52,235,11407,1,0,0:0:0:0:
52,235,11597,1,8,0:0:0:0:
52,235,11787,1,8,0:0:0:0:
52,235,11977,1,0,0:0:0:0:
266,158,12736,1,4,0:0:0:0:
351,247,13116,1,0,0:0:0:0:
351,247,13306,1,8,0:0:0:0:
286,239,13686,1,8,0:0:0:0:
351,247,13876,1,8,0:0:0:0:
306,111,14255,1,0,0:0:0:0:
306,111,14445,1,8,0:0:0:0:
306,111,14635,1,0,0:0:0:0:
306,111,15015,1,0,0:0:0:0:
141,145,15205,1,8,0:0:0:0:
306,111,15395,1,8,0:0:0:0:
95,114,15774,1,0,0:0:0:0:
262,133,16154,1,8,0:0:0:0:
95,114,16344,1,8,0:0:0:0:
41,158,16724,1,0,0:0:0:0:
41,158,16914,1,0,0:0:0:0:
41,158,17103,1,0,0:0:0:0:
127,104,17293,1,8,0:0:0:0:
285,74,18053,1,0,0:0:0:0:
350,118,18243,1,8,0:0:0:0:
225,144,18433,1,8,0:0:0:0:
374,277,18812,1,0,0:0:0:0:
374,277,19192,1,8,0:0:0:0:
374,277,19382,1,8,0:0:0:0:
374,277,19572,1,0,0:0:0:0:
363,272,19952,1,8,0:0:0:0:
136,172,20331,1,0,0:0:0:0:
136,172,20711,1,0,0:0:0:0:
136,172,20901,1,8,0:0:0:0:
136,172,21091,1,0,0:0:0:0:
136,172,21281,1,0,0:0:0:0:
136,172,21471,1,8,0:0:0:0:
229,88,22040,1,8,0:0:0:0:
229,88,22230,1,8,0:0:0:0:
216,79,22610,1,0,0:0:0:0:
216,79,22800,1,8,0:0:0:0:
216,79,23179,1,0,0:0:0:0:
216,79,23369,1,0,0:0:0:0:
141,97,23749,1,8,0:0:0:0:
141,97,23939,1,0,0:0:0:0:
141,97,24129,1,8,0:0:0:0:
211,145,24888,1,0,0:0:0:0:
211,145,25268,1,8,0:0:0:0:
211,145,25458,1,8,0:0:0:0:
211,145,25648,1,0,0:0:0:0:
198,149,26028,1,8,0:0:0:0:
312,122,26407,1,0,0:0:0:0:
312,122,26597,1,0,0:0:0:0:
312,122,26787,1,0,0:0:0:0:
307,117,27167,1,8,0:0:0:0:
307,117,27357,1,0,0:0:0:0:
307,117,27547,1,8,0:0:0:0:
229,88,28116,1,8,0:0:0:0:
229,88,28306,1,8,0:0:0:0:
216,79,28686,1,8,0:0:0:0:
216,79,28876,1,0,0:0:0:0:
216,79,29255,1,0,0:0:0:0:
223,119,29445,1,0,0:0:0:0:
141,97,29825,1,8,0:0:0:0:
141,97,30015,1,8,0:0:0:0:
141,97,30205,1,0,0:0:0:0:
141,97,30585,1,0,0:0:0:0:
371,142,30964,1,12,0:0:0:0:
251,137,31724,1,8,0:0:0:0:
251,137,32293,1,8,0:0:0:0:
289,110,32483,1,0,0:0:0:0:
170,168,32863,1,0,0:0:0:0:
289,110,33243,1,8,0:0:0:0:
66,90,33622,1,8,0:0:0:0:
289,110,33812,1,8,0:0:0:0:
126,77,34002,1,0,0:0:0:0:
225,52,34382,1,0,0:0:0:0:
289,110,34762,1,8,0:0:0:0:
156,12,35141,1,8,0:0:0:0:
156,12,35331,1,8,0:0:0:0:
173,97,35521,1,0,0:0:0:0:
173,97,35901,1,0,0:0:0:0:
173,97,36091,1,0,0:0:0:0:
173,97,36281,1,0,0:0:0:0:
173,97,36660,1,8,0:0:0:0:
68,205,37040,1,4,0:0:0:0:
272,144,37800,1,8,0:0:0:0:
272,144,38559,1,4,0:0:0:0:
272,144,39319,1,8,0:0:0:0:
183,199,40078,1,4,0:0:0:0:
183,199,40458,1,8,0:0:0:0:
183,199,40838,1,4,0:0:0:0:
183,199,41217,1,8,0:0:0:0:
278,216,41597,1,8,0:0:0:0:
278,216,41787,1,8,0:0:0:0:
278,216,41977,1,0,0:0:0:0:
278,216,42167,1,0,0:0:0:0:
278,216,42357,1,8,0:0:0:0:
161,116,43496,1,12,0:0:0:0:
314,204,43876,1,0,0:0:0:0:
314,204,44255,1,8,0:0:0:0:
314,204,44445,1,8,0:0:0:0:
314,204,44825,1,8,0:0:0:0:
314,204,45205,1,8,0:0:0:0:
314,204,45395,1,0,0:0:0:0:
314,204,45585,1,8,0:0:0:0:
314,204,45774,1,0,0:0:0:0:
156,78,46154,1,8,0:0:0:0:
156,78,46914,1,8,0:0:0:0:
156,78,47293,1,0,0:0:0:0:
156,78,47483,1,8,0:0:0:0:
251,138,47863,1,8,0:0:0:0:
251,138,48243,1,0,0:0:0:0:
302,144,48433,1,0,0:0:0:0:
251,138,48622,1,8,0:0:0:0:
251,138,48812,1,0,0:0:0:0:
72,188,49192,1,0,0:0:0:0:
72,187,49572,1,0,0:0:0:0:
72,187,49952,1,8,0:0:0:0:
71,115,50331,1,8,0:0:0:0:
201,119,50521,1,8,0:0:0:0:
201,119,50901,1,0,0:0:0:0:
123,107,51281,1,0,0:0:0:0:
123,107,51471,1,8,0:0:0:0:
123,107,51660,1,8,0:0:0:0:
123,107,51850,1,0,0:0:0:0:
37,150,52230,1,8,0:0:0:0:
37,150,52990,1,8,0:0:0:0:
264,239,53369,1,0,0:0:0:0:
337,201,53559,1,8,0:0:0:0:
337,201,53939,1,8,0:0:0:0:
337,201,54319,1,0,0:0:0:0:
337,201,54509,1,8,0:0:0:0:
337,201,54888,1,8,0:0:0:0:
337,201,55078,1,0,0:0:0:0:
126,107,55268,1,12,0:0:0:0:
196,237,56028,1,8,0:0:0:0:
196,237,56407,1,8,0:0:0:0:
196,237,56787,1,0,0:0:0:0:
196,237,57167,1,0,0:0:0:0:
196,237,57357,1,0,0:0:0:0:
338,178,57547,1,8,0:0:0:0:
338,178,57736,1,8,0:0:0:0:
338,178,58116,1,8,0:0:0:0:
221,71,58306,1,0,0:0:0:0:
221,71,58496,1,0,0:0:0:0:
221,71,58686,1,0,0:0:0:0:
221,71,59066,1,8,0:0:0:0:
194,138,59445,1,8,0:0:0:0:
182,178,59635,1,0,0:0:0:0:
182,178,60015,1,8,0:0:0:0:
182,178,60205,1,8,0:0:0:0:
182,178,60585,1,0,0:0:0:0:
203,201,60964,1,8,0:0:0:0:
171,222,61344,1,8,0:0:0:0:
171,222,62103,1,8,0:0:0:0:
156,102,62293,1,0,0:0:0:0:
173,37,62483,1,8,0:0:0:0:
171,222,62862,1,0,0:0:0:0:
38,98,63243,1,8,0:0:0:0:
38,98,63432,1,8,0:0:0:0:
171,222,63622,1,0,0:0:0:0:
333,131,63812,1,0,0:0:0:0:
333,131,64002,1,8,0:0:0:0:
38,98,64382,1,4,0:0:0:0:
301,134,64762,1,8,0:0:0:0:
301,134,64952,1,8,0:0:0:0:
301,134,65142,1,0,0:0:0:0:
301,134,65522,1,8,0:0:0:0:
301,134,65712,1,4,0:0:0:0:
180,82,66091,1,0,0:0:0:0:
180,82,66281,1,8,0:0:0:0:
180,82,66661,1,8,0:0:0:0:
180,82,66851,1,8,0:0:0:0:
180,82,67041,1,8,0:0:0:0:
75,230,67420,1,0,0:0:0:0:
75,230,68179,1,0,0:0:0:0:
234,113,68749,1,8,0:0:0:0:
75,230,68939,1,0,0:0:0:0:
108,149,69509,1,8,0:0:0:0:
96,89,69698,1,0,0:0:0:0:
232,193,70078,1,8,0:0:0:0:
142,97,70268,1,8,0:0:0:0:
236,256,70648,1,8,0:0:0:0:
236,256,71028,1,8,0:0:0:0:
236,256,71217,1,0,0:0:0:0:
236,256,71597,1,0,0:0:0:0:
191,171,71787,1,8,0:0:0:0:
360,140,72167,1,8,0:0:0:0:
360,140,72357,1,0,0:0:0:0:
360,140,72736,1,8,0:0:0:0:
223,74,72926,1,0,0:0:0:0:
360,140,73116,1,8,0:0:0:0:
73,137,73496,1,0,0:0:0:0:
275,255,74066,1,0,0:0:0:0:
221,141,74255,1,0,0:0:0:0:
221,141,74825,1,8,0:0:0:0:
247,41,75015,1,0,0:0:0:0:
296,72,75585,1,8,0:0:0:0:
197,100,75774,1,0,0:0:0:0:
197,100,75964,1,8,0:0:0:0:
197,100,76154,1,8,0:0:0:0:
32,131,76724,1,0,0:0:0:0:
32,131,76914,1,8,0:0:0:0:
32,131,77293,1,0,0:0:0:0:
32,131,77673,1,0,0:0:0:0:
334,205,78053,1,0,0:0:0:0:
334,205,78243,1,8,0:0:0:0:
330,195,78433,1,8,0:0:0:0:
328,193,78622,1,8,0:0:0:0:
326,191,78812,1,0,0:0:0:0:
96,233,79192,1,8,0:0:0:0:
161,116,79952,1,12,0:0:0:0:
314,204,80332,1,0,0:0:0:0:
314,204,80711,1,8,0:0:0:0:
314,204,80901,1,8,0:0:0:0:
314,204,81281,1,8,0:0:0:0:
314,204,81661,1,8,0:0:0:0:
314,204,81851,1,0,0:0:0:0:
314,204,82041,1,8,0:0:0:0:
314,204,82230,1,0,0:0:0:0:
156,78,82610,1,8,0:0:0:0:
156,78,83370,1,8,0:0:0:0:
156,78,83749,1,0,0:0:0:0:
156,78,83939,1,8,0:0:0:0:
251,138,84319,1,8,0:0:0:0:
251,138,84699,1,0,0:0:0:0:
302,144,84889,1,0,0:0:0:0:
251,138,85268,1,8,0:0:0:0:
153,154,85458,1,8,0:0:0:0:
72,188,85648,1,0,0:0:0:0:
72,187,86028,1,0,0:0:0:0:
72,187,86408,1,8,0:0:0:0:
71,115,86787,1,8,0:0:0:0:
201,119,86977,1,8,0:0:0:0:
201,119,87357,1,0,0:0:0:0:
123,107,87737,1,0,0:0:0:0:
123,107,87927,1,0,0:0:0:0:
123,107,88116,1,8,0:0:0:0:
123,107,88306,1,0,0:0:0:0:
37,150,88686,1,8,0:0:0:0:
37,150,89446,1,8,0:0:0:0:
264,239,89825,1,0,0:0:0:0:
337,201,90015,1,8,0:0:0:0:
337,201,90395,1,8,0:0:0:0:
337,201,90774,1,0,0:0:0:0:
337,201,90965,1,8,0:0:0:0:
337,201,91154,1,0,0:0:0:0:
337,201,91344,1,8,0:0:0:0:
126,107,91724,1,8,0:0:0:0:
86,71,92483,1,8,0:0:0:0:
86,71,93243,1,0,0:0:0:0:
86,71,94002,1,8,0:0:0:0:
156,79,94382,1,8,0:0:0:0:
156,79,94762,1,0,0:0:0:0:
156,79,95521,1,8,0:0:0:0:
156,79,96281,1,0,0:0:0:0:
156,79,97040,1,8,0:0:0:0:
156,79,97230,1,0,0:0:0:0:
156,79,97420,1,8,0:0:0:0:
156,79,97800,1,12,0:0:0:0:
156,79,98179,1,12,0:0:0:0:
156,79,98559,1,4,0:0:0:0:
150,80,98939,1,12,0:0:0:0:
256,187,99319,1,0,0:0:0:0:
236,247,99698,1,8,0:0:0:0:
236,247,99888,1,0,0:0:0:0:
402,173,100268,1,0,0:0:0:0:
13,158,100458,1,8,0:0:0:0:
263,86,100838,1,4,0:0:0:0:
263,86,101217,1,4,0:0:0:0:
263,86,101597,1,12,0:0:0:0:
263,86,101977,1,12,0:0:0:0:
56,204,102357,1,0,0:0:0:0:
56,204,103116,1,0,0:0:0:0:
355,242,109952,5,0,0:0:0:0:
355,242,110331,1,8,0:0:0:0:
355,242,110711,1,0,0:0:0:0:
355,242,111091,1,8,0:0:0:0:
355,242,111471,1,0,0:0:0:0:
217,200,111850,1,8,0:0:0:0:
355,242,112230,1,0,0:0:0:0:
355,242,112610,1,8,0:0:0:0:
355,242,112990,1,0,0:0:0:0:
185,154,113179,1,0,0:0:0:0:
355,242,113369,1,8,0:0:0:0:
355,242,113749,1,0,0:0:0:0:
355,242,113939,1,0,0:0:0:0:
355,242,114129,1,8,0:0:0:0:
355,242,114319,1,8,0:0:0:0:
309,107,114698,1,8,0:0:0:0:
309,107,115078,1,8,0:0:0:0:
309,107,115268,1,0,0:0:0:0:
238,76,115648,1,8,0:0:0:0:
251,76,116028,1,4,0:0:0:0:
251,76,116407,1,4,0:0:0:0:
251,76,116787,1,4,0:0:0:0:
162,62,117167,1,8,0:0:0:0:
314,211,117926,1,12,0:0:0:0:
314,204,118307,1,0,0:0:0:0:
314,204,118497,1,8,0:0:0:0:
314,204,118686,1,0,0:0:0:0:
156,78,119066,1,8,0:0:0:0:
156,78,119826,1,8,0:0:0:0:
156,78,120205,1,0,0:0:0:0:
156,78,120395,1,8,0:0:0:0:
251,138,120775,1,8,0:0:0:0:
251,138,121155,1,0,0:0:0:0:
302,144,121345,1,0,0:0:0:0:
251,138,121534,1,8,0:0:0:0:
251,138,121724,1,0,0:0:0:0:
72,188,122104,1,0,0:0:0:0:
72,187,122484,1,0,0:0:0:0:
72,187,122864,1,8,0:0:0:0:
71,115,123243,1,8,0:0:0:0:
201,119,123433,1,8,0:0:0:0:
201,119,123813,1,0,0:0:0:0:
342,138,124002,1,8,0:0:0:0:
123,107,124193,1,0,0:0:0:0:
123,107,124383,1,8,0:0:0:0:
123,107,124762,1,0,0:0:0:0:
123,107,124952,1,0,0:0:0:0:
37,150,125142,1,8,0:0:0:0:
37,150,125902,1,8,0:0:0:0:
264,239,126281,1,0,0:0:0:0:
337,201,126471,1,8,0:0:0:0:
337,201,126851,1,8,0:0:0:0:
337,201,127231,1,0,0:0:0:0:
337,201,127421,1,8,0:0:0:0:
221,62,127610,1,0,0:0:0:0:
337,201,127800,1,8,0:0:0:0:
126,107,128180,1,12,0:0:0:0:
196,237,128940,1,8,0:0:0:0:
196,237,129319,1,8,0:0:0:0:
196,237,129699,1,0,0:0:0:0:
196,237,130079,1,0,0:0:0:0:
196,237,130269,1,0,0:0:0:0:
338,178,130459,1,8,0:0:0:0:
338,178,130648,1,8,0:0:0:0:
338,178,130838,1,0,0:0:0:0:
221,71,131218,1,8,0:0:0:0:
221,71,131407,1,8,0:0:0:0:
221,71,131598,1,0,0:0:0:0:
221,71,131978,1,8,0:0:0:0:
194,138,132357,1,8,0:0:0:0:
182,178,132547,1,0,0:0:0:0:
182,178,132927,1,8,0:0:0:0:
182,178,133117,1,8,0:0:0:0:
182,178,133497,1,0,0:0:0:0:
277,218,133876,1,8,0:0:0:0:
171,222,134256,1,8,0:0:0:0:
171,222,135015,1,8,0:0:0:0:
156,102,135205,1,0,0:0:0:0:
173,37,135395,1,8,0:0:0:0:
171,222,135774,1,0,0:0:0:0:
38,98,136155,1,8,0:0:0:0:
38,98,136344,1,8,0:0:0:0:
171,222,136534,1,0,0:0:0:0:
333,131,136724,1,0,0:0:0:0:
333,131,136914,1,8,0:0:0:0:
38,98,137293,1,0,0:0:0:0:
301,134,137484,1,0,0:0:0:0:
301,134,137674,1,8,0:0:0:0:
301,134,138054,1,0,0:0:0:0:
301,134,138434,1,8,0:0:0:0:
301,134,138622,1,0,0:0:0:0:
180,82,139003,1,0,0:0:0:0:
180,82,139193,1,8,0:0:0:0:
78,159,139382,1,8,0:0:0:0:
180,82,139573,1,0,0:0:0:0:
180,82,139953,1,8,0:0:0:0:
126,107,140331,1,12,0:0:0:0:
196,237,141091,1,8,0:0:0:0:
196,237,141470,1,8,0:0:0:0:
196,237,141850,1,0,0:0:0:0:
196,237,142230,1,0,0:0:0:0:
196,237,142420,1,0,0:0:0:0:
338,178,142610,1,8,0:0:0:0:
338,178,142799,1,8,0:0:0:0:
338,178,142990,1,0,0:0:0:0:
221,71,143369,1,8,0:0:0:0:
221,71,143559,1,0,0:0:0:0:
221,71,143749,1,0,0:0:0:0:
329,62,144129,1,8,0:0:0:0:
194,138,144508,1,8,0:0:0:0:
182,178,144698,1,0,0:0:0:0:
182,178,145078,1,8,0:0:0:0:
182,178,145268,1,8,0:0:0:0:
194,49,145458,1,8,0:0:0:0:
182,178,145648,1,0,0:0:0:0:
242,136,146028,1,8,0:0:0:0:
171,222,146407,1,8,0:0:0:0:
171,222,147166,1,8,0:0:0:0:
156,102,147356,1,0,0:0:0:0:
173,37,147546,1,8,0:0:0:0:
171,222,147925,1,0,0:0:0:0:
38,98,148306,1,8,0:0:0:0:
38,98,148495,1,8,0:0:0:0:
171,222,148685,1,0,0:0:0:0:
333,131,148875,1,0,0:0:0:0:
333,131,149065,1,8,0:0:0:0:
38,98,149445,1,4,0:0:0:0:
301,134,149825,1,8,0:0:0:0:
301,134,150015,1,8,0:0:0:0:
301,134,150205,1,0,0:0:0:0:
301,134,150585,1,8,0:0:0:0:
301,134,150775,1,4,0:0:0:0:
180,82,151154,1,0,0:0:0:0:
180,82,151344,1,8,0:0:0:0:
180,82,151724,1,8,0:0:0:0:
180,82,151914,1,8,0:0:0:0:
180,82,152104,1,8,0:0:0:0:
