osu file format v14

[General]
AudioFilename: audio.mp3
AudioLeadIn: 0
PreviewTime: 203912
Countdown: 1
SampleSet: Soft
StackLeniency: 0.3
Mode: 0
LetterboxInBreaks: 0
WidescreenStoryboard: 0

[Editor]
Bookmarks: 26006,37168,48331,59494,70657,81819,87401,92982,98564,104145,109726,120889,126471,133447,143215,165540,193447,199029,204610,226936,232517,252052,257633,263215,274378,296703,307866,319029,330192,337168,362285
DistanceSpacing: 0.3
BeatDivisor: 6
GridSize: 4
TimelineZoom: 1.8

[Metadata]
Title:Tsumi no Namae
TitleUnicode:罪の名前
Artist:Usa
ArtistUnicode:うさ
Creator:Gust
Version:Redemption
Source:初音ミク -Project DIVA- X
Tags:ryo supercell utaite cover the name of sin hatsune miku
BeatmapID:1513402
BeatmapSetID:716306

[Difficulty]
HPDrainRate:7
CircleSize:5
OverallDifficulty:7
ApproachRate:8.8
SliderMultiplier:1.8
SliderTickRate:1

[Events]
//Background and Video events
0,0,"bg2.jpg",0,0
//Break Periods
2,133693,142632
2,274624,284783
2,294158,296120
//Storyboard Layer 0 (Background)
//Storyboard Layer 1 (Fail)
//Storyboard Layer 2 (Pass)
//Storyboard Layer 3 (Foreground)
//Storyboard Sound Samples

[TimingPoints]
3100,526.315789473684,4,2,1,60,1,0
5205,535.714285714286,4,2,1,60,1,0
7347,550.45871559633,4,2,1,60,1,0
11200,526.315789473684,4,2,1,60,1,0
11733,500,4,2,1,60,1,0
12233,530.973451327434,4,2,1,60,1,0
12763,545.454545454546,4,2,1,60,1,0
13853,545.454545454546,4,2,1,60,1,0
18762,521.739130434783,4,2,1,60,1,0
20327,521.739130434783,4,2,1,60,1,0
21892,600,4,2,1,60,1,0
22500,538.116591928251,4,2,1,60,1,0
24652,559.701492537313,4,2,1,20,1,0
24652,-100,4,2,1,20,0,0
26052,348.837209302326,4,2,2,60,1,0
26052,-100,4,2,2,60,0,0
26152,-166.666666666667,4,2,2,60,0,0
48377,-166.666666666667,4,2,1,60,0,0
59540,-125,4,2,2,45,0,0
81865,-125,4,2,1,45,0,0
83261,-125,4,2,3,45,0,0
83348,-125,4,2,1,45,0,0
84656,-125,4,2,4,45,0,0
84743,-125,4,2,1,45,0,0
86052,-125,4,2,3,45,0,0
86139,-125,4,2,1,45,0,0
87447,-125,4,2,1,60,0,0
93203,-125,4,2,2,60,0,0
98610,-166.666666666667,4,2,1,60,0,0
109772,-125,4,2,1,75,0,1
110121,-125,4,2,2,75,0,1
114046,-125,4,2,2,75,0,1
120935,-125,4,2,1,60,0,0
126517,-100,4,2,2,75,0,0
132098,-166.666666666667,4,2,1,60,0,0
143261,-166.666666666667,4,2,2,60,0,0
149365,-166.666666666667,4,2,2,60,0,0
154424,-125,4,2,2,70,0,0
165586,-125,4,2,1,70,0,0
165761,-125,4,2,2,70,0,0
182331,-125,4,2,1,70,0,0
182418,-125,4,2,2,70,0,0
187912,-125,4,2,1,45,0,0
189307,-125,4,2,3,45,0,0
189395,-125,4,2,1,45,0,0
190703,-125,4,2,4,45,0,0
190790,-125,4,2,1,45,0,0
192098,-125,4,2,3,45,0,0
192185,-125,4,2,1,45,0,0
193493,-125,4,2,1,60,0,0
199249,-125,4,2,2,60,0,0
204656,-83.3333333333333,4,2,1,75,0,1
204743,-83.3333333333333,4,2,2,75,0,1
226982,-142.857142857143,4,2,2,45,0,0
240935,-83.3333333333333,4,2,1,75,0,1
249249,-83.3333333333333,4,2,1,75,0,0
249307,-83.3333333333333,4,2,1,75,0,1
250615,-83.3333333333333,4,2,1,75,0,1
251924,-83.3333333333333,4,2,1,75,0,0
252098,-83.3333333333333,4,2,1,75,0,1
252272,-83.3333333333333,4,2,2,75,0,0
255238,-90.9090909090909,2,2,2,60,0,0
256284,-100,2,2,2,60,0,0
257679,-100,2,2,1,60,0,0
257767,-100,2,2,2,60,0,0
263261,-100,2,2,1,60,0,0
263958,-166.666666666667,2,2,2,60,0,0
268842,-166.666666666667,2,2,1,60,0,0
268929,-166.666666666667,2,2,2,60,0,0
307912,-100,2,2,2,70,0,0
313842,-125,2,2,1,35,0,0
319075,-166.666666666667,2,2,1,60,0,0
319424,-166.666666666667,2,2,2,55,0,0
328842,-166.666666666667,2,2,2,65,0,0
330238,-100,2,2,2,70,0,0
337214,-83.3333333333333,2,2,1,75,0,1
337389,-83.3333333333333,2,2,2,75,0,1
342796,-83.3333333333333,2,2,1,75,0,1
342883,-83.3333333333333,2,2,2,75,0,1
348377,-83.3333333333333,2,2,1,75,0,1
348464,-83.3333333333333,2,2,2,75,0,1
356749,-83.3333333333333,2,2,1,75,0,1
356836,-83.3333333333333,2,2,2,75,0,1
359540,-83.3333333333333,2,2,1,75,0,1
359627,-83.3333333333333,2,2,2,75,0,1
362243,-83.3333333333333,2,2,2,75,0,0
362331,375,4,2,1,75,1,1
362331,-100,4,2,1,75,0,1
362706,400,4,2,1,75,1,1
363106,444.444444444444,4,2,1,75,1,1
363550,500,4,2,1,75,1,1
364044,1025.64102564103,4,2,1,75,1,1
364044,-166.666666666667,4,2,1,75,0,1
364300,-166.666666666667,4,2,1,25,0,1
368081,759.493670886076,4,2,2,45,1,0
368462,769.230769230769,4,2,2,45,1,0
368846,937.5,4,2,2,45,1,0
369080,952.380952380952,4,2,2,45,1,0
369555,1022.1465076661,4,2,2,45,1,0
370065,967.741935483871,4,2,2,45,1,0
371032,1071.42857142857,4,2,2,45,1,0
371567,1100.91743119266,4,2,2,45,1,0
372117,1500,4,2,2,45,1,0
373117,1000,4,2,2,45,1,0
374617,1250,4,2,2,45,1,0
374929,983.606557377049,4,2,2,45,1,0
375174,1210.8980827447,4,2,2,45,1,0
376082,983.606557377049,4,2,2,45,1,0
376327,960,4,2,2,45,1,0
377287,866.676296403293,4,2,2,45,1,0
378153,652.173913043478,4,2,2,45,1,0
381739,-100,4,2,2,20,0,0

[Colours]
Combo1 : 245,245,245
Combo2 : 242,252,131
Combo3 : 170,208,255
Combo4 : 170,255,170
Combo5 : 255,170,255
Combo6 : 0,96,0
Combo7 : 115,0,115
Combo8 : 115,0,0

[HitObjects]
88,56,2924,5,0,0:0:0:0:
88,56,3012,1,0,0:0:0:0:
88,56,3100,6,0,L|256:56,1,120,4|2,0:0|0:0,0:0:0:0:
424,88,3626,2,0,L|248:88,1,120,2|2,0:0|0:0,0:0:0:0:
484,56,4152,1,8,0:0:0:0:
484,56,4503,1,0,0:0:0:0:
423,160,4678,2,0,L|288:160,1,120,2|0,3:0|0:0,0:0:0:0:
88,128,5205,6,0,L|223:128,1,120,4|2,0:0|0:0,0:0:0:0:
423,160,5740,1,0,3:0:0:0:
356,160,5919,1,0,3:3:0:0:
288,160,6097,1,0,3:0:0:0:
92,200,6276,6,0,L|227:200,1,120,8|2,0:0|0:0,0:0:0:0:
424,236,6812,2,0,L|289:236,1,120,2|0,3:0|0:0,0:0:0:0:
424,328,7347,70,0,L|248:328,1,120,6|2,0:0|0:0,0:0:0:0:
88,296,7897,2,0,L|264:296,1,120,2|0,0:0|0:0,0:0:0:0:
28,328,8447,1,8,0:0:0:0:
28,328,8814,1,2,0:0:0:0:
88,296,8998,1,2,0:0:0:0:
288,260,9365,1,2,0:0:0:0:
348,228,9548,6,0,L|452:228,1,60,4|0,0:0|3:0,0:0:0:0:
256,192,9915,1,0,3:0:0:0:
316,160,10099,2,0,L|376:160,1,60,8|2,0:0|0:0,0:0:0:0:
224,124,10466,1,2,0:0:0:0:
304,56,10649,2,0,L|424:56,1,120,8|0,0:0|3:0,0:0:0:0:
484,16,11200,1,2,3:0:0:0:
164,56,11733,6,0,L|16:56,1,120,4|2,0:0|0:0,0:0:0:0:
232,124,12233,1,2,0:0:0:0:
164,124,12409,1,0,3:0:0:0:
96,124,12586,1,0,3:0:0:0:
164,192,12763,2,0,L|29:192,1,120,8|0,0:0|3:0,0:0:0:0:
64,264,13308,2,0,L|102:264,4,22.5
156,264,13672,1,0,3:0:0:0:
292,192,13853,6,0,L|427:192,1,120,4|0,0:0|0:0,0:0:0:0:
224,264,14398,1,0,3:0:0:0:
292,264,14580,1,0,3:0:0:0:
360,264,14762,1,0,3:0:0:0:
292,336,14943,2,0,L|432:336,1,120,8|0,0:0|0:0,0:0:0:0:
360,264,15489,2,0,L|392:264,4,22.5
292,264,15853,1,0,3:0:0:0:
176,192,16034,69,4,0:0:0:0:
108,192,16216,1,0,3:0:0:0:
40,192,16398,1,0,3:0:0:0:
180,120,16580,2,0,L|260:120,2,60,0|0|0,3:0|0:0|0:0,0:0:0:0:
44,48,17125,2,0,L|166:49,1,120,8|0,0:0|0:0,0:0:0:0:
252,48,17671,2,0,L|280:48,4,22.5
348,48,18034,1,0,3:0:0:0:
484,120,18216,6,0,L|348:120,1,120,4|0,0:0|0:0,0:0:0:0:
188,192,18762,1,8,0:0:0:0:
120,192,18935,1,0,3:0:0:0:
52,192,19109,1,0,3:0:0:0:
100,256,19283,2,0,P|144:292|208:252,1,135,8|0,0:0|0:0,0:0:0:0:
306,125,19805,6,0,P|359:91|412:128,1,135,2|0,3:0|0:0,0:0:0:0:
452,192,20327,2,0,P|416:212|368:184,1,90,8|0,0:0|0:0,0:0:0:0:
480,100,20848,6,0,P|405:56|332:100,1,180,2|2,0:0|0:0,0:0:0:0:
31,99,21892,2,0,P|106:56|179:100,1,180,2|2,0:0|0:0,0:0:0:0:
256,192,22634,12,0,24652,0:0:0:0:
140,68,26051,69,10,0:0:0:0:
140,68,26226,1,2,0:0:0:0:
140,68,26400,2,0,P|83:107|82:158,1,107.999996704102,2|0,0:0|0:0,0:0:0:0:
147,193,26924,2,0,P|204:154|205:103,1,107.999996704102,2|0,0:0|0:0,0:0:0:0:
216,36,27621,5,2,0:0:0:0:
209,119,27970,1,0,0:0:0:0:
140,68,28319,1,2,0:0:0:0:
216,36,28668,1,2,0:0:0:0:
284,80,28842,6,0,P|308:84|340:64,2,53.9999983520508,10|8|8,0:0|0:0|0:0,0:0:0:0:
408,40,29365,2,0,L|396:168,1,107.999996704102,10|0,0:0|0:0,0:0:0:0:
448,340,30063,2,0,L|458:232,1,107.999996704102,2|0,0:0|0:0,0:0:0:0:
305,199,30761,6,0,P|367:276|457:232,1,215.999993408203,2|2,0:0|0:0,0:0:0:0:
452,224,31546,1,2,0:0:0:0:
448,216,31633,2,0,P|435:144|455:132,1,107.999996704102,10|10,0:0|0:0,0:0:0:0:
472,60,32156,2,0,L|412:68,1,53.9999983520508
292,40,32505,2,0,L|345:32,1,53.9999983520508,2|0,0:0|0:0,0:0:0:0:
352,112,32854,1,2,0:0:0:0:
352,112,32941,1,2,0:0:0:0:
352,112,33028,1,2,0:0:0:0:
312,184,33203,70,0,P|256:196|200:168,1,107.999996704102,0|2,0:0|0:0,0:0:0:0:
210,177,33900,2,0,L|156:184,1,53.9999983520508
264,120,34249,1,2,0:0:0:0:
264,120,34336,1,2,0:0:0:0:
264,120,34424,6,0,L|317:112,1,53.9999983520508,10|0,0:0|0:0,0:0:0:0:
345,32,34772,1,0,0:0:0:0:
264,44,34947,2,0,L|210:51,1,53.9999983520508,10|0,0:0|0:0,0:0:0:0:
136,24,35296,2,0,P|136:84|176:120,1,107.999996704102,2|0,0:0|0:0,0:0:0:0:
167,116,35732,1,2,0:0:0:0:
167,116,35819,1,2,0:0:0:0:
80,208,35993,6,0,L|86:154,1,53.9999983520508,0|0,3:0|0:0,0:0:0:0:
140,300,36342,1,0,0:0:0:0:
140,300,36517,2,0,L|152:192,1,107.999996704102,2|0,0:0|0:0,0:0:0:0:
72,280,37040,1,0,0:0:0:0:
228,212,37214,5,10,0:0:0:0:
300,196,37389,1,0,0:0:0:0:
372,216,37563,1,2,0:0:0:0:
400,288,37738,1,2,0:0:0:0:
372,216,37912,1,2,0:0:0:0:
376,180,38086,1,0,0:0:0:0:
380,144,38261,1,0,0:0:0:0:
384,108,38435,1,2,0:0:0:0:
388,72,38610,69,2,0:0:0:0:
372,216,38958,1,2,0:0:0:0:
372,216,39133,2,0,L|377:162,1,53.9999983520508,2|0,0:0|0:0,0:0:0:0:
452,156,39482,2,0,L|457:102,1,53.9999983520508,2|0,0:0|0:0,0:0:0:0:
256,52,39831,1,0,0:0:0:0:
328,72,40005,6,0,P|288:124|232:124,1,107.999996704102,10|0,0:0|0:0,0:0:0:0:
184,88,40528,2,0,L|120:88,1,53.9999983520508,10|0,0:0|0:0,0:0:0:0:
184,160,40877,1,2,0:0:0:0:
108,164,41052,1,0,0:0:0:0:
52,216,41226,1,2,0:0:0:0:
52,292,41400,5,2,0:0:0:0:
88,284,41575,1,0,0:0:0:0:
124,288,41749,1,0,0:0:0:0:
156,308,41924,1,2,0:0:0:0:
176,340,42098,2,0,P|236:332|272:372,1,107.999996704102,2|0,0:0|0:0,0:0:0:0:
340,340,42621,1,2,0:0:0:0:
340,340,42970,5,10,0:0:0:0:
308,272,43145,1,8,0:0:0:0:
336,204,43319,1,0,0:0:0:0:
408,176,43493,1,2,0:0:0:0:
336,204,43668,1,0,0:0:0:0:
300,200,43842,1,0,0:0:0:0:
264,196,44017,1,0,0:0:0:0:
228,192,44191,69,2,0:0:0:0:
144,64,44540,1,0,0:0:0:0:
84,112,44714,2,0,P|144:144|192:124,1,107.999996704102,2|0,0:0|0:0,0:0:0:0:
248,100,45238,1,0,0:0:0:0:
320,80,45412,1,0,0:0:0:0:
188,52,45586,5,10,0:0:0:0:
248,100,45761,1,0,0:0:0:0:
260,176,45935,1,10,0:0:0:0:
248,100,46110,1,10,0:0:0:0:
228,244,46284,1,2,0:0:0:0:
260,176,46458,5,2,0:0:0:0:
296,168,46633,1,0,0:0:0:0:
332,172,46807,1,0,0:0:0:0:
368,188,46982,5,2,0:0:0:0:
296,168,47156,1,2,0:0:0:0:
276,172,47243,1,0,0:0:0:0:
260,176,47331,1,0,0:0:0:0:
200,224,47505,1,2,0:0:0:0:
268,256,47679,1,0,0:0:0:0:
208,304,47854,1,2,0:0:0:0:
276,336,48028,1,0,0:0:0:0:
336,288,48203,1,2,0:0:0:0:
260,176,48377,5,4,0:0:0:0:
468,48,49075,2,0,L|336:48,1,107.999996704102,0|0,3:0|0:0,0:0:0:0:
32,168,49772,2,0,P|20:104|68:8,1,161.999995056153,8|0,0:0|0:0,0:0:0:0:
180,40,50470,2,0,P|192:104|144:200,1,161.999995056153,0|0,3:0|0:0,0:0:0:0:
124,264,51081,1,0,0:0:0:0:
124,264,51168,6,0,L|308:260,1,161.999995056153,4|0,0:0|0:0,0:0:0:0:
320,192,51865,2,0,L|432:196,1,107.999996704102,8|0,0:0|0:0,0:0:0:0:
328,328,52563,5,8,0:0:0:0:
84,328,52912,1,8,0:0:0:0:
204,112,53261,2,0,L|192:184,1,53.9999983520508,2|0,0:0|0:0,0:0:0:0:
124,196,53610,2,0,L|128:264,1,53.9999983520508,2|0,0:0|0:0,0:0:0:0:
360,248,53958,86,0,L|356:124,1,107.999996704102,4|0,0:0|0:0,0:0:0:0:
124,196,54656,2,0,L|128:72,1,107.999996704102,8|0,0:0|0:0,0:0:0:0:
428,228,55354,5,8,0:0:0:0:
124,264,55703,1,8,0:0:0:0:
454,17,56052,2,0,P|490:88|480:168,1,161.999995056153,8|0,0:0|0:0,0:0:0:0:
357,190,56749,2,0,P|321:119|332:40,1,161.999995056153,12|0,0:0|0:0,0:0:0:0:
256,16,57447,1,8,0:0:0:0:
328,260,57796,1,0,0:0:0:0:
62,250,58145,6,0,P|57:171|112:115,1,161.999995056153,8|0,0:0|0:0,0:0:0:0:
234,157,58842,2,0,P|238:235|184:292,1,161.999995056153,2|0,3:0|0:0,0:0:0:0:
260,348,59540,21,4,0:0:0:0:
260,348,59714,1,8,0:0:0:0:
352,376,59889,1,14,0:0:0:0:
428,324,60063,1,2,0:0:0:0:
412,232,60238,2,0,P|420:160|492:104,1,144,4|12,0:0|0:0,0:0:0:0:
412,232,60761,1,10,0:0:0:0:
412,232,60935,1,4,0:0:0:0:
396,40,61110,5,2,0:0:0:0:
308,68,61284,2,0,L|316:148,1,72,4|0,0:0|0:0,0:0:0:0:
315,139,61633,1,4,0:0:0:0:
236,188,61807,2,0,P|208:108|236:32,1,144,2|0,0:0|0:0,0:0:0:0:
244,276,62331,6,0,P|167:239|133:165,1,144,14|12,0:0|0:0,0:0:0:0:
48,160,62854,2,0,L|32:240,1,72,10|12,0:0|0:0,0:0:0:0:
138,190,63203,1,10,0:0:0:0:
116,100,63377,1,12,0:0:0:0:
33,230,63552,1,10,0:0:0:0:
56,320,63726,1,4,0:0:0:0:
144,296,63900,2,0,L|128:376,1,72,2|4,0:0|0:0,0:0:0:0:
56,320,64249,1,0,0:0:0:0:
212,340,64424,2,0,P|228:264|216:188,1,144,6|4,0:0|0:0,0:0:0:0:
152,132,64947,1,2,0:0:0:0:
152,132,65034,1,2,0:0:0:0:
152,132,65121,6,0,P|224:104|252:108,1,72,14|0,0:0|0:0,0:0:0:0:
64,136,65470,1,14,0:0:0:0:
64,136,65645,2,0,P|100:64|172:20,1,144,10|0,0:0|0:0,0:0:0:0:
244,20,66168,1,12,0:0:0:0:
244,20,66342,1,8,0:0:0:0:
328,64,66517,1,4,0:0:0:0:
412,24,66691,2,0,L|444:100,1,72,2|4,0:0|0:0,0:0:0:0:
364,145,67040,2,0,L|392:212,1,72,0|4,0:0|0:0,0:0:0:0:
272,124,67389,2,0,P|188:144|124:188,1,144,2|0,0:0|0:0,0:0:0:0:
288,36,67912,69,14,0:0:0:0:
368,84,68086,1,8,0:0:0:0:
296,20,68261,1,14,0:0:0:0:
356,92,68435,1,10,0:0:0:0:
308,8,68610,1,12,0:0:0:0:
344,104,68784,2,0,P|368:44|384:20,1,72,10|4,0:0|0:0,0:0:0:0:
288,36,69133,5,2,0:0:0:0:
296,20,69220,1,2,0:0:0:0:
308,8,69307,1,6,0:0:0:0:
204,56,69482,2,0,P|220:87|231:122,1,72,2|4,0:0|0:0,0:0:0:0:
124,36,69831,1,0,0:0:0:0:
320,136,70005,2,0,P|309:170|292:202,1,72,4|0,0:0|0:0,0:0:0:0:
192,212,70354,1,4,0:0:0:0:
231,122,70528,1,2,0:0:0:0:
388,200,70703,6,0,P|352:272|276:304,1,144,6|6,0:0|0:0,0:0:0:0:
96,272,71226,1,10,0:0:0:0:
136,284,71400,1,12,0:0:0:0:
180,276,71575,1,8,0:0:0:0:
220,260,71749,1,12,0:0:0:0:
244,224,71924,1,10,0:0:0:0:
60,96,72098,6,0,P|96:168|172:200,1,144,6|4,0:0|0:0,0:0:0:0:
368,136,72621,2,0,P|328:148|276:148,1,72,2|4,0:0|0:0,0:0:0:0:
252,144,72970,1,2,0:0:0:0:
212,128,73145,1,4,0:0:0:0:
180,100,73319,1,2,0:0:0:0:
432,76,73493,70,0,P|448:152|404:220,1,144,14|4,0:0|0:0,0:0:0:0:
190,220,74017,1,2,0:0:0:0:
214,256,74191,1,4,0:0:0:0:
254,272,74365,1,10,0:0:0:0:
298,280,74540,1,12,0:0:0:0:
338,268,74714,1,10,0:0:0:0:
418,208,74889,6,0,L|434:308,1,72,4|0,0:0|0:0,0:0:0:0:
338,268,75238,1,4,0:0:0:0:
372,344,75412,1,2,0:0:0:0:
452,128,75586,2,0,P|376:136|332:216,1,144,6|4,0:0|0:0,0:0:0:0:
256,220,76110,1,0,0:0:0:0:
256,220,76197,1,0,0:0:0:0:
256,220,76284,5,14,0:0:0:0:
260,176,76458,1,10,0:0:0:0:
168,136,76633,1,14,0:0:0:0:
164,180,76807,1,10,0:0:0:0:
264,136,76982,1,14,0:0:0:0:
268,92,77156,1,10,0:0:0:0:
176,52,77331,1,6,0:0:0:0:
172,96,77505,1,10,0:0:0:0:
368,56,77679,6,0,L|360:144,1,72,6|0,0:0|0:0,0:0:0:0:
440,88,78028,1,6,0:0:0:0:
270,207,78203,2,0,L|262:119,1,72,2|4,0:0|0:0,0:0:0:0:
200,276,78552,2,0,L|192:188,1,72,2|4,0:0|0:0,0:0:0:0:
276,288,78900,1,0,0:0:0:0:
348,224,79075,69,14,0:0:0:0:
270,207,79249,1,0,0:0:0:0:
270,207,79336,1,8,0:0:0:0:
270,207,79424,1,14,0:0:0:0:
193,204,79598,1,8,0:0:0:0:
120,228,79772,1,6,0:0:0:0:
112,184,79947,1,8,0:0:0:0:
120,140,80121,1,12,0:0:0:0:
148,104,80296,1,8,0:0:0:0:
188,88,80470,5,6,0:0:0:0:
248,136,80645,1,2,0:0:0:0:
248,136,80732,1,2,0:0:0:0:
248,136,80819,1,6,0:0:0:0:
276,28,80993,1,2,0:0:0:0:
320,116,81168,1,6,0:0:0:0:
380,8,81342,1,2,0:0:0:0:
392,132,81517,1,6,0:0:0:0:
488,16,81691,1,2,0:0:0:0:
440,184,81865,5,8,0:0:0:0:
440,184,82214,1,8,0:0:0:0:
440,184,82563,2,0,L|456:280,1,72,8|0,0:0|0:0,0:0:0:0:
324,152,82912,1,8,0:0:0:0:
324,152,83261,5,12,0:0:0:0:
324,152,83610,2,0,L|336:224,1,72,8|0,0:0|0:0,0:0:0:0:
268,300,83958,2,0,L|256:228,1,72,8|0,0:0|0:0,0:0:0:0:
184,264,84307,2,0,L|172:192,1,72,8|0,0:0|0:0,0:0:0:0:
112,316,84656,69,12,0:0:0:0:
112,316,85005,1,8,0:0:0:0:
112,316,85354,1,8,0:0:0:0:
112,316,85703,1,8,0:0:0:0:
112,316,86052,1,12,0:0:0:0:
184,264,86226,1,0,0:0:0:0:
268,300,86400,5,8,0:0:0:0:
268,300,86749,1,8,0:0:0:0:
268,300,87098,1,8,0:0:0:0:
268,300,87447,5,4,0:0:0:0:
184,264,87621,1,2,0:0:0:0:
184,264,87708,1,2,0:0:0:0:
184,264,87796,1,2,0:0:0:0:
112,316,87970,1,0,0:0:0:0:
116,204,88145,1,2,0:0:0:0:
28,208,88319,1,0,0:0:0:0:
232,120,88493,1,2,0:0:0:0:
144,124,88668,1,0,0:0:0:0:
116,204,88842,6,0,L|32:208,1,72,2|0,0:0|0:0,0:0:0:0:
232,120,89191,2,0,L|148:124,1,72,2|0,0:0|0:0,0:0:0:0:
348,36,89540,2,0,L|264:40,1,72,2|0,0:0|0:0,0:0:0:0:
108,16,89889,2,0,L|179:12,1,72,2|0,0:0|0:0,0:0:0:0:
348,36,90238,69,2,0:0:0:0:
308,128,90412,1,2,0:0:0:0:
308,128,90499,1,2,0:0:0:0:
308,128,90586,1,2,0:0:0:0:
452,48,90761,1,2,0:0:0:0:
364,184,90935,1,2,0:0:0:0:
448,164,91110,1,0,0:0:0:0:
276,280,91284,1,2,0:0:0:0:
360,260,91458,1,0,0:0:0:0:
364,184,91633,6,0,L|444:164,1,72,2|0,0:0|0:0,0:0:0:0:
276,280,91982,2,0,L|356:260,1,72,2|0,0:0|0:0,0:0:0:0:
428,288,92331,1,2,0:0:0:0:
345,262,92505,1,0,0:0:0:0:
288,196,92679,1,2,0:0:0:0:
304,112,92854,1,0,0:0:0:0:
464,24,93028,5,4,0:0:0:0:
436,88,93203,1,2,0:0:0:0:
376,124,93377,1,4,0:0:0:0:
304,112,93552,1,2,0:0:0:0:
132,84,93726,5,6,0:0:0:0:
128,64,93813,1,0,0:0:0:0:
124,44,93900,1,2,0:0:0:0:
148,156,94075,1,4,0:0:0:0:
124,44,94249,1,2,0:0:0:0:
296,192,94424,69,6,0:0:0:0:
304,112,94598,1,0,0:0:0:0:
296,192,94772,1,6,0:0:0:0:
304,112,94947,1,0,0:0:0:0:
140,196,95121,5,6,0:0:0:0:
144,176,95208,1,0,0:0:0:0:
148,156,95296,1,0,0:0:0:0:
128,268,95470,1,6,0:0:0:0:
148,156,95645,1,0,0:0:0:0:
288,276,95819,5,6,0:0:0:0:
364,316,95993,1,0,0:0:0:0:
444,288,96168,1,6,0:0:0:0:
484,212,96342,1,2,0:0:0:0:
385,227,96517,5,6,0:0:0:0:
341,134,96691,1,0,0:0:0:0:
415,64,96865,1,6,0:0:0:0:
504,113,97040,1,2,0:0:0:0:
424,148,97214,69,2,0:0:0:0:
362,177,97331,2,0,L|336:124,2,48,8|0|0,0:0|0:0|0:0,0:0:0:0:
304,211,97679,2,0,L|291:272,2,48,8|0|2,0:0|0:0|0:0,0:0:0:0:
241,184,98028,6,0,L|230:142,2,36,8|0|2,0:0|0:0|0:0,0:0:0:0:
165,137,98261,2,0,L|150:84,1,48
307,24,98610,6,0,P|255:13|207:37,1,107.999996704102,6|0,0:0|0:0,0:0:0:0:
368,256,99307,2,0,L|376:144,1,107.999996704102,2|0,0:0|0:0,0:0:0:0:
448,120,99831,1,0,0:0:0:0:
332,80,100005,6,0,L|404:72,1,53.9999983520508,2|0,0:0|0:0,0:0:0:0:
216,40,100354,2,0,L|288:32,1,53.9999983520508,2|0,0:0|0:0,0:0:0:0:
340,4,100703,1,2,0:0:0:0:
80,112,101052,1,2,0:0:0:0:
336,284,101400,70,0,L|342:230,1,53.9999983520508,2|0,0:0|0:0,0:0:0:0:
420,196,101749,2,0,L|413:249,1,53.9999983520508,2|0,0:0|0:0,0:0:0:0:
268,232,102098,2,0,L|274:178,1,53.9999983520508,2|0,0:0|0:0,0:0:0:0:
352,156,102447,2,0,L|358:102,1,53.9999983520508,2|0,0:0|0:0,0:0:0:0:
200,28,102796,2,0,L|208:156,1,107.999996704102,2|0,0:0|0:0,0:0:0:0:
44,48,103493,6,0,B|98:55|119:12,1,89.9999972534181
200,28,104017,1,0,0:0:0:0:
43,47,104191,5,8,0:0:0:0:
412,192,104540,1,2,0:0:0:0:
332,144,104714,1,0,0:0:0:0:
492,152,104889,5,8,0:0:0:0:
468,140,105238,1,0,0:0:0:0:
260,292,105586,69,8,0:0:0:0:
20,196,105935,1,8,0:0:0:0:
20,196,106284,6,0,L|28:120,1,53.9999983520508,8|0,0:0|0:0,0:0:0:0:
100,96,106633,2,0,L|95:174,1,53.9999983520508,2|0,0:0|0:0,0:0:0:0:
104,8,106982,5,8,0:0:0:0:
96,149,107331,2,0,L|90:202,1,53.9999983520508,2|0,0:0|0:0,0:0:0:0:
160,256,107679,2,0,L|165:202,1,53.9999983520508,8|0,0:0|0:0,0:0:0:0:
240,224,108028,2,0,L|245:170,1,53.9999983520508,2|0,0:0|0:0,0:0:0:0:
96,149,108377,5,10,0:0:0:0:
165,202,108552,1,0,0:0:0:0:
245,170,108726,1,8,0:0:0:0:
320,216,108900,1,2,0:0:0:0:
400,180,109075,1,8,0:0:0:0:
480,148,109249,1,2,0:0:0:0:
478,129,109336,1,0,0:0:0:0:
476,109,109424,1,0,0:0:0:0:
474,89,109511,1,0,0:0:0:0:
472,69,109598,1,0,0:0:0:0:
383,22,109772,69,4,0:0:0:0:
69,122,110121,2,0,L|65:42,1,72,6|0,0:0|0:0,0:0:0:0:
0,144,110470,1,6,0:0:0:0:
220,248,110819,2,0,L|216:328,1,72,6|0,0:0|0:0,0:0:0:0:
292,256,111168,5,6,0:0:0:0:
480,124,111517,2,0,L|488:36,1,72,6|0,0:0|0:0,0:0:0:0:
416,0,111865,2,0,L|409:71,1,72,6|0,0:0|0:0,0:0:0:0:
332,136,112214,2,0,L|340:48,1,72,6|0,0:0|0:0,0:0:0:0:
248,20,112563,5,6,0:0:0:0:
338,64,112738,1,0,0:0:0:0:
236,44,112912,1,6,0:0:0:0:
348,40,113086,1,0,0:0:0:0:
360,16,113261,5,6,0:0:0:0:
280,80,113435,1,0,0:0:0:0:
180,80,113610,1,6,0:0:0:0:
104,12,113784,1,0,0:0:0:0:
180,80,113958,69,12,0:0:0:0:
176,124,114133,1,0,0:0:0:0:
172,168,114307,1,6,0:0:0:0:
168,212,114482,1,0,0:0:0:0:
164,256,114656,2,0,P|124:268|88:240,1,72,6|0,0:0|0:0,0:0:0:0:
80,156,115005,1,4,0:0:0:0:
176,124,115179,1,2,0:0:0:0:
256,188,115354,5,6,0:0:0:0:
102,327,115703,2,0,L|98:255,1,72,6|0,0:0|0:0,0:0:0:0:
32,344,116052,1,6,0:0:0:0:
324,228,116400,2,0,L|328:148,1,72,6|0,0:0|0:0,0:0:0:0:
388,256,116749,1,6,0:0:0:0:
80,156,117098,2,0,L|84:76,1,72,6|0,0:0|0:0,0:0:0:0:
160,20,117447,2,0,L|156:91,1,72,6|0,0:0|0:0,0:0:0:0:
228,155,117796,2,0,L|232:84,1,72,6|0,0:0|0:0,0:0:0:0:
332,64,118145,5,6,0:0:0:0:
421,19,118319,1,0,0:0:0:0:
494,91,118493,1,6,0:0:0:0:
444,180,118668,1,0,0:0:0:0:
346,163,118842,2,0,P|344:224|360:264,1,72,4|0,0:0|0:0,0:0:0:0:
252,272,119191,2,0,P|293:316|333:333,1,72,6|0,0:0|0:0,0:0:0:0:
404,316,119540,5,6,0:0:0:0:
346,234,119714,1,2,0:0:0:0:
346,234,119802,1,2,0:0:0:0:
346,234,119889,1,6,0:0:0:0:
256,192,120063,1,0,0:0:0:0:
156,184,120238,1,14,0:0:0:0:
60,148,120412,1,0,0:0:0:0:
0,68,120586,2,0,P|8:20|24:-4,1,72,6|0,0:0|0:0,0:0:0:0:
60,148,120935,69,4,0:0:0:0:
104,24,121110,1,2,0:0:0:0:
144,144,121284,1,2,0:0:0:0:
184,48,121458,1,0,0:0:0:0:
184,48,121546,1,0,0:0:0:0:
184,48,121633,5,8,0:0:0:0:
228,140,121807,1,2,0:0:0:0:
264,72,121982,1,2,0:0:0:0:
312,136,122156,1,0,0:3:0:0:
344,96,122331,1,0,0:0:0:0:
360,200,122505,5,0,0:0:0:0:
392,164,122592,2,0,L|504:172,1,108,2|0,0:0|0:0,0:0:0:0:
448,272,122941,1,0,0:0:0:0:
412,308,123028,2,0,L|304:300,2,108,8|8|8,0:0|0:0|0:0,0:0:0:0:
360,200,123726,5,2,0:0:0:0:
392,164,123900,1,2,0:0:0:0:
384,116,124075,1,2,0:0:0:0:
416,80,124249,1,2,0:0:0:0:
256,180,124424,69,2,0:0:0:0:
300,129,124598,1,2,0:0:0:0:
289,62,124772,1,2,0:0:0:0:
334,12,124947,1,2,0:0:0:0:
300,129,125121,5,4,0:3:0:0:
276,120,125208,1,0,0:0:0:0:
250,116,125296,1,0,0:0:0:0:
224,117,125383,1,8,0:0:0:0:
199,124,125470,1,8,0:3:0:0:
130,255,125645,5,8,0:0:0:0:
158,265,125732,1,8,0:3:0:0:
190,270,125819,1,0,0:0:0:0:
221,269,125906,1,0,0:0:0:0:
251,261,125993,1,8,0:3:0:0:
343,221,126168,1,2,0:0:0:0:
421,283,126342,1,0,0:0:0:0:
504,188,126517,6,0,L|510:83,1,90,14|0,0:0|0:0,0:0:0:0:
426,193,126865,2,0,L|420:282,1,90,4|0,0:0|0:0,0:0:0:0:
356,152,127214,2,0,L|361:62,1,90,4|0,0:0|0:0,0:0:0:0:
292,216,127563,2,0,L|286:305,1,90,4|0,0:0|0:0,0:0:0:0:
208,116,127912,2,0,L|212:64,3,45,12|0|0|0,0:0|0:0|0:0|0:0,0:0:0:0:
158,239,128261,2,0,L|152:320,3,45,4|0|0|0,0:0|0:0|0:0|0:0,0:0:0:0:
60,80,128610,69,4,0:0:0:0:
72,61,128697,1,0,0:0:0:0:
87,44,128784,1,0,0:0:0:0:
105,30,128871,1,0,0:0:0:0:
124,19,128958,1,6,0:0:0:0:
145,10,129046,1,0,0:0:0:0:
167,5,129133,1,0,0:0:0:0:
189,3,129220,1,0,0:0:0:0:
212,4,129307,6,0,L|312:8,1,90,14|0,0:0|0:0,0:0:0:0:
412,80,129656,2,0,L|322:76,1,90,4|0,0:0|0:0,0:0:0:0:
160,112,130005,2,0,L|249:115,1,90,4|0,0:0|0:0,0:0:0:0:
432,188,130354,2,0,L|342:184,1,90,4|0,0:0|0:0,0:0:0:0:
484,244,130703,5,14,0:0:0:0:
484,244,130877,1,0,0:0:0:0:
342,184,131052,1,4,0:0:0:0:
342,184,131226,1,0,0:0:0:0:
220,260,131400,1,6,0:0:0:0:
220,260,131575,1,0,0:0:0:0:
100,124,131749,1,4,0:0:0:0:
100,124,131924,1,0,0:0:0:0:
144,40,132098,6,0,P|268:44|172:156,1,323.999990112305,4|0,0:0|0:0,0:0:0:0:
204,88,133493,1,0,3:0:0:0:
76,64,143261,69,10,0:0:0:0:
256,28,143610,1,2,0:0:0:0:
328,48,143784,2,0,P|292:88|232:96,1,107.999996704102,2|0,0:0|0:0,0:0:0:0:
400,24,144482,1,2,0:0:0:0:
328,48,144656,1,0,0:0:0:0:
384,92,144831,2,0,P|376:120|384:148,1,53.9999983520508,2|0,0:0|0:0,0:0:0:0:
448,184,145179,2,0,P|456:156|448:128,1,53.9999983520508
240,97,145528,2,0,L|132:100,1,107.999996704102,2|2,0:0|0:0,0:0:0:0:
256,28,146052,5,2,0:0:0:0:
64,184,146400,1,0,0:0:0:0:
132,99,146575,2,0,P|140:125|135:151,1,53.9999983520508,2|0,0:0|0:0,0:0:0:0:
64,184,146924,2,0,P|56:158|61:132,1,53.9999983520508,2|0,0:0|0:0,0:0:0:0:
68,56,147272,1,2,0:0:0:0:
132,99,147447,1,0,0:0:0:0:
128,220,147621,2,0,L|184:216,1,53.9999983520508,2|0,0:0|0:0,0:0:0:0:
220,156,147970,2,0,B|290:102|349:156|329:237|256:230|256:230|237:291,1,269.999991760254,2|10,0:0|0:0,0:0:0:0:
221,352,149191,5,2,0:0:0:0:
239,279,149365,2,0,P|213:275|187:282,1,53.9999983520508
91,337,149714,2,0,P|126:345|162:337,1,53.9999983520508,2|0,0:0|0:0,0:0:0:0:
56,272,150063,2,0,P|16:300|20:372,2,107.999996704102,0|2|2,0:0|0:0|0:0,0:0:0:0:
264,164,151110,2,0,L|248:228,1,53.9999983520508,2|0,0:0|0:0,0:0:0:0:
180,212,151458,1,0,0:0:0:0:
328,280,151633,6,0,L|320:208,1,53.9999983520508,2|0,0:0|0:0,0:0:0:0:
392,212,151982,1,0,0:0:0:0:
381,338,152156,2,0,P|331:356|280:344,2,107.999996704102,2|0|2,0:0|0:0|0:0,0:0:0:0:
322,226,153028,1,2,0:0:0:0:
322,226,153115,1,0,0:0:0:0:
322,226,153203,2,0,L|330:286,1,53.9999983520508
244,184,153552,2,0,P|320:148|392:176,1,161.999995056153,2|0,0:0|0:0,0:0:0:0:
322,226,154249,1,0,0:0:0:0:
496,56,154424,69,2,0:0:0:0:
452,60,154598,1,0,0:0:0:0:
408,64,154772,1,2,0:0:0:0:
364,68,154947,1,2,0:0:0:0:
388,176,155121,1,2,0:0:0:0:
344,172,155296,1,0,0:0:0:0:
300,168,155470,1,0,0:0:0:0:
256,164,155645,1,2,0:0:0:0:
212,92,155819,6,0,L|52:100,1,144,2|0,0:0|0:0,0:0:0:0:
36,188,156342,1,2,0:0:0:0:
80,188,156517,1,0,0:0:0:0:
124,188,156691,1,0,0:0:0:0:
212,92,156865,2,0,L|316:96,1,72,0|2,0:0|0:0,0:0:0:0:
124,188,157214,5,10,0:0:0:0:
168,192,157389,1,0,0:0:0:0:
212,196,157563,1,0,0:0:0:0:
355,97,157738,2,0,L|283:94,1,72,10|0,0:0|0:0,0:0:0:0:
216,244,158086,1,2,0:0:0:0:
260,240,158261,1,0,0:0:0:0:
304,236,158435,1,0,0:0:0:0:
484,140,158610,6,0,L|364:128,1,108,2|0,0:0|0:0,0:0:0:0:
348,96,158958,2,0,P|320:128|324:180,1,72,0|2,0:0|0:0,0:0:0:0:
216,244,159307,2,0,L|208:172,1,72,2|0,0:0|0:0,0:0:0:0:
300,284,159656,1,0,0:0:0:0:
304,236,159831,1,2,0:0:0:0:
208,172,160005,69,8,0:0:0:0:
208,128,160179,1,2,0:0:0:0:
392,224,160354,2,0,L|400:144,1,72,10|0,0:0|0:0,0:0:0:0:
208,172,160703,1,0,0:0:0:0:
208,128,160877,1,2,0:0:0:0:
208,84,161052,1,0,0:0:0:0:
208,40,161226,1,0,0:0:0:0:
104,108,161400,5,2,0:0:0:0:
408,108,161749,5,0,0:0:0:0:
412,64,161924,1,2,0:0:0:0:
312,156,162098,1,2,0:0:0:0:
312,112,162272,1,0,0:0:0:0:
208,128,162447,1,0,0:0:0:0:
208,84,162621,1,2,0:0:0:0:
104,96,162796,6,0,P|84:136|96:188,1,72,10|0,0:0|0:0,0:0:0:0:
188,194,163145,2,0,P|208:154|196:102,1,72,0|2,0:0|0:0,0:0:0:0:
184,16,163493,2,0,P|220:16|260:36,1,72,2|0,0:0|0:0,0:0:0:0:
207,127,163842,2,0,P|171:127|131:107,1,72,2|0,0:0|0:0,0:0:0:0:
184,16,164191,69,2,0:0:0:0:
252,30,164365,1,2,0:0:0:0:
272,40,164453,1,2,0:0:0:0:
292,52,164540,1,2,0:0:0:0:
340,104,164714,1,2,0:0:0:0:
456,64,164889,5,2,0:0:0:0:
416,140,165063,1,2,0:0:0:0:
340,184,165238,1,2,0:0:0:0:
252,180,165412,1,2,0:0:0:0:
350,14,165586,6,0,L|340:108,1,72,4|0,0:0|0:0,0:0:0:0:
416,140,165935,1,14,0:0:0:0:
340,184,166110,1,10,0:0:0:0:
252,180,166284,1,12,0:0:0:0:
196,44,166458,2,8,L|186:138,1,72,10|12,0:0|0:0,0:0:0:0:
108,0,166807,2,0,P|88:64|100:148,1,144,2|2,0:0|0:0,0:0:0:0:
4,112,167331,5,4,0:0:0:0:
96,139,167505,1,2,0:0:0:0:
24,200,167679,1,4,0:0:0:0:
112,228,167854,2,0,L|96:320,1,72,2|4,0:0|0:0,0:0:0:0:
180,348,168203,1,2,0:0:0:0:
332,212,168377,70,0,P|260:200|192:240,1,144,14|4,0:0|0:0,0:0:0:0:
312,288,168900,2,0,P|364:304|400:340,1,72,10|12,0:0|0:0,0:0:0:0:
232,296,169249,1,10,0:0:0:0:
312,288,169424,1,12,0:0:0:0:
488,232,169598,2,0,P|444:244|412:268,1,72,10|4,0:0|0:0,0:0:0:0:
263,200,169947,2,0,P|299:199|332:212,1,72,2|4,0:0|0:0,0:0:0:0:
408,164,170296,2,0,P|396:120|356:76,1,72,2|4,0:0|0:0,0:0:0:0:
424,16,170645,1,0,0:0:0:0:
512,44,170819,1,4,0:0:0:0:
381,98,170993,1,2,0:0:0:0:
381,98,171081,1,2,0:0:0:0:
381,98,171168,6,0,P|272:84|216:96,1,144,14|14,0:0|0:0,0:0:0:0:
76,56,171691,1,2,0:0:0:0:
148,116,171865,1,12,0:0:0:0:
264,174,172040,2,0,P|252:114|234:78,1,72,10|4,0:0|0:0,0:0:0:0:
328,271,172389,2,0,P|351:204|348:132,1,144,2|2,0:0|0:0,0:0:0:0:
436,100,172912,1,4,0:0:0:0:
304,16,173086,2,0,L|392:20,1,72,2|4,0:0|0:0,0:0:0:0:
167,88,173435,2,0,L|267:88,1,72,2|4,0:0|0:0,0:0:0:0:
96,16,173784,1,2,0:0:0:0:
56,172,173958,6,0,P|116:176|156:160,1,72,14|8,0:0|0:0,0:0:0:0:
167,88,174307,1,4,0:0:0:0:
180,256,174482,2,0,P|232:264|292:232,1,108,10|0,0:0|0:0,0:0:0:0:
304,172,174831,2,0,P|344:192|352:240,1,72,2|4,0:0|0:0,0:0:0:0:
460,312,175179,1,2,0:0:0:0:
464,292,175267,1,2,0:0:0:0:
468,272,175354,5,6,0:0:0:0:
432,192,175528,2,0,L|416:112,1,72,2|4,0:0|0:0,0:0:0:0:
352,28,175877,2,0,L|337:98,1,72,2|4,0:0|0:0,0:0:0:0:
280,4,176226,1,0,0:0:0:0:
176,36,176400,1,4,0:0:0:0:
337,98,176575,1,2,0:0:0:0:
160,128,176749,70,0,P|72:124|-12:140,1,144,6|12,0:0|0:0,0:0:0:0:
176,36,177272,2,0,P|216:48|256:84,1,72,10|12,0:0|0:0,0:0:0:0:
244,160,177621,1,8,0:0:0:0:
172,220,177796,1,12,0:0:0:0:
80,220,177970,1,10,0:0:0:0:
228,384,178145,6,4,P|252:312|256:244,1,144,6|6,0:0|0:0,0:0:0:0:
172,220,178668,1,2,0:0:0:0:
256,244,178842,1,4,0:0:0:0:
344,208,179017,1,0,0:0:0:0:
432,240,179191,1,4,0:0:0:0:
360,300,179365,1,2,0:0:0:0:
416,144,179540,6,0,P|408:88|392:56,1,72,6|0,0:0|0:0,0:0:0:0:
344,208,179889,1,4,0:0:0:0:
484,108,180063,2,4,P|476:52|460:20,1,72,2|12,0:0|0:0,0:0:0:0:
308,44,180412,2,0,P|316:100|332:132,1,72,10|12,0:0|0:0,0:0:0:0:
248,176,180761,1,8,0:0:0:0:
408,156,180935,6,0,P|412:192|396:240,2,72,6|0|4,0:0|0:0|0:0,0:0:0:0:
321,113,181458,1,2,0:0:0:0:
248,176,181633,2,0,P|168:176|80:200,1,144,6|4,0:0|0:0,0:0:0:0:
20,224,182156,1,2,0:0:0:0:
168,92,182331,69,4,0:0:0:0:
251,95,182505,2,0,P|295:103|335:119,1,72,2|4,0:0|0:0,0:0:0:0:
464,36,182854,1,8,0:0:0:0:
372,36,183028,1,14,0:0:0:0:
320,112,183203,1,8,0:0:0:0:
352,200,183377,1,14,0:0:0:0:
444,224,183552,1,8,0:0:0:0:
320,112,183726,6,0,P|264:120|228:144,1,72,6|0,0:0|0:0,0:0:0:0:
248,276,184075,2,0,P|269:223|266:180,1,72,4|0,0:0|0:0,0:0:0:0:
144,132,184424,2,0,P|178:176|217:195,1,72,6|0,0:0|0:0,0:0:0:0:
152,48,184772,2,0,L|52:60,1,72,4|2,0:0|0:0,0:0:0:0:
256,16,185121,5,14,0:0:0:0:
252,36,185208,1,0,0:0:0:0:
248,56,185296,1,0,0:0:0:0:
244,76,185383,1,0,0:0:0:0:
240,96,185470,1,14,0:0:0:0:
191,184,185645,1,8,0:0:0:0:
324,156,185819,5,14,0:0:0:0:
328,84,185993,1,0,0:0:0:0:
191,184,186168,1,6,0:0:0:0:
188,256,186342,1,0,0:0:0:0:
328,280,186517,69,6,0:0:0:0:
392,224,186691,1,2,0:0:0:0:
392,224,186778,1,2,0:0:0:0:
392,224,186865,1,6,0:0:0:0:
412,140,187040,1,2,0:0:0:0:
468,24,187214,5,6,0:0:0:0:
388,60,187389,1,2,0:0:0:0:
304,72,187563,1,6,0:0:0:0:
220,56,187738,1,2,0:0:0:0:
144,20,187912,5,4,0:0:0:0:
144,20,188261,1,8,0:0:0:0:
144,20,188610,2,0,L|152:118,1,72,8|0,0:0|0:0,0:0:0:0:
75,15,188958,1,8,0:0:0:0:
360,75,189307,5,12,0:0:0:0:
360,75,189656,2,0,L|349:164,1,72,8|0,0:0|0:0,0:0:0:0:
433,119,190005,2,0,L|422:208,1,72,8|0,0:0|0:0,0:0:0:0:
279,105,190354,2,0,L|268:194,1,72,8|0,0:0|0:0,0:0:0:0:
62,194,190703,69,12,0:0:0:0:
62,194,191052,2,0,L|72:298,1,72,8|0,0:0|0:0,0:0:0:0:
149,324,191400,2,0,L|142:252,1,72,8|0,0:0|0:0,0:0:0:0:
211,184,191749,2,0,L|217:255,1,72,8|0,0:0|0:0,0:0:0:0:
408,241,192098,5,12,0:0:0:0:
408,241,192447,1,8,0:0:0:0:
408,241,192796,1,8,0:0:0:0:
408,241,193145,1,8,0:0:0:0:
317,306,193319,1,0,0:0:0:0:
217,255,193493,5,4,0:0:0:0:
116,241,193668,1,2,0:0:0:0:
123,213,193755,1,2,0:0:0:0:
130,185,193842,1,2,0:0:0:0:
153,330,194017,1,2,0:0:0:0:
130,185,194191,1,2,0:0:0:0:
261,311,194365,1,0,0:0:0:0:
252,193,194540,1,2,0:0:0:0:
369,292,194714,1,0,0:0:0:0:
374,201,194889,6,0,P|424:207|457:221,1,72,2|0,0:0|0:0,0:0:0:0:
317,141,195238,2,0,P|363:121|398:116,1,72,2|0,0:0|0:0,0:0:0:0:
232,118,195586,2,0,P|262:77|290:56,1,72,2|0,0:0|0:0,0:0:0:0:
150,139,195935,2,0,P|156:88|170:55,1,72,2|0,0:0|0:0,0:0:0:0:
377,98,196284,69,2,0:0:0:0:
464,168,196458,1,2,0:0:0:0:
471,140,196546,1,2,0:0:0:0:
478,112,196633,1,2,0:0:0:0:
452,29,196807,1,2,0:0:0:0:
361,149,196982,1,2,0:0:0:0:
318,41,197156,1,2,0:0:0:0:
244,186,197331,1,2,0:0:0:0:
184,53,197505,1,2,0:0:0:0:
127,223,197679,6,0,P|103:192|95:136,1,72,2|0,0:0|0:0,0:0:0:0:
179,141,198028,2,0,P|173:102|194:49,1,72,2|0,0:0|0:0,0:0:0:0:
265,98,198377,2,0,P|279:61|324:26,1,72,2|0,0:0|0:0,0:0:0:0:
379,77,198726,2,0,P|410:53|466:45,1,72,2|0,0:0|0:0,0:0:0:0:
414,196,199075,5,6,0:0:0:0:
378,220,199249,1,0,0:0:0:0:
327,133,199424,1,6,0:0:0:0:
307,171,199598,1,2,0:0:0:0:
220,114,199772,1,4,0:0:0:0:
221,156,199947,1,2,0:0:0:0:
116,146,200121,1,6,0:0:0:0:
137,181,200296,1,0,0:0:0:0:
198,241,200470,5,6,0:0:0:0:
294,256,200645,1,2,0:0:0:0:
294,256,200732,1,2,0:0:0:0:
294,256,200819,1,6,0:0:0:0:
222,325,200993,1,2,0:0:0:0:
137,181,201168,1,4,0:0:0:0:
221,156,201342,1,0,0:0:0:0:
307,171,201517,1,6,0:0:0:0:
378,220,201691,1,2,0:0:0:0:
463,72,201865,69,6,0:0:0:0:
266,41,202040,1,2,0:0:0:0:
367,38,202214,1,6,0:0:0:0:
177,90,202389,1,2,0:0:0:0:
266,41,202563,1,6,0:0:0:0:
125,177,202738,1,2,0:0:0:0:
177,90,202912,1,6,0:0:0:0:
124,275,203086,1,0,0:0:0:0:
315,219,203261,5,6,0:0:0:0:
315,219,203958,5,2,0:0:0:0:
315,219,204307,1,2,0:0:0:0:
444,196,204656,6,0,P|440:136|408:76,1,107.999996704102,4|0,0:0|0:0,0:0:0:0:
280,40,205005,2,0,P|284:99|316:160,1,107.999996704102,6|0,0:0|0:0,0:0:0:0:
148,295,205354,2,0,L|256:288,1,107.999996704102,6|0,0:0|0:0,0:0:0:0:
143,188,205703,2,0,L|36:196,1,107.999996704102,14|0,0:0|0:0,0:0:0:0:
280,40,206052,70,0,P|380:36|496:52,1,215.999993408203,6|6,0:0|0:0,0:0:0:0:
460,152,206575,1,0,0:0:0:0:
352,148,206749,2,0,P|360:196|416:252,1,107.999996704102,6|0,0:0|0:0,0:0:0:0:
296,296,207098,2,0,P|331:335|381:354,1,107.999996704102,14|0,0:0|0:0,0:0:0:0:
280,100,207447,6,0,P|152:96|44:108,1,215.999993408203,6|4,0:0|0:0,0:0:0:0:
8,192,207970,1,0,0:0:0:0:
12,12,208145,2,0,P|76:8|152:16,1,107.999996704102,6|0,0:0|0:0,0:0:0:0:
280,100,208493,2,0,P|200:96|144:100,1,107.999996704102,6|0,0:0|0:0,0:0:0:0:
334,14,208842,5,14,0:0:0:0:
418,71,209017,1,0,0:0:0:0:
362,154,209191,1,6,0:0:0:0:
280,100,209365,1,0,0:0:0:0:
468,176,209540,2,0,P|444:244|356:268,2,161.999995056153,6|10|10,0:0|0:0|0:0,0:0:0:0:
328,72,210238,6,0,P|280:96|256:176,1,107.999996704102,6|0,0:0|0:0,0:0:0:0:
151,173,210586,2,0,P|176:220|224:244,1,107.999996704102,6|0,0:0|0:0,0:0:0:0:
68,56,210935,2,0,P|28:148|40:280,1,215.999993408203,6|14,0:0|0:0,0:0:0:0:
92,356,211458,1,0,0:0:0:0:
151,173,211633,69,14,0:0:0:0:
160,280,211807,1,0,0:0:0:0:
248,120,211982,1,6,0:0:0:0:
240,228,212156,1,0,0:0:0:0:
348,76,212331,2,0,L|332:188,1,107.999996704102,14|0,0:0|0:0,0:0:0:0:
456,52,212679,2,0,L|424:176,1,107.999996704102,14|0,0:0|0:0,0:0:0:0:
332,268,213028,6,0,P|328:156|300:44,2,215.999993408203,6|4|14,0:0|0:0|0:0,0:0:0:0:
192,332,213900,1,0,0:0:0:0:
332,268,214075,1,6,0:0:0:0:
176,256,214249,1,0,0:0:0:0:
348,344,214424,2,0,P|416:332|480:348,2,107.999996704102,6|0|4,0:0|0:0|0:0,0:0:0:0:
256,284,214947,5,2,0:0:0:0:
372,196,215121,1,6,0:0:0:0:
240,120,215296,1,0,0:0:0:0:
252,104,215383,1,0,0:0:0:0:
240,88,215470,1,4,0:0:0:0:
252,72,215557,1,0,0:0:0:0:
240,60,215645,1,0,0:0:0:0:
252,44,215732,1,0,0:0:0:0:
240,28,215819,6,0,P|172:28|128:48,1,107.999996704102,6|0,0:0|0:0,0:0:0:0:
64,176,216168,2,0,P|132:176|176:156,1,107.999996704102,14|0,0:0|0:0,0:0:0:0:
356,120,216517,2,0,L|463:116,1,107.999996704102,6|0,0:0|0:0,0:0:0:0:
268,243,216865,2,0,L|376:240,1,107.999996704102,6|0,0:0|0:0,0:0:0:0:
104,324,217214,70,0,P|104:232|152:112,1,215.999993408203,6|6,0:0|0:0,0:0:0:0:
20,152,217738,1,0,0:0:0:0:
264,164,217912,2,0,P|272:104|256:40,1,107.999996704102,6|0,0:0|0:0,0:0:0:0:
376,168,218261,2,0,P|357:218|323:260,1,107.999996704102,10|0,0:0|0:0,0:0:0:0:
472,204,218610,5,14,0:0:0:0:
488,96,218784,1,0,0:0:0:0:
376,168,218958,1,14,0:0:0:0:
360,44,219133,1,0,0:0:0:0:
248,156,219307,1,6,0:0:0:0:
192,32,219482,1,0,0:0:0:0:
136,216,219656,1,6,0:0:0:0:
36,72,219831,1,0,0:0:0:0:
248,156,220005,5,14,0:0:0:0:
192,32,220179,1,0,0:0:0:0:
376,168,220354,1,6,0:0:0:0:
360,44,220528,1,0,0:0:0:0:
488,96,220703,6,0,L|468:232,1,107.999996704102,14|0,0:0|0:0,0:0:0:0:
408,236,220964,1,0,0:0:0:0:
408,236,221052,2,0,P|436:312|420:356,1,107.999996704102,14|2,0:0|0:0,0:0:0:0:
312,128,221400,70,0,L|204:136,1,107.999996704102,6|0,0:0|0:0,0:0:0:0:
88,212,221749,1,6,0:0:0:0:
80,232,221924,1,0,0:0:0:0:
132,92,222098,1,6,0:0:0:0:
116,108,222272,1,0,0:0:0:0:
240,20,222447,1,6,0:0:0:0:
220,28,222621,1,0,0:0:0:0:
440,32,222796,6,0,P|389:14|335:18,1,107.999996704102,14|0,0:0|0:0,0:0:0:0:
296,136,223145,2,0,P|346:153|400:149,1,107.999996704102,6|0,0:0|0:0,0:0:0:0:
204,96,223493,2,0,P|200:149|217:200,1,107.999996704102,6|0,0:0|0:0,0:0:0:0:
332,248,223842,2,0,P|321:300|291:345,1,107.999996704102,6|0,0:0|0:0,0:0:0:0:
440,236,224191,5,14,0:0:0:0:
332,248,224365,1,0,0:0:0:0:
324,140,224540,1,6,0:0:0:0:
436,136,224714,1,0,0:0:0:0:
324,140,224889,5,4,0:0:0:0:
298,243,225063,1,0,0:0:0:0:
390,306,225238,1,6,0:0:0:0:
472,238,225412,1,8,0:0:0:0:
436,136,225586,69,14,0:0:0:0:
388,216,225761,1,2,0:0:0:0:
388,216,225848,1,2,0:0:0:0:
388,216,225935,1,6,0:0:0:0:
298,243,226110,1,2,0:0:0:0:
192,248,226284,1,6,0:0:0:0:
92,212,226458,1,2,0:0:0:0:
40,116,226633,1,6,0:0:0:0:
32,8,226807,1,0,0:0:0:0:
136,44,226982,6,0,L|128:124,1,62.9999980773926,6|2,0:0|0:0,0:0:0:0:
204,108,227331,1,6,0:0:0:0:
129,106,227505,1,0,0:0:0:0:
164,172,227679,1,6,0:0:0:0:
200,240,227854,1,0,0:0:0:0:
212,224,227941,1,0,0:0:0:0:
224,208,228028,1,14,0:0:0:0:
124,236,228203,1,0,0:0:0:0:
348,172,228377,5,6,0:0:0:0:
313,106,228552,1,0,0:0:0:0:
388,108,228726,1,14,0:0:0:0:
308,236,228900,1,0,0:0:0:0:
276,172,229075,1,14,0:0:0:0:
313,106,229424,5,14,0:0:0:0:
388,236,229772,69,14,0:0:0:0:
308,236,229947,1,0,0:0:0:0:
348,300,230121,1,6,0:0:0:0:
124,148,230470,5,14,0:0:0:0:
204,148,230645,1,0,0:0:0:0:
164,84,230819,2,0,L|164:12,1,62.9999980773926,14|0,0:0|0:0,0:0:0:0:
304,148,231168,5,6,0:0:0:0:
380,148,231342,1,0,0:0:0:0:
344,80,231517,1,14,0:0:0:0:
420,80,231691,1,0,0:0:0:0:
456,148,231865,1,14,0:0:0:0:
380,148,232214,5,4,0:0:0:0:
304,148,232563,69,4,0:0:0:0:
456,148,232738,1,2,0:0:0:0:
420,216,232912,1,14,0:0:0:0:
344,216,233086,1,0,0:0:0:0:
304,148,233261,1,12,0:0:0:0:
344,80,233435,1,0,0:0:0:0:
420,80,233610,2,0,P|404:36|380:16,1,62.9999980773926,6|0,0:0|0:0,0:0:0:0:
200,88,233958,2,0,L|280:84,1,62.9999980773926,6|0,0:0|0:0,0:0:0:0:
344,80,234307,5,6,0:0:0:0:
304,148,234482,1,2,0:0:0:0:
432,244,234656,2,0,P|432:188|372:148,1,125.999996154785,6|4,0:0|0:0,0:0:0:0:
360,220,235179,1,2,0:0:0:0:
200,88,235354,6,0,L|344:80,1,125.999996154785,6|4,0:0|0:0,0:0:0:0:
360,220,235877,1,2,0:0:0:0:
168,160,236052,2,0,L|244:156,1,62.9999980773926,14|0,0:0|0:0,0:0:0:0:
280,216,236400,1,14,0:0:0:0:
137,91,236575,2,0,L|213:87,1,62.9999980773926,10|6,0:0|0:0,0:0:0:0:
208,224,236924,1,0,0:0:0:0:
137,91,237098,2,0,L|74:94,1,62.9999980773926,6|0,0:0|0:0,0:0:0:0:
228,16,237447,2,0,L|92:24,1,125.999996154785,14|4,0:0|0:0,0:0:0:0:
168,160,237970,1,0,0:0:0:0:
228,16,238145,5,4,0:0:0:0:
256,88,238319,1,2,0:0:0:0:
368,20,238493,1,6,0:0:0:0:
332,88,238668,1,2,0:0:0:0:
368,156,238842,1,12,0:0:0:0:
444,156,239017,1,2,0:0:0:0:
480,88,239191,1,4,0:0:0:0:
444,24,239365,1,2,0:0:0:0:
368,156,239540,70,0,L|376:232,1,62.9999980773926,6|0,0:0|0:0,0:0:0:0:
480,88,239889,1,6,0:0:0:0:
444,156,240063,1,0,0:0:0:0:
290,185,240238,2,0,L|284:280,1,94.499997116089,6|0,0:0|0:0,0:0:0:0:
168,192,240586,5,2,0:0:0:0:
172,172,240674,1,0,0:0:0:0:
176,152,240761,1,0,0:0:0:0:
180,136,240848,1,0,0:0:0:0:
186,105,240935,6,0,P|118:73|46:137,1,161.999995056153,10|0,0:0|0:0,0:0:0:0:
240,48,241284,2,0,P|308:16|380:80,1,161.999995056153,8|0,0:0|0:0,0:0:0:0:
476,176,241633,2,0,P|392:128|312:200,1,215.999993408203,10|2,0:0|0:0,0:0:0:0:
312,197,242156,1,0,0:0:0:0:
356,272,242331,6,0,P|304:308|208:276,1,161.999995056153,10|0,0:0|0:0,0:0:0:0:
168,344,242679,2,0,P|118:304|120:203,1,161.999995056153,10|0,0:0|0:0,0:0:0:0:
36,200,243028,2,0,P|57:140|154:111,1,161.999995056153,10|0,0:0|0:0,0:0:0:0:
148,28,243377,2,0,P|211:30|268:113,1,161.999995056153,10|0,0:0|0:0,0:0:0:0:
348,64,243726,70,0,P|364:125|301:204,1,161.999995056153,10|0,0:0|0:0,0:0:0:0:
232,172,244075,2,0,P|248:260|272:276,1,107.999996704102,10|0,0:0|0:0,0:0:0:0:
200,96,244424,2,0,P|140:180|148:296,1,215.999993408203,8|10,0:0|0:0,0:0:0:0:
257,268,244947,1,2,0:0:0:0:
216,368,245121,5,10,0:0:0:0:
80,152,245470,1,10,0:0:0:0:
296,16,245819,1,10,0:0:0:0:
432,232,246168,5,10,0:0:0:0:
332,192,246342,1,2,0:0:0:0:
257,268,246517,6,0,P|181:272|129:320,1,107.999996704102,10|0,0:0|0:0,0:0:0:0:
64,108,246865,2,0,L|44:224,1,107.999996704102,10|0,0:0|0:0,0:0:0:0:
192,36,247214,2,0,L|200:160,1,107.999996704102,10|0,0:0|0:0,0:0:0:0:
264,344,247563,70,0,P|340:340|392:292,1,107.999996704102,10|0,0:0|0:0,0:0:0:0:
464,244,247912,2,0,L|476:96,1,107.999996704102,10|0,0:0|0:0,0:0:0:0:
320,36,248261,2,0,L|312:160,1,107.999996704102,10|0,0:0|0:0,0:0:0:0:
160,272,248610,2,0,P|108:164|124:60,1,215.999993408203,10|10,0:0|0:0,0:0:0:0:
204,8,249133,1,0,0:0:0:0:
220,85,249307,102,0,B|216:33|204:9|204:9|228:13|264:93,1,161.999995056153,8|0,0:0|0:0,0:0:0:0:
390,184,249656,2,0,B|439:198|466:196|466:196|454:217|366:222,1,161.999995056153,8|0,0:0|0:0,0:0:0:0:
220,282,250005,2,0,B|182:317|171:342|171:342|159:321|198:242,1,161.999995056153,8|0,0:0|0:0,0:0:0:0:
333,85,250354,2,0,B|370:49|381:24|381:24|393:45|354:124,1,161.999995056153,8|0,0:0|0:0,0:0:0:0:
333,282,250703,2,0,B|345:332|360:354|360:354|336:354|288:280,1,161.999995056153,8|0,0:0|0:0,0:0:0:0:
163,183,251052,2,0,B|113:168|86:170|86:170|98:149|186:144,1,161.999995056153,8|0,0:0|0:0,0:0:0:0:
288,100,251400,1,8,0:0:0:0:
351,187,251575,1,0,0:0:0:0:
288,275,251749,1,8,0:0:0:0:
185,241,251924,1,0,0:0:0:0:
185,133,252098,1,8,0:0:0:0:
256,192,252272,12,4,254888,0:0:0:0:
308,243,255238,5,4,0:0:0:0:
308,243,255412,1,0,0:0:0:0:
368,164,255586,1,4,0:0:0:0:
368,164,255761,1,0,0:0:0:0:
312,84,255935,1,6,0:0:0:0:
312,84,256110,1,0,0:0:0:0:
452,24,256284,6,0,P|456:84|448:136,1,90,12|0,0:0|0:0,0:0:0:0:
368,164,256633,2,0,P|364:224|372:276,1,90,6|0,0:0|0:0,0:0:0:0:
208,304,256982,2,0,P|204:200|220:104,1,180,14|0,0:0|0:0,0:0:0:0:
312,84,257505,1,2,0:0:0:0:
32,32,257679,6,0,P|100:20|148:32,1,90,6|0,0:0|0:0,0:0:0:0:
144,128,258028,2,0,P|76:140|28:128,1,90,6|0,0:0|0:0,0:0:0:0:
308,173,258377,2,0,L|312:61,1,90,6|0,0:0|0:0,0:0:0:0:
416,32,258726,2,0,L|412:121,1,90,6|0,0:0|0:0,0:0:0:0:
500,296,259075,6,8,P|420:316|296:288,1,180,6|14,0:0|0:0,0:0:0:0:
232,244,259598,1,0,0:0:0:0:
172,332,259772,2,0,P|124:296|112:256,1,90,14|0,0:0|0:0,0:0:0:0:
16,220,260121,2,0,P|52:172|92:160,1,90,14|0,0:0|0:0,0:0:0:0:
177,193,260470,69,6,0:0:0:0:
78,161,260645,1,0,0:0:0:0:
78,57,260819,1,14,0:0:0:0:
177,25,260993,1,0,0:0:0:0:
237,109,261168,1,14,0:0:0:0:
297,193,261342,1,0,0:0:0:0:
396,161,261517,1,14,0:0:0:0:
396,57,261691,1,0,0:0:0:0:
297,25,261865,6,4,P|224:32|108:76,1,180,6|0,0:0|0:0,0:0:0:0:
28,16,262389,1,8,0:0:0:0:
212,128,262563,2,0,P|336:132|420:160,1,180,6|0,0:0|0:0,0:0:0:0:
484,96,263086,1,0,0:0:0:0:
364,248,263261,1,6,0:0:0:0:
472,32,263958,38,0,P|404:20|312:64,1,161.999995056153,2|0,0:0|0:0,0:0:0:0:
252,24,264656,2,0,P|200:16|156:48,1,107.999996704102,10|0,0:0|0:0,0:0:0:0:
408,216,265354,2,0,P|412:152|408:104,1,107.999996704102,10|0,0:0|0:0,0:0:0:0:
95,217,266052,6,0,P|85:345|184:264,1,323.999990112305,2|8,0:0|0:0,0:0:0:0:
436,308,267447,2,0,P|448:200|432:88,1,215.999993408203,2|0,0:0|0:0,0:0:0:0:
260,152,268493,1,0,0:0:0:0:
76,308,268842,2,0,P|64:200|76:128,1,161.999995056153,4|0,0:0|0:0,0:0:0:0:
28,84,269540,2,0,P|92:76|144:108,1,107.999996704102,2|8,0:0|0:0,0:0:0:0:
308,328,270238,6,0,L|176:320,1,107.999996704102,2|0,0:0|0:0,0:0:0:0:
328,88,270935,2,0,L|436:94,1,107.999996704102,2|0,0:0|0:0,0:0:0:0:
92,168,271633,86,0,P|109:10|170:156,1,431.999986816407,2|2,0:0|0:0,0:0:0:0:
408,216,273726,6,0,P|412:152|408:104,1,107.999996704102,2|0,0:0|0:0,0:0:0:0:
340,52,274249,1,0,0:0:0:0:
256,76,274424,1,4,0:3:0:0:
112,328,285412,5,2,0:0:0:0:
40,344,285586,2,0,L|36:272,1,53.9999983520508,6|0,0:0|0:0,0:0:0:0:
184,312,285935,1,10,0:0:0:0:
104,256,286110,2,0,P|96:180|120:88,1,161.999995056153,10|0,0:0|0:0,0:0:0:0:
244,208,286807,1,10,0:0:0:0:
180,176,286982,86,0,L|192:100,1,53.9999983520508,10|8,0:0|0:0,0:0:0:0:
28,172,287331,1,8,0:0:0:0:
96,176,287505,2,0,P|97:122|56:20,1,161.999995056153,2|0,0:0|0:0,0:0:0:0:
28,172,288203,1,2,0:0:0:0:
188,122,288377,6,0,P|192:68|208:12,1,107.999996704102,10|2,0:0|0:0,0:0:0:0:
276,48,288900,2,0,P|324:68|376:40,2,107.999996704102,10|8|10,0:0|0:0|0:0,0:0:0:0:
371,45,289772,1,0,0:0:0:0:
404,116,289947,1,8,0:0:0:0:
464,68,290121,1,8,0:0:0:0:
436,184,290296,1,2,0:0:0:0:
436,184,290383,1,0,0:0:0:0:
436,184,290470,2,0,L|448:256,1,53.9999983520508,10|0,0:0|0:0,0:0:0:0:
328,104,290819,1,8,0:0:0:0:
360,172,290993,1,2,0:0:0:0:
371,45,291168,5,0,0:0:0:0:
256,104,291342,1,0,0:0:0:0:
360,172,291517,1,8,0:0:0:0:
256,192,291691,12,0,293958,0:0:0:0:
400,328,296749,85,10,0:0:0:0:
400,328,297098,1,2,0:0:0:0:
472,344,297272,2,0,L|476:272,1,53.9999983520508,2|0,0:0|0:0,0:0:0:0:
408,196,297621,2,0,L|405:249,1,53.9999983520508,2|0,0:0|0:0,0:0:0:0:
240,272,297970,2,0,P|292:300|352:272,2,107.999996704102,2|2|2,0:0|0:0|0:0,0:0:0:0:
308,136,299017,1,2,0:0:0:0:
240,272,299365,1,2,0:0:0:0:
308,136,299540,6,0,P|376:152|416:120,1,107.999996704102,2|0,0:0|0:0,0:0:0:0:
452,72,300063,2,0,P|484:132|464:184,2,107.999996704102,2|2|2,0:0|0:0|0:0,0:0:0:0:
376,64,300935,1,8,0:0:0:0:
316,16,301110,2,0,P|280:32|260:64,1,53.9999983520508,2|0,0:0|0:0,0:0:0:0:
200,20,301458,2,0,P|185:56|194:93,1,53.9999983520508,2|0,0:0|0:0,0:0:0:0:
296,128,301807,2,0,P|356:152|360:240,1,161.999995056153,10|0,0:0|0:0,0:0:0:0:
360,239,302679,5,2,0:0:0:0:
312,296,302854,2,0,P|288:264|288:232,1,53.9999983520508,2|0,0:0|0:0,0:0:0:0:
240,192,303203,2,0,P|216:224|216:256,1,53.9999983520508,2|0,0:0|0:0,0:0:0:0:
144,264,303552,2,0,L|72:256,1,53.9999983520508,2|0,0:0|0:0,0:0:0:0:
80,184,303900,2,0,P|28:212|16:272,2,107.999996704102,2|0|2,0:0|0:0|0:0,0:0:0:0:
160,80,304947,1,2,0:0:0:0:
164,4,305121,86,0,P|213:22|236:70,1,107.999996704102,2|0,0:0|0:0,0:0:0:0:
212,144,305645,2,0,P|180:160|140:160,1,53.9999983520508,2|0,0:0|0:0,0:0:0:0:
92,132,305993,2,0,P|74:100|73:60,1,53.9999983520508,2|0,0:0|0:0,0:0:0:0:
160,80,306342,1,2,0:0:0:0:
212,144,306517,1,0,0:0:0:0:
212,224,306691,2,0,P|179:238|139:237,1,53.9999983520508,2|0,0:0|0:0,0:0:0:0:
280,184,307040,2,0,P|280:248|244:304,1,107.999996704102,2|0,0:0|0:0,0:0:0:0:
336,104,307738,1,2,0:0:0:0:
500,192,307912,5,6,0:0:0:0:
436,104,308086,1,2,0:0:0:0:
436,104,308174,1,2,0:0:0:0:
436,104,308261,1,6,0:0:0:0:
336,104,308435,1,2,0:0:0:0:
153,112,308610,6,0,P|189:184|289:176,1,180,4|4,0:0|0:0,0:0:0:0:
336,104,309133,1,2,0:0:0:0:
356,288,309307,86,0,P|268:284|172:304,1,180,6|6,0:0|0:0,0:0:0:0:
80,348,309831,1,2,0:0:0:0:
92,240,310005,2,0,P|84:176|52:124,1,90,4|0,0:0|0:0,0:0:0:0:
12,64,310354,1,6,0:0:0:0:
120,68,310528,1,0,3:0:0:0:
120,68,310615,1,0,3:0:0:0:
120,68,310703,6,0,P|184:120|292:128,1,180,6|4,0:0|0:0,0:0:0:0:
300,236,311226,2,4,P|372:224|400:204,1,90,2|0,0:0|0:0,0:0:0:0:
496,112,311575,2,0,P|444:116|384:100,1,90,2|4,0:0|0:0,0:0:0:0:
260,16,311924,1,0,3:0:0:0:
260,16,312011,1,0,3:0:0:0:
260,16,312098,6,0,P|312:20|372:4,1,90,6|0,0:0|0:0,0:0:0:0:
192,124,312447,2,0,P|120:112|92:92,1,90,6|0,0:0|0:0,0:0:0:0:
304,168,312796,2,0,P|232:220|124:228,1,180,6|4,0:0|0:0,0:0:0:0:
68,312,313319,2,0,P|124:324|156:352,1,90,2|4,0:0|0:0,0:0:0:0:
256,324,313668,1,0,3:0:0:0:
268,304,313755,1,0,3:0:0:0:
280,284,313842,85,2,0:0:0:0:
376,320,314017,1,2,0:0:0:0:
444,192,314191,1,0,3:0:0:0:
448,212,314278,1,0,3:0:0:0:
452,232,314365,1,0,3:0:0:0:
456,252,314453,1,0,3:0:0:0:
460,272,314540,1,0,3:0:0:0:
380,128,314714,1,2,3:0:0:0:
372,148,314802,1,0,3:0:0:0:
364,168,314889,5,0,3:0:0:0:
276,172,315063,1,0,3:0:0:0:
268,192,315150,1,0,3:0:0:0:
260,212,315238,1,0,3:0:0:0:
176,228,315412,1,2,0:0:0:0:
92,204,315586,1,0,3:0:0:0:
88,184,315674,1,0,3:0:0:0:
84,164,315761,1,0,3:0:0:0:
156,112,315935,1,0,3:0:0:0:
152,92,316022,1,0,3:0:0:0:
148,72,316110,1,0,3:0:0:0:
144,52,316197,1,0,3:0:0:0:
140,32,316284,5,2,0:0:0:0:
384,12,316458,1,0,0:0:0:0:
316,64,316633,1,2,0:0:0:0:
380,120,316807,1,0,3:0:0:0:
376,140,316895,1,0,3:0:0:0:
372,160,316982,1,2,0:0:0:0:
444,208,317156,1,0,0:0:0:0:
288,204,317331,1,0,3:0:0:0:
284,224,317418,1,0,3:0:0:0:
280,244,317505,1,0,3:0:0:0:
276,264,317592,1,0,3:0:0:0:
272,284,317679,85,2,0:0:0:0:
188,308,317854,1,0,3:0:0:0:
184,288,317941,1,0,3:0:0:0:
180,268,318028,1,0,3:0:0:0:
96,248,318203,1,0,3:0:0:0:
92,228,318290,1,0,3:0:0:0:
88,208,318377,1,0,3:0:0:0:
200,68,318552,5,2,0:0:0:0:
260,24,318726,1,2,0:0:0:0:
332,28,318900,1,2,0:0:0:0:
388,68,319075,5,4,0:0:0:0:
444,196,319424,22,0,B|400:212|376:208|360:180|324:164|280:180,1,161.999995056153,2|0,0:0|0:0,0:0:0:0:
280,312,320121,2,0,L|283:258,1,53.9999983520508,2|0,0:0|0:0,0:0:0:0:
196,208,320470,2,0,L|199:261,1,53.9999983520508,10|0,0:0|0:0,0:0:0:0:
120,216,320819,2,0,P|120:164|168:136,1,107.999996704102,2|0,0:0|0:0,0:0:0:0:
128,296,321517,1,0,0:0:0:0:
184,72,321865,6,0,P|229:98|229:153,1,107.999996704102,10|0,0:0|0:0,0:0:0:0:
48,244,322563,1,2,0:0:0:0:
231,149,322912,2,0,L|296:144,1,53.9999983520508,2|0,0:0|0:0,0:0:0:0:
128,76,323261,6,0,L|241:67,1,107.999996704102,10|0,0:0|0:0,0:0:0:0:
48,244,323958,1,2,0:0:0:0:
96,192,324133,2,0,L|88:164,4,26.9999991760254
152,280,324656,6,0,L|161:226,1,53.9999983520508,2|0,0:0|0:0,0:0:0:0:
200,112,325005,2,0,L|212:164,1,53.9999983520508,2|0,0:0|0:0,0:0:0:0:
268,56,325354,2,0,L|280:108,1,53.9999983520508
364,140,325703,2,0,L|351:87,1,53.9999983520508,2|0,0:0|0:0,0:0:0:0:
392,272,326052,70,0,L|379:219,1,53.9999983520508,2|0,0:0|0:0,0:0:0:0:
300,244,326400,2,0,L|287:191,1,53.9999983520508,2|0,0:0|0:0,0:0:0:0:
212,248,326749,2,0,L|224:300,1,53.9999983520508,10|0,0:0|0:0,0:0:0:0:
132,196,327098,2,0,L|116:240,4,26.9999991760254,2|0|0|0|2,0:0|0:0|0:0|0:0|0:0,0:0:0:0:
68,72,327621,5,2,0:0:0:0:
144,52,327796,2,0,L|136:20,3,26.9999991760254,2|0|0|0,0:0|0:0|0:0|0:0,0:0:0:0:
208,96,328145,2,0,L|204:122,3,26.9999991760254,2|0|0|0,0:0|0:0|0:0|0:0,0:0:0:0:
288,40,328493,2,0,L|292:8,3,26.9999991760254,2|0|0|0,0:0|0:0|0:0|0:0,0:0:0:0:
364,108,328842,5,2,0:0:0:0:
372,125,328929,1,0,0:0:0:0:
379,143,329017,1,0,0:0:0:0:
383,162,329104,1,0,0:0:0:0:
385,181,329191,1,2,0:0:0:0:
384,200,329278,1,0,0:0:0:0:
381,219,329365,1,0,0:0:0:0:
376,238,329453,1,0,0:0:0:0:
369,256,329540,5,2,0:0:0:0:
360,272,329627,1,0,0:0:0:0:
348,288,329714,1,0,0:0:0:0:
335,302,329802,1,0,0:0:0:0:
320,314,329889,1,2,0:0:0:0:
304,325,329976,1,0,0:0:0:0:
287,333,330063,1,0,0:0:0:0:
180,328,330238,69,6,0:0:0:0:
240,240,330412,1,2,0:0:0:0:
132,240,330586,1,6,0:0:0:0:
104,136,330761,1,2,0:0:0:0:
28,212,330935,5,6,0:0:0:0:
112,144,331110,1,0,0:0:0:0:
112,144,331197,1,0,0:0:0:0:
112,144,331284,1,6,0:0:0:0:
60,40,331458,1,0,0:0:0:0:
60,40,331546,1,0,0:0:0:0:
60,40,331633,5,6,0:0:0:0:
128,64,331807,1,2,0:0:0:0:
200,52,331982,1,6,0:0:0:0:
256,8,332156,1,2,0:0:0:0:
280,36,332331,1,6,0:0:0:0:
304,60,332505,1,2,0:0:0:0:
328,88,332679,1,6,0:0:0:0:
352,112,332854,1,2,0:0:0:0:
488,40,333028,5,14,0:0:0:0:
460,144,333203,1,10,0:0:0:0:
352,112,333377,1,14,0:0:0:0:
324,216,333552,1,10,0:0:0:0:
188,216,333726,1,14,0:0:0:0:
160,112,333900,1,10,0:0:0:0:
52,144,334075,1,14,0:0:0:0:
20,40,334249,1,10,0:0:0:0:
136,8,334424,69,6,0:0:0:0:
160,112,334598,1,2,0:0:0:0:
165,138,334685,1,2,0:0:0:0:
167,166,334772,1,2,0:0:0:0:
165,193,334860,1,2,0:0:0:0:
158,219,334947,1,2,0:0:0:0:
100,309,335121,5,2,0:0:0:0:
205,283,335296,1,2,0:0:0:0:
294,288,335470,1,2,0:0:0:0:
363,307,335645,1,2,0:0:0:0:
407,336,335761,6,0,L|403:368,13,30,2|0|0|0|0|0|0|0|0|0|0|0|0|0,0:0|0:0|0:0|0:0|0:0|0:0|0:0|0:0|0:0|0:0|0:0|0:0|0:0|0:0,0:0:0:0:
353,275,336691,1,0,0:0:0:0:
430,248,336865,1,2,0:0:0:0:
420,222,336953,1,2,0:0:0:0:
416,195,337040,1,2,0:0:0:0:
417,168,337127,1,2,0:0:0:0:
426,132,337214,6,0,P|448:85|489:48,1,107.999996704102,4|0,0:0|0:0,0:0:0:0:
292,121,337563,2,0,P|314:168|355:205,1,107.999996704102,6|0,0:0|0:0,0:0:0:0:
364,83,337912,1,6,0:0:0:0:
261,49,338086,1,0,0:0:0:0:
261,49,338174,1,0,0:0:0:0:
261,49,338261,1,6,0:0:0:0:
161,89,338435,1,0,0:0:0:0:
40,246,338610,70,0,L|33:133,1,107.999996704102,6|0,0:0|0:0,0:0:0:0:
130,323,338958,2,0,L|135:212,1,107.999996704102,6|0,0:0|0:0,0:0:0:0:
244,195,339307,1,6,0:0:0:0:
268,206,339395,1,0,0:0:0:0:
288,223,339482,1,0,0:0:0:0:
305,243,339569,1,0,0:0:0:0:
317,266,339656,1,6,0:0:0:0:
423,244,339831,1,0,0:0:0:0:
490,58,340005,6,0,L|362:54,1,107.999996704102,6|0,0:0|0:0,0:0:0:0:
323,144,340354,2,0,L|430:147,1,107.999996704102,6|0,0:0|0:0,0:0:0:0:
382,54,340703,1,6,0:0:0:0:
274,65,340877,1,0,0:0:0:0:
209,152,341052,2,0,P|213:214|249:262,1,107.999996704102,6|0,0:0|0:0,0:0:0:0:
173,68,341400,5,6,0:0:0:0:
148,103,341575,1,0,0:0:0:0:
131,142,341749,1,6,0:0:0:0:
124,184,341924,1,0,0:0:0:0:
128,226,342098,6,0,P|154:292|245:336,1,161.999995056153,6|0,0:0|0:0,0:0:0:0:
308,360,342447,2,0,P|376:341|434:361,1,107.999996704102,14|0,0:0|0:0,0:0:0:0:
434,140,342796,70,0,L|422:277,1,107.999996704102,6|0,0:0|0:0,0:0:0:0:
315,24,343145,2,0,L|325:162,1,107.999996704102,6|0,0:0|0:0,0:0:0:0:
234,42,343493,1,6,0:0:0:0:
194,166,343668,1,0,0:0:0:0:
194,166,343755,1,0,0:0:0:0:
194,166,343842,1,6,0:0:0:0:
257,280,344017,1,0,0:0:0:0:
421,285,344191,6,0,L|430:177,1,107.999996704102,6|0,0:0|0:0,0:0:0:0:
325,165,344540,2,0,L|317:57,1,107.999996704102,6|0,0:0|0:0,0:0:0:0:
187,240,344889,1,14,0:0:0:0:
165,202,345063,1,0,0:0:0:0:
155,159,345238,1,14,0:0:0:0:
157,115,345412,1,0,0:0:0:0:
171,69,345586,5,6,0:0:0:0:
67,38,345761,1,0,0:0:0:0:
65,59,345848,1,0,0:0:0:0:
63,80,345935,1,6,0:0:0:0:
155,159,346110,1,0,0:0:0:0:
269,99,346284,1,14,0:0:0:0:
269,99,346458,1,0,0:0:0:0:
419,120,346633,1,6,0:0:0:0:
419,120,346807,1,0,0:0:0:0:
351,12,346982,6,0,P|221:15|143:85,1,215.999993408203,14|12,0:0|0:0,0:0:0:0:
67,38,347505,1,0,0:0:0:0:
230,127,347679,69,6,0:0:0:0:
250,139,347767,1,0,0:0:0:0:
272,149,347854,1,0,0:0:0:0:
295,156,347941,1,0,0:0:0:0:
318,161,348028,1,4,0:0:0:0:
342,163,348115,1,0,0:0:0:0:
366,163,348203,1,0,0:0:0:0:
390,160,348290,1,0,0:0:0:0:
413,154,348377,6,0,P|433:110|433:51,1,107.999996704102,6|0,0:0|0:0,0:0:0:0:
292,46,348726,2,0,P|272:90|272:149,1,107.999996704102,6|0,0:0|0:0,0:0:0:0:
346,242,349075,1,6,0:0:0:0:
230,266,349249,1,0,0:0:0:0:
230,266,349336,1,0,0:0:0:0:
230,266,349424,1,6,0:0:0:0:
131,200,349598,1,0,0:0:0:0:
107,83,349772,6,0,P|162:89|221:27,1,107.999996704102,6|0,0:0|0:0,0:0:0:0:
365,43,350121,2,0,P|359:98|421:157,1,107.999996704102,6|0,0:0|0:0,0:0:0:0:
405,301,350470,2,0,P|350:295|291:357,1,107.999996704102,6|0,0:0|0:0,0:0:0:0:
147,341,350819,2,0,P|153:286|91:227,1,107.999996704102,6|0,0:0|0:0,0:0:0:0:
188,174,351168,6,0,P|138:153|85:158,1,107.999996704102,6|0,0:0|0:0,0:0:0:0:
275,102,351517,2,0,P|281:49|261:-1,1,107.999996704102,6|0,0:0|0:0,0:0:0:0:
370,163,351865,2,0,P|422:153|463:119,1,107.999996704102,6|0,0:0|0:0,0:0:0:0:
339,270,352214,2,0,P|365:316|411:345,1,107.999996704102,6|0,0:0|0:0,0:0:0:0:
229,275,352563,70,0,P|193:315|180:366,1,107.999996704102,6|0,0:0|0:0,0:0:0:0:
339,270,352912,1,6,0:0:0:0:
275,170,353086,1,0,0:0:0:0:
462,48,353261,6,0,P|415:106|347:75,1,161.999995056153,14|0,0:0|0:0,0:0:0:0:
294,20,353610,2,0,P|241:15|210:66,1,107.999996704102,14|2,0:0|0:0,0:0:0:0:
77,125,353958,5,6,0:0:0:0:
75,81,354133,1,0,0:0:0:0:
160,202,354307,1,6,0:0:0:0:
166,159,354482,1,0,0:0:0:0:
296,213,354656,1,6,0:0:0:0:
295,169,354831,1,0,0:0:0:0:
405,153,355005,1,6,0:0:0:0:
405,109,355179,1,0,0:0:0:0:
512,64,355354,5,14,0:0:0:0:
421,5,355528,1,0,0:0:0:0:
421,5,355615,1,0,0:0:0:0:
421,5,355703,1,6,0:0:0:0:
405,109,355877,1,0,0:0:0:0:
316,46,356052,2,0,P|256:78|228:146,1,107.999996704102,6|0,0:0|0:0,0:0:0:0:
133,76,356400,2,0,P|130:143|175:202,1,107.999996704102,6|0,0:0|0:0,0:0:0:0:
430,211,356749,69,6,0:0:0:0:
405,316,356924,1,0,0:0:0:0:
330,179,357098,1,6,0:0:0:0:
324,302,357272,1,0,0:0:0:0:
221,188,357447,1,4,0:0:0:0:
246,315,357621,1,0,0:0:0:0:
125,244,357796,1,6,0:0:0:0:
187,359,357970,1,8,0:0:0:0:
68,333,358145,5,6,0:0:0:0:
132,250,358319,1,2,0:0:0:0:
132,250,358406,1,2,0:0:0:0:
132,250,358493,1,6,0:0:0:0:
221,188,358668,1,2,0:0:0:0:
330,179,358842,1,14,0:0:0:0:
430,211,359017,1,2,0:0:0:0:
502,286,359191,1,14,0:0:0:0:
402,310,359365,1,0,0:0:0:0:
486,117,359540,6,0,P|381:86|250:102,1,215.999993408203,6|4,0:0|0:0,0:0:0:0:
221,188,360063,1,0,0:0:0:0:
69,25,360238,1,6,0:0:0:0:
83,65,360412,1,0,0:0:0:0:
112,96,360586,1,6,0:0:0:0:
152,111,360761,1,0,0:0:0:0:
194,116,360935,5,6,0:0:0:0:
275,94,361110,1,0,0:0:0:0:
296,90,361197,1,0,0:0:0:0:
317,87,361284,1,6,0:0:0:0:
424,95,361458,1,0,0:0:0:0:
445,100,361546,1,0,0:0:0:0:
465,108,361633,1,6,0:0:0:0:
414,208,361807,1,0,0:0:0:0:
388,215,361895,1,0,0:0:0:0:
361,217,361982,1,4,0:0:0:0:
334,214,362069,1,0,0:0:0:0:
309,205,362156,1,2,0:0:0:0:
92,76,362331,70,0,P|155:55|219:75,1,135,4|0,0:0|0:0,0:0:0:0:
296,76,362706,6,0,P|359:55|423:75,1,135,4|0,0:0|0:0,0:0:0:0:
319,168,363106,6,0,P|255:188|192:168,1,135,2|0,0:0|0:0,0:0:0:0:
120,192,363550,6,0,P|104:264|128:328,1,135,2|0,0:0|0:0,0:0:0:0:
388,196,364044,70,0,P|504:206|394:289,1,323.999990112305,8|0,0:0|0:0,0:0:0:0:
112,72,368081,5,2,0:0:0:0:
194,34,368462,6,0,P|202:82|187:122,1,90,2|0,0:0|0:0,0:0:0:0:
47,202,369080,6,0,L|138:192,1,90,10|0,0:0|0:0,0:0:0:0:
299,290,370066,2,0,L|209:300,1,90,2|0,0:0|0:0,0:0:0:0:
256,176,371032,2,0,P|242:133|250:89,1,90,10|0,0:0|0:0,0:0:0:0:
336,48,372117,70,0,P|379:57|413:86,1,90,10|0,0:0|0:0,0:0:0:0:
364,152,373117,6,0,P|364:244|444:164,1,270,10|0,0:0|0:0,0:0:0:0:
412,88,374929,1,2,0:0:0:0:
352,28,375174,6,0,P|268:28|216:40,1,135,10|0,0:0|0:0,0:0:0:0:
144,64,376327,1,10,0:0:0:0:
80,108,377287,2,0,P|90:182|156:131,1,180,2|10,0:0|0:0,0:0:0:0:
256,192,378316,12,0,381739,0:0:0:0:
