osu file format v14

[General]
AudioFilename: audio.mp3
AudioLeadIn: 0
PreviewTime: 57453
Countdown: 0
SampleSet: Soft
StackLeniency: 0.4
Mode: 0
LetterboxInBreaks: 0
WidescreenStoryboard: 1

[Editor]
Bookmarks: 232109
DistanceSpacing: 1.4
BeatDivisor: 4
GridSize: 16
TimelineZoom: 2.2

[Metadata]
Title:Akane Contrast
TitleUnicode:茜コントラスト
Artist:Usa
ArtistUnicode:うさ
Creator:timemon
Version:Lasse's Insane
Source:
Tags:Hana はな さころにー usacolony doriko Romeo and Cinderella Hatsune Miku 初音ミク うさころ よん Usacolo Yon Lasse deppyforce
BeatmapID:1483801
BeatmapSetID:699833

[Difficulty]
HPDrainRate:6
CircleSize:4
OverallDifficulty:7.5
ApproachRate:8.5
SliderMultiplier:1.6
SliderTickRate:1

[Events]
//Background and Video events
0,0,"yettt.jpg",0,0
//Break Periods
2,91619,101074
2,171619,176261
2,188170,198330
//Storyboard Layer 0 (Background)
//Storyboard Layer 1 (Fail)
//Storyboard Layer 2 (Pass)
//Storyboard Layer 3 (Foreground)
//Storyboard Sound Samples

[TimingPoints]
385,344.827586206897,4,2,1,50,1,0
10040,-125,4,2,1,50,0,0
11419,-100,4,2,1,50,0,0
22453,-125,4,2,1,40,0,0
42022,-125,4,2,1,5,0,0
42109,-125,4,2,1,40,0,0
44522,-111.111111111111,4,2,1,45,0,0
45126,-111.111111111111,4,2,1,5,0,0
45212,-111.111111111111,4,2,1,45,0,0
47885,-111.111111111111,4,2,1,5,0,0
47971,-111.111111111111,4,2,1,45,0,0
50643,-111.111111111111,4,2,1,5,0,0
50729,-111.111111111111,4,2,1,45,0,0
54436,-111.111111111111,4,2,1,5,0,0
54522,-111.111111111111,4,2,1,45,0,0
56936,-76.9230769230769,4,2,1,45,0,0
57281,-111.111111111111,4,2,1,45,0,0
57626,-200,4,2,1,45,0,0
58316,-74.0740740740741,4,2,1,55,0,1
58574,-74.0740740740741,4,2,1,5,0,1
58660,-74.0740740740741,4,2,1,55,0,1
59953,-74.0740740740741,4,2,1,5,0,1
60040,-74.0740740740741,4,2,1,55,0,1
61333,-74.0740740740741,4,2,1,5,0,1
61419,-74.0740740740741,4,2,1,55,0,1
61678,-74.0740740740741,4,2,1,5,0,1
61764,-74.0740740740741,4,2,1,55,0,1
63747,-74.0740740740741,4,2,1,5,0,1
63833,-74.0740740740741,4,2,1,55,0,1
66591,-66.6666666666667,4,2,1,55,0,1
66936,-83.3333333333333,4,2,1,55,0,1
69350,-74.0740740740741,4,2,1,55,0,1
72367,-74.0740740740741,4,2,1,5,0,1
72453,-74.0740740740741,4,2,1,55,0,1
72712,-74.0740740740741,4,2,1,5,0,1
72798,-74.0740740740741,4,2,1,55,0,1
74867,-66.6666666666667,4,2,1,55,0,1
75126,-74.0740740740741,4,2,1,5,0,1
75212,-74.0740740740741,4,2,1,55,0,1
76505,-74.0740740740741,4,2,1,5,0,1
76591,-74.0740740740741,4,2,1,55,0,1
77626,-66.6666666666667,4,2,1,55,0,1
78143,-76.9230769230769,4,2,1,55,0,1
78660,-90.9090909090909,4,2,1,55,0,1
80385,-100,4,2,1,50,0,0
101764,-125,4,2,1,40,0,0
113488,-111.111111111111,4,2,1,45,0,0
114091,-111.111111111111,4,2,1,5,0,0
114178,-111.111111111111,4,2,1,45,0,0
116850,-111.111111111111,4,2,1,5,0,0
116936,-111.111111111111,4,2,1,45,0,0
119609,-111.111111111111,4,2,1,5,0,0
119695,-111.111111111111,4,2,1,45,0,0
123402,-111.111111111111,4,2,1,5,0,0
123488,-111.111111111111,4,2,1,45,0,0
125902,-76.9230769230769,4,2,1,45,0,0
126247,-111.111111111111,4,2,1,45,0,0
126591,-200,4,2,1,45,0,0
127281,-74.0740740740741,4,2,1,55,0,1
127540,-74.0740740740741,4,2,1,5,0,1
127626,-74.0740740740741,4,2,1,55,0,1
130298,-74.0740740740741,4,2,1,5,0,1
130385,-74.0740740740741,4,2,1,55,0,1
132712,-74.0740740740741,4,2,1,5,0,1
132798,-74.0740740740741,4,2,1,55,0,1
135557,-66.6666666666667,4,2,1,55,0,1
135902,-83.3333333333333,4,2,1,55,0,1
138316,-74.0740740740741,4,2,1,55,0,1
139956,-74.0740740740741,4,2,1,5,0,1
140040,-74.0740740740741,4,2,1,55,0,1
141333,-74.0740740740741,4,2,1,5,0,1
141419,-74.0740740740741,4,2,1,55,0,1
141678,-74.0740740740741,4,2,1,5,0,1
141764,-74.0740740740741,4,2,1,55,0,1
143747,-74.0740740740741,4,2,1,5,0,1
143833,-66.6666666666667,4,2,1,55,0,1
144091,-74.0740740740741,4,2,1,5,0,1
144178,-74.0740740740741,4,2,1,55,0,1
145471,-74.0740740740741,4,2,1,5,0,1
145557,-74.0740740740741,4,2,1,55,0,1
146591,-66.6666666666667,4,2,1,55,0,1
147109,-76.9230769230769,4,2,1,55,0,1
147626,-90.9090909090909,4,2,1,55,0,1
149350,-100,4,2,1,50,0,0
160385,-86.9565217391304,4,2,1,50,0,0
176936,-125,4,2,1,40,0,0
177195,-125,4,2,1,5,0,0
177281,-125,4,2,1,40,0,0
177540,-125,4,2,1,5,0,0
177626,-125,4,2,1,40,0,0
181764,-100,4,2,1,50,0,0
183833,-76.9230769230769,4,2,1,50,0,0
184522,-100,4,2,1,35,0,0
187281,-100,4,2,1,20,0,0
187626,-100,4,2,1,30,0,0
187798,-71.4285714285714,4,2,0,30,0,0
187971,-71.4285714285714,4,2,1,60,0,0
188143,-71.4285714285714,4,2,1,5,0,0
199005,-166.666666666667,4,2,1,35,0,0
208660,-200,4,2,1,35,0,0
209350,-133.333333333333,4,2,1,50,0,0
209609,-125,4,2,1,5,0,0
209695,-100,4,2,1,50,0,0
210040,-74.0740740740741,4,2,1,55,0,1
210298,-74.0740740740741,4,2,1,5,0,1
210385,-74.0740740740741,4,2,1,55,0,1
211678,-74.0740740740741,4,2,1,5,0,1
211764,-74.0740740740741,4,2,1,55,0,1
213057,-74.0740740740741,4,2,1,5,0,1
213143,-74.0740740740741,4,2,1,55,0,1
213402,-74.0740740740741,4,2,1,5,0,1
213488,-74.0740740740741,4,2,1,55,0,1
215471,-74.0740740740741,4,2,1,5,0,1
215557,-74.0740740740741,4,2,1,55,0,1
218316,-66.6666666666667,4,2,1,55,0,1
218660,-83.3333333333333,4,2,1,55,0,1
219695,-71.4285714285714,4,2,1,55,0,1
221074,-74.0740740740741,4,2,1,55,0,1
224091,-74.0740740740741,4,2,1,5,0,1
224178,-74.0740740740741,4,2,1,55,0,1
224436,-74.0740740740741,4,2,1,5,0,1
224522,-74.0740740740741,4,2,1,55,0,1
226505,-74.0740740740741,4,2,1,5,0,1
226591,-66.6666666666667,4,2,1,55,0,1
226850,-74.0740740740741,4,2,1,5,0,1
226936,-74.0740740740741,4,2,1,55,0,1
229350,-66.6666666666667,4,2,1,55,0,1
229867,-76.9230769230769,4,2,1,55,0,1
230385,-90.9090909090909,4,2,1,55,0,1
232109,-100,4,2,1,50,0,0

[Colours]
Combo1 : 255,228,147
Combo2 : 255,202,149
Combo3 : 220,220,184
Combo4 : 255,149,149

[HitObjects]
117,56,10729,6,0,P|150:47|188:47,1,64,2|0,0:0|3:0,0:0:0:0:
204,62,10988,1,0,3:0:0:0:
223,84,11074,2,0,P|239:83|254:80,3,32,8|8|8|8,3:0|3:0|3:0|3:0,0:0:0:0:
317,31,11419,5,4,0:0:0:0:
302,141,11591,2,0,P|296:192|293:232,1,80,0|8,0:0|0:0,0:0:0:0:
126,136,11936,2,0,P|122:96|117:56,1,80,0|0,0:0|0:0,0:0:0:0:
44,213,12281,1,2,0:0:0:0:
44,213,12367,1,2,0:0:0:0:
44,213,12453,1,10,0:0:0:0:
91,314,12626,1,2,0:0:0:0:
201,300,12798,2,0,P|270:293|351:352,1,160,2|8,0:0|0:0,0:0:0:0:
483,151,13316,2,0,P|440:216|447:295,1,160,0|2,0:0|0:0,0:0:0:0:
343,340,13833,1,8,0:0:0:0:
242,291,14005,1,2,0:0:0:0:
52,281,14178,5,4,0:0:0:0:
134,331,14350,2,0,P|146:289|132:230,1,80,0|8,0:0|0:0,0:0:0:0:
231,201,14695,2,0,P|205:172|169:155,1,80,0|0,0:0|0:0,0:0:0:0:
169,52,15040,2,0,P|126:61|82:103,1,80,0|8,0:0|0:0,0:0:0:0:
143,253,15385,1,2,0:0:0:0:
231,201,15557,2,0,P|308:192|362:249,1,160,2|8,0:0|0:0,0:0:0:0:
390,363,16074,1,2,0:0:0:0:
445,294,16247,2,0,P|368:276|309:326,1,160,2|8,0:0|0:0,0:0:0:0:
64,368,16936,5,4,0:0:0:0:
124,273,17109,2,0,P|128:220|122:175,1,80,0|8,0:0|0:0,0:0:0:0:
309,324,17453,2,0,P|316:284|331:247,1,80,0|0,0:0|0:0,0:0:0:0:
442,213,17798,1,2,0:0:0:0:
442,213,17885,1,2,0:0:0:0:
442,213,17971,1,10,0:0:0:0:
477,107,18143,1,2,0:0:0:0:
396,25,18316,2,0,B|317:1|317:48|239:25,1,160,2|8,0:0|0:0,0:0:0:0:
81,24,18833,2,0,B|159:47|159:0|237:24,1,160,0|2,0:0|0:0,0:0:0:0:
289,128,19350,1,8,0:0:0:0:
219,215,19522,1,2,0:0:0:0:
298,371,19695,5,4,0:0:0:0:
193,332,19867,2,0,P|124:324|88:333,1,80,0|8,0:0|0:0,0:0:0:0:
219,215,20212,2,0,P|200:148|178:118,1,80,0|0,0:0|0:0,0:0:0:0:
326,263,20557,2,0,P|386:228|423:222,1,80,0|8,0:0|0:0,0:0:0:0:
504,196,20902,2,0,P|511:169|514:141,1,40,2|2,0:0|0:0,0:0:0:0:
496,111,21074,2,0,P|490:88|489:55,3,40,0|0|0|0,3:0|3:0|3:0|3:0,0:0:0:0:
450,41,21419,2,0,P|427:35|394:34,3,40,0|0|0|0,3:0|3:0|3:0|3:0,0:0:0:0:
363,43,21764,2,0,P|322:46|280:34,1,80,0|0,3:0|3:0,0:0:0:0:
239,20,22022,1,8,3:0:0:0:
190,26,22109,1,8,3:0:0:0:
104,108,22281,1,8,3:0:0:0:
151,114,22367,1,8,3:0:0:0:
181,154,22453,6,0,P|200:213|173:269,1,128,4|8,0:0|0:0,0:0:0:0:
46,195,22971,2,0,P|78:195|108:207,1,64,0|0,0:0|0:0,0:0:0:0:
189,359,23316,1,2,0:0:0:0:
189,359,23402,1,2,0:0:0:0:
189,359,23488,2,0,P|157:359|128:348,1,64,10|2,0:0|0:0,0:0:0:0:
9,375,23833,2,0,P|65:345|128:348,1,128,2|8,0:0|0:0,0:0:0:0:
9,269,24350,2,0,P|0:238|0:207,1,64,0|0,0:0|0:0,0:0:0:0:
49,133,24695,1,2,0:0:0:0:
194,149,24867,2,0,P|164:161|133:160,1,64,8|2,0:0|0:0,0:0:0:0:
398,187,25212,6,0,P|338:166|276:180,1,128,4|8,0:0|0:0,0:0:0:0:
332,289,25729,2,0,P|379:247|398:187,1,128
287,86,26247,2,0,P|314:103|345:112,1,64,8|2,0:0|0:0,0:0:0:0:
202,112,26591,2,0,P|165:79|82:68,1,128,2|8,0:0|0:0,0:0:0:0:
24,128,27109,1,0,0:0:0:0:
58,211,27281,2,0,P|67:241|67:273,1,64,0|0,0:0|0:0,0:0:0:0:
147,315,27626,2,0,P|174:298|205:288,1,64,8|2,0:0|0:0,0:0:0:0:
409,315,27971,6,0,P|347:322|295:288,1,128,4|8,0:0|0:0,0:0:0:0:
379,169,28488,2,0,P|377:201|368:231,1,64,0|0,0:0|0:0,0:0:0:0:
214,270,28833,1,2,0:0:0:0:
214,270,28919,1,2,0:0:0:0:
214,270,29005,2,0,P|186:243|174:219,1,64,10|2,0:0|0:0,0:0:0:0:
199,131,29350,2,0,P|262:129|309:88,1,128,2|8,0:0|0:0,0:0:0:0:
397,67,29867,2,0,P|386:38|365:13,1,64,0|0,0:0|0:0,0:0:0:0:
309,88,30212,2,0,P|320:117|341:142,1,64,2|8,0:0|0:0,0:0:0:0:
430,160,30557,1,2,0:0:0:0:
463,269,30729,6,0,P|469:207|430:159,1,128,4|8,0:0|0:0,0:0:0:0:
342,142,31247,1,0,0:0:0:0:
255,166,31419,2,0,P|192:166|143:127,1,128,0|8,0:0|0:0,0:0:0:0:
54,111,31936,1,2,0:0:0:0:
54,205,32109,2,0,P|112:182|143:127,1,128,2|8,0:0|0:0,0:0:0:0:
179,45,32626,1,2,0:0:0:0:
262,75,32798,2,0,P|322:83|382:51,1,128,2|8,0:0|0:0,0:0:0:0:
511,250,33488,6,0,P|456:219|394:228,1,128,4|8,0:0|0:0,0:0:0:0:
429,372,34005,2,0,P|439:342|440:311,1,64,0|0,0:0|0:0,0:0:0:0:
321,279,34350,1,2,0:0:0:0:
321,279,34436,1,2,0:0:0:0:
321,279,34522,2,0,P|304:306|298:337,1,64,10|2,0:0|0:0,0:0:0:0:
203,268,34867,2,0,P|264:252|321:279,1,128,2|8,0:0|0:0,0:0:0:0:
394,226,35385,2,0,P|404:196|404:165,1,64,0|0,0:0|0:0,0:0:0:0:
359,87,35729,1,2,0:0:0:0:
215,114,35902,2,0,P|246:123|278:126,1,64,8|2,0:0|0:0,0:0:0:0:
22,49,36247,6,0,P|83:35|138:64,1,128,4|8,0:0|0:0,0:0:0:0:
63,190,36764,2,0,P|62:158|72:128,1,64,0|0,0:0|0:0,0:0:0:0:
128,252,37109,2,0,P|128:283|119:314,1,64,0|8,0:0|0:0,0:0:0:0:
43,361,37453,1,2,0:0:0:0:
128,252,37626,2,0,P|182:233|251:254,1,128,2|8,0:0|0:0,0:0:0:0:
313,315,38143,1,0,0:0:0:0:
394,276,38316,2,0,P|411:249|419:218,1,64,0|0,0:0|0:0,0:0:0:0:
461,139,38660,2,0,P|443:113|435:82,1,64,8|0,0:0|0:0,0:0:0:0:
245,6,39005,6,0,P|299:38|361:29,1,128,4|8,0:0|0:0,0:0:0:0:
461,139,39522,2,0,P|453:108|434:81,1,64,0|0,0:0|0:0,0:0:0:0:
318,188,39867,1,2,0:0:0:0:
318,188,39953,1,2,0:0:0:0:
318,188,40040,2,0,P|307:158|307:126,1,64,10|2,0:0|0:0,0:0:0:0:
423,239,40385,2,0,P|378:195|316:188,1,128,2|8,0:0|0:0,0:0:0:0:
276,272,40902,2,0,P|307:282|338:279,1,64,0|0,0:0|0:0,0:0:0:0:
228,197,41247,2,0,P|197:187|165:190,1,64,2|8,0:0|0:0,0:0:0:0:
99,251,41591,1,2,0:0:0:0:
114,86,41764,6,0,P|160:128|166:191,1,128,4|8,0:0|0:0,0:0:0:0:
36,244,42281,2,0,P|68:243|99:251,1,64,2|0,0:0|0:0,0:0:0:0:
246,280,42626,2,0,P|214:281|183:273,1,64,2|8,0:0|0:0,0:0:0:0:
328,318,42971,6,0,P|389:305|447:329,1,128,4|2,0:0|0:0,0:0:0:0:
505,259,43488,1,8,0:0:0:0:
477,174,43660,1,2,0:0:0:0:
388,155,43833,2,0,P|357:147|331:129,1,64,0|0,0:0|3:0,0:0:0:0:
320,117,44091,1,0,3:0:0:0:
312,103,44178,1,8,3:0:0:0:
301,91,44264,1,8,3:0:0:0:
287,82,44350,1,8,3:0:0:0:
271,77,44436,1,8,3:0:0:0:
255,79,44522,6,0,P|184:77|100:63,1,143.999995605469,4|8,0:0|0:0,0:0:0:0:
112,66,45212,1,0,0:0:0:0:
180,118,45385,1,2,0:0:0:0:
192,203,45557,1,8,0:0:0:0:
140,271,45729,1,2,0:0:0:0:
188,342,45902,2,0,P|259:344|331:355,1,143.999995605469,2|8,0:0|0:0,0:0:0:0:
408,231,46419,2,0,P|406:267|400:303,1,71.9999978027344,2|0,0:0|0:0,0:0:0:0:
465,166,46764,2,0,P|458:130|457:94,1,71.9999978027344,2|8,0:0|0:0,0:0:0:0:
495,17,47109,1,0,0:0:0:0:
380,53,47281,6,0,P|327:47|234:34,1,143.999995605469,4|8,0:0|0:0,0:0:0:0:
237,34,47971,1,0,0:0:0:0:
152,49,48143,1,0,0:0:0:0:
87,105,48316,1,8,0:0:0:0:
58,185,48488,1,2,0:0:0:0:
142,168,48660,2,0,P|213:157|284:149,1,143.999995605469,2|8,0:0|0:0,0:0:0:0:
437,188,49178,2,0,P|401:181|367:171,1,71.9999978027344,2|0,0:0|0:0,0:0:0:0:
468,333,49522,1,2,0:0:0:0:
468,333,49609,1,2,0:0:0:0:
468,333,49695,2,0,P|476:296|488:263,1,71.9999978027344,10|0,0:0|0:0,0:0:0:0:
383,375,50040,6,0,P|311:363|240:355,1,143.999995605469,4|8,0:0|0:0,0:0:0:0:
240,355,50729,1,0,0:0:0:0:
318,318,50902,1,2,0:0:0:0:
325,232,51074,1,8,0:0:0:0:
254,182,51247,1,2,0:0:0:0:
279,99,51419,2,0,P|350:87|421:79,1,143.999995605469,2|8,0:0|0:0,0:0:0:0:
506,198,51936,2,0,P|497:164|492:128,1,71.9999978027344,2|0,0:0|0:0,0:0:0:0:
427,325,52281,2,0,P|436:291|442:255,1,71.9999978027344,2|8,0:0|0:0,0:0:0:0:
376,199,52626,1,0,0:0:0:0:
268,244,52798,6,0,B|203:245|196:222|125:224,1,143.999995605469,4|8,0:0|0:0,0:0:0:0:
41,249,53316,1,0,0:0:0:0:
3,173,53488,2,0,P|3:129|6:92,1,71.9999978027344,0|2,0:0|0:0,0:0:0:0:
57,32,53833,1,8,0:0:0:0:
137,62,54005,1,2,0:0:0:0:
214,22,54178,1,2,0:0:0:0:
214,22,54522,1,8,0:0:0:0:
137,62,54695,1,0,0:0:0:0:
134,149,54867,1,0,0:0:0:0:
207,195,55040,1,2,0:0:0:0:
283,154,55212,1,8,0:0:0:0:
285,67,55385,1,0,0:0:0:0:
212,109,55557,5,4,0:0:0:0:
212,109,55902,1,8,0:0:0:0:
285,66,56074,2,0,P|320:60|356:58,1,71.9999978027344,0|0,0:0|0:0,0:0:0:0:
475,86,56419,2,0,P|457:84|439:81,1,35.9999989013672,2|2,0:0|0:0,0:0:0:0:
378,142,56591,1,8,3:0:0:0:
374,159,56678,1,8,3:0:0:0:
372,176,56764,1,8,3:0:0:0:
372,193,56850,1,8,3:0:0:0:
373,210,56936,6,0,B|399:258|399:258|365:311,2,103.999995239258,2|2|2,0:0|0:0|0:0,0:0:0:0:
233,91,57626,6,0,P|188:88|143:81,1,80,2|2,0:0|0:0,0:0:0:0:
32,162,58316,6,0,B|-14:204|22:275|22:275|58:250,1,162.000000617981,4|0,0:0|0:0,0:0:0:0:
129,251,58660,2,0,B|171:223|217:240|217:240|180:277,1,108.000000411987,8|0,0:0|0:0,0:0:0:0:
343,314,59005,2,0,B|301:342|255:325|255:325|292:288,1,108.000000411987,0|2,0:0|0:0,0:0:0:0:
298,244,59264,1,2,0:0:0:0:
298,244,59350,2,0,B|298:216|279:189|279:189|277:158|303:138,1,108.000000411987,10|2,0:0|0:0,0:0:0:0:
445,58,59695,2,0,B|465:47|486:47|486:47|423:116|328:69,1,216.000000823975,2|8,0:0|0:0,0:0:0:0:
176,34,60212,2,0,B|207:19|236:37|236:37|239:59|251:80,1,108.000000411987,0|0,0:0|0:0,0:0:0:0:
163,203,60557,2,0,B|132:218|103:200|103:200|103:174|88:156,1,108.000000411987,2|8,0:0|0:0,0:0:0:0:
176,34,60902,1,2,0:0:0:0:
323,160,61074,6,0,B|372:193|429:174|429:174|414:151|421:116,1,162.000000617981,4|0,0:0|0:0,0:0:0:0:
494,136,61419,2,0,B|490:164|474:178|474:178|462:202|468:239,1,108.000000411987,8|0,0:0|0:0,0:0:0:0:
388,366,61764,1,0,0:0:0:0:
258,288,61936,2,0,B|257:264|237:246|237:246|222:218|230:187,1,108.000000411987,0|8,0:0|0:0,0:0:0:0:
149,59,62281,1,2,0:0:0:0:
0,181,62453,2,0,B|48:209|115:201|161:145|161:145|151:162|151:179,1,216.000000823975,2|8,0:0|0:0,0:0:0:0:
258,288,62971,2,0,B|321:360|408:326|408:326|422:310|430:279,1,216.000000823975,0|2,0:0|0:0,0:0:0:0:
446,150,63488,2,0,B|433:100|433:100|450:29|520:32,1,162.000000617981,8|0,0:0|0:0,0:0:0:0:
512,110,63833,6,0,B|499:151|440:161|398:134|398:134|354:102|298:112,1,216.000000823975,4|8,0:0|0:0,0:0:0:0:
200,201,64350,1,0,0:0:0:0:
83,104,64522,2,0,B|68:75|93:39|119:39|119:39|128:57|123:75,1,108.000000411987,0|2,0:0|0:0,0:0:0:0:
100,129,64781,1,2,0:0:0:0:
100,129,64867,2,0,B|52:149|12:119|12:119|18:135|20:152,1,108.000000411987,10|2,0:0|0:0,0:0:0:0:
128,252,65212,2,0,B|165:224|241:222|243:264|243:264|206:250|200:200,1,216.000000823975,2|8,0:0|0:0,0:0:0:0:
261,61,65729,1,0,0:0:0:0:
399,123,65902,2,0,B|461:129|487:96|487:96|470:86|456:96,1,108.000000411987,0|0,0:0|0:0,0:0:0:0:
338,29,66247,2,0,B|276:23|250:56|250:56|267:66|281:56,1,108.000000411987,8|2,0:0|0:0,0:0:0:0:
379,277,66591,6,0,B|437:214|400:125|400:125|367:103|327:124,1,240.000009155274,4|8,0:0|0:0,0:0:0:0:
196,167,67109,1,0,0:0:0:0:
12,87,67281,2,0,B|4:81|4:81|47:63|85:90,1,95.9999970703126,0|2,0:0|0:0,0:0:0:0:
181,74,67626,2,0,B|208:36|190:-7|190:-7|183:2,1,95.9999970703126,8|2,0:0|0:0,0:0:0:0:
101,181,67971,2,0,B|74:219|92:262|92:262|98:253,1,95.9999970703126,0|2,0:0|0:0,0:0:0:0:
196,167,68316,1,8,0:0:0:0:
312,224,68488,1,0,0:0:0:0:
428,157,68660,2,0,B|443:144|444:128|444:128|432:101|440:40,1,95.9999970703126,2|0,0:0|3:0,0:0:0:0:
447,50,68919,1,0,3:0:0:0:
464,42,69005,1,8,3:0:0:0:
481,49,69091,1,8,3:0:0:0:
489,66,69178,1,8,3:0:0:0:
483,84,69264,1,8,3:0:0:0:
474,96,69350,6,0,B|431:73|388:91|388:91|345:108|313:85|314:52|314:52|338:63|339:90,1,216.000000823975,4|8,0:0|0:0,0:0:0:0:
289,217,69867,1,0,0:0:0:0:
440,268,70040,2,0,B|457:238|452:202|452:202|426:170,1,108.000000411987,0|2,0:0|0:0,0:0:0:0:
370,232,70298,1,2,0:0:0:0:
370,232,70385,2,0,B|352:269|372:316|372:316|355:306|340:303,1,108.000000411987,8|2,0:0|0:0,0:0:0:0:
174,356,70729,2,0,B|150:351|133:329|133:329|180:308|234:327|217:333|249:357|290:354,1,216.000000823975,2|8,0:0|0:0,0:0:0:0:
455,321,71247,2,0,B|412:305|377:321|377:321|361:317|354:307,1,108.000000411987,0|0,0:0|0:0,0:0:0:0:
266,176,71591,2,0,B|276:183|280:199|280:199|264:234|280:277,1,108.000000411987,2|8,0:0|0:0,0:0:0:0:
174,356,71936,1,2,0:0:0:0:
96,178,72109,6,0,B|123:125|197:136|197:136|182:158|185:198,1,162.000000617981,4|0,0:0|0:0,0:0:0:0:
248,225,72453,2,0,B|271:215|299:220|299:220|274:198|265:175,1,108.000000411987,8|0,0:0|0:0,0:0:0:0:
177,52,72798,1,0,0:0:0:0:
96,178,72971,1,0,0:0:0:0:
182,301,73143,1,8,0:0:0:0:
265,175,73316,1,2,0:0:0:0:
171,30,73488,2,0,B|118:14|77:37|86:43|47:67|7:50|7:50|24:31|50:35,1,216.000000823975,2|8,0:0|0:0,0:0:0:0:
234,94,74005,2,0,B|287:78|328:101|319:107|358:131|398:114|398:114|384:100|355:99,1,216.000000823975,0|2,0:0|0:0,0:0:0:0:
509,266,74522,2,0,B|481:215|417:200|417:200|406:221|408:246,1,162.000000617981,8|0,0:0|0:0,0:0:0:0:
351,306,74867,6,0,B|318:300|291:329|291:329|267:350|237:350|209:334|205:295,1,180.000006866455,4|0,0:0|0:0,0:0:0:0:
228,225,75212,2,0,B|248:195|241:161|241:161|224:140|201:144,1,108.000000411987,8|0,0:0|0:0,0:0:0:0:
61,225,75557,2,0,B|91:245|125:238|125:238|146:221|142:198,1,108.000000411987,0|2,0:0|0:0,0:0:0:0:
127,119,75816,1,2,0:0:0:0:
127,119,75902,2,0,B|130:100|109:83|109:83|75:76|45:96,1,108.000000411987,10|2,0:0|0:0,0:0:0:0:
228,225,76247,2,0,B|263:222|293:262|293:262|331:273|373:209,1,162.000000617981,2|0,0:0|0:0,0:0:0:0:
412,167,76591,2,0,B|384:142|346:148|346:148|328:128|335:114,1,108.000000411987,8|0,0:0|0:0,0:0:0:0:
435,239,76936,2,0,B|467:255|475:293|475:293|495:301|511:291,1,108.000000411987,0|2,0:0|0:0,0:0:0:0:
507,85,77281,2,0,B|484:109|482:132|482:132|494:159|488:184,1,108.000000411987,8|2,0:0|0:0,0:0:0:0:
353,334,77626,6,0,B|377:325|393:306|393:306|323:273|262:315|262:315|229:312|203:280,1,240.000009155274,4|8,0:0|0:0,0:0:0:0:
132,180,78143,2,0,B|142:208|170:220|170:220|239:163|214:85,1,207.999990478516,0|2,0:0|0:0,0:0:0:0:
147,33,78660,2,0,P|103:38|59:25,1,88.000002685547,8|0,0:0|0:0,0:0:0:0:
25,241,79005,1,0,3:0:0:0:
132,180,79178,2,0,P|176:175|220:188,1,88.000002685547,2|0,3:0|3:0,0:0:0:0:
276,294,79522,1,2,3:0:0:0:
406,201,79695,2,0,P|419:172|421:109,1,88.000002685547,8|8,3:0|3:0,0:0:0:0:
413,98,79953,1,8,3:0:0:0:
393,86,80040,2,0,P|366:85|338:79,1,44.0000013427735,8|8,3:0|3:0,0:0:0:0:
289,30,80212,2,0,P|261:23|234:23,1,44.0000013427735,8|8,3:0|3:0,0:0:0:0:
178,68,80385,5,4,0:0:0:0:
281,107,80557,2,0,P|293:69|288:29,1,80,0|8,0:0|0:0,0:0:0:0:
182,146,80902,2,0,P|172:107|179:67,1,80,0|0,0:0|0:0,0:0:0:0:
274,211,81247,1,2,0:0:0:0:
274,211,81333,1,2,0:0:0:0:
274,211,81419,1,10,0:0:0:0:
182,146,81591,1,2,0:0:0:0:
171,259,81764,2,0,P|121:291|10:264,1,160,2|8,0:0|0:0,0:0:0:0:
45,92,82281,2,0,P|102:144|181:146,1,160,0|2,0:0|0:0,0:0:0:0:
290,120,82798,1,8,0:0:0:0:
373,44,82971,1,2,0:0:0:0:
442,183,83143,5,4,0:0:0:0:
435,261,83316,2,0,P|446:223|442:184,1,80,0|8,0:0|0:0,0:0:0:0:
323,278,83660,2,0,P|285:265|245:269,1,80,0|0,0:0|0:0,0:0:0:0:
385,369,84005,2,0,P|422:381|461:377,1,80,0|8,0:0|0:0,0:0:0:0:
442,184,84350,1,2,0:0:0:0:
323,278,84522,2,0,B|281:251|243:270|213:288|162:266,1,160,2|8,0:0|0:0,0:0:0:0:
95,180,85040,1,2,0:0:0:0:
205,161,85212,2,0,P|234:90|189:5,1,160,2|8,0:0|0:0,0:0:0:0:
57,286,85902,5,4,0:0:0:0:
164,263,86074,2,0,P|208:260|257:267,1,80,0|8,0:0|0:0,0:0:0:0:
95,180,86419,2,0,P|53:165|4:159,1,80,0|0,0:0|0:0,0:0:0:0:
152,88,86764,1,2,0:0:0:0:
152,88,86850,1,2,0:0:0:0:
152,88,86936,1,10,0:0:0:0:
253,135,87109,1,2,0:0:0:0:
347,75,87281,2,0,P|421:51|490:87,1,160,2|8,0:0|0:0,0:0:0:0:
316,218,87798,2,0,P|242:241|173:205,1,160,0|2,0:0|0:0,0:0:0:0:
152,88,88316,1,8,0:0:0:0:
253,135,88488,1,2,0:0:0:0:
72,158,88660,5,4,0:0:0:0:
152,88,88833,2,0,P|162:50|159:10,1,80,0|8,0:0|0:0,0:0:0:0:
253,135,89178,2,0,P|280:107|316:90,1,80,0|0,0:0|0:0,0:0:0:0:
346,260,89522,2,0,P|307:259|270:245,1,80,0|8,0:0|0:0,0:0:0:0:
436,191,89867,2,0,P|441:164|437:135,1,40,2|2,0:0|0:0,0:0:0:0:
427,105,90040,2,0,P|421:82|420:49,3,40,0|0|0|0,3:0|3:0|3:0|3:0,0:0:0:0:
385,31,90385,2,0,P|362:25|329:24,3,40,0|0|0|0,3:0|3:0|3:0|3:0,0:0:0:0:
299,38,90729,2,0,P|258:41|217:17,1,80,0|0,3:0|3:0,0:0:0:0:
178,9,90988,1,8,3:0:0:0:
137,34,91074,2,0,P|124:89|129:123,1,80,8|8,3:0|3:0,0:0:0:0:
151,153,91333,1,8,3:0:0:0:
140,199,91419,5,8,3:0:0:0:
143,265,101764,6,0,P|183:266|214:263,1,64,2|0,0:0|3:0,0:0:0:0:
229,246,102022,1,0,3:0:0:0:
253,230,102109,2,0,P|265:226|290:224,3,32,8|8|8|8,3:0|3:0|3:0|3:0,0:0:0:0:
354,280,102453,6,0,P|375:220|353:162,1,128,4|8,0:0|0:0,0:0:0:0:
218,127,102971,2,0,P|249:129|280:122,1,64,0|0,0:0|0:0,0:0:0:0:
415,73,103316,1,2,0:0:0:0:
415,73,103402,1,2,0:0:0:0:
415,73,103488,2,0,P|384:71|353:79,1,64,10|2,0:0|0:0,0:0:0:0:
487,132,103833,2,0,P|507:72|487:13,1,128,2|8,0:0|0:0,0:0:0:0:
353,79,104350,2,0,P|384:81|415:73,1,64,0|0,0:0|0:0,0:0:0:0:
278,22,104695,1,2,0:0:0:0:
347,142,104867,2,0,P|354:111|353:79,1,64,8|2,0:0|0:0,0:0:0:0:
230,149,105212,6,0,P|287:123|347:142,1,128,4|8,0:0|0:0,0:0:0:0:
207,235,105729,2,0,P|176:224|154:202,1,64,0|0,0:0|0:0,0:0:0:0:
292,210,106074,2,0,P|322:220|344:242,1,64,0|8,0:0|0:0,0:0:0:0:
207,235,106419,1,2,0:0:0:0:
230,149,106591,2,0,P|287:123|347:142,1,128,2|8,0:0|0:0,0:0:0:0:
207,235,107109,1,0,0:0:0:0:
150,133,107281,2,0,P|160:103|182:79,1,64,0|0,0:0|0:0,0:0:0:0:
207,235,107626,2,0,P|196:264|174:288,1,64,8|0,0:0|0:0,0:0:0:0:
31,132,107971,6,0,P|90:154|150:133,1,128,4|8,0:0|0:0,0:0:0:0:
109,0,108488,2,0,P|94:28|90:60,1,64,0|0,0:0|0:0,0:0:0:0:
242,116,108833,1,2,0:0:0:0:
242,116,108919,1,2,0:0:0:0:
242,116,109005,2,0,P|257:88|261:56,1,64,10|2,0:0|0:0,0:0:0:0:
360,117,109350,2,0,P|301:95|241:116,1,128,2|8,0:0|0:0,0:0:0:0:
351,208,109867,2,0,P|382:206|412:194,1,64,0|0,0:0|0:0,0:0:0:0:
472,51,110212,2,0,P|456:78|452:111,1,64,2|8,0:0|0:0,0:0:0:0:
459,266,110557,1,2,0:0:0:0:
351,208,110729,6,0,P|412:224|459:266,1,128,4|8,0:0|0:0,0:0:0:0:
267,249,111247,2,0,P|260:217|263:185,1,64,2|0,0:0|0:0,0:0:0:0:
451,109,111591,2,0,P|457:77|454:45,1,64,2|8,0:0|0:0,0:0:0:0:
259,0,111936,1,4,0:0:0:0:
169,50,112109,2,0,P|137:48|106:37,1,64,0|2,0:0|0:0,0:0:0:0:
259,0,112453,2,0,P|290:1|321:12,1,64,8|2,0:0|0:0,0:0:0:0:
107,38,112798,2,0,P|80:55|59:79,1,64,0|0,0:0|3:0,0:0:0:0:
55,95,113057,1,0,3:0:0:0:
52,110,113143,1,8,3:0:0:0:
53,125,113229,1,8,3:0:0:0:
56,140,113316,1,8,3:0:0:0:
58,155,113402,1,8,3:0:0:0:
59,170,113488,6,0,P|63:252|62:315,1,143.999995605469,4|8,0:0|0:0,0:0:0:0:
62,313,114178,1,0,0:0:0:0:
131,365,114350,1,2,0:0:0:0:
208,326,114522,1,8,0:0:0:0:
287,359,114695,1,2,0:0:0:0:
362,315,114867,2,0,P|433:308|505:311,1,143.999995605469,2|8,0:0|0:0,0:0:0:0:
430,196,115385,2,0,P|424:232|422:268,1,71.9999978027344,2|0,0:0|0:0,0:0:0:0:
485,130,115729,2,0,P|491:94|493:58,1,71.9999978027344,2|8,0:0|0:0,0:0:0:0:
425,4,116074,1,0,0:0:0:0:
312,58,116247,6,0,P|254:55|163:44,1,143.999995605469,4|8,0:0|0:0,0:0:0:0:
168,44,116936,1,0,0:0:0:0:
236,95,117109,2,0,P|248:151|247:176,1,71.9999978027344,0|8,0:0|0:0,0:0:0:0:
187,227,117453,1,2,0:0:0:0:
247,165,117626,2,0,P|318:156|390:151,1,143.999995605469,2|8,0:0|0:0,0:0:0:0:
492,238,118143,2,0,P|456:234|420:228,1,71.9999978027344,2|0,0:0|0:0,0:0:0:0:
358,363,118488,1,2,0:0:0:0:
358,363,118574,1,2,0:0:0:0:
358,363,118660,2,0,P|370:329|377:293,1,71.9999978027344,10|0,0:0|0:0,0:0:0:0:
390,150,119005,6,0,P|378:220|377:292,1,143.999995605469,4|8,0:0|0:0,0:0:0:0:
377,292,119695,1,0,0:0:0:0:
310,347,119867,1,2,0:0:0:0:
224,339,120040,1,8,0:0:0:0:
168,272,120212,1,2,0:0:0:0:
175,185,120385,2,0,P|186:114|187:42,1,143.999995605469,2|8,0:0|0:0,0:0:0:0:
284,85,120902,2,0,P|274:50|270:15,1,71.9999978027344,2|0,0:0|0:0,0:0:0:0:
370,84,121247,2,0,P|379:50|385:14,1,71.9999978027344,2|8,0:0|0:0,0:0:0:0:
415,159,121591,1,0,0:0:0:0:
284,85,121764,6,0,P|212:73|141:65,1,143.999995605469,4|8,0:0|0:0,0:0:0:0:
47,66,122281,1,0,0:0:0:0:
97,144,122453,2,0,P|97:188|94:225,1,71.9999978027344,0|0,0:0|0:0,0:0:0:0:
28,281,122798,1,8,0:0:0:0:
71,364,122971,1,0,0:0:0:0:
163,348,123143,1,2,0:0:0:0:
163,348,123488,1,8,0:0:0:0:
71,364,123660,1,0,0:0:0:0:
28,281,123833,1,0,0:0:0:0:
94,215,124005,1,2,0:0:0:0:
177,259,124178,1,8,0:0:0:0:
163,348,124350,1,0,0:0:0:0:
105,294,124522,5,4,0:0:0:0:
105,294,124867,1,8,0:0:0:0:
168,173,125040,2,0,P|178:139|179:92,1,71.9999978027344,0|0,0:0|0:0,0:0:0:0:
265,228,125385,2,0,L|301:223,1,35.9999989013672,2|2,0:0|0:0,0:0:0:0:
385,177,125557,1,8,3:0:0:0:
389,160,125643,1,8,3:0:0:0:
391,143,125729,1,8,3:0:0:0:
391,126,125816,1,8,3:0:0:0:
390,109,125902,6,0,B|387:74|387:74|371:55|371:55|372:5,2,103.999995239258,2|2|2,0:0|0:0|0:0,0:0:0:0:
301,319,126591,6,0,P|261:313|221:310,1,80,2|2,0:0|0:0,0:0:0:0:
76,346,127281,6,0,B|93:353|107:368|107:368|80:303|110:245,1,162.000000617981,4|0,0:0|0:0,0:0:0:0:
173,210,127626,2,0,B|211:216|252:201|252:201|239:212|230:229,1,108.000000411987,8|0,0:0|0:0,0:0:0:0:
382,270,127971,2,0,B|344:276|303:261|303:261|316:272|325:289,1,108.000000411987,0|2,0:0|0:0,0:0:0:0:
357,351,128229,1,2,0:0:0:0:
357,351,128316,2,0,B|401:362|435:338|435:338|449:314,1,108.000000411987,10|2,0:0|0:0,0:0:0:0:
478,89,128660,2,0,B|432:117|425:198|454:241|454:241|453:215|466:196,1,216.000000823975,2|8,0:0|0:0,0:0:0:0:
394,62,129178,2,0,B|361:40|330:43|330:43|309:61|306:94,1,108.000000411987,0|0,0:0|0:0,0:0:0:0:
312,227,129522,2,0,B|345:249|376:246|376:246|397:228|400:195,1,108.000000411987,2|8,0:0|0:0,0:0:0:0:
246,155,129867,1,2,0:0:0:0:
170,332,130040,6,0,B|139:265|193:229|193:229|224:239|228:255,1,162.000000617981,4|0,0:0|0:0,0:0:0:0:
286,304,130385,2,0,B|312:302|340:309|340:309|369:306|385:277,1,108.000000411987,8|0,0:0|0:0,0:0:0:0:
442,141,130729,1,0,0:0:0:0:
321,49,130902,2,0,B|295:47|266:53|266:53|247:29|222:22,1,108.000000411987,0|8,0:0|0:0,0:0:0:0:
112,125,131247,1,2,0:0:0:0:
228,254,131419,2,0,B|252:212|246:135|188:99|188:99|196:121|192:142,1,216.000000823975,2|8,0:0|0:0,0:0:0:0:
163,323,131936,2,0,B|228:373|296:321|296:321|269:344|270:384,1,216.000000823975,0|2,0:0|0:0,0:0:0:0:
82,366,132453,2,0,B|56:332|84:271|84:271|135:235,1,162.000000617981,8|0,0:0|0:0,0:0:0:0:
228,254,132798,6,0,B|274:258|300:290|300:290|364:292|389:248|373:182,1,216.000000823975,4|8,0:0|0:0,0:0:0:0:
308,54,133316,1,0,0:0:0:0:
147,75,133488,2,0,B|118:90|82:65|82:39|82:39|101:45|114:56,1,108.000000411987,0|2,0:0|0:0,0:0:0:0:
173,80,133747,1,2,0:0:0:0:
173,80,133833,2,0,B|196:132|164:167|164:167|165:150|156:133,1,108.000000411987,10|2,0:0|0:0,0:0:0:0:
41,221,134178,2,0,B|80:191|152:199|143:230|143:230|115:207|136:170|164:151,1,216.000000823975,2|8,0:0|0:0,0:0:0:0:
304,200,134695,1,0,0:0:0:0:
431,118,134867,2,0,B|452:59|427:26|427:26|413:39|419:55,1,108.000000411987,0|2,0:0|0:0,0:0:0:0:
304,200,135212,2,0,B|282:258|307:291|307:291|321:278|315:262,1,108.000000411987,8|2,0:0|0:0,0:0:0:0:
495,180,135557,6,0,B|447:129|371:165|371:165|309:165|280:123,1,240.000009155274,4|8,0:0|0:0,0:0:0:0:
184,28,136074,1,0,0:0:0:0:
28,139,136247,2,0,B|73:151|103:121|103:121|88:123,1,95.9999970703126,0|2,0:0|0:0,0:0:0:0:
232,222,136591,2,0,B|219:177|178:167|178:167|188:179,1,95.9999970703126,8|2,0:0|0:0,0:0:0:0:
312,260,136936,2,0,B|357:272|386:241|386:241|371:243,1,95.9999970703126,0|2,0:0|0:0,0:0:0:0:
187,178,137281,1,8,0:0:0:0:
239,310,137453,1,0,0:0:0:0:
371,243,137626,2,0,B|378:222|368:186|368:186|369:164|378:149,1,95.9999970703126,2|0,0:0|3:0,0:0:0:0:
393,137,137885,1,0,3:0:0:0:
404,121,137971,1,8,3:0:0:0:
413,104,138057,1,8,3:0:0:0:
413,84,138143,1,8,3:0:0:0:
406,66,138229,1,8,3:0:0:0:
391,47,138316,6,0,B|339:21|295:54|295:54|261:73|210:63|193:23,1,216.000000823975,4|8,0:0|0:0,0:0:0:0:
48,66,138833,1,0,0:0:0:0:
173,160,139005,2,0,B|176:130|165:105|165:105|141:92|116:97,1,108.000000411987,0|2,0:0|0:0,0:0:0:0:
57,145,139264,1,2,0:0:0:0:
57,145,139350,2,0,B|66:188|59:229|59:229|44:215|28:203,1,108.000000411987,10|2,0:0|0:0,0:0:0:0:
0,359,139695,2,0,B|23:300|96:307|96:307|149:330|205:307,1,216.000000823975,2|8,0:0|0:0,0:0:0:0:
270,181,140212,2,0,B|277:146|257:123|257:123|252:101|260:75,1,108.000000411987
364,229,140557,2,0,B|357:264|377:287|377:287|382:309|373:332,1,108.000000411987,2|8,0:0|0:0,0:0:0:0:
450,165,140902,1,2,0:0:0:0:
342,66,141074,6,0,B|286:33|224:63|224:63|238:72|259:77,1,162.000000617981,4|0,0:0|0:0,0:0:0:0:
351,95,141419,2,0,B|377:103|403:86|403:86|389:56|365:49,1,108.000000411987,8|0,0:0|0:0,0:0:0:0:
218,13,141764,1,0,0:0:0:0:
260,159,141936,1,0,0:0:0:0:
366,49,142109,1,8,0:0:0:0:
218,13,142281,1,2,0:0:0:0:
274,173,142453,2,0,B|307:266|222:306|222:306|188:234,1,216.000000823975,2|8,0:0|0:0,0:0:0:0:
196,116,142971,2,0,B|234:74|303:82|322:146|322:146|273:174,1,216.000000823975,0|2,0:0|0:0,0:0:0:0:
123,165,143488,2,0,B|98:121|116:72|116:72|147:53|172:19,1,162.000000617981,8|0,0:0|0:0,0:0:0:0:
196,116,143833,6,0,B|203:148|173:176|173:176|149:195|154:235|176:258|217:246,1,180.000006866455,4|0,0:0|0:0,0:0:0:0:
287,232,144178,2,0,B|317:212|351:219|351:219|372:236|368:259,1,108.000000411987,8|0,0:0|0:0,0:0:0:0:
235,325,144522,2,0,B|203:343|169:334|169:334|150:315|154:293,1,108.000000411987,0|2,0:0|0:0,0:0:0:0:
215,252,144781,1,2,0:0:0:0:
215,252,144867,2,0,B|242:224|247:199|247:199|235:173|235:136,1,108.000000411987,10|2,0:0|0:0,0:0:0:0:
378,97,145212,2,0,B|348:121|302:109|302:109|269:73|228:79,1,162.000000617981,2|0,0:0|0:0,0:0:0:0:
167,122,145557,2,0,B|124:126|82:104|82:104|112:137,1,108.000000411987,8|0,0:0|0:0,0:0:0:0:
216,252,145902,2,0,B|259:248|301:270|301:270|271:237,1,108.000000411987,0|2,0:0|0:0,0:0:0:0:
113,228,146247,2,0,B|70:224|28:246|28:246|58:213,1,108.000000411987,8|2,0:0|0:0,0:0:0:0:
214,95,146591,6,0,B|226:60|203:30|203:30|149:60|145:146|182:179,1,240.000009155274,4|8,0:0|0:0,0:0:0:0:
297,245,147109,2,0,B|333:236|333:236|281:163|178:180,1,207.999990478516,0|2,0:0|0:0,0:0:0:0:
103,221,147626,2,0,P|50:227|18:209,1,88.000002685547,8|0,0:0|0:0,0:0:0:0:
94,348,147971,1,0,3:0:0:0:
180,262,148143,2,0,P|193:220|181:178,1,88.000002685547,0|0,3:0|3:0,0:0:0:0:
85,98,148488,1,0,3:0:0:0:
224,23,148660,2,0,P|263:11|315:15,1,88.000002685547,8|8,3:0|3:0,0:0:0:0:
328,25,148919,1,8,3:0:0:0:
342,41,149005,1,8,3:0:0:0:
349,61,149091,1,8,3:0:0:0:
348,83,149178,1,8,3:0:0:0:
342,104,149264,1,8,3:0:0:0:
332,125,149350,6,0,P|284:185|300:261,1,160,4|8,0:0|0:0,0:0:0:0:
477,304,149867,2,0,P|448:232|375:208,1,160,0|2,0:0|0:0,0:0:0:0:
330,224,150298,1,2,0:0:0:0:
299,261,150385,2,0,P|260:265|222:253,1,80,10|2,0:0|0:0,0:0:0:0:
126,362,150729,2,0,B|156:286|109:282|139:206,1,160,2|8,0:0|0:0,0:0:0:0:
268,122,151247,2,0,P|349:129|387:45,1,160,0|2,0:0|0:0,0:0:0:0:
246,15,151764,2,0,P|206:11|136:15,1,80,8|2,0:0|0:0,0:0:0:0:
0,150,152109,6,0,P|41:94|129:118,1,160,4|8,0:0|0:0,0:0:0:0:
182,248,152626,2,0,P|137:192|50:216,1,160,0|2,0:0|0:0,0:0:0:0:
13,352,153143,2,0,P|41:345|102:341,1,80,8|2,0:0|0:0,0:0:0:0:
138,354,153402,1,2,0:0:0:0:
185,360,153488,2,0,P|213:359|243:353,3,40,0|0|0|0,3:0|3:0|3:0|3:0,0:0:0:0:
273,352,153833,2,0,P|301:353|331:359,3,40,0|0|0|0,3:0|3:0|3:0|3:0,0:0:0:0:
357,372,154178,2,0,L|366:276,1,80,4|8,3:0|3:0,0:0:0:0:
392,253,154436,1,8,3:0:0:0:
438,243,154522,1,8,3:0:0:0:
512,118,154695,1,8,3:0:0:0:
466,131,154781,1,8,3:0:0:0:
421,113,154867,6,0,P|354:73|281:100,1,160,4|8,0:0|0:0,0:0:0:0:
263,281,155385,2,0,P|330:242|343:166,1,160,0|2,0:0|0:0,0:0:0:0:
322,124,155816,1,2,0:0:0:0:
281,99,155902,2,0,P|271:60|278:21,1,80,10|2,0:0|0:0,0:0:0:0:
198,152,156247,2,0,P|120:136|40:134,1,160,2|8,0:0|0:0,0:0:0:0:
160,263,156764,2,0,P|238:279|318:281,1,160,0|2,0:0|0:0,0:0:0:0:
424,169,157281,2,0,P|428:128|435:76,1,80,8|2,0:0|0:0,0:0:0:0:
438,347,157626,6,0,P|390:280|313:284,1,160,4|8,0:0|0:0,0:0:0:0:
238,319,158143,1,0,0:0:0:0:
141,314,158316,1,0,0:0:0:0:
83,215,158488,1,0,0:0:0:0:
144,102,158660,1,8,0:0:0:0:
290,84,158833,1,2,0:0:0:0:
346,235,159005,2,0,P|288:242|243:204,1,120,8|0,0:0|0:0,0:0:0:0:
214,165,159350,2,0,P|177:148|115:153,1,80,8|2,0:0|0:0,0:0:0:0:
290,84,159695,2,0,P|326:67|365:65,1,80,2|8,0:0|3:0,0:0:0:0:
366,86,159953,1,8,3:0:0:0:
368,108,160040,1,8,3:0:0:0:
369,130,160126,1,8,3:0:0:0:
371,152,160212,1,8,3:0:0:0:
373,174,160298,1,8,3:0:0:0:
374,196,160385,6,0,B|372:256|372:256|338:304|338:304|333:369,2,184.000003509522,4|8|0,0:0|0:0|0:0,0:0:0:0:
469,109,161247,1,2,2:0:0:0:
469,109,161333,1,2,2:0:0:0:
469,109,161419,1,10,2:0:0:0:
382,14,161591,1,2,0:0:0:0:
287,101,161764,2,0,B|247:106|216:88|216:88|187:101|187:101|144:84|108:93,1,184.000003509522,2|8,0:0|0:0,0:0:0:0:
110,93,162453,1,0,0:0:0:0:
16,153,162626,1,2,0:0:0:0:
43,260,162798,1,8,0:0:0:0:
153,267,162971,1,2,0:0:0:0:
272,159,163143,6,0,B|229:139|229:139|194:165,2,92.0000017547608,4|0|8,0:0|0:0|0:0,0:0:0:0:
372,268,163660,2,0,B|415:288|415:288|450:262,1,92.0000017547608,0|0,0:0|0:0,0:0:0:0:
505,125,164005,1,0,0:0:0:0:
375,54,164178,1,8,0:0:0:0:
273,159,164350,2,0,L|217:155,1,46.0000008773804,2|2,0:0|0:0,0:0:0:0:
177,101,164522,2,0,L|174:40,1,46.0000008773804,0|0,3:0|3:0,0:0:0:0:
170,203,164695,2,0,L|161:248,1,46.0000008773804,0|0,3:0|3:0,0:0:0:0:
102,97,164867,2,0,L|89:37,1,46.0000008773804,0|0,3:0|3:0,0:0:0:0:
95,195,165040,2,0,L|80:239,1,46.0000008773804,0|0,3:0|3:0,0:0:0:0:
227,155,165212,2,0,B|262:149|262:149|283:157|283:157|350:155,1,92.0000017547608,0|0,3:0|3:0,0:0:0:0:
317,155,165471,1,8,3:0:0:0:
317,155,165557,1,8,3:0:0:0:
481,251,165729,1,8,3:0:0:0:
481,251,165816,1,8,3:0:0:0:
481,251,165902,6,0,L|487:182,2,61.3333345031739,4|0|0,0:0|0:0|0:0,0:0:0:0:
408,285,166247,2,0,P|379:275|349:273,2,46.0000008773804,8|0|0,0:0|0:0|0:0,0:0:0:0:
486,189,166591,2,0,L|492:120,2,46.0000008773804,0|0|2,0:0|0:0|0:0,0:0:0:0:
483,220,166850,1,2,0:0:0:0:
481,251,166936,1,10,0:0:0:0:
426,367,167109,1,2,0:0:0:0:
335,264,167281,2,0,B|294:243|294:243|219:256,1,92.0000017547608,2|0,0:0|0:0,0:0:0:0:
217,258,167540,1,0,0:0:0:0:
186,269,167626,1,8,0:0:0:0:
112,374,167798,1,0,0:0:0:0:
6,304,167971,2,0,L|2:183,1,92.0000017547608,0|2,0:0|0:0,0:0:0:0:
186,269,168316,2,0,L|190:148,1,92.0000017547608,8|2,0:0|0:0,0:0:0:0:
40,3,168660,5,12,0:0:0:0:
225,95,168833,2,0,P|300:81|320:64,1,92.0000017547608,2|8,0:0|0:0,0:0:0:0:
89,235,169178,2,0,P|48:213|2:212,1,92.0000017547608,2|2,0:0|0:0,0:0:0:0:
214,362,169522,1,8,0:0:0:0:
231,333,169609,1,8,0:0:0:0:
259,314,169695,1,8,0:0:0:0:
293,309,169781,1,8,0:0:0:0:
326,316,169867,2,0,P|351:320|390:315,1,46.0000008773804,8|8,0:0|0:0,0:0:0:0:
441,187,170040,1,4,0:0:0:0:
256,192,170126,12,2,171419,0:0:0:0:
56,315,176936,6,0,P|103:303|163:316,1,96,2|0,0:0|0:0,0:0:0:0:
188,332,177281,2,0,P|235:339|282:328,1,96,2|0,0:0|0:0,0:0:0:0:
315,298,177626,2,0,B|320:220,1,64,2|0,0:0|0:0,0:0:0:0:
397,190,177971,2,0,B|392:112,1,64,2|0,0:0|0:0,0:0:0:0:
457,63,178316,2,0,P|398:84|340:58,1,128,2|2,0:0|0:0,0:0:0:0:
277,121,178833,2,0,P|247:108|187:108,1,64,0|2,0:0|0:0,0:0:0:0:
128,121,179178,2,0,P|96:116|67:103,1,64,8|2,0:0|0:0,0:0:0:0:
0,164,179522,1,8,0:0:0:0:
111,241,179695,6,0,P|136:179|119:104,1,128,2|2,0:0|0:0,0:0:0:0:
154,34,180212,1,0,0:0:0:0:
240,59,180385,2,0,L|322:48,1,64,2|0,0:0|0:0,0:0:0:0:
382,92,180729,2,0,L|464:81,1,64,10|0,0:0|0:0,0:0:0:0:
508,147,181074,1,2,0:0:0:0:
508,147,181419,1,2,0:0:0:0:
445,83,181591,1,0,0:0:0:0:
396,190,181764,6,0,L|392:274,1,80,4|8,0:0|3:0,0:0:0:0:
386,295,182022,1,8,3:0:0:0:
371,317,182109,1,0,3:0:0:0:
348,330,182195,1,0,3:0:0:0:
322,333,182281,1,0,3:0:0:0:
297,325,182367,1,0,3:0:0:0:
277,308,182453,2,0,P|212:275|115:332,1,160,4|8,0:0|0:0,0:0:0:0:
22,362,182971,2,0,L|18:262,1,80,0|0,0:0|0:0,0:0:0:0:
84,165,183316,1,2,0:0:0:0:
88,172,183402,1,2,0:0:0:0:
92,179,183488,1,8,3:0:0:0:
71,175,183574,1,8,3:0:0:0:
57,161,183660,1,8,3:0:0:0:
54,141,183747,1,8,3:0:0:0:
57,122,183833,6,0,B|65:90|65:90|54:76|54:76|55:14,2,103.999995239258,2|2|2,0:0|0:0|0:0,0:0:0:0:
239,113,184522,6,0,P|264:106|291:106,2,53.3333333333333,8|8|8,3:0|3:0|3:0,0:0:0:0:
192,172,184867,5,8,3:0:0:0:
189,208,184982,1,8,3:0:0:0:
186,245,185097,1,8,3:0:0:0:
148,309,185212,5,4,1:0:0:0:
256,192,185298,12,0,187281,0:0:0:0:
332,186,187626,5,2,0:0:0:0:
269,127,187798,2,0,L|150:114,1,111.999996582031,2|6,0:0|0:0,0:0:0:0:
126,330,199005,6,0,B|109:283|139:239|139:239|148:178|111:151,1,191.999994140625,2|0,0:0|0:0,0:0:0:0:
112,151,200212,1,0,0:0:0:0:
172,198,200385,2,0,P|225:203|280:178,1,95.9999970703126,0|0,0:0|0:0,0:0:0:0:
338,211,200902,2,0,P|383:196|430:201,1,95.9999970703126,0|2,0:0|0:0,0:0:0:0:
431,202,201591,1,2,0:0:0:0:
377,146,201764,6,0,P|368:99|383:52,1,95.9999970703126,2|0,0:0|0:0,0:0:0:0:
382,53,202453,2,0,L|315:44,1,47.9999985351563,0|0,0:0|0:0,0:0:0:0:
259,64,202798,2,0,L|192:55,1,47.9999985351563,0|0,0:0|0:0,0:0:0:0:
147,14,203143,2,0,P|160:59|152:106,1,95.9999970703126,0|0,0:0|0:0,0:0:0:0:
95,158,203660,1,0,0:0:0:0:
95,158,203833,2,0,P|88:195|90:226,1,47.9999985351563,2|2,0:0|0:0,0:0:0:0:
132,268,204178,2,0,P|137:291|139:315,1,47.9999985351563,0|2,0:0|0:0,0:0:0:0:
200,360,204522,6,0,P|246:350|294:347,1,95.9999970703126,2|0,0:0|0:0,0:0:0:0:
294,347,205040,1,0,0:0:0:0:
369,317,205212,2,0,P|379:270|382:222,1,95.9999970703126,0|0,0:0|0:0,0:0:0:0:
382,222,205902,2,0,P|334:219|287:208,1,95.9999970703126,0|0,0:0|0:0,0:0:0:0:
287,208,206419,1,0,0:0:0:0:
227,160,206591,2,0,P|199:152|176:152,1,47.9999985351563,0|2,0:0|0:0,0:0:0:0:
180,151,207109,1,2,0:0:0:0:
113,113,207281,6,0,P|103:73|125:14,1,95.9999970703126,2|0,0:0|0:0,0:0:0:0:
194,36,207798,2,0,P|241:34|301:28,1,95.9999970703126,0|0,0:0|0:0,0:0:0:0:
363,52,208316,1,0,0:0:0:0:
363,52,208660,2,0,L|367:138,1,80,0|0,0:0|0:0,0:0:0:0:
366,132,209350,6,0,B|398:131|398:131|419:140|419:140|454:138,1,90.0000034332277,0|0,0:0|0:0,0:0:0:0:
484,164,209695,2,0,P|490:180|484:214,3,40,8|8|8|8,3:0|3:0|3:0|3:0,0:0:0:0:
436,258,210040,6,0,B|390:300|426:371|426:371|447:364|451:343,1,162.000000617981,4|0,0:0|0:0,0:0:0:0:
379,317,210385,2,0,B|344:303|306:325|306:325|286:321|268:306,1,108.000000411987,8|0,0:0|0:0,0:0:0:0:
167,208,210729,2,0,B|150:167|177:118|177:118|193:161,1,108.000000411987,0|2,0:0|0:0,0:0:0:0:
242,186,210988,1,2,0:0:0:0:
242,186,211074,2,0,B|277:172|315:194|315:194|335:190|353:175,1,108.000000411987,8|2,0:0|0:0,0:0:0:0:
439,64,211419,2,0,B|441:43|439:22|439:22|371:99|428:181,1,216.000000823975,2|8,0:0|0:0,0:0:0:0:
504,313,211936,2,0,B|503:281|477:251|477:251|449:250|439:260,1,108.000000411987,0|0,0:0|0:0,0:0:0:0:
331,365,212281,2,0,B|321:375|293:374|293:374|267:344|266:312,1,108.000000411987,2|8,0:0|0:0,0:0:0:0:
227,166,212626,1,2,0:0:0:0:
82,299,212798,6,0,B|56:312|32:303|32:303|10:246|46:197,1,162.000000617981,4|0,0:0|0:0,0:0:0:0:
84,132,213143,2,0,B|92:110|86:77|86:77|96:47|138:51,1,108.000000411987,8|0,0:0|0:0,0:0:0:0:
227,166,213488,1,0,0:0:0:0:
375,138,213660,2,0,B|398:135|428:150|428:150|460:148|467:106,1,108.000000411987,0|8,0:0|0:0,0:0:0:0:
293,69,214005,1,2,0:0:0:0:
336,295,214178,2,0,B|376:261|362:173|311:151|311:151|312:181|303:200,1,216.000000823975,2|8,0:0|0:0,0:0:0:0:
212,319,214695,2,0,B|164:387|83:364|83:364|53:337|22:333,1,216.000000823975,0|2,0:0|0:0,0:0:0:0:
63,187,215212,2,0,B|116:186|138:119|138:119|122:66,1,162.000000617981,8|0,0:0|0:0,0:0:0:0:
59,112,215557,6,0,B|103:114|133:163|133:163|178:179|220:160|233:116,1,216.000000823975,4|8,0:0|0:0,0:0:0:0:
334,6,216074,1,0,0:0:0:0:
437,117,216247,2,0,B|458:92|444:51|419:44|419:44|409:61|393:71,1,108.000000411987,0|2,0:0|0:0,0:0:0:0:
414,145,216505,1,2,0:0:0:0:
414,145,216591,2,0,B|454:175|497:166|497:166|482:200,1,108.000000411987,10|2,0:0|0:0,0:0:0:0:
381,291,216936,2,0,B|335:280|262:316|279:353|279:353|310:325|259:262,1,216.000000823975,2|8,0:0|0:0,0:0:0:0:
186,159,217453,1,0,0:0:0:0:
182,311,217626,2,0,B|217:329|254:309|254:309|277:278,1,108.000000411987,0|0,0:0|0:0,0:0:0:0:
277,130,217971,2,0,B|242:112|205:132|205:132|182:163,1,108.000000411987,8|2,0:0|0:0,0:0:0:0:
361,262,218316,6,0,B|416:223|391:123|328:115|328:115|276:130,1,240.000009155274,4|8,0:0|0:0,0:0:0:0:
164,204,218833,1,0,0:0:0:0:
53,59,219005,2,0,B|54:50|69:34|69:34|85:58|82:97,1,95.9999970703126,0|2,0:0|0:0,0:0:0:0:
32,222,219350,2,0,B|31:231|16:247|16:247|0:223|3:184,1,95.9999970703126,8|2,0:0|0:0,0:0:0:0:
69,34,219695,1,0,0:0:0:0:
209,102,219867,2,0,B|238:97|258:104|258:104|273:94|273:94|305:101|335:97,1,111.999996582031,2|8,0:0|0:0,0:0:0:0:
462,37,220212,1,0,0:0:0:0:
504,188,220385,2,0,B|496:225|515:258|515:258|515:277|506:296,1,111.999996582031,2|0,0:0|3:0,0:0:0:0:
494,315,220643,1,0,3:0:0:0:
473,323,220729,1,8,3:0:0:0:
450,319,220816,1,8,3:0:0:0:
429,311,220902,1,8,3:0:0:0:
406,312,220988,1,8,3:0:0:0:
388,326,221074,6,0,B|342:343|302:321|302:321|265:280|209:281|173:307,1,216.000000823975,4|8,0:0|0:0,0:0:0:0:
63,384,221591,1,0,0:0:0:0:
3,244,221764,2,0,B|-17:198|21:159|21:159|53:191,1,108.000000411987,0|2,0:0|0:0,0:0:0:0:
84,232,222022,1,2,0:0:0:0:
84,232,222109,2,0,B|122:217|166:226|166:226|178:211|185:204,1,108.000000411987,10|2,0:0|0:0,0:0:0:0:
274,111,222453,2,0,B|207:158|138:105|138:105|136:74|113:39,1,216.000000823975,2|8,0:0|0:0,0:0:0:0:
266,22,222971,2,0,B|308:18|338:43|338:43|354:33|368:31,1,108.000000411987,0|0,0:0|0:0,0:0:0:0:
485,125,223316,2,0,B|483:137|473:153|473:153|498:183|494:225,1,108.000000411987,2|8,0:0|0:0,0:0:0:0:
430,362,223660,1,2,0:0:0:0:
278,240,223833,6,0,B|243:191|286:130|286:130|299:154|336:169,1,162.000000617981,4|0,0:0|0:0,0:0:0:0:
388,125,224178,2,0,B|406:109|404:75|404:75|383:74|354:93,1,108.000000411987,8|0,0:0|0:0,0:0:0:0:
232,182,224522,1,0,0:0:0:0:
249,333,224695,1,0,0:0:0:0:
371,242,224867,1,8,0:0:0:0:
354,93,225040,1,2,0:0:0:0:
207,197,225212,2,0,B|157:207|113:190|122:184|83:160|43:177|43:177|65:177|86:192,1,216.000000823975,2|8,0:0|0:0,0:0:0:0:
249,333,225729,2,0,B|299:323|343:340|334:346|373:370|413:353|413:353|391:353|370:338,1,216.000000823975,0|2,0:0|0:0,0:0:0:0:
317,166,226247,2,0,B|306:108|346:56|346:56|368:66|382:91,1,162.000000617981,8|0,0:0|0:0,0:0:0:0:
417,162,226591,6,0,B|384:155|357:188|357:188|335:214|300:215|277:195|276:164,1,180.000006866455,4|0,0:0|0:0,0:0:0:0:
225,101,226936,2,0,B|198:76|168:79|168:79|142:89|108:77,1,108.000000411987,8|0,0:0|0:0,0:0:0:0:
166,245,227281,2,0,B|194:222|198:188|198:188|188:162|165:159,1,108.000000411987,0|2,0:0|0:0,0:0:0:0:
94,153,227540,1,2,0:0:0:0:
94,153,227626,2,0,B|65:175|61:209|61:209|71:235|94:238,1,108.000000411987,10|2,0:0|0:0,0:0:0:0:
229,294,227971,2,0,B|271:297|294:331|294:331|328:300|371:303,1,162.000000617981,2|0,0:0|0:0,0:0:0:0:
430,357,228316,2,0,B|451:325|449:290|449:290|430:250,1,108.000000411987,8|0,0:0|0:0,0:0:0:0:
319,157,228660,2,0,B|290:135|252:145|252:145|236:131|238:112,1,108.000000411987,0|2,0:0|0:0,0:0:0:0:
407,75,229005,2,0,B|435:53|473:63|473:63|489:49|487:30,1,108.000000411987,8|2,0:0|0:0,0:0:0:0:
466,288,229350,6,0,B|448:241|462:193|475:215|479:164|452:136|452:136|421:165|429:211,1,240.000009155274,4|8,0:0|0:0,0:0:0:0:
356,336,229867,2,0,B|296:396|225:354|225:354|211:322|184:305,1,207.999990478516,0|2,0:0|0:0,0:0:0:0:
119,245,230385,2,0,P|102:208|104:147,1,88.000002685547,8|0,0:0|0:0,0:0:0:0:
133,6,230729,1,0,3:0:0:0:
241,54,230902,2,0,P|285:61|339:45,1,88.000002685547,2|0,3:0|3:0,0:0:0:0:
439,0,231247,1,2,3:0:0:0:
493,109,231419,2,0,P|498:153|485:200,1,88.000002685547,8|8,3:0|3:0,0:0:0:0:
474,212,231678,1,8,3:0:0:0:
453,220,231764,2,0,P|420:213|401:215,1,44.0000013427735,8|8,3:0|3:0,0:0:0:0:
333,232,231936,2,0,P|311:231|289:225,1,44.0000013427735,8|8,3:0|3:0,0:0:0:0:
226,179,232109,5,4,0:0:0:0:
133,240,232281,2,0,P|120:278|125:317,1,80,0|8,0:0|0:0,0:0:0:0:
226,179,232626,2,0,P|238:140|233:101,1,80,0|0,0:0|0:0,0:0:0:0:
147,29,232971,1,2,0:0:0:0:
147,29,233057,1,2,0:0:0:0:
147,29,233143,1,10,0:0:0:0:
233,102,233316,1,2,0:0:0:0:
334,54,233488,2,0,P|383:35|489:76,1,160,2|8,0:0|0:0,0:0:0:0:
473,179,234005,2,0,P|424:198|318:157,1,160,0|2,0:0|0:0,0:0:0:0:
233,102,234522,1,8,0:0:0:0:
133,151,234695,1,2,0:0:0:0:
19,269,234867,5,4,0:0:0:0:
101,335,235040,2,0,P|120:300|124:261,1,80,0|8,0:0|0:0,0:0:0:0:
133,151,235385,2,0,P|118:114|90:85,1,80,0|0,0:0|0:0,0:0:0:0:
233,102,235729,2,0,P|247:65|275:36,1,80,0|8,0:0|0:0,0:0:0:0:
387,29,236074,1,2,0:0:0:0:
463,110,236247,2,0,B|482:155|464:185|445:223|466:269,1,160,2|8,0:0|0:0,0:0:0:0:
417,369,236764,1,2,0:0:0:0:
313,327,236936,2,0,P|240:303|154:308,1,160,2|8,0:0|0:0,0:0:0:0:
5,141,237626,5,4,0:0:0:0:
110,178,237798,2,0,P|144:157|183:152,1,80,0|8,0:0|0:0,0:0:0:0:
73,72,238143,2,0,P|38:51|0:46,1,80,0|0,0:0|0:0,0:0:0:0:
181,30,238488,1,2,0:0:0:0:
181,30,238574,1,2,0:0:0:0:
181,30,238660,1,10,0:0:0:0:
263,106,238833,1,2,0:0:0:0:
354,42,239005,2,0,P|428:18|497:62,1,160,2|8,0:0|0:0,0:0:0:0:
462,165,239522,2,0,P|388:141|319:185,1,160,0|2,0:0|0:0,0:0:0:0:
263,277,240040,1,8,0:0:0:0:
207,178,240212,1,2,0:0:0:0:
377,279,240385,5,4,0:0:0:0:
321,180,240557,2,0,P|311:142|314:102,1,80,0|8,0:0|0:0,0:0:0:0:
263,277,240902,2,0,P|253:315|256:355,1,80,0|0,0:0|0:0,0:0:0:0:
207,178,241247,2,0,P|179:150|161:113,1,80,0|8,0:0|0:0,0:0:0:0:
117,339,241591,2,0,L|48:348,1,40,2|2,0:0|0:0,0:0:0:0:
39,314,241764,2,0,P|33:291|32:258,3,40,0|0|0|0,3:0|3:0|3:0|3:0,0:0:0:0:
54,233,242109,2,0,P|56:214|56:194,3,40,0|0|0|0,3:0|3:0|3:0|3:0,0:0:0:0:
31,153,242453,2,0,P|21:113|37:65,1,80,0|0,3:0|3:0,0:0:0:0:
75,59,242712,1,8,3:0:0:0:
121,71,242798,2,0,P|150:76|210:64,1,80,8|8,3:0|3:0,0:0:0:0:
240,44,243057,1,8,3:0:0:0:
258,0,243143,5,2,3:2:0:0:
