osu file format v14

[General]
AudioFilename: audio.mp3
AudioLeadIn: 0
PreviewTime: 57453
Countdown: 0
SampleSet: Soft
StackLeniency: 0.5
Mode: 0
LetterboxInBreaks: 0
WidescreenStoryboard: 1

[Editor]
Bookmarks: 11419,22453,44522,58316,80385,91419,101764,113488,127281,149350,160385,171419,176936,187971,199005,210040,232109,243143
DistanceSpacing: 1.4
BeatDivisor: 4
GridSize: 4
TimelineZoom: 1.3

[Metadata]
Title:Akane Contrast
TitleUnicode:茜コントラスト
Artist:Usa
ArtistUnicode:うさ
Creator:timemon
Version:Hard
Source:
Tags:Hana はな さころにー usacolony doriko Romeo and Cinderella Hatsune Miku 初音ミク うさころ よん Usacolo Yon Lasse deppyforce
BeatmapID:1482544
BeatmapSetID:699833

[Difficulty]
HPDrainRate:5
CircleSize:3.6
OverallDifficulty:7
ApproachRate:8
SliderMultiplier:1.4
SliderTickRate:1

[Events]
//Background and Video events
0,0,"yettt.jpg",0,0
//Break Periods
2,91619,100864
2,171619,176036
2,187971,198105
//Storyboard Layer 0 (Background)
//Storyboard Layer 1 (Fail)
//Storyboard Layer 2 (Pass)
//Storyboard Layer 3 (Foreground)
//Storyboard Sound Samples

[TimingPoints]
385,344.827586206897,4,2,1,50,1,0
10040,-125,4,2,1,50,0,0
11419,-100,4,2,1,50,0,0
22453,-125,4,2,1,40,0,0
42022,-125,4,2,1,5,0,0
42109,-125,4,2,1,40,0,0
44522,-111.111111111111,4,2,1,45,0,0
45126,-111.111111111111,4,2,1,5,0,0
45212,-111.111111111111,4,2,1,45,0,0
47885,-111.111111111111,4,2,1,5,0,0
47971,-111.111111111111,4,2,1,45,0,0
50643,-111.111111111111,4,2,1,5,0,0
50729,-111.111111111111,4,2,1,45,0,0
54436,-111.111111111111,4,2,1,5,0,0
54522,-111.111111111111,4,2,1,45,0,0
57281,-111.111111111111,4,2,1,45,0,0
58316,-90.9090909090909,4,2,1,55,0,1
59953,-90.9090909090909,4,2,1,5,0,1
60040,-90.9090909090909,4,2,1,55,0,1
61333,-90.9090909090909,4,2,1,5,0,1
61419,-76.9230769230769,4,2,1,55,0,1
61678,-76.9230769230769,4,2,1,5,0,1
61764,-76.9230769230769,4,2,1,55,0,1
62453,-90.9090909090909,4,2,1,55,0,1
66591,-90.9090909090909,4,2,1,55,0,0
69350,-90.9090909090909,4,2,1,55,0,1
72367,-90.9090909090909,4,2,1,5,0,1
72453,-76.9230769230769,4,2,1,55,0,1
72712,-76.9230769230769,4,2,1,5,0,1
72798,-76.9230769230769,4,2,1,55,0,1
73488,-90.9090909090909,4,2,1,55,0,1
80385,-100,4,2,1,50,0,0
101764,-125,4,2,1,40,0,0
113488,-111.111111111111,4,2,1,45,0,0
114091,-111.111111111111,4,2,1,5,0,0
114178,-111.111111111111,4,2,1,45,0,0
116850,-111.111111111111,4,2,1,5,0,0
116936,-111.111111111111,4,2,1,45,0,0
119609,-111.111111111111,4,2,1,5,0,0
119695,-111.111111111111,4,2,1,45,0,0
123402,-111.111111111111,4,2,1,5,0,0
123488,-111.111111111111,4,2,1,45,0,0
126247,-111.111111111111,4,2,1,45,0,0
127281,-90.9090909090908,4,2,1,55,0,1
130298,-90.9090909090908,4,2,1,5,0,1
130385,-76.9230769230769,4,2,1,55,0,1
130643,-76.9230769230769,4,2,1,55,0,1
130729,-76.9230769230769,4,2,1,55,0,1
131419,-90.9090909090909,4,2,1,55,0,1
135557,-90.9090909090909,4,2,1,55,0,0
138316,-90.9090909090909,4,2,1,55,0,1
139956,-90.9090909090909,4,2,1,5,0,1
140040,-90.9090909090909,4,2,1,55,0,1
141333,-90.9090909090909,4,2,1,5,0,1
141419,-76.9230769230769,4,2,1,55,0,1
141678,-76.9230769230769,4,2,1,5,0,1
141764,-76.9230769230769,4,2,1,55,0,1
142453,-90.9090909090909,4,2,1,55,0,1
149350,-100,4,2,1,50,0,0
176936,-125,4,2,1,40,0,0
181764,-100,4,2,1,50,0,0
184522,-100,4,2,1,35,0,0
187281,-100,4,2,1,5,0,0
199005,-166.666666666667,4,2,1,35,0,0
209350,-100,4,2,1,50,0,0
210040,-90.9090909090909,4,2,1,55,0,1
211678,-90.9090909090909,4,2,1,5,0,1
211764,-90.9090909090909,4,2,1,55,0,1
213057,-90.9090909090909,4,2,1,5,0,1
213143,-76.9230769230769,4,2,1,55,0,1
213402,-76.9230769230769,4,2,1,5,0,1
213488,-76.9230769230769,4,2,1,55,0,1
214178,-90.9090909090909,4,2,1,55,0,1
218316,-90.9090909090909,4,2,1,55,0,0
221074,-90.9090909090909,4,2,1,55,0,1
224091,-90.9090909090909,4,2,1,5,0,1
224178,-76.9230769230769,4,2,1,55,0,1
224436,-76.9230769230769,4,2,1,5,0,1
224522,-76.9230769230769,4,2,1,55,0,1
225212,-90.9090909090909,4,2,1,55,0,1
232109,-100,4,2,1,50,0,0

[Colours]
Combo1 : 255,228,147
Combo2 : 255,202,149
Combo3 : 220,220,184
Combo4 : 255,149,149

[HitObjects]
65,38,10729,5,2,0:0:0:0:
130,100,10902,1,0,3:0:0:0:
130,100,10988,1,0,3:0:0:0:
130,100,11074,2,0,L|180:97,3,28,8|8|8|8,3:0|3:0|3:0|3:0,0:0:0:0:
194,131,11419,6,0,P|208:190|179:268,1,140,4|8,0:0|0:0,0:0:0:0:
118,338,11936,2,0,P|86:299|-4:290,1,140,0|2,0:0|0:0,0:0:0:0:
1,288,12367,1,2,0:0:0:0:
1,288,12453,1,10,0:0:0:0:
59,208,12626,1,2,0:0:0:0:
118,338,12798,6,0,L|275:320,1,140,2|8,0:0|0:0,0:0:0:0:
320,246,13316,1,0,0:0:0:0:
320,246,13488,1,0,0:0:0:0:
388,315,13660,2,0,P|396:351|393:389,2,70,2|8|2,0:0|0:0|0:0,0:0:0:0:
384,164,14178,6,0,B|450:186|450:186|517:147,1,140,4|8,0:0|0:0,0:0:0:0:
438,83,14695,2,0,P|439:46|452:0,1,70,0|0,0:0|0:0,0:0:0:0:
384,164,15040,2,0,P|384:198|392:232,1,70,0|8,0:0|0:0,0:0:0:0:
453,310,15385,1,2,0:0:0:0:
453,310,15557,6,0,P|412:278|311:320,1,140,2|8,0:0|0:0,0:0:0:0:
245,343,16074,1,2,0:0:0:0:
245,343,16247,2,0,P|180:362|122:327,1,140,2|8,0:0|0:0,0:0:0:0:
37,150,16936,6,0,B|45:70|45:70|91:30,1,140,4|8,0:0|0:0,0:0:0:0:
165,94,17453,2,0,L|304:86,1,140,0|2,0:0|0:0,0:0:0:0:
304,85,17885,1,2,0:0:0:0:
304,85,17971,1,10,0:0:0:0:
381,25,18143,1,2,0:0:0:0:
439,103,18316,6,0,P|456:172|432:265,1,140,2|8,0:0|0:0,0:0:0:0:
410,331,18833,1,0,0:0:0:0:
410,331,19005,1,0,0:0:0:0:
333,269,19178,2,0,L|251:273,2,70,2|8|2,0:0|0:0|0:0,0:0:0:0:
240,367,19695,6,0,P|220:297|139:284,1,140,4|8,0:0|0:0,0:0:0:0:
63,324,20212,2,0,P|58:286|55:247,1,70,0|0,0:0|0:0,0:0:0:0:
112,174,20557,2,0,P|117:136|120:97,1,70,0|8,0:0|0:0,0:0:0:0:
51,33,20902,1,2,0:0:0:0:
51,33,20988,1,2,0:0:0:0:
51,33,21074,6,0,L|49:90,3,35,0|0|0|0,3:0|3:0|3:0|3:0,0:0:0:0:
25,100,21419,2,0,L|27:157,3,35,0|0|0|0,3:0|3:0|3:0|3:0,0:0:0:0:
53,154,21764,2,0,P|63:189|62:238,1,70,0|0,3:0|3:0,0:0:0:0:
64,222,22022,1,8,3:0:0:0:
64,222,22109,1,8,3:0:0:0:
24,373,22281,1,8,3:0:0:0:
24,373,22367,1,8,3:0:0:0:
24,373,22453,6,0,P|54:322|121:320,1,112,4|8,0:0|0:0,0:0:0:0:
181,344,22971,2,0,P|231:359|293:333,1,112,0|2,0:0|0:0,0:0:0:0:
285,339,23402,1,2,0:0:0:0:
285,339,23488,1,10,0:0:0:0:
351,287,23660,1,2,0:0:0:0:
287,231,23833,2,0,L|155:224,1,112,2|8,0:0|0:0,0:0:0:0:
138,149,24350,2,0,L|6:156,1,112,0|2,0:0|0:0,0:0:0:0:
13,71,24867,1,8,0:0:0:0:
75,14,25040,1,2,0:0:0:0:
144,60,25212,6,0,P|191:82|261:63,1,112,4|8,0:0|0:0,0:0:0:0:
319,26,25729,2,0,P|366:4|436:23,1,112,0|0,0:0|0:0,0:0:0:0:
481,75,26247,1,8,0:0:0:0:
429,141,26419,1,2,0:0:0:0:
429,141,26591,2,0,L|435:258,1,112,2|8,0:0|0:0,0:0:0:0:
347,307,27109,1,0,0:0:0:0:
347,307,27281,2,0,L|341:195,1,112,0|8,0:0|0:0,0:0:0:0:
336,110,27798,1,2,0:0:0:0:
242,182,27971,6,0,P|187:199|120:172,1,112,4|8,0:0|0:0,0:0:0:0:
58,173,28488,2,0,P|100:212|110:283,1,112,0|2,0:0|0:0,0:0:0:0:
113,263,28919,1,2,0:0:0:0:
113,263,29005,1,10,0:0:0:0:
182,324,29178,1,2,0:0:0:0:
113,372,29350,2,0,L|-11:357,1,112,2|8,0:0|0:0,0:0:0:0:
120,269,29867,2,0,L|244:254,1,112,0|2,0:0|0:0,0:0:0:0:
293,312,30385,1,8,0:0:0:0:
363,267,30557,1,2,0:0:0:0:
306,185,30729,6,0,P|281:130|299:68,1,112,4|8,0:0|0:0,0:0:0:0:
364,122,31247,1,0,0:0:0:0:
364,122,31419,2,0,P|396:131|469:105,1,112,0|8,0:0|0:0,0:0:0:0:
405,49,31936,1,2,0:0:0:0:
405,49,32109,2,0,P|355:24|300:32,1,112,2|8,0:0|0:0,0:0:0:0:
241,92,32626,1,2,0:0:0:0:
241,92,32798,2,0,B|232:139|232:139|242:211,1,112,2|8,0:0|0:0,0:0:0:0:
175,357,33488,6,0,L|47:342,1,112,4|8,0:0|0:0,0:0:0:0:
19,272,34005,2,0,P|-2:209|17:153,1,112,0|2,0:0|0:0,0:0:0:0:
8,166,34436,1,2,0:0:0:0:
8,166,34522,1,10,0:0:0:0:
81,211,34695,1,2,0:0:0:0:
145,157,34867,2,0,P|166:94|147:38,1,112,2|8,0:0|0:0,0:0:0:0:
74,26,35385,2,0,L|-1:23,1,56,0|0,0:0|0:0,0:0:0:0:
155,51,35729,2,0,L|230:48,1,56,2|8,0:0|0:0,0:0:0:0:
285,8,36074,1,2,0:0:0:0:
285,8,36247,6,0,P|304:48|306:124,1,112,4|8,0:0|0:0,0:0:0:0:
240,165,36764,2,0,P|221:205|219:281,1,112,0|0,0:0|0:0,0:0:0:0:
258,345,37281,1,8,0:0:0:0:
258,345,37453,1,2,0:0:0:0:
350,281,37626,2,0,B|388:261|388:261|460:279,1,112,2|8,0:0|0:0,0:0:0:0:
490,201,38143,1,0,0:0:0:0:
490,201,38316,2,0,P|503:153|478:80,1,112,0|8,0:0|0:0,0:0:0:0:
326,47,39005,6,0,P|268:61|204:39,1,112,4|8,0:0|0:0,0:0:0:0:
157,106,39522,2,0,P|198:149|211:215,1,112,0|2,0:0|0:0,0:0:0:0:
211,198,39953,1,2,0:0:0:0:
211,198,40040,1,10,0:0:0:0:
176,279,40212,1,2,0:0:0:0:
235,339,40385,2,0,L|357:329,1,112,2|8,0:0|0:0,0:0:0:0:
423,294,40902,2,0,P|428:328|427:368,1,56,0|0,0:0|0:0,0:0:0:0:
347,249,41247,2,0,P|348:221|353:194,1,56,2|8,0:0|0:0,0:0:0:0:
423,147,41591,1,2,0:0:0:0:
306,86,41764,6,0,P|274:123|206:136,1,112,4|8,0:0|0:0,0:0:0:0:
145,89,42281,2,0,P|101:81|66:78,1,56,2|0,0:0|0:0,0:0:0:0:
5,168,42626,2,0,P|49:160|84:157,1,56,2|8,0:0|0:0,0:0:0:0:
144,231,42971,1,4,0:0:0:0:
144,231,43316,5,2,0:0:0:0:
89,294,43488,2,0,L|96:359,2,56,8|2|0,0:0|0:0|0:0,0:0:0:0:
56,169,44005,1,0,3:0:0:0:
56,169,44091,1,0,3:0:0:0:
56,169,44178,2,0,L|106:164,3,28,8|8|8|8,3:0|3:0|3:0|3:0,0:0:0:0:
123,193,44522,5,4,0:0:0:0:
123,193,44867,2,0,P|186:166|245:175,1,125.999996154785,8|0,0:0|0:0,0:0:0:0:
308,231,45385,2,0,L|304:306,1,62.9999980773926,2|8,0:0|0:0,0:0:0:0:
358,363,45729,1,2,0:0:0:0:
358,363,45902,2,0,B|414:329|414:329|482:339,1,125.999996154785,2|8,0:0|0:0,0:0:0:0:
508,255,46419,2,0,P|498:216|475:177,1,62.9999980773926,2|0,0:0|0:0,0:0:0:0:
418,140,46764,2,0,P|428:101|451:62,1,62.9999980773926,2|8,0:0|0:0,0:0:0:0:
391,5,47109,1,0,0:0:0:0:
309,69,47281,5,4,0:0:0:0:
309,69,47626,2,0,P|246:78|181:62,1,125.999996154785,8|0,0:0|0:0,0:0:0:0:
104,28,48143,1,0,0:0:0:0:
104,28,48316,1,8,0:0:0:0:
46,94,48488,1,2,0:0:0:0:
46,94,48660,2,0,B|54:157|54:157|50:227,1,125.999996154785,2|8,0:0|0:0,0:0:0:0:
108,286,49178,2,0,P|163:245|236:251,1,125.999996154785,2|2,0:0|0:0,0:0:0:0:
218,244,49609,1,2,0:0:0:0:
218,244,49695,1,10,0:0:0:0:
350,361,50040,5,4,0:0:0:0:
350,361,50385,2,0,P|357:295|333:236,1,125.999996154785,8|0,0:0|0:0,0:0:0:0:
271,179,50902,2,0,L|278:110,2,62.9999980773926,2|8|2,0:0|0:0|0:0,0:0:0:0:
202,234,51419,2,0,P|142:252|78:216,1,125.999996154785,2|8,0:0|0:0,0:0:0:0:
34,155,51936,2,0,L|38:80,1,62.9999980773926,2|0,0:0|0:0,0:0:0:0:
128,66,52281,2,0,L|124:128,2,62.9999980773926,2|8|0,0:0|0:0|0:0,0:0:0:0:
222,29,52798,6,0,P|254:62|349:59,1,125.999996154785,4|8,0:0|0:0,0:0:0:0:
413,36,53316,1,0,0:0:0:0:
413,36,53488,2,0,B|426:95|426:95|418:162,1,125.999996154785,0|8,0:0|0:0,0:0:0:0:
359,226,54005,1,2,0:0:0:0:
427,292,54178,2,0,P|385:317|301:300,1,125.999996154785,2|8,0:0|0:0,0:0:0:0:
229,253,54695,1,0,0:0:0:0:
229,253,54867,2,0,B|139:260|140:260,2,62.9999980773926,0|2|8,0:0|0:0|0:0,0:0:0:0:
311,306,55385,1,0,0:0:0:0:
351,186,55557,6,0,P|358:136|300:75,1,125.999996154785,4|8,0:0|0:0,0:0:0:0:
267,157,56074,2,0,P|214:166|139:126,1,125.999996154785,0|2,0:0|0:0,0:0:0:0:
116,114,56505,1,2,0:0:0:0:
116,114,56591,2,0,L|69:123,3,31.4999990386963,8|8|8|8,3:0|3:0|3:0|3:0,0:0:0:0:
64,151,56936,5,2,0:0:0:0:
83,237,57109,1,2,0:0:0:0:
73,324,57281,1,2,0:0:0:0:
336,365,57626,5,2,0:0:0:0:
333,333,57971,1,2,0:0:0:0:
330,301,58316,6,0,B|336:246|336:246|322:204|322:204|333:132,1,154.000004699707,4|8,0:0|0:0,0:0:0:0:
426,198,58833,1,0,0:0:0:0:
492,113,59005,2,0,P|497:65|475:22,1,77.0000023498536,0|2,0:0|0:0,0:0:0:0:
487,38,59264,1,2,0:0:0:0:
487,38,59350,1,10,0:0:0:0:
388,81,59522,1,2,0:0:0:0:
308,8,59695,6,0,P|277:56|308:147,1,154.000004699707,2|8,0:0|0:0,0:0:0:0:
400,190,60212,2,0,P|392:233|380:294,1,77.0000023498536
278,276,60557,2,0,P|286:319|298:380,1,77.0000023498536,2|8,0:0|0:0,0:0:0:0:
183,322,60902,1,2,0:0:0:0:
215,200,61074,6,0,P|168:237|175:315,1,115.50000352478,4|0,0:0|0:0,0:0:0:0:
183,322,61419,6,0,L|84:309,1,90.9999958343508,8|0,0:0|0:0,0:0:0:0:
16,200,61764,1,0,0:0:0:0:
16,200,61936,1,0,0:0:0:0:
92,310,62109,1,8,0:0:0:0:
150,218,62281,1,2,0:0:0:0:
248,268,62453,6,0,P|306:303|401:270,1,154.000004699707,2|8,0:0|0:0,0:0:0:0:
468,223,62971,2,0,P|410:188|315:221,1,154.000004699707,0|2,0:0|0:0,0:0:0:0:
248,268,63488,1,8,0:0:0:0:
248,268,63833,6,0,B|161:291|161:291|91:279,1,154.000004699707,4|8,0:0|0:0,0:0:0:0:
24,200,64350,1,0,0:0:0:0:
24,200,64522,2,0,P|22:154|21:113,1,77.0000023498536,0|2,0:0|0:0,0:0:0:0:
25,112,64781,1,2,0:0:0:0:
30,101,64867,1,10,0:0:0:0:
127,147,65040,1,2,0:0:0:0:
199,35,65212,6,0,P|204:88|303:131,1,154.000004699707,2|8,0:0|0:0,0:0:0:0:
372,39,65729,1,0,0:0:0:0:
372,39,65902,2,0,L|272:46,2,77.0000023498536,0|0|8,0:0|0:0|0:0,0:0:0:0:
441,121,66419,1,2,0:0:0:0:
378,208,66591,6,0,B|394:290|394:290|387:363,1,154.000004699707,4|8,0:0|0:0,0:0:0:0:
295,301,67109,1,0,0:0:0:0:
295,301,67281,2,0,B|279:219|279:219|286:146,1,154.000004699707,0|8,0:0|0:0,0:0:0:0:
335,52,67798,1,2,0:0:0:0:
335,52,67971,5,0,0:0:0:0:
229,75,68143,1,2,0:0:0:0:
129,32,68316,1,8,0:0:0:0:
129,32,68660,1,2,0:0:0:0:
64,118,68833,1,0,3:0:0:0:
64,118,68919,1,0,3:0:0:0:
64,118,69005,2,0,L|71:171,3,38.5000011749268,8|8|8|8,3:0|3:0|3:0|3:0,0:0:0:0:
109,192,69350,6,0,P|136:157|246:162,1,154.000004699707,4|8,0:0|0:0,0:0:0:0:
294,247,69867,1,0,0:0:0:0:
191,280,70040,2,0,P|184:320|195:376,1,77.0000023498536,0|2,0:0|0:0,0:0:0:0:
188,355,70298,1,2,0:0:0:0:
188,355,70385,1,8,0:0:0:0:
293,333,70557,1,2,0:0:0:0:
191,280,70729,6,0,P|138:239|50:254,1,154.000004699707,2|8,0:0|0:0,0:0:0:0:
13,149,71247,2,0,L|25:69,1,77.0000023498536,0|0,0:0|0:0,0:0:0:0:
142,99,71591,2,0,L|130:19,1,77.0000023498536,2|8,0:0|0:0,0:0:0:0:
234,51,71936,1,2,0:0:0:0:
197,182,72109,6,0,P|149:200|69:156,1,115.50000352478,4|0,0:0|0:0,0:0:0:0:
72,172,72453,6,0,P|90:219|88:274,1,90.9999958343508,8|0,0:0|0:0,0:0:0:0:
74,361,72798,1,0,0:0:0:0:
74,361,72971,1,0,0:0:0:0:
180,312,73143,1,8,0:0:0:0:
166,200,73316,1,2,0:0:0:0:
265,248,73488,6,0,P|302:220|414:232,1,154.000004699707,2|8,0:0|0:0,0:0:0:0:
501,289,74005,2,0,P|507:209|470:130,1,154.000004699707,0|2,0:0|0:0,0:0:0:0:
413,46,74522,1,8,0:0:0:0:
413,46,74867,6,0,B|375:84|375:84|263:77,1,154.000004699707,4|8,0:0|0:0,0:0:0:0:
172,22,75385,1,0,0:0:0:0:
172,22,75557,2,0,P|176:66|173:106,1,77.0000023498536,0|2,0:0|0:0,0:0:0:0:
172,114,75816,1,2,0:0:0:0:
168,128,75902,1,10,0:0:0:0:
77,70,76074,1,2,0:0:0:0:
98,219,76247,6,0,P|130:187|252:182,1,154.000004699707,2|8,0:0|0:0,0:0:0:0:
314,246,76764,1,0,0:0:0:0:
314,246,76936,2,0,P|352:257|402:272,2,77.0000023498536,0|2|8,0:0|0:0|0:0,0:0:0:0:
218,297,77453,1,2,0:0:0:0:
350,334,77626,6,0,B|358:283|358:283|347:231|347:231|359:165,1,154.000004699707,4|8,0:0|0:0,0:0:0:0:
391,80,78143,1,0,0:0:0:0:
391,80,78488,1,2,0:0:0:0:
299,23,78660,2,0,L|210:30,1,77.0000023498536,8|0,0:0|0:0,0:0:0:0:
154,113,79005,5,0,3:0:0:0:
154,113,79178,1,2,3:0:0:0:
87,28,79350,1,0,3:0:0:0:
87,28,79522,1,2,3:0:0:0:
24,117,79695,2,0,L|26:163,3,38.5000011749268,8|8|8|8,3:0|3:0|3:0|3:0,0:0:0:0:
69,187,80040,2,0,L|67:233,3,38.5000011749268,8|8|8|8,3:0|3:0|3:0|3:0,0:0:0:0:
45,270,80385,6,0,P|95:235|179:244,1,140,4|8,0:0|0:0,0:0:0:0:
244,305,80902,2,0,P|294:340|378:331,1,140,0|2,0:0|0:0,0:0:0:0:
370,335,81333,1,2,0:0:0:0:
370,335,81419,1,10,0:0:0:0:
442,269,81591,1,2,0:0:0:0:
373,198,81764,6,0,L|383:50,1,140,2|8,0:0|0:0,0:0:0:0:
289,91,82281,1,0,0:0:0:0:
289,91,82453,1,0,0:0:0:0:
204,41,82626,2,0,P|165:50|121:39,2,70,2|8|2,0:0|0:0|0:0,0:0:0:0:
237,177,83143,6,0,P|262:132|356:122,1,140,4|8,0:0|0:0,0:0:0:0:
401,196,83660,2,0,L|394:290,1,70,0|0,0:0|0:0,0:0:0:0:
495,248,84005,2,0,L|488:342,1,70,0|8,0:0|0:0,0:0:0:0:
390,378,84350,1,2,0:0:0:0:
390,378,84522,6,0,P|386:319|294:301,1,140,2|8,0:0|0:0,0:0:0:0:
230,335,85040,1,2,0:0:0:0:
230,335,85212,2,0,P|165:348|88:313,1,140,2|8,0:0|0:0,0:0:0:0:
58,119,85902,6,0,B|127:142|127:142|206:128,1,140,4|8,0:0|0:0,0:0:0:0:
264,62,86419,2,0,B|330:50|330:50|399:73,1,140,0|2,0:0|0:0,0:0:0:0:
399,73,86850,1,2,0:0:0:0:
399,73,86936,1,10,0:0:0:0:
459,151,87109,1,2,0:0:0:0:
384,214,87281,6,0,P|379:279|396:354,1,140,2|8,0:0|0:0,0:0:0:0:
478,299,87798,1,0,0:0:0:0:
478,299,87971,1,0,0:0:0:0:
395,351,88143,2,0,L|320:344,2,70,2|8|2,0:0|0:0|0:0,0:0:0:0:
291,262,88660,6,0,P|245:295|247:381,1,140,4|8,0:0|0:0,0:0:0:0:
140,330,89178,2,0,L|148:251,1,70,0|0,0:0|0:0,0:0:0:0:
56,241,89522,2,0,L|48:162,1,70,0|8,0:0|0:0,0:0:0:0:
104,90,89867,1,2,0:0:0:0:
113,99,89953,1,2,0:0:0:0:
123,108,90040,6,0,L|180:104,3,35,0|0|0|0,3:0|3:0|3:0|3:0,0:0:0:0:
183,63,90385,2,0,L|240:67,3,35,0|0|0|0,3:0|3:0|3:0|3:0,0:0:0:0:
256,96,90729,2,0,P|296:104|337:89,1,70,0|0,3:0|3:0,0:0:0:0:
323,96,90988,1,8,3:0:0:0:
323,96,91074,1,8,3:0:0:0:
390,24,91247,1,8,3:0:0:0:
390,24,91333,1,8,3:0:0:0:
390,24,91419,5,8,3:0:0:0:
338,190,101764,5,2,0:0:0:0:
407,250,101936,1,0,3:0:0:0:
407,250,102022,1,0,3:0:0:0:
407,250,102109,2,0,L|404:300,3,28,8|8|8|8,3:0|3:0|3:0|3:0,0:0:0:0:
389,316,102453,6,0,P|338:291|272:309,1,112,4|8,0:0|0:0,0:0:0:0:
212,340,102971,2,0,P|157:349|108:324,1,112,0|2,0:0|0:0,0:0:0:0:
108,324,103402,1,2,0:0:0:0:
108,324,103488,1,10,0:0:0:0:
47,266,103660,1,2,0:0:0:0:
93,195,103833,2,0,B|98:133|98:133|91:80,1,112,2|8,0:0|0:0,0:0:0:0:
145,19,104350,2,0,P|182:25|221:34,1,56,0|0,0:0|0:0,0:0:0:0:
299,90,104695,2,0,P|262:96|223:105,1,56,2|8,0:0|0:0,0:0:0:0:
192,166,105040,1,2,0:0:0:0:
192,166,105212,6,0,B|197:234|197:234|186:290,1,112,4|8,0:0|0:0,0:0:0:0:
235,347,105729,2,0,P|274:314|346:316,1,112,0|0,0:0|0:0,0:0:0:0:
403,357,106247,1,8,0:0:0:0:
470,267,106419,1,2,0:0:0:0:
470,267,106591,2,0,L|465:147,1,112,2|8,0:0|0:0,0:0:0:0:
407,93,107109,1,0,0:0:0:0:
407,93,107281,2,0,P|376:125|294:124,1,112,0|8,0:0|0:0,0:0:0:0:
147,93,107971,6,0,P|170:128|158:209,1,112,4|8,0:0|0:0,0:0:0:0:
125,269,108488,2,0,P|86:254|16:262,1,112,0|2,0:0|0:0,0:0:0:0:
17,261,108919,1,2,0:0:0:0:
17,261,109005,1,10,0:0:0:0:
64,344,109178,1,2,0:0:0:0:
125,269,109350,2,0,B|130:203|130:203|125:145,1,112,2|8,0:0|0:0,0:0:0:0:
72,91,109867,2,0,L|80:31,1,56,0|0,0:0|0:0,0:0:0:0:
163,33,110212,2,0,L|170:88,1,56,2|8,0:0|0:0,0:0:0:0:
226,151,110557,1,2,0:0:0:0:
283,54,110729,6,0,P|310:71|394:65,1,112,4|8,0:0|0:0,0:0:0:0:
450,125,111247,2,0,L|445:188,1,56,2|0,0:0|0:0,0:0:0:0:
380,233,111591,2,0,L|385:296,1,56,2|8,0:0|0:0,0:0:0:0:
329,363,111936,2,0,P|273:338|207:353,1,112,4|2,0:0|0:0,0:0:0:0:
131,374,112453,1,8,0:0:0:0:
131,374,112626,1,2,0:0:0:0:
146,263,112798,1,0,0:0:0:0:
57,308,112971,1,0,3:0:0:0:
57,308,113057,1,0,3:0:0:0:
57,308,113143,2,0,L|16:315,3,28,8|8|8|8,3:0|3:0|3:0|3:0,0:0:0:0:
3,276,113488,5,4,0:0:0:0:
3,276,113833,2,0,L|9:148,1,125.999996154785,8|0,0:0|0:0,0:0:0:0:
66,82,114350,1,2,0:0:0:0:
124,148,114522,2,0,P|158:156|198:152,1,62.9999980773926,8|2,0:0|0:0,0:0:0:0:
249,92,114867,2,0,P|275:136|247:223,1,125.999996154785,2|8,0:0|0:0,0:0:0:0:
203,274,115385,2,0,L|125:269,1,62.9999980773926,2|0,0:0|0:0,0:0:0:0:
27,344,115729,2,0,L|105:339,1,62.9999980773926,2|8,0:0|0:0,0:0:0:0:
140,269,116074,1,0,0:0:0:0:
225,373,116247,5,4,0:0:0:0:
225,373,116591,2,0,P|270:337|343:332,1,125.999996154785,8|0,0:0|0:0,0:0:0:0:
419,360,117109,1,0,0:0:0:0:
459,281,117281,1,8,0:0:0:0:
416,203,117453,1,2,0:0:0:0:
416,203,117626,2,0,B|400:141|400:141|410:67,1,125.999996154785,2|8,0:0|0:0,0:0:0:0:
306,83,118143,2,0,B|314:144|314:144|298:206,1,125.999996154785,2|2,0:0|0:0,0:0:0:0:
298,206,118574,1,2,0:0:0:0:
298,206,118660,1,10,0:0:0:0:
186,342,119005,5,4,0:0:0:0:
186,342,119350,2,0,B|104:331|104:331|46:343,1,125.999996154785,8|0,0:0|0:0,0:0:0:0:
11,266,119867,1,2,0:0:0:0:
11,266,120040,2,0,P|11:226|13:190,1,62.9999980773926,8|2,0:0|0:0,0:0:0:0:
68,125,120385,2,0,P|87:163|171:176,1,125.999996154785,2|8,0:0|0:0,0:0:0:0:
226,241,120902,2,0,L|222:312,1,62.9999980773926,2|0,0:0|0:0,0:0:0:0:
134,303,121247,2,0,L|138:374,1,62.9999980773926,2|8,0:0|0:0,0:0:0:0:
222,303,121591,1,0,0:0:0:0:
324,351,121764,6,0,P|364:364|450:320,1,125.999996154785,4|8,0:0|0:0,0:0:0:0:
413,249,122281,1,0,0:0:0:0:
413,249,122453,2,0,P|394:186|411:127,1,125.999996154785,0|8,0:0|0:0,0:0:0:0:
461,57,122971,1,0,0:0:0:0:
461,57,123143,2,0,P|411:93|325:73,1,125.999996154785,2|8,0:0|0:0,0:0:0:0:
277,36,123660,1,0,0:0:0:0:
277,36,123833,2,0,L|204:44,2,62.9999980773926,0|2|8,0:0|0:0|0:0,0:0:0:0:
349,88,124350,1,0,0:0:0:0:
293,179,124522,6,0,P|281:231|309:308,1,125.999996154785,4|8,0:0|0:0,0:0:0:0:
248,370,125040,2,0,B|109:357|110:357,1,125.999996154785,0|2,0:0|0:0,0:0:0:0:
87,330,125471,1,2,0:0:0:0:
87,330,125557,2,0,L|93:288,3,31.4999990386963,8|8|8|8,3:0|3:0|3:0|3:0,0:0:0:0:
67,261,125902,5,2,0:0:0:0:
24,183,126074,1,2,0:0:0:0:
52,99,126247,1,2,0:0:0:0:
211,25,126591,5,2,0:0:0:0:
215,57,126936,1,2,0:0:0:0:
219,89,127281,6,0,P|267:111|358:66,1,154.000004699707,4|8,0:0|0:0,0:0:0:0:
456,36,127798,1,0,0:0:0:0:
486,139,127971,2,0,P|484:183|480:250,1,77.0000023498536,0|2,0:0|0:0,0:0:0:0:
484,231,128229,1,2,0:0:0:0:
486,246,128316,1,10,0:0:0:0:
385,208,128488,1,2,0:0:0:0:
356,317,128660,6,0,P|316:265|206:266,1,154.000004699707,2|8,0:0|0:0,0:0:0:0:
108,317,129178,2,0,P|116:274|128:213,1,77.0000023498536,0|0,0:0|0:0,0:0:0:0:
232,253,129523,2,0,P|224:210|212:149,1,77.0000023498536,2|8,0:0|0:0,0:0:0:0:
329,220,129868,1,2,0:0:0:0:
279,338,130040,6,0,P|324:285|325:215,1,115.50000352478,4|0,0:0|0:0,0:0:0:0:
329,220,130385,6,0,P|376:239|440:235,1,90.9999958343508,8|0,0:0|0:0,0:0:0:0:
377,136,130729,1,0,0:0:0:0:
377,136,130902,1,0,0:0:0:0:
494,102,131074,1,8,0:0:0:0:
408,15,131247,1,2,0:0:0:0:
286,60,131419,6,0,P|335:103|336:193,1,154.000004699707,2|8,0:0|0:0,0:0:0:0:
380,287,131936,2,0,P|335:229|237:224,1,154.000004699707,0|2,0:0|0:0,0:0:0:0:
174,284,132453,1,8,0:0:0:0:
174,284,132798,6,0,B|161:222|161:222|171:182|171:182|162:106,1,154.000004699707,4|8,0:0|0:0,0:0:0:0:
151,24,133316,1,0,0:0:0:0:
151,24,133488,2,0,P|191:41|240:32,1,77.0000023498536,0|2,0:0|0:0,0:0:0:0:
238,35,133747,1,2,0:0:0:0:
252,31,133833,1,10,0:0:0:0:
322,112,134005,1,2,0:0:0:0:
262,202,134178,6,0,P|245:271|268:354,1,154.000004699707,2|8,0:0|0:0,0:0:0:0:
348,279,134695,1,0,0:0:0:0:
348,279,134867,2,0,P|421:258|495:275,1,154.000004699707,0|8,0:0|0:0,0:0:0:0:
427,360,135385,1,2,0:0:0:0:
348,279,135557,6,0,B|334:199|334:199|343:116,1,154.000004699707,4|8,0:0|0:0,0:0:0:0:
392,30,136074,1,0,0:0:0:0:
392,30,136247,2,0,P|345:80|247:77,1,154.000004699707,0|8,0:0|0:0,0:0:0:0:
169,31,136764,1,2,0:0:0:0:
169,31,136936,5,0,0:0:0:0:
125,130,137109,1,2,0:0:0:0:
155,233,137281,1,8,0:0:0:0:
155,233,137626,1,2,0:0:0:0:
247,178,137798,1,0,3:0:0:0:
253,187,137885,1,0,3:0:0:0:
258,197,137971,2,0,L|310:197,3,38.5000011749268,8|8|8|8,3:0|3:0|3:0|3:0,0:0:0:0:
332,156,138316,6,0,P|353:199|311:305,1,154.000004699707,4|8,0:0|0:0,0:0:0:0:
245,370,138833,1,0,0:0:0:0:
245,370,139005,2,0,L|136:354,1,77.0000023498536,0|2,0:0|0:0,0:0:0:0:
153,354,139264,1,2,0:0:0:0:
137,350,139350,1,10,0:0:0:0:
169,247,139522,1,2,0:0:0:0:
36,303,139695,6,0,L|48:141,1,154.000004699707,2|8,0:0|0:0,0:0:0:0:
125,74,140212,2,0,P|161:94|210:112,1,77.0000023498536,0|0,0:0|0:0,0:0:0:0:
276,176,140557,2,0,P|240:196|191:214,1,77.0000023498536,2|8,0:0|0:0,0:0:0:0:
194,107,140902,1,2,0:0:0:0:
324,84,141074,6,0,P|362:114|372:207,1,115.50000352478,4|0,0:0|0:0,0:0:0:0:
387,192,141419,6,0,L|374:284,1,90.9999958343508,8|0,0:0|0:0,0:0:0:0:
288,213,141764,1,0,0:0:0:0:
288,213,141936,1,0,0:0:0:0:
253,303,142109,1,8,0:0:0:0:
175,231,142281,1,2,0:0:0:0:
137,336,142453,6,0,P|146:255|154:182,1,154.000004699707,2|8,0:0|0:0,0:0:0:0:
36,129,142971,2,0,P|45:210|53:283,1,154.000004699707,0|2,0:0|0:0,0:0:0:0:
158,188,143488,1,8,0:0:0:0:
158,188,143833,6,0,P|223:208|293:157,1,154.000004699707,4|8,0:0|0:0,0:0:0:0:
350,70,144350,1,0,0:0:0:0:
407,160,144522,2,0,L|400:251,1,77.0000023498536,0|2,0:0|0:0,0:0:0:0:
399,252,144781,1,2,0:0:0:0:
398,267,144867,1,10,0:0:0:0:
310,203,145040,1,2,0:0:0:0:
216,265,145212,6,0,P|162:266|114:180,1,154.000004699707,2|8,0:0|0:0,0:0:0:0:
193,116,145729,1,0,0:0:0:0:
193,116,145902,2,0,P|190:60|184:21,2,77.0000023498536,0|2|8,0:0|0:0|0:0,0:0:0:0:
112,188,146419,1,2,0:0:0:0:
236,271,146591,6,0,L|394:253,1,154.000004699707,4|8,0:0|0:0,0:0:0:0:
439,157,147109,1,0,0:0:0:0:
439,157,147453,1,2,0:0:0:0:
353,90,147626,2,0,P|343:52|349:-6,1,77.0000023498536,8|0,0:0|0:0,0:0:0:0:
252,72,147971,5,0,3:0:0:0:
252,72,148143,1,0,3:0:0:0:
160,13,148316,1,0,3:0:0:0:
160,13,148488,1,0,3:0:0:0:
92,96,148660,2,0,L|96:150,3,38.5000011749268,8|8|8|8,3:0|3:0|3:0|3:0,0:0:0:0:
143,157,149005,2,0,L|139:211,3,38.5000011749268,8|8|8|8,3:0|3:0|3:0|3:0,0:0:0:0:
108,233,149350,6,0,P|159:204|242:226,1,140,4|8,0:0|0:0,0:0:0:0:
312,281,149867,2,0,B|385:303|385:303|462:284,1,140,0|2,0:0|0:0,0:0:0:0:
446,287,150298,1,2,0:0:0:0:
446,287,150385,1,10,0:0:0:0:
505,209,150557,1,2,0:0:0:0:
429,146,150729,6,0,P|418:87|428:6,1,140,2|8,0:0|0:0,0:0:0:0:
328,9,151247,2,0,P|337:78|326:146,1,140,0|2,0:0|0:0,0:0:0:0:
287,236,151764,1,8,0:0:0:0:
210,175,151936,1,2,0:0:0:0:
144,248,152109,6,0,P|89:202|15:204,1,140,4|8,0:0|0:0,0:0:0:0:
56,293,152626,2,0,P|111:339|185:337,1,140,0|2,0:0|0:0,0:0:0:0:
251,276,153143,1,8,0:0:0:0:
318,347,153316,1,2,0:0:0:0:
330,340,153402,1,2,0:0:0:0:
342,332,153488,6,0,L|339:287,3,35,0|0|0|0,3:0|3:0|3:0|3:0,0:0:0:0:
380,269,153833,2,0,L|382:234,3,35,0|0|0|0,3:0|3:0|3:0|3:0,0:0:0:0:
351,195,154178,2,0,P|341:154|346:102,1,70,4|8,3:0|3:0,0:0:0:0:
341,126,154436,1,8,3:0:0:0:
341,126,154522,1,8,3:0:0:0:
392,42,154695,1,8,3:0:0:0:
392,42,154781,1,8,3:0:0:0:
392,42,154867,6,0,P|340:74|252:51,1,140,4|8,0:0|0:0,0:0:0:0:
182,115,155385,2,0,P|249:100|308:134,1,140,0|2,0:0|0:0,0:0:0:0:
308,134,155816,1,2,0:0:0:0:
308,134,155902,1,10,0:0:0:0:
366,217,156074,1,2,0:0:0:0:
296,297,156247,6,0,L|134:272,1,140,2|8,0:0|0:0,0:0:0:0:
96,198,156764,2,0,B|120:267|120:267|112:340,1,140,0|2,0:0|0:0,0:0:0:0:
28,283,157281,1,8,0:0:0:0:
28,283,157453,1,2,0:0:0:0:
130,364,157626,6,0,P|161:329|268:328,1,140,4|8,0:0|0:0,0:0:0:0:
443,288,158316,2,0,B|436:373|436:372,2,70,0|0|8,0:0|0:0|0:0,0:0:0:0:
502,209,158833,1,2,0:0:0:0:
419,156,159005,6,0,P|375:166|328:175,1,70,8|0,0:0|0:0,0:0:0:0:
222,84,159350,2,0,P|266:94|313:103,1,70,8|2,0:0|0:0,0:0:0:0:
365,35,159695,1,2,0:0:0:0:
445,108,159867,1,8,3:0:0:0:
444,121,159953,1,8,3:0:0:0:
442,135,160040,2,0,L|447:192,3,35,8|8|8|8,3:0|3:0|3:0|3:0,0:0:0:0:
481,203,160385,6,0,P|427:224|341:204,1,140,4|8,0:0|0:0,0:0:0:0:
274,144,160902,2,0,L|181:150,1,70,0|0,0:0|0:0,0:0:0:0:
150,231,161247,1,2,2:0:0:0:
150,231,161333,1,2,2:0:0:0:
150,231,161419,1,10,2:0:0:0:
67,178,161591,1,2,0:0:0:0:
0,245,161764,6,0,L|11:389,1,140,2|8,0:0|0:0,0:0:0:0:
192,311,162453,2,0,P|228:322|279:315,2,70,0|2|8,0:0|0:0|0:0,0:0:0:0:
136,229,162971,1,2,0:0:0:0:
185,144,163143,6,0,B|188:60|188:60|170:4,1,140,4|8,0:0|0:0,0:0:0:0:
268,14,163660,2,0,P|322:52|407:38,1,140,0|0,0:0|0:0,0:0:0:0:
486,13,164178,1,8,0:0:0:0:
505,108,164350,1,2,0:0:0:0:
505,108,164436,1,2,0:0:0:0:
505,108,164522,6,0,L|503:159,3,35,0|0|0|0,3:0|3:0|3:0|3:0,0:0:0:0:
465,173,164867,2,0,L|467:224,3,35,0|0|0|0,3:0|3:0|3:0|3:0,0:0:0:0:
500,243,165212,2,0,L|497:331,1,70,0|0,3:0|3:0,0:0:0:0:
497,312,165471,1,8,3:0:0:0:
497,312,165557,1,8,3:0:0:0:
422,375,165729,1,8,3:0:0:0:
422,375,165816,1,8,3:0:0:0:
422,375,165902,6,0,P|382:327|299:325,1,140,4|8,0:0|0:0,0:0:0:0:
224,372,166419,1,0,0:0:0:0:
224,372,166591,2,0,L|125:365,1,70,0|2,0:0|0:0,0:0:0:0:
154,367,166850,1,2,0:0:0:0:
154,367,166936,1,10,0:0:0:0:
78,303,167109,1,2,0:0:0:0:
121,215,167281,6,0,P|129:166|77:91,1,140,2|8,0:0|0:0,0:0:0:0:
9,26,167798,1,0,0:0:0:0:
81,93,167971,2,0,P|141:104|216:70,1,140,0|8,0:0|0:0,0:0:0:0:
287,11,168488,1,2,0:0:0:0:
333,97,168660,6,0,L|326:174,1,70,12|2,0:0|0:0,0:0:0:0:
220,239,169005,2,0,L|226:169,1,70,8|2,0:0|0:0,0:0:0:0:
326,166,169350,1,2,0:0:0:0:
387,242,169522,1,8,0:0:0:0:
387,242,169609,1,8,0:0:0:0:
387,242,169695,2,0,L|376:302,3,35,8|8|8|8,0:0|0:0|0:0|0:0,0:0:0:0:
362,304,170040,5,4,0:0:0:0:
256,192,170126,12,2,171419,0:0:0:0:
403,62,176936,6,0,L|399:142,1,56,2|0,0:0|0:0,0:0:0:0:
342,179,177281,2,0,P|307:168|263:165,1,56,2|0,0:0|0:0,0:0:0:0:
222,218,177626,2,0,P|215:248|220:286,1,56,2|0,0:0|0:0,0:0:0:0:
269,338,177971,2,0,P|304:327|348:324,1,56,2|0,0:0|0:0,0:0:0:0:
399,359,178316,2,0,P|438:373|509:340,1,112,2|2,0:0|0:0,0:0:0:0:
476,268,178833,2,0,L|472:194,1,56,0|2,0:0|0:0,0:0:0:0:
397,175,179178,2,0,L|401:101,1,56,8|2,0:0|0:0,0:0:0:0:
440,45,179522,1,8,0:0:0:0:
440,45,179695,6,0,P|397:93|336:84,1,112,2|2,0:0|0:0,0:0:0:0:
288,38,180212,1,0,0:0:0:0:
288,38,180385,2,0,L|166:46,1,112,2|10,0:0|0:0,0:0:0:0:
113,102,180902,1,0,0:0:0:0:
113,102,181074,2,0,B|107:160|107:160|121:216,1,112,2|2,0:0|0:0,0:0:0:0:
166,282,181591,1,0,0:0:0:0:
91,356,181764,5,4,0:0:0:0:
22,276,181936,1,8,3:0:0:0:
18,262,182022,1,8,3:0:0:0:
15,248,182109,2,0,L|21:192,3,35,0|0|0|0,3:0|3:0|3:0|3:0,0:0:0:0:
56,182,182453,6,0,P|96:210|188:204,1,140,4|8,0:0|0:0,0:0:0:0:
262,145,182971,2,0,P|330:135|389:169,1,140,0|2,0:0|0:0,0:0:0:0:
423,205,183402,1,2,0:0:0:0:
423,205,183488,2,0,L|419:256,3,35,8|8|8|8,3:0|3:0|3:0|3:0,0:0:0:0:
380,269,183833,5,2,0:0:0:0:
450,336,184005,1,2,0:0:0:0:
354,358,184178,1,2,0:0:0:0:
241,197,184522,6,0,L|175:205,2,46.6666666666667,8|8|8,3:0|3:0|3:0,0:0:0:0:
286,128,184867,2,0,L|352:136,2,46.6666666666667,8|8|8,3:0|3:0|3:0,0:0:0:0:
234,62,185212,5,4,1:0:0:0:
256,192,185298,12,0,187281,0:0:0:0:
71,300,199005,6,0,P|120:271|185:288,1,125.999996154785,2|0,0:0|0:0,0:0:0:0:
234,348,199695,1,0,0:0:0:0:
406,253,200212,1,0,0:0:0:0:
406,253,200385,2,0,L|401:167,1,83.9999974365235,0|0,0:0|0:0,0:0:0:0:
334,125,200902,2,0,L|339:35,1,83.9999974365235,0|2,0:0|0:0,0:0:0:0:
196,113,201591,1,2,0:0:0:0:
196,113,201764,6,0,P|136:132|98:124,2,83.9999974365235,2|0|0,0:0|0:0|0:0,0:0:0:0:
258,62,202626,1,0,0:0:0:0:
258,62,202798,2,0,L|307:64,1,41.9999987182618,0|0,0:0|0:0,0:0:0:0:
354,122,203143,2,0,P|365:162|353:222,1,83.9999974365235,0|0,0:0|0:0,0:0:0:0:
323,274,203660,2,0,P|296:249|232:249,1,83.9999974365235,0|2,0:0|0:0,0:0:0:0:
137,313,204350,1,2,0:0:0:0:
137,313,204522,6,0,L|38:308,1,83.9999974365235,2|0,0:0|0:0,0:0:0:0:
182,214,205212,2,0,L|281:209,1,83.9999974365235,0|0,0:0|0:0,0:0:0:0:
352,303,205902,2,0,P|383:255|425:247,1,83.9999974365235,0|0,0:0|0:0,0:0:0:0:
489,167,206591,2,0,L|480:66,1,83.9999974365235,0|0,0:0|0:0,0:0:0:0:
418,33,207109,1,2,0:0:0:0:
418,33,207281,6,0,B|355:49|355:49|332:47,1,83.9999974365235,2|0,0:0|0:0,0:0:0:0:
270,92,207798,2,0,L|180:80,1,83.9999974365235,0|0,0:0|0:0,0:0:0:0:
108,63,208316,1,0,0:0:0:0:
144,216,208660,1,0,0:0:0:0:
402,76,209350,5,0,0:0:0:0:
402,76,209695,2,0,L|341:86,3,35,8|8|8|8,3:0|3:0|3:0|3:0,0:0:0:0:
320,54,210040,6,0,B|329:134|329:134|316:206,1,154.000004699707,4|8,0:0|0:0,0:0:0:0:
291,311,210557,1,0,0:0:0:0:
202,249,210729,2,0,P|141:238|96:254,1,77.0000023498536,0|2,0:0|0:0,0:0:0:0:
118,248,210988,1,2,0:0:0:0:
110,256,211074,1,8,0:0:0:0:
26,186,211247,1,2,0:0:0:0:
111,92,211419,6,0,P|191:100|273:108,1,154.000004699707,2|8,0:0|0:0,0:0:0:0:
349,173,211936,2,0,P|343:216|335:261,1,77.0000023498536,0|0,0:0|0:0,0:0:0:0:
229,244,212281,2,0,P|235:287|243:332,1,77.0000023498536,2|8,0:0|0:0,0:0:0:0:
341,376,212626,1,2,0:0:0:0:
337,249,212798,6,0,P|275:264|213:228,1,115.50000352478,4|0,0:0|0:0,0:0:0:0:
213,235,213143,6,0,L|220:141,1,90.9999958343508,8|0,0:0|0:0,0:0:0:0:
230,46,213488,1,0,0:0:0:0:
230,46,213660,1,0,0:0:0:0:
125,86,213833,1,8,0:0:0:0:
219,144,214005,1,2,0:0:0:0:
135,213,214178,6,0,L|146:371,1,154.000004699707,2|8,0:0|0:0,0:0:0:0:
246,326,214695,2,0,P|288:302|401:336,1,154.000004699707,0|2,0:0|0:0,0:0:0:0:
466,248,215212,1,8,0:0:0:0:
466,248,215557,6,0,B|460:192|460:192|468:144|468:144|464:88,1,154.000004699707,4|8,0:0|0:0,0:0:0:0:
384,22,216074,1,0,0:0:0:0:
298,88,216247,2,0,L|309:174,1,77.0000023498536,0|2,0:0|0:0,0:0:0:0:
311,179,216505,1,2,0:0:0:0:
314,193,216591,1,10,0:0:0:0:
240,272,216764,1,2,0:0:0:0:
158,183,216936,6,0,P|96:167|9:199,1,154.000004699707,2|8,0:0|0:0,0:0:0:0:
6,87,217453,1,0,0:0:0:0:
6,87,217626,2,0,L|7:3,2,77.0000023498536,0|0|8,0:0|0:0|0:0,0:0:0:0:
100,140,218143,1,2,0:0:0:0:
160,47,218316,6,0,P|201:67|309:34,1,154.000004699707,4|8,0:0|0:0,0:0:0:0:
366,127,218833,1,0,0:0:0:0:
366,127,219005,2,0,L|350:286,1,154.000004699707,0|8,0:0|0:0,0:0:0:0:
269,351,219522,1,2,0:0:0:0:
188,278,219695,6,0,P|141:291|97:284,2,77.0000023498536,0|2|8,0:0|0:0|0:0,0:0:0:0:
253,191,220212,2,0,P|291:189|327:201,1,77.0000023498536,0|2,0:0|0:0,0:0:0:0:
413,267,220557,1,0,3:0:0:0:
413,282,220643,1,0,3:0:0:0:
413,297,220729,2,0,L|419:357,3,38.5000011749268,8|8|8|8,3:0|3:0|3:0|3:0,0:0:0:0:
374,369,221074,6,0,P|324:328|228:353,1,154.000004699707,4|8,0:0|0:0,0:0:0:0:
136,370,221591,1,0,0:0:0:0:
136,370,221764,2,0,L|48:359,1,77.0000023498536,0|2,0:0|0:0,0:0:0:0:
61,345,222022,1,2,0:0:0:0:
61,329,222109,1,10,0:0:0:0:
128,245,222281,1,2,0:0:0:0:
49,171,222453,6,0,P|54:91|61:11,1,154.000004699707,2|8,0:0|0:0,0:0:0:0:
158,64,222971,2,0,P|195:82|239:102,1,77.0000023498536,0|0,0:0|0:0,0:0:0:0:
324,48,223316,2,0,P|361:30|405:10,1,77.0000023498536,2|8,0:0|0:0,0:0:0:0:
466,93,223660,1,2,0:0:0:0:
397,183,223833,6,0,P|375:230|391:308,1,115.50000352478,4|0,0:0|0:0,0:0:0:0:
394,308,224178,6,0,L|301:296,1,90.9999958343508,8|0,0:0|0:0,0:0:0:0:
216,366,224522,1,0,0:0:0:0:
216,366,224695,1,0,0:0:0:0:
199,248,224867,1,8,0:0:0:0:
110,316,225040,1,2,0:0:0:0:
57,222,225212,6,0,P|44:175|91:78,1,154.000004699707,2|8,0:0|0:0,0:0:0:0:
190,104,225729,2,0,P|230:126|340:101,1,154.000004699707,0|2,0:0|0:0,0:0:0:0:
420,44,226247,1,8,0:0:0:0:
420,44,226591,6,0,L|409:202,1,154.000004699707,4|8,0:0|0:0,0:0:0:0:
329,271,227109,1,0,0:0:0:0:
329,271,227281,2,0,P|342:310|346:360,1,77.0000023498536,0|2,0:0|0:0,0:0:0:0:
340,355,227540,1,2,0:0:0:0:
332,363,227626,1,10,0:0:0:0:
234,318,227798,1,2,0:0:0:0:
339,240,227971,6,0,P|393:256|490:208,1,154.000004699707,2|8,0:0|0:0,0:0:0:0:
433,122,228488,1,0,0:0:0:0:
480,220,228660,2,0,L|473:307,2,77.0000023498536,0|2|8,0:0|0:0|0:0,0:0:0:0:
371,218,229178,1,2,0:0:0:0:
311,113,229350,6,0,L|147:127,1,154.000004699707,4|8,0:0|0:0,0:0:0:0:
78,52,229867,1,0,0:0:0:0:
78,52,230212,1,2,0:0:0:0:
34,151,230385,2,0,L|40:239,1,77.0000023498536,8|0,0:0|0:0,0:0:0:0:
119,299,230729,5,0,3:0:0:0:
119,299,230902,1,2,3:0:0:0:
24,350,231074,1,0,3:0:0:0:
24,350,231247,1,2,3:0:0:0:
73,254,231419,2,0,L|120:258,3,38.5000011749268,8|8|8|8,3:0|3:0|3:0|3:0,0:0:0:0:
142,301,231764,2,0,L|189:297,3,38.5000011749268,8|8|8|8,3:0|3:0|3:0|3:0,0:0:0:0:
194,253,232109,6,0,P|208:194|179:116,1,140,4|8,0:0|0:0,0:0:0:0:
118,46,232626,2,0,P|86:85|-4:94,1,140,0|2,0:0|0:0,0:0:0:0:
1,96,233057,1,2,0:0:0:0:
1,96,233143,1,10,0:0:0:0:
31,8,233316,1,2,0:0:0:0:
118,46,233488,6,0,L|275:64,1,140,2|8,0:0|0:0,0:0:0:0:
320,138,234006,1,0,0:0:0:0:
320,138,234178,1,0,0:0:0:0:
388,69,234350,2,0,P|396:33|393:-5,2,70,2|8|2,0:0|0:0|0:0,0:0:0:0:
384,220,234868,6,0,B|450:198|450:198|517:237,1,140,4|8,0:0|0:0,0:0:0:0:
438,301,235385,2,0,P|439:338|452:384,1,70,0|0,0:0|0:0,0:0:0:0:
384,220,235730,2,0,P|384:186|392:152,1,70,0|8,0:0|0:0,0:0:0:0:
453,74,236075,1,2,0:0:0:0:
453,74,236247,6,0,P|412:106|311:64,1,140,2|8,0:0|0:0,0:0:0:0:
245,41,236764,1,2,0:0:0:0:
245,41,236937,2,0,P|180:22|122:57,1,140,2|8,0:0|0:0,0:0:0:0:
49,191,237626,6,0,B|63:273|63:273|58:335,1,140,4|8,0:0|0:0,0:0:0:0:
165,290,238143,2,0,L|304:298,1,140,0|2,0:0|0:0,0:0:0:0:
304,299,238575,1,2,0:0:0:0:
304,299,238661,1,10,0:0:0:0:
381,359,238833,1,2,0:0:0:0:
439,281,239006,6,0,P|456:212|432:119,1,140,2|8,0:0|0:0,0:0:0:0:
410,53,239523,1,0,0:0:0:0:
410,53,239695,1,0,0:0:0:0:
333,115,239868,2,0,L|251:111,2,70,2|8|2,0:0|0:0|0:0,0:0:0:0:
240,17,240385,6,0,P|220:87|139:100,1,140,4|8,0:0|0:0,0:0:0:0:
63,60,240902,2,0,P|58:98|55:137,1,70,0|0,0:0|0:0,0:0:0:0:
112,210,241247,2,0,P|117:248|120:287,1,70,0|8,0:0|0:0,0:0:0:0:
51,351,241592,1,2,0:0:0:0:
51,351,241678,1,2,0:0:0:0:
51,351,241764,6,0,L|49:294,3,35,0|0|0|0,3:0|3:0|3:0|3:0,0:0:0:0:
25,284,242109,2,0,L|27:227,3,35,0|0|0|0,3:0|3:0|3:0|3:0,0:0:0:0:
53,230,242454,2,0,P|63:195|62:146,1,70,0|0,3:0|3:0,0:0:0:0:
64,162,242712,1,8,3:0:0:0:
64,162,242799,1,8,3:0:0:0:
34,68,242971,1,8,3:0:0:0:
34,68,243057,1,8,3:0:0:0:
34,68,243143,5,2,3:2:0:0:
