osu file format v14

[General]
AudioFilename: audio.mp3
AudioLeadIn: 0
PreviewTime: 57453
Countdown: 0
SampleSet: Soft
StackLeniency: 0.5
Mode: 0
LetterboxInBreaks: 0
WidescreenStoryboard: 1

[Editor]
Bookmarks: 11419,22453,44522,58316,80385,91419,101764,113488,127281,149350,160385,171419,176936,187971,199005,210040,232109,243143
DistanceSpacing: 1
BeatDivisor: 4
GridSize: 4
TimelineZoom: 1.3

[Metadata]
Title:Akane Contrast
TitleUnicode:茜コントラスト
Artist:Usa
ArtistUnicode:うさ
Creator:timemon
Version:Easy
Source:
Tags:Hana はな さころにー usacolony doriko Romeo and Cinderella Hatsune Miku 初音ミク うさころ よん Usacolo Yon Lasse deppyforce
BeatmapID:1495633
BeatmapSetID:699833

[Difficulty]
HPDrainRate:3
CircleSize:3
OverallDifficulty:4
ApproachRate:4
SliderMultiplier:0.85
SliderTickRate:1

[Events]
//Background and Video events
0,0,"yettt.jpg",0,0
//Break Periods
2,91619,101133
2,149550,159065
2,171619,175616
2,187971,197685
//Storyboard Layer 0 (Background)
//Storyboard Layer 1 (Fail)
//Storyboard Layer 2 (Pass)
//Storyboard Layer 3 (Foreground)
//Storyboard Sound Samples

[TimingPoints]
385,344.827586206897,4,2,1,50,1,0
10040,-100,4,2,1,50,0,0
11419,-100,4,2,1,50,0,0
22453,-100,4,2,1,40,0,0
42022,-100,4,2,1,5,0,0
42109,-100,4,2,1,40,0,0
44522,-100,4,2,1,45,0,0
45126,-100,4,2,1,5,0,0
45212,-100,4,2,1,45,0,0
47885,-100,4,2,1,5,0,0
47971,-100,4,2,1,45,0,0
50643,-100,4,2,1,5,0,0
50729,-100,4,2,1,45,0,0
54436,-100,4,2,1,5,0,0
54522,-100,4,2,1,45,0,0
57281,-100,4,2,1,45,0,0
58316,-100,4,2,1,55,0,1
59953,-100,4,2,1,5,0,1
60040,-100,4,2,1,55,0,1
61333,-100,4,2,1,5,0,1
61419,-100,4,2,1,55,0,1
61678,-100,4,2,1,5,0,1
61764,-100,4,2,1,55,0,1
62453,-100,4,2,1,55,0,1
66591,-100,4,2,1,55,0,0
69350,-100,4,2,1,55,0,1
72367,-100,4,2,1,5,0,1
72453,-100,4,2,1,55,0,1
72712,-100,4,2,1,5,0,1
72798,-100,4,2,1,55,0,1
73488,-100,4,2,1,55,0,1
80385,-100,4,2,1,50,0,0
101764,-100,4,2,1,40,0,0
113488,-100,4,2,1,45,0,0
114091,-100,4,2,1,5,0,0
114178,-100,4,2,1,45,0,0
116850,-100,4,2,1,5,0,0
116936,-100,4,2,1,45,0,0
119609,-100,4,2,1,5,0,0
119695,-100,4,2,1,45,0,0
123402,-100,4,2,1,5,0,0
123488,-100,4,2,1,45,0,0
126247,-100,4,2,1,45,0,0
127281,-100,4,2,1,55,0,1
130298,-100,4,2,1,5,0,1
130385,-100,4,2,1,55,0,1
130643,-100,4,2,1,55,0,1
130729,-100,4,2,1,55,0,1
131419,-100,4,2,1,55,0,1
135557,-100,4,2,1,55,0,0
138316,-100,4,2,1,55,0,1
139956,-100,4,2,1,5,0,1
140040,-100,4,2,1,55,0,1
141333,-100,4,2,1,5,0,1
141419,-100,4,2,1,55,0,1
141678,-100,4,2,1,5,0,1
141764,-100,4,2,1,55,0,1
142453,-100,4,2,1,55,0,1
149350,-100,4,2,1,50,0,0
176936,-100,4,2,1,40,0,0
181764,-100,4,2,1,50,0,0
184522,-100,4,2,1,35,0,0
187281,-100,4,2,1,5,0,0
199005,-100,4,2,1,35,0,0
209350,-100,4,2,1,50,0,0
210040,-100,4,2,1,55,0,1
211678,-100,4,2,1,5,0,1
211764,-100,4,2,1,55,0,1
213057,-100,4,2,1,5,0,1
213143,-100,4,2,1,55,0,1
213402,-100,4,2,1,5,0,1
213488,-100,4,2,1,55,0,1
214178,-100,4,2,1,55,0,1
218316,-100,4,2,1,55,0,0
221074,-100,4,2,1,55,0,1
224091,-100,4,2,1,5,0,1
224178,-100,4,2,1,55,0,1
224436,-100,4,2,1,5,0,1
224522,-100,4,2,1,55,0,1
225212,-100,4,2,1,55,0,1
232109,-100,4,2,1,50,0,0

[Colours]
Combo1 : 255,228,147
Combo2 : 255,202,149
Combo3 : 220,220,184
Combo4 : 255,149,149

[HitObjects]
386,54,11419,6,0,B|408:128|408:128|406:190,1,127.5,4|0,0:0|0:0,0:0:0:0:
399,263,12281,1,2,0:0:0:0:
276,230,12798,2,0,L|179:219,1,85,2|8,0:0|0:0,0:0:0:0:
147,293,13488,2,0,P|104:309|51:297,1,85,0|8,0:0|0:0,0:0:0:0:
16,234,14178,6,0,P|-4:173|22:110,1,127.5,4|0,0:0|0:0,0:0:0:0:
76,54,15040,1,0,0:0:0:0:
179,127,15557,2,0,P|225:117|255:81,1,85,2|8,0:0|0:0,0:0:0:0:
336,90,16247,2,0,L|326:187,1,85,2|8,0:0|0:0,0:0:0:0:
282,247,16936,6,0,B|232:260|232:260|147:236,1,127.5,4|0,0:0|0:0,0:0:0:0:
76,217,17798,1,2,0:0:0:0:
67,344,18316,2,0,P|117:328|161:335,1,85,2|8,0:0|0:0,0:0:0:0:
225,366,19005,2,0,L|323:358,1,85,0|8,0:0|0:0,0:0:0:0:
378,301,19695,6,0,B|358:232|358:232|389:182,1,127.5,4|0,0:0|0:0,0:0:0:0:
430,111,20557,1,0,0:0:0:0:
303,126,21074,2,0,P|281:86|284:39,2,85,0|0|0,3:0|3:0|3:0,0:0:0:0:
371,177,22109,1,8,3:0:0:0:
302,226,22453,6,0,L|306:326,1,85,4|8,0:0|0:0,0:0:0:0:
390,307,23143,2,0,L|386:222,1,85,0|8,0:0|0:0,0:0:0:0:
357,141,23833,1,2,0:0:0:0:
297,201,24178,2,0,P|252:214|201:210,1,85,8|0,0:0|0:0,0:0:0:0:
207,128,24867,1,8,0:0:0:0:
137,176,25212,6,0,B|125:216|125:216|127:266,1,85,4|8,0:0|0:0,0:0:0:0:
179,326,25902,2,0,P|224:310|279:318,1,85,0|8,0:0|0:0,0:0:0:0:
330,359,26591,2,0,P|375:375|430:367,1,85,2|8,0:0|0:0,0:0:0:0:
461,303,27281,2,0,B|453:260|453:260|458:207,1,85,0|8,0:0|0:0,0:0:0:0:
414,144,27971,6,0,P|368:175|261:141,1,170,4|0,0:0|0:0,0:0:0:0:
180,131,29005,1,10,0:0:0:0:
122,194,29350,2,0,P|116:239|133:276,1,85,2|8,0:0|0:0,0:0:0:0:
216,272,30040,2,0,P|222:317|205:354,1,85,0|8,0:0|0:0,0:0:0:0:
119,360,30729,6,0,L|23:351,1,85,4|8,0:0|0:0,0:0:0:0:
46,267,31419,2,0,L|130:274,1,85,0|8,0:0|0:0,0:0:0:0:
216,273,32109,2,0,P|258:254|310:266,1,85,2|8,0:0|0:0,0:0:0:0:
376,285,32798,1,2,0:0:0:0:
428,217,33143,1,8,0:0:0:0:
369,155,33488,6,0,L|365:56,1,85,4|8,0:0|0:0,0:0:0:0:
290,29,34178,2,0,B|249:48|249:48|204:43,1,85,0|10,0:0|0:0,0:0:0:0:
136,86,34867,1,2,0:0:0:0:
162,166,35212,1,8,0:0:0:0:
93,216,35557,2,0,P|81:256|84:298,1,85,0|8,0:0|0:0,0:0:0:0:
134,368,36247,6,0,L|226:361,1,85,4|8,0:0|0:0,0:0:0:0:
258,286,36936,2,0,L|350:293,1,85,0|8,0:0|0:0,0:0:0:0:
398,228,37626,2,0,P|414:181|403:137,1,85,2|8,0:0|0:0,0:0:0:0:
350,84,38316,1,0,0:0:0:0:
287,141,38660,1,8,0:0:0:0:
216,92,39005,6,0,L|116:104,1,85,4|8,0:0|0:0,0:0:0:0:
80,170,39695,2,0,P|67:213|82:257,1,85,0|10,0:0|0:0,0:0:0:0:
132,315,40385,2,0,B|184:293|184:293|221:297,1,85,2|8,0:0|0:0,0:0:0:0:
278,350,41074,2,0,L|367:342,1,85,0|8,0:0|0:0,0:0:0:0:
406,269,41764,6,0,P|423:222|410:174,1,85,4|8,0:0|0:0,0:0:0:0:
394,152,42281,1,2,0:0:0:0:
432,76,42626,1,2,0:0:0:0:
384,5,42971,1,4,0:0:0:0:
93,91,44522,5,4,0:0:0:0:
152,151,44867,2,0,P|163:193|151:244,2,85,8|0|8,0:0|0:0|0:0,0:0:0:0:
210,88,45902,2,0,P|262:117|330:98,1,127.5,2|2,0:0|0:0,0:0:0:0:
400,61,46764,1,2,0:0:0:0:
467,168,47281,5,4,0:0:0:0:
408,229,47626,2,0,L|416:328,2,85,8|0|8,0:0|0:0|0:0,0:0:0:0:
343,173,48660,2,0,P|287:199|216:169,2,127.5,2|2|10,0:0|0:0|0:0,0:0:0:0:
379,98,50040,5,4,0:0:0:0:
331,29,50385,2,0,L|229:40,2,85,8|0|8,0:0|0:0|0:0,0:0:0:0:
379,98,51419,2,0,P|406:137|383:213,1,127.5,2|2,0:0|0:0,0:0:0:0:
324,267,52281,1,2,0:0:0:0:
217,196,52798,6,0,L|126:205,1,85,4|8,0:0|0:0,0:0:0:0:
132,289,53488,2,0,L|223:298,1,85,0|8,0:0|0:0,0:0:0:0:
277,357,54178,1,2,0:0:0:0:
327,288,54522,2,0,P|340:240|323:192,2,85,8|0|8,0:0|0:0|0:0,0:0:0:0:
256,192,55557,12,2,56936,0:0:0:0:
66,77,58316,6,0,L|70:177,1,85,4|8,0:0|0:0,0:0:0:0:
154,154,59005,2,0,L|150:254,1,85,0|10,0:0|0:0,0:0:0:0:
204,304,59695,2,0,P|250:322|291:309,1,85,2|8,0:0|0:0,0:0:0:0:
339,249,60385,2,0,P|380:241|418:258,1,85,0|8,0:0|0:0,0:0:0:0:
468,190,61074,5,4,0:0:0:0:
398,141,61419,2,0,L|300:152,2,85,8|0|8,0:0|0:0|0:0,0:0:0:0:
388,56,62453,2,0,L|303:65,1,85,2|8,0:0|0:0,0:0:0:0:
260,71,62971,1,0,0:0:0:0:
178,169,63488,1,8,0:0:0:0:
234,232,63833,6,0,L|227:335,1,85,4|8,0:0|0:0,0:0:0:0:
146,339,64522,2,0,L|139:236,1,85,0|10,0:0|0:0,0:0:0:0:
76,197,65212,2,0,B|57:156|57:156|61:115,1,85,2|8,0:0|0:0,0:0:0:0:
119,54,65902,1,0,0:0:0:0:
186,105,66247,1,8,0:0:0:0:
255,56,66591,6,0,L|349:67,1,85,4|8,0:0|0:0,0:0:0:0:
391,133,67281,2,0,P|403:177|386:225,1,85,0|8,0:0|0:0,0:0:0:0:
326,267,67971,2,0,P|282:277|232:262,1,85,0|8,0:0|0:0,0:0:0:0:
164,300,68660,1,2,0:0:0:0:
122,225,69005,1,8,3:0:0:0:
37,210,69350,6,0,P|44:162|31:121,1,85,4|8,0:0|0:0,0:0:0:0:
89,62,70040,2,0,B|135:78|135:78|181:68,1,85,0|8,0:0|0:0,0:0:0:0:
245,31,70729,2,0,B|291:15|291:15|337:25,1,85,2|8,0:0|0:0,0:0:0:0:
392,76,71419,2,0,L|381:173,1,85,0|8,0:0|0:0,0:0:0:0:
314,212,72109,5,4,0:0:0:0:
375,270,72453,2,0,P|417:287|464:270,2,85,8|0|8,0:0|0:0|0:0,0:0:0:0:
303,316,73488,2,0,P|261:299|214:316,1,85,2|8,0:0|0:0,0:0:0:0:
186,329,74005,1,0,0:0:0:0:
97,237,74522,1,8,0:0:0:0:
150,170,74867,6,0,P|158:137|138:80,1,85,4|8,0:0|0:0,0:0:0:0:
210,34,75557,2,0,P|247:54|299:48,1,85,0|10,0:0|0:0,0:0:0:0:
342,118,76247,2,0,P|379:98|431:104,1,85,2|8,0:0|0:0,0:0:0:0:
474,166,76936,1,0,0:0:0:0:
439,243,77281,1,8,0:0:0:0:
402,320,77626,6,0,L|301:308,1,85,4|8,0:0|0:0,0:0:0:0:
275,304,78143,1,0,0:0:0:0:
187,211,78660,1,8,0:0:0:0:
236,141,79005,6,0,P|252:97|232:53,2,85,0|0|8,3:0|3:0|3:0,0:0:0:0:
153,118,80040,1,8,3:0:0:0:
81,164,80385,6,0,B|72:216|72:216|88:293,1,127.5,4|0,0:0|0:0,0:0:0:0:
151,347,81247,1,2,0:0:0:0:
244,260,81764,2,0,P|281:286|333:282,1,85,2|8,0:0|0:0,0:0:0:0:
380,227,82453,2,0,L|371:133,1,85,0|8,0:0|0:0,0:0:0:0:
316,77,83143,6,0,P|281:51|191:77,1,127.5,4|0,0:0|0:0,0:0:0:0:
140,123,84005,1,0,0:0:0:0:
231,212,84522,2,0,L|222:316,1,85,2|8,0:0|0:0,0:0:0:0:
140,278,85212,2,0,L|149:382,1,85,2|8,0:0|0:0,0:0:0:0:
230,379,85902,6,0,P|267:342|351:356,1,127.5,4|0,0:0|0:0,0:0:0:0:
398,286,86764,1,2,0:0:0:0:
340,174,87281,2,0,L|242:182,1,85,2|8,0:0|0:0,0:0:0:0:
208,252,87971,2,0,L|123:245,1,85,0|8,0:0|0:0,0:0:0:0:
58,190,88660,6,0,P|43:146|83:73,1,127.5,4|0,0:0|0:0,0:0:0:0:
154,41,89522,1,0,0:0:0:0:
242,132,90040,2,0,L|336:125,2,85,0|0|0,3:0|3:0|3:0,0:0:0:0:
185,196,91074,1,8,3:0:0:0:
247,253,91419,5,8,3:0:0:0:
423,110,102453,6,0,B|404:167|404:167|413:282,1,170,4|0,0:0|0:0,0:0:0:0:
370,350,103488,1,10,0:0:0:0:
306,293,103833,2,0,P|264:274|212:289,1,85,2|8,0:0|0:0,0:0:0:0:
162,336,104522,2,0,P|120:355|68:340,1,85,0|8,0:0|0:0,0:0:0:0:
40,274,105212,6,0,P|54:229|41:178,1,85,4|8,0:0|0:0,0:0:0:0:
74,111,105902,2,0,B|113:128|113:128|156:119,1,85,0|8,0:0|0:0,0:0:0:0:
221,66,106591,1,2,0:0:0:0:
305,62,106936,1,8,0:0:0:0:
362,123,107281,2,0,P|388:163|385:215,1,85,0|8,0:0|0:0,0:0:0:0:
338,267,107971,6,0,P|280:238|191:292,1,170,4|0,0:0|0:0,0:0:0:0:
147,355,109005,1,10,0:0:0:0:
92,290,109350,2,0,L|96:192,1,85,2|8,0:0|0:0,0:0:0:0:
177,182,110040,2,0,L|173:84,1,85,0|8,0:0|0:0,0:0:0:0:
231,35,110729,6,0,P|281:54|320:43,1,85,4|8,0:0|0:0,0:0:0:0:
350,31,111247,1,2,0:0:0:0:
380,109,111591,1,2,0:0:0:0:
347,187,111936,1,4,0:0:0:0:
66,249,113488,5,4,0:0:0:0:
125,310,113833,2,0,L|225:302,2,85,8|0|8,0:0|0:0|0:0,0:0:0:0:
143,227,114867,2,0,P|159:182|134:103,1,127.5,2|2,0:0|0:0,0:0:0:0:
82,42,115729,1,2,0:0:0:0:
207,16,116247,5,4,0:0:0:0:
268,74,116591,2,0,P|306:88|361:71,2,85,8|0|8,0:0|0:0|0:0,0:0:0:0:
207,133,117626,2,0,P|227:171|205:261,2,127.5,2|2|10,0:0|0:0|0:0,0:0:0:0:
152,67,119005,5,4,0:0:0:0:
96,131,119350,2,0,L|7:120,2,85,8|0|8,0:0|0:0|0:0,0:0:0:0:
137,205,120385,2,0,P|186:225|256:187,1,127.5,2|2,0:0|0:0,0:0:0:0:
302,128,121247,1,2,0:0:0:0:
393,216,121764,6,0,L|389:318,1,85,4|8,0:0|0:0,0:0:0:0:
327,358,122453,2,0,B|298:340|298:340|241:344,1,85,0|8,0:0|0:0,0:0:0:0:
174,299,123143,1,2,0:0:0:0:
229,234,123488,2,0,L|221:144,2,85,8|0|8,0:0|0:0|0:0,0:0:0:0:
256,192,124522,12,2,125902,0:0:0:0:
432,276,127281,6,0,P|436:223|425:193,1,85,4|8,0:0|0:0,0:0:0:0:
352,150,127971,2,0,P|346:108|358:67,1,85,0|10,0:0|0:0,0:0:0:0:
288,19,128660,2,0,L|203:14,1,85,2|8,0:0|0:0,0:0:0:0:
170,92,129350,2,0,L|85:96,1,85,0|8,0:0|0:0,0:0:0:0:
35,26,130040,5,4,0:0:0:0:
0,104,130385,2,0,P|-9:144|12:191,2,85,8|0|8,0:0|0:0|0:0,0:0:0:0:
55,38,131419,2,0,P|99:48|141:34,1,85,2|8,0:0|0:0,0:0:0:0:
174,17,131936,1,0,0:0:0:0:
247,120,132453,1,8,0:0:0:0:
196,188,132798,6,0,L|198:285,1,85,4|8,0:0|0:0,0:0:0:0:
253,337,133488,2,0,B|290:322|290:322|335:328,1,85,0|10,0:0|0:0,0:0:0:0:
390,265,134178,2,0,P|398:221|384:180,1,85,2|8,0:0|0:0,0:0:0:0:
331,118,134867,1,0,0:0:0:0:
370,42,135212,1,8,0:0:0:0:
288,18,135557,6,0,L|195:28,1,85,4|8,0:0|0:0,0:0:0:0:
212,111,136247,2,0,L|296:101,1,85,0|8,0:0|0:0,0:0:0:0:
367,147,136936,2,0,L|358:241,1,85,0|8,0:0|0:0,0:0:0:0:
414,296,137626,1,2,0:0:0:0:
371,369,137971,1,8,3:0:0:0:
286,381,138316,6,0,L|277:287,1,85,4|8,0:0|0:0,0:0:0:0:
226,228,139005,2,0,P|193:258|136:261,1,85,0|10,0:0|0:0,0:0:0:0:
92,205,139695,2,0,P|50:196|20:168,1,85,2|8,0:0|0:0,0:0:0:0:
44,86,140385,2,0,L|135:79,1,85,0|8,0:0|0:0,0:0:0:0:
191,136,141074,5,4,0:0:0:0:
254,79,141419,2,0,P|263:40|245:-6,2,85,8|0|8,0:0|0:0|0:0,0:0:0:0:
300,149,142453,2,0,L|398:143,1,85,2|8,0:0|0:0,0:0:0:0:
427,143,142971,1,0,0:0:0:0:
418,270,143488,1,8,0:0:0:0:
354,326,143833,6,0,P|306:337|264:328,1,85,4|8,0:0|0:0,0:0:0:0:
201,282,144522,2,0,P|153:271|111:280,1,85,0|10,0:0|0:0,0:0:0:0:
49,227,145212,2,0,B|54:177|54:177|49:138,1,85,2|8,0:0|0:0,0:0:0:0:
40,57,145902,1,0,0:0:0:0:
118,90,146247,1,8,0:0:0:0:
181,34,146591,6,0,P|220:55|275:47,1,85,4|8,0:0|0:0,0:0:0:0:
296,31,147109,1,0,0:0:0:0:
375,131,147626,1,8,0:0:0:0:
322,196,147971,2,0,B|329:242|329:242|328:284,2,85,0|0|8,3:0|3:0|3:0,0:0:0:0:
285,119,149005,1,8,3:0:0:0:
223,177,149350,5,4,0:0:0:0:
182,294,160385,6,0,P|238:310|303:281,1,127.5,4|0,0:0|0:0,0:0:0:0:
345,213,161247,2,0,P|349:167|330:119,1,85,2|2,2:0|0:0,0:0:0:0:
315,93,161764,1,2,0:0:0:0:
243,139,162109,1,8,0:0:0:0:
188,74,162453,2,0,L|91:84,1,85,0|8,0:0|0:0,0:0:0:0:
53,151,163143,6,0,P|94:189|62:299,1,170,4|0,0:0|0:0,0:0:0:0:
128,356,164178,1,8,0:0:0:0:
197,307,164522,2,0,P|232:323|282:328,2,85,0|0|0,3:0|3:0|3:0,0:0:0:0:
153,233,165557,1,8,3:0:0:0:
211,171,165902,6,0,P|253:194|345:127,1,170,4|0,0:0|0:0,0:0:0:0:
291,66,166936,1,10,0:0:0:0:
372,41,167281,2,0,L|469:61,1,85,2|8,0:0|0:0,0:0:0:0:
486,137,167971,2,0,P|502:191|490:232,1,85,0|8,0:0|0:0,0:0:0:0:
427,268,168660,6,0,P|411:322|423:363,2,85,12|8|2,0:0|0:0|0:0,0:0:0:0:
362,212,169695,1,8,0:0:0:0:
256,192,170040,12,2,171419,0:0:0:0:
98,91,176936,6,0,L|102:184,2,85,2|2|2,0:0|0:0|0:0,0:0:0:0:
149,23,177971,1,2,0:0:0:0:
217,72,178316,2,0,P|258:93|336:68,1,127.5,2|0,0:0|0:0,0:0:0:0:
403,23,179178,1,8,0:0:0:0:
460,136,179695,6,0,L|454:234,1,85,2|2,0:0|0:0,0:0:0:0:
371,241,180385,2,0,L|377:339,1,85,2|10,0:0|0:0,0:0:0:0:
299,362,181074,1,2,0:0:0:0:
235,305,181419,1,2,0:0:0:0:
266,225,181764,2,0,P|276:176|258:127,1,85,4|0,0:0|3:0,0:0:0:0:
212,77,182453,6,0,L|118:84,2,85,4|8|0,0:0|0:0|0:0,0:0:0:0:
269,14,183488,1,8,3:0:0:0:
319,82,183833,2,0,L|315:137,2,42.5,2|2|2,0:0|0:0|0:0,0:0:0:0:
201,248,185212,5,4,3:1:0:0:
256,192,185385,12,0,187281,0:0:0:0:
86,105,199005,6,0,P|130:142|209:122,2,127.5,2|0|0,0:0|0:0|0:0,0:0:0:0:
25,45,200385,2,0,P|0:103|30:172,1,127.5,0|0,0:0|0:0,0:0:0:0:
71,228,201247,1,2,0:0:0:0:
22,345,201764,1,2,0:0:0:0:
101,376,202109,2,0,L|197:369,2,85,0|0|0,0:0|0:0|0:0,0:0:0:0:
85,292,203143,6,0,P|63:250|89:172,1,127.5,0|0,0:0|0:0,0:0:0:0:
186,99,204178,1,0,0:0:0:0:
251,152,204522,2,0,P|282:201|260:319,1,170,2|0,0:0|0:0,0:0:0:0:
114,380,205902,2,0,P|94:298|131:224,1,170
300,242,207281,6,0,B|363:235|400:145|400:145|385:260|454:324|454:323,1,340,2|0,0:0|0:0,0:0:0:0:
446,307,210040,6,0,L|442:207,1,85,4|8,0:0|0:0,0:0:0:0:
358,230,210729,2,0,L|362:130,1,85,0|8,0:0|0:0,0:0:0:0:
308,80,211419,2,0,P|262:62|221:75,1,85,2|8,0:0|0:0,0:0:0:0:
173,135,212109,2,0,P|132:143|94:126,1,85,0|8,0:0|0:0,0:0:0:0:
44,194,212798,5,4,0:0:0:0:
114,243,213143,2,0,L|212:232,2,85,8|0|8,0:0|0:0|0:0,0:0:0:0:
124,328,214177,2,0,L|209:319,1,85,2|8,0:0|0:0,0:0:0:0:
252,313,214695,1,0,0:0:0:0:
334,215,215212,1,8,0:0:0:0:
278,152,215557,6,0,L|285:49,1,85,4|8,0:0|0:0,0:0:0:0:
366,45,216246,2,0,L|373:148,1,85,0|10,0:0|0:0,0:0:0:0:
436,187,216936,2,0,B|455:228|455:228|451:269,1,85,2|8,0:0|0:0,0:0:0:0:
393,330,217626,1,0,0:0:0:0:
326,279,217971,1,8,0:0:0:0:
257,328,218315,6,0,L|163:317,1,85,4|8,0:0|0:0,0:0:0:0:
121,251,219005,2,0,P|109:207|126:159,1,85,0|8,0:0|0:0,0:0:0:0:
192,125,219695,1,0,0:0:0:0:
271,159,220040,1,8,0:0:0:0:
339,108,220384,2,0,P|383:98|433:113,1,85,2|8,0:0|3:0,0:0:0:0:
475,174,221074,6,0,P|468:222|481:263,1,85,4|8,0:0|0:0,0:0:0:0:
423,322,221764,2,0,B|377:306|377:306|331:316,1,85,0|10,0:0|0:0,0:0:0:0:
267,353,222453,2,0,B|221:369|221:369|175:359,1,85,2|8,0:0|0:0,0:0:0:0:
120,308,223143,2,0,L|131:211,1,85,0|8,0:0|0:0,0:0:0:0:
198,172,223833,5,4,0:0:0:0:
137,114,224177,2,0,P|95:97|48:114,2,85,8|0|8,0:0|0:0|0:0,0:0:0:0:
209,68,225212,2,0,P|251:85|298:68,1,85,2|8,0:0|0:0,0:0:0:0:
326,55,225729,1,0,0:0:0:0:
415,147,226246,1,8,0:0:0:0:
362,214,226591,6,0,P|354:247|374:304,1,85,4|8,0:0|0:0,0:0:0:0:
302,350,227281,2,0,P|265:330|213:336,1,85,0|10,0:0|0:0,0:0:0:0:
170,266,227971,2,0,P|133:286|81:280,1,85,2|8,0:0|0:0,0:0:0:0:
38,218,228660,1,0,0:0:0:0:
73,141,229005,1,8,0:0:0:0:
110,64,229350,6,0,L|211:76,1,85,4|8,0:0|0:0,0:0:0:0:
237,80,229867,1,0,0:0:0:0:
325,173,230384,1,8,0:0:0:0:
276,243,230729,6,0,P|260:287|280:331,2,85,0|0|8,3:0|3:0|3:0,0:0:0:0:
359,266,231764,1,8,3:0:0:0:
431,220,232109,6,0,B|419:170|419:170|424:91,1,127.5,4|0,0:0|0:0,0:0:0:0:
361,37,232971,1,2,0:0:0:0:
268,124,233488,2,0,P|231:98|179:102,1,85,2|8,0:0|0:0,0:0:0:0:
132,157,234177,2,0,L|141:251,1,85,0|8,0:0|0:0,0:0:0:0:
196,307,234867,6,0,P|231:333|321:307,1,127.5,4|0,0:0|0:0,0:0:0:0:
372,261,235729,1,0,0:0:0:0:
281,172,236246,2,0,L|290:68,1,85,2|8,0:0|0:0,0:0:0:0:
372,106,236936,2,0,L|363:2,1,85,2|8,0:0|0:0,0:0:0:0:
280,13,237626,6,0,P|243:50|159:36,1,127.5,4|0,0:0|0:0,0:0:0:0:
106,100,238488,1,2,0:0:0:0:
172,210,239005,2,0,L|270:202,1,85,2|8,0:0|0:0,0:0:0:0:
304,132,239695,2,0,L|389:139,1,85,0|8,0:0|0:0,0:0:0:0:
454,194,240384,6,0,P|469:238|429:311,1,127.5,4|0,0:0|0:0,0:0:0:0:
358,343,241246,1,0,0:0:0:0:
270,252,241764,2,0,L|176:259,2,85,0|0|0,3:0|3:0|3:0,0:0:0:0:
327,188,242798,1,8,3:0:0:0:
265,131,243143,5,2,3:2:0:0:
