osu file format v14

[General]
AudioFilename: audio.mp3
AudioLeadIn: 0
PreviewTime: 57453
Countdown: 0
SampleSet: Soft
StackLeniency: 0.5
Mode: 0
LetterboxInBreaks: 0
WidescreenStoryboard: 1

[Editor]
DistanceSpacing: 1.1
BeatDivisor: 2
GridSize: 32
TimelineZoom: 1.3

[Metadata]
Title:Akane Contrast
TitleUnicode:茜コントラスト
Artist:Usa
ArtistUnicode:うさ
Creator:timemon
Version:Deppy's Normal
Source:
Tags:Hana はな さころにー usacolony doriko Romeo and Cinderella Hatsune Miku 初音ミク うさころ よん Usacolo Yon Lasse deppyforce
BeatmapID:1486655
BeatmapSetID:699833

[Difficulty]
HPDrainRate:4
CircleSize:3.1
OverallDifficulty:3.5
ApproachRate:4
SliderMultiplier:1
SliderTickRate:1

[Events]
//Background and Video events
0,0,"yettt.jpg",0,0
//Break Periods
2,91619,101133
2,171619,175616
2,188171,208720
//Storyboard Layer 0 (Background)
//Storyboard Layer 1 (Fail)
//Storyboard Layer 2 (Pass)
//Storyboard Layer 3 (Foreground)
//Storyboard Sound Samples

[TimingPoints]
385,344.827586206897,4,2,1,50,1,0
58316,-100,4,2,1,55,0,1
80385,-100,4,2,1,50,0,0
127281,-100,4,2,1,55,0,1
149350,-100,4,2,1,50,0,0
210040,-100,4,2,1,55,0,1
232109,-100,4,2,1,50,0,0

[Colours]
Combo1 : 255,228,147
Combo2 : 255,202,149
Combo3 : 220,220,184
Combo4 : 255,149,149

[HitObjects]
59,260,10729,6,0,L|158:253,1,100,2|8,0:0|3:0,0:0:0:0:
187,300,11247,1,8,3:0:0:0:
216,346,11419,2,0,P|241:291|323:260,1,150,4|0,0:0|0:0,0:0:0:0:
420,306,12281,2,0,L|424:256,1,50,2|10,0:0|0:0,0:0:0:0:
446,206,12626,1,2,0:0:0:0:
446,206,12798,2,0,P|399:221|351:212,1,100,2|8,0:0|0:0,0:0:0:0:
272,135,13488,2,0,P|223:126|176:141,1,100,0|8,0:0|0:0,0:0:0:0:
78,192,14178,6,0,B|90:139|90:139|69:45,2,150,4|0|8,0:0|0:0|0:0,0:0:0:0:
61,244,15385,1,2,0:0:0:0:
61,244,15557,2,0,L|210:237,1,150,2|2,0:0|0:0,0:0:0:0:
258,208,16247,1,2,0:0:0:0:
336,284,16591,1,8,0:0:0:0:
440,248,16936,6,0,P|466:208|466:109,1,150,4|0,0:0|0:0,0:0:0:0:
372,50,17798,2,0,P|360:78|356:100,1,50,2|10,0:0|0:0,0:0:0:0:
364,151,18143,1,2,0:0:0:0:
364,151,18316,2,0,L|263:148,1,100,2|8,0:0|0:0,0:0:0:0:
235,41,19005,2,0,L|134:44,1,100,0|8,0:0|0:0,0:0:0:0:
50,115,19695,6,0,B|35:155|51:186|51:186|71:223|57:259,2,150,4|0|8,0:0|0:0|0:0,0:0:0:0:
31,63,20902,1,2,0:0:0:0:
31,63,21074,2,0,P|78:77|127:72,1,100,0|0,3:0|3:0,0:0:0:0:
235,41,21764,2,0,P|220:88|225:137,1,100,0|8,3:0|3:0,0:0:0:0:
316,200,22453,5,4,0:0:0:0:
210,236,22798,1,8,0:0:0:0:
210,236,22971,2,0,L|203:335,1,100,0|2,0:0|0:0,0:0:0:0:
233,381,23488,1,10,0:0:0:0:
327,325,23833,2,0,P|374:344|441:324,1,100,2|8,0:0|0:0,0:0:0:0:
498,258,24522,2,0,B|508:209|508:209|497:161,1,100,0|8,0:0|0:0,0:0:0:0:
425,76,25212,5,4,0:0:0:0:
316,100,25557,1,8,0:0:0:0:
316,100,25729,2,0,L|316:200,1,100,0|0,0:0|0:0,0:0:0:0:
337,251,26247,1,8,0:0:0:0:
229,268,26591,2,0,P|188:219|105:212,1,150,2|0,0:0|0:0,0:0:0:0:
63,246,27281,2,0,L|64:299,2,50,0|0|8,0:0|0:0|0:0,0:0:0:0:
24,142,27971,5,4,0:0:0:0:
92,55,28316,1,8,0:0:0:0:
92,55,28488,2,0,L|191:58,1,100,0|2,0:0|0:0,0:0:0:0:
227,100,29005,1,10,0:0:0:0:
324,48,29350,2,0,B|346:96|346:96|390:111,1,100,2|8,0:0|0:0,0:0:0:0:
498,85,30040,2,0,P|516:130|512:180,1,100,0|8,0:0|0:0,0:0:0:0:
430,253,30729,6,0,P|382:246|324:326,1,150,4|0,0:0|0:0,0:0:0:0:
316,372,31419,2,0,P|291:333|237:320,1,100,0|8,0:0|0:0,0:0:0:0:
146,375,32109,2,0,P|179:339|147:246,1,150,2|2,0:0|0:0,0:0:0:0:
114,213,32799,2,0,P|160:214|201:178,1,100,2|8,0:0|0:0,0:0:0:0:
231,76,33488,5,4,0:0:0:0:
307,154,33833,1,8,0:0:0:0:
307,154,34005,2,0,L|408:148,1,100,0|2,0:0|0:0,0:0:0:0:
449,113,34522,1,10,0:0:0:0:
500,208,34867,2,0,P|505:258|490:305,1,100,2|8,0:0|0:0,0:0:0:0:
406,377,35557,2,0,B|370:340|370:340|323:331,1,100,0|8,0:0|0:0,0:0:0:0:
213,347,36247,5,4,0:0:0:0:
133,271,36591,1,8,0:0:0:0:
133,271,36764,2,0,P|116:214|114:170,1,100,0|0,0:0|0:0,0:0:0:0:
141,125,37281,1,8,0:0:0:0:
232,186,37626,2,0,B|305:174|305:174|377:207,1,150,2|0,0:0|0:0,0:0:0:0:
400,254,38316,2,0,P|403:287|403:311,2,50,0|0|8,0:0|0:0|0:0,0:0:0:0:
500,208,39005,5,4,0:0:0:0:
463,104,39350,1,8,0:0:0:0:
463,104,39522,2,0,P|412:108|363:102,1,100,0|2,0:0|0:0,0:0:0:0:
315,74,40040,1,10,0:0:0:0:
220,130,40385,2,0,B|215:182|215:182|225:228,1,100,2|8,0:0|0:0,0:0:0:0:
303,306,41074,2,0,L|402:303,1,100,0|8,0:0|0:0,0:0:0:0:
367,196,41764,6,0,B|317:191|317:191|225:228,1,150,4|2,0:0|0:0,0:0:0:0:
125,278,42626,1,2,0:0:0:0:
38,210,42971,2,0,B|19:160|32:112|32:112|60:88|97:88,1,150,4|8,0:0|0:0,0:0:0:0:
166,151,43833,2,0,P|184:105|179:56,1,100,0|8,0:0|3:0,0:0:0:0:
150,9,44350,1,8,3:0:0:0:
150,9,44522,5,4,0:0:0:0:
258,16,44867,2,0,P|274:89|260:163,1,150,8|2,0:0|0:0,0:0:0:0:
232,210,45557,1,8,0:0:0:0:
302,294,45902,2,0,L|455:286,2,150,2|2|8,0:0|0:0|0:0,0:0:0:0:
232,210,47281,5,4,0:0:0:0:
137,266,47626,2,0,P|123:193|158:128,1,150,8|0,0:0|0:0,0:0:0:0:
207,104,48316,1,8,0:0:0:0:
312,135,48660,2,0,B|332:211|332:211|320:281,2,150,2|2|10,0:0|0:0|0:0,0:0:0:0:
380,47,50040,5,4,0:0:0:0:
451,130,50385,2,0,P|382:157|312:135,1,150,8|2,0:0|0:0,0:0:0:0:
280,90,51074,1,8,0:0:0:0:
236,191,51419,2,0,B|224:261|224:261|244:337,2,150,2|2|8,0:0|0:0|0:0,0:0:0:0:
170,102,52798,6,0,P|106:78|39:115,1,150,4|0,0:0|0:0,0:0:0:0:
13,164,53488,2,0,B|1:217|1:217|12:261,1,100,0|8,0:0|0:0,0:0:0:0:
95,333,54178,2,0,B|146:316|146:316|179:284,1,100,2|8,0:0|0:0,0:0:0:0:
201,178,54867,2,0,B|161:141|161:141|117:128,1,100,0|8,0:0|0:0,0:0:0:0:
256,192,55557,12,2,57281,0:0:0:0:
42,338,58316,6,0,P|130:343|143:291,1,150,4|0,0:0|0:0,0:0:0:0:
136,243,59005,2,0,L|86:243,2,50,0|2|10,0:0|0:0|0:0,0:0:0:0:
236,195,59695,2,0,P|228:246|232:294,1,100,2|8,0:0|0:0,0:0:0:0:
274,331,60212,2,0,P|282:280|277:232,1,100,0|2,0:0|0:0,0:0:0:0:
327,207,60729,1,8,0:0:0:0:
416,269,61074,6,0,P|465:277|512:259,1,100,4|8,0:0|0:0,0:0:0:0:
512,149,61764,2,0,P|464:133|416:143,1,100,0|8,0:0|0:0,0:0:0:0:
371,174,62281,1,2,0:0:0:0:
327,207,62453,2,0,P|288:128|292:75,1,100,2|8,0:0|0:0,0:0:0:0:
323,75,62971,2,0,P|329:49|332:25,1,50
223,10,63488,1,8,0:0:0:0:
120,49,63833,6,0,P|103:95|105:145,1,100,4|8,0:0|0:0,0:0:0:0:
136,191,64350,1,0,0:0:0:0:
136,191,64522,2,0,L|241:185,1,100,0|10,0:0|0:0,0:0:0:0:
341,152,65212,2,0,P|324:198|326:248,1,100,2|8,0:0|0:0,0:0:0:0:
357,294,65729,1,0,0:0:0:0:
357,294,65902,2,0,L|462:288,1,100,0|8,0:0|0:0,0:0:0:0:
483,181,66591,6,0,B|406:184|406:184|341:152,1,150,4|0,0:0|0:0,0:0:0:0:
310,105,67281,2,0,P|304:55|319:8,1,100,0|8,0:0|0:0,0:0:0:0:
413,67,67971,2,0,P|415:128|395:235,1,150,0|0,0:0|0:0,0:0:0:0:
373,262,68660,1,2,0:0:0:0:
270,221,69005,2,0,L|221:226,1,50,8|8,3:0|3:0,0:0:0:0:
170,251,69350,6,0,P|164:184|98:195,1,150,4|0,0:0|0:0,0:0:0:0:
72,243,70040,2,0,P|76:279|85:305,2,50,0|2|8,0:0|0:0|0:0,0:0:0:0:
21,144,70729,2,0,P|13:93|14:44,1,100,2|8,0:0|0:0,0:0:0:0:
58,11,71247,2,0,P|66:62|65:111,1,100,0|2,0:0|0:0,0:0:0:0:
118,125,71764,1,8,0:0:0:0:
204,57,72109,6,0,L|305:64,1,100,4|8,0:0|0:0,0:0:0:0:
311,173,72798,2,0,L|412:166,1,100,0|8,0:0|0:0,0:0:0:0:
447,124,73316,1,2,0:0:0:0:
493,95,73488,2,0,P|509:143|513:193,1,100,2|8,0:0|0:0,0:0:0:0:
511,247,74005,2,0,P|486:250|461:248,1,50,0|0,0:0|0:0,0:0:0:0:
391,334,74522,1,8,0:0:0:0:
293,282,74867,6,0,P|251:306|201:306,1,100,4|8,0:0|0:0,0:0:0:0:
109,244,75557,2,0,P|84:201|84:151,1,100,0|10,0:0|0:0,0:0:0:0:
147,59,76247,2,0,P|189:34|239:34,1,100,2|8,0:0|0:0,0:0:0:0:
331,97,76936,2,0,P|355:139|355:189,1,100,0|8,0:0|0:0,0:0:0:0:
256,192,77626,12,4,80385,0:0:0:0:
397,40,81247,6,0,L|401:90,1,50,2|10,0:0|0:0,0:0:0:0:
423,140,81592,1,2,0:0:0:0:
423,140,81764,2,0,P|376:125|328:134,1,100,2|8,0:0|0:0,0:0:0:0:
255,217,82453,2,0,P|240:264|249:312,1,100,0|8,0:0|0:0,0:0:0:0:
356,337,83143,6,0,B|453:319|453:319|501:349,2,150,4|0|8,0:0|0:0|0:0,0:0:0:0:
313,372,84350,1,2,0:0:0:0:
313,372,84522,2,0,P|340:302|347:228,1,150,2|2,0:0|0:0,0:0:0:0:
328,176,85212,1,2,0:0:0:0:
230,124,85557,1,8,0:0:0:0:
180,222,85902,6,0,B|114:215|114:215|98:222|98:222|31:217,1,150,4|0,0:0|0:0,0:0:0:0:
0,111,86764,2,0,P|1:87|5:62,1,50,2|10,0:0|0:0,0:0:0:0:
47,25,87108,1,2,0:0:0:0:
47,25,87281,2,0,P|92:45|141:45,1,100,2|8,0:0|0:0,0:0:0:0:
240,93,87971,2,0,P|285:72|334:72,1,100,0|8,0:0|0:0,0:0:0:0:
423,140,88660,6,0,B|440:241|440:241|410:255|387:314,2,150,4|0|8,0:0|0:0|0:0,0:0:0:0:
456,96,89867,1,2,0:0:0:0:
456,96,90040,2,0,L|353:87,1,100,0|0,3:0|3:0,0:0:0:0:
300,181,90729,2,0,L|197:190,1,100,0|8,3:0|3:0,0:0:0:0:
104,135,91419,5,8,3:0:0:0:
48,279,102453,5,4,0:0:0:0:
148,324,102798,1,8,0:0:0:0:
148,324,102971,2,0,L|154:223,1,100,0|2,0:0|0:0,0:0:0:0:
158,169,103488,1,10,0:0:0:0:
252,225,103833,2,0,P|301:227|347:209,1,100,2|8,0:0|0:0,0:0:0:0:
411,120,104522,2,0,B|413:70|413:70|395:24,1,100,0|8,0:0|0:0,0:0:0:0:
287,4,105212,5,4,0:0:0:0:
202,74,105557,1,8,0:0:0:0:
202,74,105729,2,0,L|97:69,1,100,0|0,0:0|0:0,0:0:0:0:
46,67,106247,1,8,0:0:0:0:
66,174,106591,2,0,P|68:223|57:338,1,150,2|0,0:0|0:0,0:0:0:0:
49,377,107281,2,0,P|20:378|-5:381,2,50,0|0|8,0:0|0:0|0:0,0:0:0:0:
148,324,107971,5,4,0:0:0:0:
247,370,108316,1,8,0:0:0:0:
247,370,108488,2,0,P|247:315|274:275,1,100,0|2,0:0|0:0,0:0:0:0:
315,246,109005,1,10,0:0:0:0:
421,273,109350,2,0,P|423:226|417:169,1,100,2|8,0:0|0:0,0:0:0:0:
311,146,110040,2,0,L|315:246,1,100,0|8,0:0|0:0,0:0:0:0:
344,350,110729,6,0,P|412:379|483:360,1,150,4|2,0:0|0:0,0:0:0:0:
507,252,111591,1,2,0:0:0:0:
455,154,111936,2,0,B|405:142|405:142|359:157|359:157|311:146,1,150,4|8,0:0|0:0,0:0:0:0:
218,85,112798,2,0,P|200:131|205:180,1,100,0|8,0:0|3:0,0:0:0:0:
234,227,113315,1,8,3:0:0:0:
234,227,113487,5,4,0:0:0:0:
208,334,113833,2,0,B|133:319|133:319|62:338,1,150,8|2,0:0|0:0,0:0:0:0:
23,377,114522,1,8,0:0:0:0:
0,270,114867,2,0,P|0:195|30:127,2,150,2|2|8,0:0|0:0|0:0,0:0:0:0:
97,217,116247,5,4,0:0:0:0:
194,267,116591,2,0,B|293:279|293:279|344:266,1,150,8|0,0:0|0:0,0:0:0:0:
393,246,117281,1,8,0:0:0:0:
364,139,117626,2,0,P|431:115|474:170,2,150,2|2|10,0:0|0:0|0:0,0:0:0:0:
275,75,119005,5,4,0:0:0:0:
221,171,119350,2,0,B|172:180|123:164|123:164|93:195|61:211,1,150,8|2,0:0|0:0,0:0:0:0:
34,220,120040,1,8,0:0:0:0:
3,113,120385,2,0,P|63:70|76:-1,2,150,2|2|8,0:0|0:0|0:0,0:0:0:0:
34,220,121764,6,0,L|183:212,1,150,4|0,0:0|0:0,0:0:0:0:
221,171,122453,2,0,B|234:120|234:120|225:73,1,100,0|8,0:0|0:0,0:0:0:0:
143,0,123143,2,0,B|92:14|92:14|56:45,1,100,2|8,0:0|0:0,0:0:0:0:
34,153,123833,2,0,B|71:189|71:189|116:205,1,100,0|8,0:0|0:0,0:0:0:0:
256,192,124522,12,2,126247,0:0:0:0:
445,211,127281,6,0,P|405:246|355:182,1,150,4|0,0:0|0:0,0:0:0:0:
379,136,127971,2,0,P|388:98|388:82,2,50,0|2|10,0:0|0:0|0:0,0:0:0:0:
271,160,128660,2,0,L|171:152,1,100,2|8,0:0|0:0,0:0:0:0:
128,187,129178,2,0,L|227:194,1,100,0|2,0:0|0:0,0:0:0:0:
251,244,129695,1,8,0:0:0:0:
196,340,130040,6,0,P|149:354|99:355,1,100,4|8,0:0|0:0,0:0:0:0:
10,290,130729,2,0,P|24:242|25:192,1,100,0|8,0:0|0:0,0:0:0:0:
16,137,131247,1,2,0:0:0:0:
7,82,131419,2,0,P|90:108|146:95,1,100,2|8,0:0|0:0,0:0:0:0:
155,95,131936,2,0,P|176:84|196:69,1,50,0|0,0:0|0:0,0:0:0:0:
296,113,132453,1,8,0:0:0:0:
388,55,132798,6,0,L|396:154,1,100,4|8,0:0|0:0,0:0:0:0:
420,204,133316,1,0,0:0:0:0:
420,204,133488,2,0,P|362:196|312:209,1,100,0|10,0:0|0:0,0:0:0:0:
216,246,134178,2,0,L|224:147,1,100,2|8,0:0|0:0,0:0:0:0:
248,97,134696,1,0,0:0:0:0:
248,97,134868,2,0,P|190:105|140:92,1,100,0|8,0:0|0:0,0:0:0:0:
68,169,135557,6,0,B|53:268|53:268|64:322,1,150,4|0,0:0|0:0,0:0:0:0:
82,368,136247,2,0,P|139:341|174:345,1,100,0|8,0:0|0:0,0:0:0:0:
262,278,136936,2,0,P|319:305|415:309,1,150,0|0,0:0|0:0,0:0:0:0:
456,291,137626,1,2,0:0:0:0:
495,188,137971,2,0,L|496:138,1,50,8|8,3:0|3:0,0:0:0:0:
497,82,138316,6,0,P|445:111|389:53,1,150,4|0,0:0|0:0,0:0:0:0:
411,4,139005,2,0,P|441:2|463:4,2,50,0|2|10,0:0|0:0|0:0,0:0:0:0:
304,31,139695,2,0,L|299:133,1,100,2|8,0:0|0:0,0:0:0:0:
250,157,140212,2,0,L|254:57,1,100,0|2,0:0|0:0,0:0:0:0:
201,42,140729,1,8,0:0:0:0:
93,65,141074,6,0,P|77:111|85:160,1,100,4|8,0:0|0:0,0:0:0:0:
169,232,141764,2,0,P|177:280|161:327,1,100,0|8,0:0|0:0,0:0:0:0:
213,311,142281,1,2,0:0:0:0:
265,295,142453,2,0,L|364:304,1,100,2|8,0:0|0:0,0:0:0:0:
401,346,142971,2,0,L|459:348,1,50,0|0,0:0|0:0,0:0:0:0:
505,252,143488,1,8,0:0:0:0:
403,210,143833,6,0,P|394:160|395:110,1,100,4|8,0:0|0:0,0:0:0:0:
341,14,144522,2,0,P|291:22|241:21,1,100,0|10,0:0|0:0,0:0:0:0:
145,76,145212,2,0,P|153:126|152:176,1,100,2|8,0:0|0:0,0:0:0:0:
207,272,145902,2,0,P|257:264|307:265,1,100,0|8,0:0|0:0,0:0:0:0:
256,192,146591,12,4,149350,0:0:0:0:
0,206,150212,6,0,L|50:202,1,50,2|10,0:0|0:0,0:0:0:0:
100,180,150557,1,2,0:0:0:0:
100,180,150729,2,0,B|79:229|101:277|101:277|92:305|94:326,2,150,2|0|8,0:0|0:0|0:0,0:0:0:0:
190,117,152109,2,0,B|246:97|285:123|285:123|314:172,2,150,4|0|8,0:0|0:0|0:0,0:0:0:0:
200,226,153488,1,0,3:0:0:0:
298,275,153833,1,0,3:0:0:0:
398,230,154178,2,0,L|404:332,1,100,4|8,3:0|3:0,0:0:0:0:
506,290,154867,6,0,P|515:238|511:190,2,100,4|8|0,0:0|0:0|0:0,0:0:0:0:
402,328,155902,2,0,P|390:307|382:283,1,50,10|2,0:0|0:0,0:0:0:0:
398,230,156247,2,0,B|351:207|300:212|300:212|300:237|286:260,2,150,2|0|8,0:0|0:0|0:0,0:0:0:0:
486,165,157626,5,4,0:0:0:0:
414,80,157971,2,0,P|368:95|318:89,1,100,8|0,0:0|0:0,0:0:0:0:
280,49,158488,2,0,B|276:29|276:29|273:-1,2,50,0|8|2,0:0|0:0|0:0,0:0:0:0:
229,70,159005,1,8,0:0:0:0:
178,167,159350,1,8,0:0:0:0:
236,261,159695,2,0,L|287:258,2,50,2|8|8,0:0|3:0|3:0,0:0:0:0:
146,325,160385,6,0,B|96:316|96:316|48:327,1,100,4|8,0:0|0:0,0:0:0:0:
2,226,161074,1,0,0:0:0:0:
2,226,161247,2,0,P|46:180|55:131,1,100,2|2,2:0|0:0,0:0:0:0:
42,92,161764,2,0,L|141:86,1,100,2|8,0:0|0:0,0:0:0:0:
212,170,162453,2,0,L|311:175,1,100,0|8,0:0|0:0,0:0:0:0:
401,111,163143,6,0,P|388:82|381:60,2,50,4|0|8,0:0|0:0|0:0,0:0:0:0:
448,139,163660,2,0,B|498:134|498:134|474:172|481:231,1,150,0|8,0:0|0:0,0:0:0:0:
440,333,164522,2,0,P|390:339|342:326,1,100,0|0,3:0|3:0,0:0:0:0:
263,250,165212,1,0,3:0:0:0:
237,356,165557,1,8,3:0:0:0:
158,280,165902,6,0,B|150:231|150:231|161:182,1,100,4|8,0:0|0:0,0:0:0:0:
266,151,166591,2,0,B|274:200|274:200|263:249,1,100,0|10,0:0|0:0,0:0:0:0:
237,356,167281,2,0,B|172:331|172:331|92:340,1,150,2|0,0:0|0:0,0:0:0:0:
39,356,167971,2,0,P|53:308|57:258,1,100,0|8,0:0|0:0,0:0:0:0:
25,152,168660,5,12,0:0:0:0:
115,89,169005,1,8,0:0:0:0:
201,154,169350,2,0,L|305:164,1,100,2|8,0:0|0:0,0:0:0:0:
356,169,169867,1,8,0:0:0:0:
256,192,170040,12,2,171419,0:0:0:0:
375,213,176936,5,2,0:0:0:0:
317,119,177281,2,0,B|266:114|266:114|221:131|221:131|170:125,1,150,2|0,0:0|0:0,0:0:0:0:
121,100,177971,1,2,0:0:0:0:
46,180,178316,2,0,B|23:234|33:278|33:278|15:298|9:320,1,150,2|0,0:0|0:0,0:0:0:0:
115,352,179178,2,0,B|167:338|167:338|222:338,1,100,8|8,0:0|0:0,0:0:0:0:
256,372,179695,6,0,P|252:302|318:279,1,150,2|0,0:0|0:0,0:0:0:0:
368,303,180385,2,0,B|418:313|418:313|465:298,1,100,2|10,0:0|0:0,0:0:0:0:
502,194,181074,2,0,B|485:145|485:145|449:112,1,100,2|2,0:0|0:0,0:0:0:0:
340,132,181764,1,4,0:0:0:0:
256,59,182109,1,0,3:0:0:0:
256,192,182453,12,2,184178,0:0:0:0:
65,117,185212,6,0,B|144:154|177:219|146:274|146:274|85:278|54:239|54:239|61:183|144:154|202:161|238:209|238:209|275:192|306:198,1,600,4|0,3:1|0:0,0:0:0:0:
512,282,187971,1,0,0:0:0:0:
127,80,210040,6,0,P|83:31|48:105,1,150,4|0,0:0|0:0,0:0:0:0:
48,134,210729,2,0,P|52:183|51:196,2,50,0|2|8,0:0|0:0|0:0,0:0:0:0:
143,188,211419,2,0,B|192:178|192:178|243:190,1,100,2|8,0:0|0:0,0:0:0:0:
275,232,211936,2,0,B|226:242|226:242|175:230,1,100,0|2,0:0|0:0,0:0:0:0:
149,277,212453,1,8,0:0:0:0:
206,369,212798,6,0,P|248:345|298:341,1,100,4|8,0:0|0:0,0:0:0:0:
408,356,213488,2,0,P|383:313|379:263,1,100,0|8,0:0|0:0,0:0:0:0:
407,216,214005,1,2,0:0:0:0:
435,168,214178,2,0,B|387:172|387:172|302:131,1,100,2|8,0:0|0:0,0:0:0:0:
295,117,214695,2,0,P|277:81|274:68,1,50,0|0,0:0|0:0,0:0:0:0:
166,53,215212,1,8,0:0:0:0:
67,103,215557,6,0,P|55:151|68:199,1,100,4|8,0:0|0:0,0:0:0:0:
106,238,216074,1,0,0:0:0:0:
106,238,216247,2,0,P|117:189|104:141,1,100,0|10,0:0|0:0,0:0:0:0:
213,158,216936,2,0,P|201:206|214:254,1,100,2|8,0:0|0:0,0:0:0:0:
252,293,217453,1,0,0:0:0:0:
252,293,217626,2,0,P|263:244|250:196,1,100,0|8,0:0|0:0,0:0:0:0:
353,236,218316,6,0,L|502:222,1,150,4|0,0:0|0:0,0:0:0:0:
468,178,219005,2,0,P|443:134|434:85,1,100,0|8,0:0|0:0,0:0:0:0:
346,19,219695,2,0,P|337:68|312:111,1,100,0|8,0:0|0:0,0:0:0:0:
213,158,220385,1,2,0:0:0:0:
260,257,220729,2,0,L|208:268,1,50,8|8,3:0|3:0,0:0:0:0:
161,304,221074,6,0,P|155:248|81:268,1,150,4|0,0:0|0:0,0:0:0:0:
69,318,221764,2,0,P|65:358|67:378,2,50,0|2|10,0:0|0:0|0:0,0:0:0:0:
0,231,222453,2,0,P|-5:181|6:133,1,100,2|8,0:0|0:0,0:0:0:0:
50,100,222971,2,0,P|55:149|43:197,1,100,0|2,0:0|0:0,0:0:0:0:
96,213,223488,1,8,0:0:0:0:
177,139,223833,6,0,L|276:131,1,100,4|8,0:0|0:0,0:0:0:0:
327,33,224522,2,0,L|426:41,1,100,0|8,0:0|0:0,0:0:0:0:
455,88,225040,1,2,0:0:0:0:
482,135,225212,2,0,B|487:168|487:168|474:199|474:199|479:231,1,100,2|8,0:0|0:0,0:0:0:0:
490,285,225729,2,0,L|440:283,1,50,0|0,0:0|0:0,0:0:0:0:
387,380,226247,1,8,0:0:0:0:
281,351,226591,6,0,P|262:306|220:281,1,100,4|8,0:0|0:0,0:0:0:0:
169,182,227281,2,0,P|214:163|240:121,1,100,0|10,0:0|0:0,0:0:0:0:
339,70,227971,2,0,P|358:115|401:141,1,100,2|8,0:0|0:0,0:0:0:0:
451,240,228660,2,0,P|406:259|381:302,1,100,0|8,0:0|0:0,0:0:0:0:
256,192,229350,12,4,232109,0:0:0:0:
115,344,232971,6,0,P|114:319|111:294,1,50,2|10,0:0|0:0,0:0:0:0:
89,244,233316,1,2,0:0:0:0:
89,244,233488,2,0,L|192:253,1,100,2|8,0:0|0:0,0:0:0:0:
257,167,234177,2,0,B|272:120|272:120|263:71,1,100,0|8,0:0|0:0,0:0:0:0:
156,47,234867,6,0,B|115:57|89:81|89:81|75:51|38:25,2,150,4|0|8,0:0|0:0|0:0,0:0:0:0:
199,12,236074,1,2,0:0:0:0:
199,12,236246,2,0,B|169:108|169:108|163:158,1,150,2|2,0:0|0:0,0:0:0:0:
184,208,236936,1,2,0:0:0:0:
282,260,237281,1,8,0:0:0:0:
332,162,237626,6,0,B|365:173|365:173|428:154|428:154|481:165,1,150,4|0,0:0|0:0,0:0:0:0:
509,268,238488,2,0,P|505:292|504:317,1,50,2|10,0:0|0:0,0:0:0:0:
465,359,238832,1,2,0:0:0:0:
465,359,239005,2,0,B|420:339|420:339|370:339,1,100,2|8,0:0|0:0,0:0:0:0:
272,291,239695,2,0,B|227:312|227:312|177:312,1,100,0|8,0:0|0:0,0:0:0:0:
89,244,240384,6,0,B|69:200|83:147|83:147|108:160|130:164,2,150,4|0|8,0:0|0:0|0:0,0:0:0:0:
56,288,241591,1,2,0:0:0:0:
56,288,241764,2,0,P|116:290|159:297,1,100,0|0,3:0|3:0,0:0:0:0:
228,213,242453,2,0,P|288:211|331:204,1,100,0|8,3:0|3:0,0:0:0:0:
418,141,243143,1,2,3:2:0:0:
