osu file format v14

[General]
AudioFilename: audio.mp3
AudioLeadIn: 0
PreviewTime: 57453
Countdown: 0
SampleSet: Soft
StackLeniency: 0.5
Mode: 0
LetterboxInBreaks: 0
WidescreenStoryboard: 0

[Editor]
Bookmarks: 11419,22453,44522,58316,80385,91419,101764,113488,127281,149350,160385,171419,176936,187971,199005,210040,232109,243143
DistanceSpacing: 1.2
BeatDivisor: 4
GridSize: 4
TimelineZoom: 1.3

[Metadata]
Title:Akane Contrast
TitleUnicode:茜コントラスト
Artist:Usa
ArtistUnicode:うさ
Creator:timemon
Version:Contrast
Source:
Tags:Hana はな さころにー usacolony doriko Romeo and Cinderella Hatsune Miku 初音ミク うさころ よん Usacolo Yon Lasse deppyforce
BeatmapID:1481773
BeatmapSetID:699833

[Difficulty]
HPDrainRate:6
CircleSize:4
OverallDifficulty:8
ApproachRate:9
SliderMultiplier:1.7
SliderTickRate:1

[Events]
//Background and Video events
0,0,"yettt.jpg",0,0
//Break Periods
2,91619,101084
2,171619,176336
2,187971,197626
//Storyboard Layer 0 (Background)
//Storyboard Layer 1 (Fail)
//Storyboard Layer 2 (Pass)
//Storyboard Layer 3 (Foreground)
//Storyboard Sound Samples

[TimingPoints]
385,344.827586206897,4,2,1,50,1,0
10040,-125,4,2,1,50,0,0
11419,-100,4,2,1,50,0,0
22453,-125,4,2,1,40,0,0
42022,-125,4,2,1,5,0,0
42109,-125,4,2,1,40,0,0
44522,-111.111111111111,4,2,1,45,0,0
45126,-111.111111111111,4,2,1,5,0,0
45212,-111.111111111111,4,2,1,45,0,0
47885,-111.111111111111,4,2,1,5,0,0
47971,-111.111111111111,4,2,1,45,0,0
50643,-111.111111111111,4,2,1,5,0,0
50729,-111.111111111111,4,2,1,45,0,0
54436,-111.111111111111,4,2,1,5,0,0
54522,-111.111111111111,4,2,1,45,0,0
57281,-111.111111111111,4,2,1,45,0,0
58316,-90.9090909090909,4,2,1,55,0,1
59953,-90.9090909090909,4,2,1,5,0,1
60040,-90.9090909090909,4,2,1,55,0,1
61333,-90.9090909090909,4,2,1,5,0,1
61419,-76.9230769230769,4,2,1,55,0,1
61678,-76.9230769230769,4,2,1,5,0,1
61764,-76.9230769230769,4,2,1,55,0,1
62453,-90.9090909090909,4,2,1,55,0,1
66591,-90.9090909090909,4,2,1,55,0,0
69350,-90.9090909090909,4,2,1,55,0,1
72367,-90.9090909090909,4,2,1,5,0,1
72453,-76.9230769230769,4,2,1,55,0,1
72712,-76.9230769230769,4,2,1,5,0,1
72798,-76.9230769230769,4,2,1,55,0,1
73488,-90.9090909090909,4,2,1,55,0,1
80385,-100,4,2,1,50,0,0
101764,-125,4,2,1,40,0,0
113488,-111.111111111111,4,2,1,45,0,0
114091,-111.111111111111,4,2,1,5,0,0
114178,-111.111111111111,4,2,1,45,0,0
116850,-111.111111111111,4,2,1,5,0,0
116936,-111.111111111111,4,2,1,45,0,0
119609,-111.111111111111,4,2,1,5,0,0
119695,-111.111111111111,4,2,1,45,0,0
123402,-111.111111111111,4,2,1,5,0,0
123488,-111.111111111111,4,2,1,45,0,0
126247,-111.111111111111,4,2,1,45,0,0
127281,-90.9090909090908,4,2,1,55,0,1
130298,-90.9090909090908,4,2,1,5,0,1
130385,-76.9230769230769,4,2,1,55,0,1
130643,-76.9230769230769,4,2,1,55,0,1
130729,-76.9230769230769,4,2,1,55,0,1
131419,-90.9090909090909,4,2,1,55,0,1
135557,-90.9090909090909,4,2,1,55,0,0
138316,-90.9090909090909,4,2,1,55,0,1
139956,-90.9090909090909,4,2,1,5,0,1
140040,-90.9090909090909,4,2,1,55,0,1
141333,-90.9090909090909,4,2,1,5,0,1
141419,-76.9230769230769,4,2,1,55,0,1
141678,-76.9230769230769,4,2,1,5,0,1
141764,-76.9230769230769,4,2,1,55,0,1
142453,-90.9090909090909,4,2,1,55,0,1
149350,-100,4,2,1,50,0,0
176936,-125,4,2,1,40,0,0
181764,-100,4,2,1,50,0,0
184522,-100,4,2,1,35,0,0
187281,-100,4,2,1,5,0,0
199005,-166.666666666667,4,2,1,35,0,0
209350,-100,4,2,1,50,0,0
210040,-90.9090909090909,4,2,1,55,0,1
211678,-90.9090909090909,4,2,1,5,0,1
211764,-90.9090909090909,4,2,1,55,0,1
213057,-90.9090909090909,4,2,1,5,0,1
213143,-76.9230769230769,4,2,1,55,0,1
213402,-76.9230769230769,4,2,1,5,0,1
213488,-76.9230769230769,4,2,1,55,0,1
214178,-90.9090909090909,4,2,1,55,0,1
218316,-90.9090909090909,4,2,1,55,0,0
221074,-90.9090909090909,4,2,1,55,0,1
224091,-90.9090909090909,4,2,1,5,0,1
224178,-76.9230769230769,4,2,1,55,0,1
224436,-76.9230769230769,4,2,1,5,0,1
224522,-76.9230769230769,4,2,1,55,0,1
225212,-90.9090909090909,4,2,1,55,0,1
232109,-100,4,2,1,50,0,0

[Colours]
Combo1 : 255,228,147
Combo2 : 255,202,149
Combo3 : 220,220,184
Combo4 : 255,149,149

[HitObjects]
149,46,10729,5,2,0:0:0:0:
83,115,10902,1,0,3:0:0:0:
83,115,10988,1,0,3:0:0:0:
83,115,11074,2,0,L|86:164,3,34,8|8|8|8,3:0|3:0|3:0|3:0,3:0:0:0:
164,196,11419,6,0,P|157:240|145:310,1,85,4|0,0:0|0:0,0:0:0:0:
127,378,11764,1,8,0:0:0:0:
40,224,11936,2,0,P|47:268|59:338,1,85
216,360,12281,1,2,0:0:0:0:
220,343,12367,1,2,0:0:0:0:
224,326,12453,1,10,0:0:0:0:
150,279,12626,1,2,0:0:0:0:
262,168,12798,6,0,P|206:189|115:123,1,170,2|8,0:0|0:0,0:0:0:0:
71,16,13316,1,0,0:0:0:0:
8,198,13488,1,0,0:0:0:0:
141,114,13660,1,2,0:0:0:0:
0,91,13833,1,8,0:0:0:0:
178,21,14005,1,2,0:0:0:0:
119,211,14178,6,0,P|161:216|203:221,1,85,4|0,0:0|0:0,0:0:0:0:
273,126,14522,1,8,0:0:0:0:
353,295,14695,2,0,P|311:300|269:306,1,85
39,264,15040,2,0,P|21:221|32:163,1,85,0|8,0:0|0:0,0:0:0:0:
153,63,15385,1,2,0:0:0:0:
153,63,15557,6,0,B|244:33|232:105|324:73,1,170,2|8,0:0|0:0,0:0:0:0:
429,41,16074,1,2,0:0:0:0:
428,157,16247,2,0,B|434:217|434:217|418:269|418:269|425:357,1,170,2|8,0:0|0:0,0:0:0:0:
511,280,16764,1,0,0:0:0:0:
340,206,16936,6,0,P|295:213|241:221,1,85,4|0,0:0|0:0,0:0:0:0:
295,313,17281,1,8,0:0:0:0:
131,111,17453,2,0,P|176:118|230:126,1,85
283,47,17798,1,2,0:0:0:0:
283,47,17885,1,2,0:0:0:0:
283,47,17971,1,10,0:0:0:0:
185,213,18143,1,2,0:0:0:0:
306,287,18316,6,0,P|280:226|156:239,1,170,2|8,0:0|0:0,0:0:0:0:
108,291,18833,1,0,0:0:0:0:
155,106,19005,1,0,0:0:0:0:
214,319,19178,1,2,0:0:0:0:
1,264,19350,1,8,0:0:0:0:
185,213,19522,1,2,0:0:0:0:
32,371,19695,6,0,B|44:312|44:312|32:260|32:260|52:188,1,170,4|8,0:0|0:0,0:0:0:0:
172,128,20212,2,0,P|177:173|191:240,1,85
301,270,20557,2,0,P|296:315|282:382,1,85,0|8,0:0|0:0,0:0:0:0:
405,210,20902,1,2,0:0:0:0:
403,197,20988,1,2,0:0:0:0:
401,184,21074,6,0,L|407:121,3,42.5,0|0|0|0,3:0|3:0|3:0|3:0,3:0:0:0:
328,68,21419,2,0,L|334:131,3,42.5,0|0|0|0,3:0|3:0|3:0|3:0,3:0:0:0:
198,164,21764,2,0,P|237:178|279:169,1,85,0|0,3:0|3:0,3:0:0:0:
278,169,22022,1,8,3:0:0:0:
278,169,22109,1,8,3:0:0:0:
163,92,22281,1,8,3:0:0:0:
163,92,22367,1,8,3:0:0:0:
163,92,22453,6,0,P|104:112|44:72,1,136,4|8,0:0|0:0,0:0:0:0:
7,163,22971,2,0,B|21:224|21:224|19:305,1,136,0|2,0:0|0:0,0:0:0:0:
19,297,23402,1,2,0:0:0:0:
19,297,23488,1,10,0:0:0:0:
85,383,23660,1,2,0:0:0:0:
149,294,23833,6,0,P|161:237|252:223,1,136,2|8,0:0|0:0,0:0:0:0:
310,285,24350,2,0,L|301:365,1,68
228,212,24695,2,0,L|219:132,1,68,2|8,0:0|0:0,0:0:0:0:
209,42,25040,1,2,0:0:0:0:
429,111,25212,6,0,P|367:124|299:90,1,136,4|8,0:0|0:0,0:0:0:0:
209,42,25729,2,0,P|176:33|147:18,1,68
3,95,26074,2,0,P|35:86|65:70,1,68,0|8,0:0|0:0,0:0:0:0:
148,130,26419,1,2,0:0:0:0:
148,130,26591,6,0,B|172:187|172:187|159:288,1,136,2|8,0:0|0:0,0:0:0:0:
74,334,27109,1,0,0:0:0:0:
74,334,27281,2,0,B|50:277|50:277|63:176,1,136,0|8,0:0|0:0,0:0:0:0:
59,203,27798,1,2,0:0:0:0:
280,214,27971,6,0,P|232:256|142:252,1,136,4|8,0:0|0:0,0:0:0:0:
187,161,28488,2,0,P|235:119|325:123,1,136,0|2,0:0|0:0,0:0:0:0:
304,114,28919,1,2,0:0:0:0:
304,114,29005,1,10,0:0:0:0:
392,187,29178,1,2,0:0:0:0:
461,95,29350,6,0,P|458:56|457:22,1,68,2|0,0:0|0:0,0:0:0:0:
356,52,29695,1,8,0:0:0:0:
392,187,29867,2,0,P|395:222|388:260,1,68
289,342,30212,2,0,P|283:308|286:274,1,68,2|8,0:0|0:0,0:0:0:0:
237,189,30557,1,2,0:0:0:0:
289,342,30729,6,0,B|226:365|226:365|168:327,1,136,4|8,0:0|0:0,0:0:0:0:
109,247,31247,1,0,0:0:0:0:
109,247,31419,2,0,L|119:106,1,136,0|8,0:0|0:0,0:0:0:0:
196,48,31936,1,2,0:0:0:0:
274,114,32109,6,0,P|315:130|401:83,1,136,2|8,0:0|0:0,0:0:0:0:
510,199,32626,1,2,0:0:0:0:
510,199,32798,2,0,P|469:183|383:230,1,136,2|8,0:0|0:0,0:0:0:0:
349,305,33316,1,0,0:0:0:0:
140,351,33488,6,0,L|276:367,1,136,4|8,0:0|0:0,0:0:0:0:
412,281,34005,2,0,P|380:297|343:305,1,68
285,227,34350,1,2,0:0:0:0:
286,216,34436,1,2,0:0:0:0:
287,205,34522,1,10,0:0:0:0:
348,304,34695,1,2,0:0:0:0:
494,271,34867,6,0,P|466:216|397:202,1,136,2|8,0:0|0:0,0:0:0:0:
276,159,35385,2,0,P|279:194|288:241,1,68
378,38,35729,2,0,P|375:73|366:120,1,68,2|8,0:0|0:0,0:0:0:0:
369,105,36074,1,2,0:0:0:0:
232,40,36247,6,0,B|168:12|168:68|92:40,1,136,4|8,0:0|0:0,0:0:0:0:
0,138,36764,2,0,L|81:134,1,68
204,210,37109,2,0,L|123:206,1,68,0|8,0:0|0:0,0:0:0:0:
65,278,37453,1,2,0:0:0:0:
131,358,37626,6,0,P|169:306|258:322,1,136,2|8,0:0|0:0,0:0:0:0:
372,252,38143,1,0,0:0:0:0:
372,252,38316,2,0,P|307:245|277:160,1,136,0|8,0:0|0:0,0:0:0:0:
273,86,38833,1,0,0:0:0:0:
149,182,39005,6,0,B|163:243|163:243|159:327,1,136,4|8,0:0|0:0,0:0:0:0:
77,371,39522,2,0,B|41:378|41:378|-3:362,1,68
167,324,39867,1,2,0:0:0:0:
167,324,39953,1,2,0:0:0:0:
167,324,40040,1,10,0:0:0:0:
90,243,40212,1,2,0:0:0:0:
246,258,40385,6,0,P|270:315|246:392,1,136,2|8,0:0|0:0,0:0:0:0:
166,174,40902,2,0,L|171:98,1,68
246,258,41247,2,0,L|251:334,1,68,2|8,0:0|0:0,0:0:0:0:
348,293,41591,1,2,0:0:0:0:
155,378,41764,6,0,P|125:339|51:335,1,102,4|0,0:0|0:0,0:0:0:0:
60,331,42109,1,8,0:0:0:0:
33,165,42281,2,0,P|25:198|22:232,1,68,2|0,0:0|0:0,0:0:0:0:
124,48,42626,2,0,P|132:80|135:114,1,68,2|8,0:0|0:0,0:0:0:0:
145,265,42971,1,4,0:0:0:0:
145,265,43316,5,2,0:0:0:0:
268,233,43488,1,8,0:0:0:0:
233,342,43660,1,2,0:0:0:0:
187,173,43833,1,0,0:0:0:0:
349,292,44005,1,0,3:0:0:0:
344,269,44091,1,0,3:0:0:0:
347,247,44178,1,8,3:0:0:0:
356,226,44264,1,8,3:0:0:0:
371,210,44350,1,8,3:0:0:0:
391,199,44436,1,8,3:0:0:0:
413,195,44522,5,4,0:0:0:0:
413,195,44867,2,0,L|404:68,1,114.749996498108,8|0,0:0|0:0,0:0:0:0:
404,60,45212,1,0,0:0:0:0:
291,129,45385,1,2,0:0:0:0:
500,121,45557,1,8,0:0:0:0:
413,195,45729,1,2,0:0:0:0:
306,25,45902,6,0,P|297:69|196:102,1,152.999995330811,2|8,0:0|0:0,0:0:0:0:
72,19,46419,2,0,L|79:110,1,76.4999976654053,2|0,0:0|0:0,0:0:0:0:
195,207,46764,2,0,L|188:298,1,76.4999976654053,2|8,0:0|0:0,0:0:0:0:
182,378,47109,1,0,0:0:0:0:
70,324,47281,5,4,0:0:0:0:
70,324,47626,2,0,P|88:270|48:199,1,114.749996498108,8|0,0:0|0:0,0:0:0:0:
57,206,47971,1,0,0:0:0:0:
147,141,48143,1,0,0:0:0:0:
39,110,48316,1,8,0:0:0:0:
255,174,48488,1,2,0:0:0:0:
255,174,48660,6,0,L|247:263,1,76.4999976654053,2|0,0:0|0:0,0:0:0:0:
147,354,49005,1,8,0:0:0:0:
147,354,49178,2,0,L|139:265,1,76.4999976654053,2|0,0:0|0:0,0:0:0:0:
330,329,49522,1,2,0:0:0:0:
330,329,49609,1,2,0:0:0:0:
330,329,49695,2,0,P|357:300|402:286,1,76.4999976654053,10|0,0:0|0:0,0:0:0:0:
448,162,50040,5,4,0:0:0:0:
448,162,50385,2,0,P|392:173|340:131,1,114.749996498108,8|0,0:0|0:0,0:0:0:0:
336,131,50729,1,0,0:0:0:0:
279,256,50902,1,2,0:0:0:0:
219,150,51074,1,8,0:0:0:0:
280,282,51247,1,2,0:0:0:0:
325,119,51419,6,0,P|274:94|254:4,1,152.999995330811,2|8,0:0|0:0,0:0:0:0:
415,26,51936,2,0,L|308:34,1,76.4999976654053,2|0,0:0|0:0,0:0:0:0:
142,144,52281,2,0,L|249:152,1,76.4999976654053,2|8,0:0|0:0,0:0:0:0:
285,232,52626,1,0,0:0:0:0:
190,371,52798,6,0,P|182:292|98:284,1,152.999995330811,4|8,0:0|0:0,0:0:0:0:
120,273,53316,1,0,0:0:0:0:
38,123,53488,2,0,P|45:164|56:209,1,76.4999976654053,0|2,0:0|0:0,0:0:0:0:
179,55,53833,2,0,P|172:96|161:141,1,76.4999976654053,8|2,0:0|0:0,0:0:0:0:
241,211,54178,6,0,P|271:172|363:179,1,114.749996498108,2|0,0:0|0:0,0:0:0:0:
346,169,54522,1,8,0:0:0:0:
308,57,54695,1,0,0:0:0:0:
439,86,54867,1,0,0:0:0:0:
382,283,55040,1,2,0:0:0:0:
501,197,55212,1,8,0:0:0:0:
456,377,55385,1,0,0:0:0:0:
264,308,55557,6,0,L|110:326,1,152.999995330811,4|8,0:0|0:0,0:0:0:0:
30,182,56074,2,0,P|44:219|39:267,1,76.4999976654053
90,78,56419,1,2,0:0:0:0:
108,96,56505,1,2,0:0:0:0:
130,108,56591,1,8,3:0:0:0:
155,116,56677,1,8,3:0:0:0:
180,117,56763,1,8,3:0:0:0:
205,113,56850,1,8,3:0:0:0:
229,104,56936,5,2,0:0:0:0:
350,24,57109,1,2,0:0:0:0:
172,21,57281,1,2,0:0:0:0:
317,224,57626,5,2,0:0:0:0:
323,241,57971,1,2,0:0:0:0:
329,256,58316,6,0,B|232:220|245:300|144:252,1,187.000005706787,4|8,0:0|0:0,0:0:0:0:
201,170,58833,1,0,0:0:0:0:
45,63,59005,2,0,P|51:111|56:166,1,93.5000028533936,0|2,0:0|0:0,0:0:0:0:
52,179,59264,1,2,0:0:0:0:
48,202,59350,1,10,0:0:0:0:
182,87,59522,1,2,0:0:0:0:
124,297,59695,6,0,P|146:252|251:259,1,140.25000428009,2|0,0:0|0:0,0:0:0:0:
252,262,60040,1,8,0:0:0:0:
390,370,60212,2,0,P|386:323|383:276,1,93.5000028533936
486,115,60557,2,0,P|482:161|479:208,1,93.5000028533936,2|8,0:0|0:0,0:0:0:0:
383,276,60902,1,2,0:0:0:0:
352,79,61074,6,0,P|290:101|221:49,1,140.25000428009,4|0,0:0|0:0,0:0:0:0:
212,50,61419,6,0,B|204:117|247:155|247:155|218:129|193:127,1,165.749992412568,8|0,0:0|0:0,0:0:0:0:
127,198,61764,1,0,0:0:0:0:
302,215,61936,1,0,0:0:0:0:
225,361,62109,1,8,0:0:0:0:
318,187,62281,1,2,0:0:0:0:
127,198,62453,6,0,P|101:131|161:36,1,187.000005706787,2|8,0:0|0:0,0:0:0:0:
354,77,62971,2,0,P|310:135|192:118,1,187.000005706787,0|2,0:0|0:0,0:0:0:0:
131,300,63488,1,8,0:0:0:0:
131,300,63833,6,0,B|185:274|185:274|315:308,1,187.000005706787,4|8,0:0|0:0,0:0:0:0:
417,235,64350,1,0,0:0:0:0:
307,306,64522,2,0,P|296:253|295:193,1,93.5000028533936,0|2,0:0|0:0,0:0:0:0:
293,188,64781,1,2,0:0:0:0:
296,165,64867,1,10,0:0:0:0:
417,235,65040,1,2,0:0:0:0:
206,370,65212,6,0,P|179:307|62:302,1,187.000005706787,2|8,0:0|0:0,0:0:0:0:
71,295,65729,1,0,0:0:0:0:
206,370,65902,2,0,P|274:378|336:279,1,187.000005706787,0|8,0:0|0:0,0:0:0:0:
337,290,66419,1,2,0:0:0:0:
168,199,66591,6,0,B|177:130|177:130|161:70|161:70|172:3,1,187.000005706787,4|8,0:0|0:0,0:0:0:0:
257,70,67109,1,0,0:0:0:0:
78,141,67281,2,0,L|66:241,1,93.5000028533936,0|2,0:0|0:0,0:0:0:0:
192,383,67626,2,0,L|180:283,1,93.5000028533936,8|2,0:0|0:0,0:0:0:0:
327,131,67971,5,0,0:0:0:0:
296,255,68143,1,2,0:0:0:0:
204,168,68316,1,8,0:0:0:0:
406,219,68488,1,0,0:0:0:0:
180,290,68660,1,2,0:0:0:0:
230,61,68833,1,0,3:0:0:0:
204,79,68919,1,0,3:0:0:0:
175,89,69005,1,8,3:0:0:0:
144,90,69091,1,8,3:0:0:0:
114,82,69177,1,8,3:0:0:0:
87,67,69264,1,8,3:0:0:0:
66,44,69350,6,0,B|77:111|77:111|66:163|66:163|84:265,1,187.000005706787,4|8,0:0|0:0,0:0:0:0:
166,340,69867,1,0,0:0:0:0:
333,241,70040,2,0,P|287:251|231:237,1,93.5000028533936,0|2,0:0|0:0,0:0:0:0:
221,231,70298,1,2,0:0:0:0:
203,215,70385,1,8,0:0:0:0:
288,139,70557,1,2,0:0:0:0:
460,324,70729,6,0,P|411:238|325:245,1,187.000005706787,2|8,0:0|0:0,0:0:0:0:
211,89,71247,2,0,P|245:122|291:139,1,93.5000028533936
328,331,71591,2,0,P|339:285|331:236,1,93.5000028533936,2|8,0:0|0:0,0:0:0:0:
229,279,71936,1,2,0:0:0:0:
439,356,72109,6,0,P|455:284|437:217,1,140.25000428009,4|0,0:0|0:0,0:0:0:0:
432,209,72453,6,0,B|424:142|467:104|467:104|438:130|413:132,1,165.749992412568,8|0,0:0|0:0,0:0:0:0:
512,178,72798,1,0,0:0:0:0:
329,159,72971,1,0,0:0:0:0:
372,2,73143,1,8,0:0:0:0:
432,209,73316,1,2,0:0:0:0:
171,201,73488,6,0,P|214:153|341:169,1,187.000005706787,2|8,0:0|0:0,0:0:0:0:
432,209,74005,2,0,P|389:257|262:241,1,187.000005706787,0|2,0:0|0:0,0:0:0:0:
194,285,74522,2,0,P|199:331|205:377,1,93.5000028533936,8|0,0:0|0:0,0:0:0:0:
101,64,74867,6,0,B|113:120|113:120|101:180|101:180|117:252,1,187.000005706787,4|8,0:0|0:0,0:0:0:0:
196,181,75385,1,0,0:0:0:0:
12,206,75557,2,0,L|32:299,1,93.5000028533936,0|2,0:0|0:0,0:0:0:0:
37,320,75816,1,2,0:0:0:0:
41,342,75902,1,10,0:0:0:0:
115,246,76074,1,2,0:0:0:0:
178,357,76247,6,0,P|199:297|309:307,1,187.000005706787,2|8,0:0|0:0,0:0:0:0:
391,363,76764,1,0,0:0:0:0:
512,251,76936,2,0,P|468:274|422:272,1,93.5000028533936,0|2,0:0|0:0,0:0:0:0:
272,173,77281,2,0,P|316:196|362:194,1,93.5000028533936,8|2,0:0|0:0,0:0:0:0:
512,72,77626,6,0,B|416:24|424:104|328:64,1,187.000005706787,4|8,0:0|0:0,0:0:0:0:
217,112,78143,2,0,B|241:193|241:193|228:305,1,187.000005706787,0|2,0:0|0:0,0:0:0:0:
101,213,78660,1,8,0:0:0:0:
101,213,79005,5,0,3:0:0:0:
261,157,79178,1,2,3:0:0:0:
70,207,79350,1,0,3:0:0:0:
230,263,79522,1,2,3:0:0:0:
39,201,79695,5,8,3:0:0:0:
45,223,79781,1,8,3:0:0:0:
47,246,79867,1,8,3:0:0:0:
44,269,79953,1,8,3:0:0:0:
35,290,80040,1,8,3:0:0:0:
76,268,80126,1,8,3:0:0:0:
122,267,80212,1,8,3:0:0:0:
164,286,80298,1,8,3:0:0:0:
193,323,80385,6,0,L|290:320,1,85,4|0,0:0|0:0,0:0:0:0:
379,317,80729,1,8,0:0:0:0:
401,134,80902,2,0,P|411:176|406:218,1,85
297,177,81247,1,2,0:0:0:0:
293,164,81333,1,2,0:0:0:0:
289,151,81419,1,10,0:0:0:0:
379,317,81591,1,2,0:0:0:0:
188,376,81764,6,0,B|193:316|193:316|176:262|176:262|183:176,1,170,2|8,0:0|0:0,0:0:0:0:
269,253,82281,1,0,0:0:0:0:
102,328,82453,1,0,0:0:0:0:
294,347,82626,1,2,0:0:0:0:
180,208,82798,1,8,0:0:0:0:
336,181,82971,1,2,0:0:0:0:
102,328,83143,6,0,P|78:239|109:157,1,170,4|8,0:0|0:0,0:0:0:0:
260,181,83660,2,0,P|220:198|162:210,1,85
97,73,84005,2,0,P|138:83|177:99,1,85,0|8,0:0|0:0,0:0:0:0:
260,181,84350,1,2,0:0:0:0:
344,96,84522,6,0,P|384:54|511:63,1,170,2|8,0:0|0:0,0:0:0:0:
438,159,85040,1,2,0:0:0:0:
438,159,85212,2,0,P|398:201|271:192,1,170,2|8,0:0|0:0,0:0:0:0:
291,205,85902,6,0,P|295:248|297:303,1,85,4|0,0:0|0:0,0:0:0:0:
171,176,86247,1,8,0:0:0:0:
171,176,86419,2,0,P|167:133|165:91,1,85
257,22,86764,1,2,0:0:0:0:
257,22,86850,1,2,0:0:0:0:
257,22,86936,1,10,0:0:0:0:
171,176,87109,1,2,0:0:0:0:
18,67,87281,6,0,P|72:43|168:98,1,170,2|8,0:0|0:0,0:0:0:0:
219,252,87798,1,0,0:0:0:0:
73,200,87971,1,0,0:0:0:0:
258,135,88143,1,2,0:0:0:0:
208,285,88316,1,8,0:0:0:0:
164,90,88488,1,2,0:0:0:0:
62,290,88660,6,0,B|38:202|38:202|42:123,1,170,4|8,0:0|0:0,0:0:0:0:
212,231,89178,2,0,P|171:217|140:190,1,85
228,138,89522,2,0,P|259:110|300:97,1,85,0|8,0:0|0:0,0:0:0:0:
346,244,89867,1,2,0:0:0:0:
348,231,89953,1,2,0:0:0:0:
351,218,90040,6,0,L|349:166,3,42.5,0|0|0|0,3:0|3:0|3:0|3:0,3:0:0:0:
421,275,90385,2,0,L|419:327,3,42.5,0|0|0|0,3:0|3:0|3:0|3:0,3:0:0:0:
512,265,90729,2,0,P|496:225|462:195,1,85,0|0,3:0|3:0,3:0:0:0:
465,197,90988,1,8,3:0:0:0:
465,197,91074,1,8,3:0:0:0:
426,323,91247,1,8,3:0:0:0:
426,323,91333,1,8,3:0:0:0:
426,323,91419,5,8,3:0:0:0:
352,34,101764,5,2,0:0:0:0:
424,94,101936,1,0,3:0:0:0:
424,94,102022,1,0,3:0:0:0:
424,94,102109,2,0,L|419:157,3,34,8|8|8|8,3:0|3:0|3:0|3:0,3:0:0:0:
347,182,102453,6,0,B|341:244|341:244|351:324,1,136,4|8,0:0|0:0,0:0:0:0:
271,379,102971,2,0,P|246:339|158:329,1,136,0|2,0:0|0:0,0:0:0:0:
163,326,103402,1,2,0:0:0:0:
163,326,103488,1,10,0:0:0:0:
188,222,103660,1,2,0:0:0:0:
83,166,103833,6,0,P|95:109|186:95,1,136,2|8,0:0|0:0,0:0:0:0:
188,222,104350,2,0,L|195:289,1,68
264,84,104695,2,0,L|255:164,1,68,2|8,0:0|0:0,0:0:0:0:
180,24,105040,1,2,0:0:0:0:
256,151,105212,6,0,B|311:139|311:139|405:165,1,136,4|8,0:0|0:0,0:0:0:0:
451,236,105729,2,0,P|460:270|452:324,1,68
369,356,106074,2,0,P|360:322|368:268,1,68,0|8,0:0|0:0,0:0:0:0:
458,304,106419,1,2,0:0:0:0:
235,328,106591,6,0,L|378:357,1,136,2|8,0:0|0:0,0:0:0:0:
452,203,107109,1,0,0:0:0:0:
452,203,107281,2,0,L|309:232,1,136,0|8,0:0|0:0,0:0:0:0:
254,151,107798,1,0,0:0:0:0:
162,243,107971,6,0,P|146:306|169:375,1,136,4|8,0:0|0:0,0:0:0:0:
307,295,108488,2,0,L|219:303,1,68
166,371,108833,1,2,0:0:0:0:
162,361,108919,1,2,0:0:0:0:
158,351,109005,1,10,0:0:0:0:
210,211,109178,1,2,0:0:0:0:
385,232,109350,6,0,P|401:295|378:364,1,136,2|8,0:0|0:0,0:0:0:0:
225,175,109867,2,0,P|260:187|294:192,1,68
438,111,110212,2,0,P|403:123|369:128,1,68,2|8,0:0|0:0,0:0:0:0:
296,55,110557,1,2,0:0:0:0:
225,175,110729,6,0,B|138:200|138:200|80:181,1,136,4|8,0:0|0:0,0:0:0:0:
23,117,111247,2,0,P|16:79|15:37,1,68,2|0,0:0|0:0,0:0:0:0:
94,185,111591,2,0,P|92:218|85:252,1,68,2|8,0:0|0:0,0:0:0:0:
71,368,111936,5,4,0:0:0:0:
172,296,112109,1,0,0:0:0:0:
2,234,112281,1,2,0:0:0:0:
71,368,112453,1,8,0:0:0:0:
152,188,112626,1,2,0:0:0:0:
0,317,112798,1,0,0:0:0:0:
229,372,112971,1,0,3:0:0:0:
233,349,113057,1,0,3:0:0:0:
244,330,113143,1,8,3:0:0:0:
261,315,113229,1,8,3:0:0:0:
281,306,113316,1,8,3:0:0:0:
304,304,113402,1,8,3:0:0:0:
326,310,113488,5,4,0:0:0:0:
326,310,113833,2,0,L|321:196,1,114.749996498108,8|0,0:0|0:0,0:0:0:0:
319,172,114178,1,0,0:0:0:0:
413,71,114350,1,2,0:0:0:0:
318,148,114522,1,8,0:0:0:0:
466,209,114695,1,2,0:0:0:0:
326,310,114867,6,0,P|263:266|171:285,1,152.999995330811,2|8,0:0|0:0,0:0:0:0:
63,382,115385,2,0,P|91:352|116:311,1,76.4999976654053,2|0,0:0|0:0,0:0:0:0:
54,182,115729,2,0,P|85:203|113:229,1,76.4999976654053,2|8,0:0|0:0,0:0:0:0:
190,273,116074,1,0,0:0:0:0:
146,96,116247,5,4,0:0:0:0:
146,96,116591,2,0,P|93:133|18:121,1,114.749996498108,8|0,0:0|0:0,0:0:0:0:
26,121,116936,1,0,0:0:0:0:
78,36,117109,1,0,0:0:0:0:
49,226,117281,1,8,0:0:0:0:
146,96,117453,1,2,0:0:0:0:
261,163,117626,6,0,P|285:227|265:309,1,152.999995330811,2|8,0:0|0:0,0:0:0:0:
152,231,118143,2,0,P|128:295|148:377,1,152.999995330811,2|2,0:0|0:0,0:0:0:0:
146,375,118574,1,2,0:0:0:0:
146,375,118660,1,10,0:0:0:0:
261,163,119005,5,4,0:0:0:0:
261,163,119350,2,0,P|304:179|376:149,1,114.749996498108,8|0,0:0|0:0,0:0:0:0:
380,146,119695,1,0,0:0:0:0:
365,294,119867,1,2,0:0:0:0:
498,236,120040,1,8,0:0:0:0:
302,211,120212,1,2,0:0:0:0:
457,366,120385,6,0,P|435:296|344:315,1,152.999995330811,2|8,0:0|0:0,0:0:0:0:
197,196,120902,2,0,P|204:236|216:285,1,76.4999976654053,2|0,0:0|0:0,0:0:0:0:
317,136,121247,2,0,P|310:176|298:225,1,76.4999976654053,2|8,0:0|0:0,0:0:0:0:
342,45,121591,1,0,0:0:0:0:
108,50,121764,6,0,P|147:75|250:56,1,152.999995330811,4|8,0:0|0:0,0:0:0:0:
301,210,122281,1,0,0:0:0:0:
301,210,122453,2,0,P|262:185|159:204,1,152.999995330811,0|8,0:0|0:0,0:0:0:0:
175,295,122971,1,0,0:0:0:0:
369,384,123143,6,0,L|376:266,1,114.749996498108,2|0,0:0|0:0,0:0:0:0:
377,247,123488,1,8,0:0:0:0:
288,171,123660,1,0,0:0:0:0:
457,122,123833,1,0,0:0:0:0:
379,225,124005,1,2,0:0:0:0:
371,60,124178,1,8,0:0:0:0:
478,223,124350,1,0,0:0:0:0:
268,237,124522,6,0,B|261:143|261:143|276:83,1,152.999995330811,4|8,0:0|0:0,0:0:0:0:
201,23,125040,2,0,L|124:19,1,76.4999976654053
275,86,125385,1,2,0:0:0:0:
296,98,125471,1,2,0:0:0:0:
321,105,125557,1,8,3:0:0:0:
346,105,125643,1,8,3:0:0:0:
371,98,125729,1,8,3:0:0:0:
393,85,125816,1,8,3:0:0:0:
410,66,125902,5,2,0:0:0:0:
401,233,126074,1,2,0:0:0:0:
485,141,126247,1,2,0:0:0:0:
336,374,126591,5,2,0:0:0:0:
337,352,126936,1,2,0:0:0:0:
337,330,127281,6,0,B|343:263|343:263|331:216|331:216|342:136,1,187.000005706787,4|8,0:0|0:0,0:0:0:0:
427,209,127798,1,0,0:0:0:0:
246,275,127971,2,0,P|202:289|157:277,1,93.5000028533936,0|2,0:0|0:0,0:0:0:0:
139,263,128229,1,2,0:0:0:0:
122,245,128316,1,10,0:0:0:0:
200,193,128488,1,2,0:0:0:0:
401,313,128660,6,0,P|344:257|241:279,1,187.000005706787,2|8,0:0|0:0,0:0:0:0:
94,62,129178,2,0,P|97:109|111:176,1,93.5000028533936
257,182,129522,2,0,P|254:229|240:296,1,93.5000028533936,2|8,0:0|0:0,0:0:0:0:
224,377,129867,1,2,0:0:0:0:
387,154,130040,6,0,P|316:188|249:179,1,140.25000428009,4|0,0:0|0:0,0:0:0:0:
247,177,130385,6,0,B|189:184|157:140|157:140|179:170|183:203|176:234,1,165.749992412568,8|0,0:0|0:0,0:0:0:0:
211,338,130729,1,0,0:0:0:0:
99,262,130902,1,0,0:0:0:0:
200,367,131074,1,8,0:0:0:0:
23,373,131247,1,2,0:0:0:0:
221,237,131419,6,0,P|274:261|299:381,1,187.000005706787,2|8,0:0|0:0,0:0:0:0:
383,239,131936,2,0,P|335:272|219:234,1,187.000005706787,0|2,0:0|0:0,0:0:0:0:
139,27,132453,1,8,0:0:0:0:
139,27,132798,6,0,B|130:91|130:91|144:134|144:134|135:212,1,187.000005706787,4|8,0:0|0:0,0:0:0:0:
229,82,133316,1,0,0:0:0:0:
37,149,133488,2,0,L|25:248,1,93.5000028533936,0|2,0:0|0:0,0:0:0:0:
29,265,133747,1,2,0:0:0:0:
34,287,133833,1,10,0:0:0:0:
135,209,134005,1,2,0:0:0:0:
128,374,134178,6,0,P|160:308|277:321,1,187.000005706787,2|8,0:0|0:0,0:0:0:0:
421,179,134695,1,0,0:0:0:0:
322,134,134867,2,0,P|311:180|328:231,1,93.5000028533936,0|2,0:0|0:0,0:0:0:0:
415,66,135212,1,8,0:0:0:0:
293,142,135385,1,2,0:0:0:0:
442,325,135557,6,0,B|346:281|354:361|258:305,1,187.000005706787,4|8,0:0|0:0,0:0:0:0:
172,376,136074,1,0,0:0:0:0:
172,376,136247,2,0,L|77:368,1,93.5000028533936,0|2,0:0|0:0,0:0:0:0:
262,307,136591,2,0,L|356:300,1,93.5000028533936,8|2,0:0|0:0,0:0:0:0:
142,189,136936,5,0,0:0:0:0:
262,307,137109,1,2,0:0:0:0:
277,189,137281,1,8,0:0:0:0:
159,351,137453,1,0,0:0:0:0:
214,99,137626,1,2,0:0:0:0:
369,288,137798,5,0,3:0:0:0:
341,273,137885,1,0,3:0:0:0:
310,272,137971,1,8,3:0:0:0:
282,283,138057,1,8,3:0:0:0:
261,306,138143,1,8,3:0:0:0:
251,335,138229,1,8,3:0:0:0:
255,366,138316,6,0,P|261:306|137:293,1,187.000005706787,4|8,0:0|0:0,0:0:0:0:
56,188,138833,1,0,0:0:0:0:
229,82,139005,2,0,P|189:105|138:111,1,93.5000028533936,0|2,0:0|0:0,0:0:0:0:
121,99,139264,1,2,0:0:0:0:
102,85,139350,1,10,0:0:0:0:
165,2,139522,1,2,0:0:0:0:
298,167,139695,6,0,P|336:107|436:119,1,140.25000428009,2|0,0:0|0:0,0:0:0:0:
418,106,140040,1,8,0:0:0:0:
487,199,140212,2,0,L|481:300,1,93.5000028533936
368,275,140557,2,0,L|374:376,1,93.5000028533936,2|8,0:0|0:0,0:0:0:0:
481,292,140902,1,2,0:0:0:0:
239,269,141074,6,0,P|300:296|378:264,1,140.25000428009,4|0,0:0|0:0,0:0:0:0:
378,264,141419,6,0,B|372:204|346:169|346:169|372:204|413:204,1,165.749992412568,8|0,0:0|0:0,0:0:0:0:
424,105,141764,1,0,0:0:0:0:
507,200,141936,1,0,0:0:0:0:
300,73,142109,1,8,0:0:0:0:
512,40,142281,1,2,0:0:0:0:
342,220,142453,6,0,P|259:259|173:230,1,187.000005706787,2|8,0:0|0:0,0:0:0:0:
255,131,142971,2,0,P|337:91|423:120,1,187.000005706787,0|2,0:0|0:0,0:0:0:0:
342,220,143488,2,0,L|347:313,1,93.5000028533936,8|0,0:0|0:0,0:0:0:0:
81,180,143833,6,0,B|135:154|135:154|265:188,1,187.000005706787,4|8,0:0|0:0,0:0:0:0:
367,115,144350,1,0,0:0:0:0:
257,186,144522,2,0,P|246:133|245:73,1,93.5000028533936,0|2,0:0|0:0,0:0:0:0:
243,68,144781,1,2,0:0:0:0:
246,45,144867,1,10,0:0:0:0:
367,115,145040,1,2,0:0:0:0:
263,288,145212,6,0,P|230:229|120:236,1,187.000005706787,2|8,0:0|0:0,0:0:0:0:
46,371,145729,1,0,0:0:0:0:
46,371,145902,2,0,L|38:277,1,93.5000028533936,0|2,0:0|0:0,0:0:0:0:
129,141,146247,2,0,L|121:234,1,93.5000028533936,8|2,0:0|0:0,0:0:0:0:
61,71,146591,6,0,P|123:50|225:116,1,187.000005706787,4|8,0:0|0:0,0:0:0:0:
330,23,147109,2,0,B|344:110|344:110|334:210,1,187.000005706787,0|2,0:0|0:0,0:0:0:0:
316,356,147626,1,8,0:0:0:0:
316,356,147971,5,0,3:0:0:0:
192,308,148143,1,0,3:0:0:0:
340,346,148316,1,0,3:0:0:0:
172,222,148488,1,0,3:0:0:0:
364,336,148660,5,8,3:0:0:0:
390,313,148747,1,8,3:0:0:0:
423,302,148833,1,8,3:0:0:0:
458,305,148919,1,8,3:0:0:0:
489,322,149005,1,8,3:0:0:0:
499,289,149091,1,8,3:0:0:0:
501,254,149178,1,8,3:0:0:0:
494,219,149264,1,8,3:0:0:0:
478,188,149350,6,0,P|468:101|475:2,1,170,4|8,0:0|0:0,0:0:0:0:
366,63,149867,2,0,P|310:83|226:23,1,170,0|2,0:0|0:0,0:0:0:0:
226,23,150298,1,2,0:0:0:0:
226,23,150385,1,10,0:0:0:0:
143,110,150557,1,2,0:0:0:0:
199,207,150729,6,0,B|205:261|205:261|191:313|191:313|197:383,1,170,2|8,0:0|0:0,0:0:0:0:
111,256,151247,2,0,P|82:199|129:106,1,170,0|2,0:0|0:0,0:0:0:0:
282,325,151764,2,0,P|327:320|369:316,1,85,8|2,0:0|0:0,0:0:0:0:
199,207,152109,6,0,P|117:172|18:194,1,170,4|8,0:0|0:0,0:0:0:0:
263,303,152626,2,0,P|303:241|290:130,1,170,0|2,0:0|0:0,0:0:0:0:
227,47,153143,1,8,0:0:0:0:
424,15,153316,1,2,0:0:0:0:
424,15,153402,1,2,0:0:0:0:
424,15,153488,6,0,L|421:77,3,42.5,0|0|0|0,3:0|3:0|3:0|3:0,3:0:0:0:
491,94,153833,2,0,L|488:156,3,42.5,0|0|0|0,3:0|3:0|3:0|3:0,3:0:0:0:
435,193,154178,2,0,L|345:187,1,85,4|8,3:0|3:0,3:0:0:0:
350,187,154436,1,8,3:0:0:0:
350,187,154522,1,8,3:0:0:0:
374,361,154695,1,8,3:0:0:0:
374,361,154781,1,8,3:0:0:0:
374,361,154867,6,0,P|344:300|240:317,1,170,4|8,0:0|0:0,0:0:0:0:
72,272,155385,2,0,P|139:276|177:177,1,170,0|2,0:0|0:0,0:0:0:0:
182,195,155816,1,2,0:0:0:0:
182,195,155902,1,10,0:0:0:0:
252,303,156074,1,2,0:0:0:0:
272,93,156247,6,0,L|97:105,1,170,2|8,0:0|0:0,0:0:0:0:
353,0,156764,2,0,B|384:84|384:84|371:184,1,170,0|2,0:0|0:0,0:0:0:0:
346,313,157281,1,8,0:0:0:0:
250,220,157453,1,2,0:0:0:0:
512,211,157626,6,0,P|466:158|366:168,1,170,4|8,0:0|0:0,0:0:0:0:
373,163,158316,1,0,0:0:0:0:
209,128,158488,1,0,0:0:0:0:
401,154,158660,1,8,0:0:0:0:
237,288,158833,1,2,0:0:0:0:
441,65,159005,6,0,P|485:107|464:227,1,170,8|8,0:0|0:0,0:0:0:0:
398,378,159522,1,2,0:0:0:0:
372,236,159695,1,2,0:0:0:0:
252,363,159867,1,8,3:0:0:0:
241,336,159953,1,8,3:0:0:0:
224,314,160040,1,8,3:0:0:0:
200,298,160126,1,8,3:0:0:0:
174,290,160212,1,8,3:0:0:0:
145,289,160298,1,8,3:0:0:0:
118,297,160385,6,0,P|76:331|-3:254,2,170,4|8|0,0:0|0:0|0:0,0:0:0:0:
183,210,161247,1,2,2:0:0:0:
183,210,161333,1,2,2:0:0:0:
183,210,161419,1,10,2:0:0:0:
234,351,161591,1,2,0:0:0:0:
296,192,161764,6,0,P|314:123|241:54,1,170,2|8,0:0|0:0,0:0:0:0:
252,57,162453,1,0,0:0:0:0:
333,118,162626,1,2,0:0:0:0:
162,222,162798,1,8,0:0:0:0:
175,120,162971,1,2,0:0:0:0:
329,239,163143,6,0,L|318:332,2,85,4|0|8,0:0|0:0|0:0,0:0:0:0:
512,121,163660,2,0,P|464:165|359:148,1,170
424,61,164178,1,8,0:0:0:0:
296,27,164350,1,2,0:0:0:0:
296,27,164436,1,2,0:0:0:0:
296,27,164522,6,0,L|236:27,3,42.5,0|0|0|0,3:0|3:0|3:0|3:0,3:0:0:0:
210,93,164867,2,0,L|150:93,3,42.5,0|0|0|0,3:0|3:0|3:0|3:0,3:0:0:0:
96,57,165212,2,0,P|89:98|104:150,1,85,0|0,3:0|3:0,3:0:0:0:
98,139,165471,1,8,3:0:0:0:
98,139,165557,1,8,3:0:0:0:
29,295,165729,1,8,3:0:0:0:
29,295,165816,1,8,3:0:0:0:
29,295,165902,6,0,P|56:246|165:259,1,170,4|8,0:0|0:0,0:0:0:0:
281,189,166419,1,0,0:0:0:0:
274,285,166591,2,0,P|270:328|268:378,1,85,0|2,0:0|0:0,0:0:0:0:
268,369,166850,1,2,0:0:0:0:
268,369,166936,1,10,0:0:0:0:
159,252,167109,1,2,0:0:0:0:
433,276,167281,6,0,B|354:311|354:311|267:283,1,170,2|8,0:0|0:0,0:0:0:0:
236,179,167798,1,0,0:0:0:0:
96,328,167971,2,0,P|135:346|188:344,1,85,0|2,0:0|0:0,0:0:0:0:
274,285,168316,1,8,0:0:0:0:
159,252,168488,1,2,0:0:0:0:
354,369,168660,5,12,0:0:0:0:
341,198,168833,1,2,0:0:0:0:
443,305,169005,1,8,0:0:0:0:
322,89,169178,1,2,0:0:0:0:
480,203,169350,1,2,0:0:0:0:
354,369,169522,1,8,0:0:0:0:
342,343,169609,1,8,0:0:0:0:
324,322,169695,1,8,0:0:0:0:
299,308,169781,1,8,0:0:0:0:
271,303,169867,1,8,0:0:0:0:
243,307,169953,1,8,0:0:0:0:
218,321,170040,5,4,0:0:0:0:
256,192,170126,12,2,171419,0:0:0:0:
96,76,176936,6,0,L|100:152,1,68,2|0,0:0|0:0,0:0:0:0:
169,186,177281,2,0,L|165:262,1,68,2|0,0:0|0:0,0:0:0:0:
108,316,177626,1,2,0:0:0:0:
108,316,177798,1,0,0:0:0:0:
177,361,177971,2,0,B|208:350|244:360,1,68,2|0,0:0|0:0,0:0:0:0:
306,308,178316,6,0,P|316:263|265:187,1,136,2|2,0:0|0:0,0:0:0:0:
202,145,178833,2,0,L|107:158,1,68,0|2,0:0|0:0,0:0:0:0:
12,82,179178,2,0,L|80:92,1,68,8|2,0:0|0:0,0:0:0:0:
131,28,179522,1,8,0:0:0:0:
202,145,179695,6,0,B|217:203|217:203|210:282,1,136,2|2,0:0|0:0,0:0:0:0:
261,348,180212,1,0,0:0:0:0:
261,348,180385,2,0,P|299:304|387:310,2,136,2|10|2,0:0|0:0|0:0,0:0:0:0:
141,229,181419,1,2,0:0:0:0:
141,229,181591,1,0,0:0:0:0:
213,156,181764,6,0,L|208:69,1,85,4|8,0:0|3:0,0:0:0:0:
206,36,182022,1,8,3:0:0:0:
225,51,182109,1,0,3:0:0:0:
249,61,182195,1,0,3:0:0:0:
274,64,182281,1,0,3:0:0:0:
299,61,182367,1,0,3:0:0:0:
324,50,182453,6,0,P|364:51|409:62,1,85,4|0,0:0|0:0,0:0:0:0:
468,143,182798,1,8,0:0:0:0:
362,265,182971,2,0,P|363:225|374:180,1,85
459,239,183316,2,0,L|456:296,1,42.5,2|2,0:0|0:0,0:0:0:0:
397,361,183488,1,8,3:0:0:0:
370,357,183574,1,8,3:0:0:0:
344,353,183660,1,8,3:0:0:0:
318,349,183747,1,8,3:0:0:0:
291,345,183833,5,2,0:0:0:0:
362,265,184005,1,2,0:0:0:0:
204,187,184178,1,2,0:0:0:0:
204,187,184522,6,0,P|213:214|220:247,2,56.6666666666667,8|8|8,3:0|3:0|3:0,3:0:0:0:
136,156,184867,5,8,3:0:0:0:
170,89,184982,1,8,3:0:0:0:
136,23,185097,1,8,3:0:0:0:
64,38,185212,5,4,3:1:0:0:
256,192,185298,12,0,187281,0:0:0:0:
84,76,199005,6,0,B|168:52|160:112|240:80,1,152.999995330811,2|0,0:0|0:0,0:0:0:0:
303,42,199695,2,0,P|341:25|405:42,1,101.999996887207
454,97,200212,1,0,0:0:0:0:
454,97,200385,2,0,L|449:212,1,101.999996887207
367,205,200902,2,0,L|369:262,1,50.9999984436036
372,337,201247,1,2,0:0:0:0:
372,337,201591,1,2,0:0:0:0:
297,301,201764,6,0,P|268:292|207:307,1,76.4999976654053,2|0,0:0|0:0,0:0:0:0:
209,298,202109,2,0,P|237:258|229:193,1,101.999996887207
158,178,202626,1,0,0:0:0:0:
158,178,202798,2,0,L|157:124,1,50.9999984436036
74,79,203143,2,0,P|105:115|167:125,1,101.999996887207
216,66,203660,1,0,0:0:0:0:
216,66,203833,1,2,0:0:0:0:
274,123,204005,2,0,L|269:191,1,50.9999984436036,2|0,0:0|0:0,0:0:0:0:
349,45,204350,1,2,0:0:0:0:
349,45,204522,6,0,L|357:148,1,101.999996887207,2|0,0:0|0:0,0:0:0:0:
482,202,205212,2,0,L|474:305,1,101.999996887207
353,374,205902,2,0,P|331:330|261:321,1,101.999996887207
162,374,206591,1,0,0:0:0:0:
162,374,206764,2,0,L|105:371,1,50.9999984436036,2|0,0:0|0:0,0:0:0:0:
5,274,207109,1,2,0:0:0:0:
5,274,207281,6,0,P|49:293|113:276,1,101.999996887207,2|0,0:0|0:0,0:0:0:0:
173,245,207798,2,0,B|183:186|183:186|181:132,1,101.999996887207
171,62,208316,1,0,0:0:0:0:
171,62,208660,1,0,0:0:0:0:
366,128,209350,5,0,0:0:0:0:
363,146,209695,2,0,L|366:192,3,42.5,8|8|8|8,3:0|3:0|3:0|3:0,3:0:0:0:
308,249,210040,6,0,P|249:199|123:226,1,187.000005706787,4|8,0:0|0:0,0:0:0:0:
65,285,210557,1,0,0:0:0:0:
149,115,210729,2,0,P|146:163|145:216,1,93.5000028533936,0|2,0:0|0:0,0:0:0:0:
151,231,210988,1,2,0:0:0:0:
158,253,211074,1,8,0:0:0:0:
17,196,211247,1,2,0:0:0:0:
191,336,211419,6,0,B|244:318|244:318|330:333,1,140.25000428009,2|0,0:0|0:0,0:0:0:0:
344,338,211764,1,8,0:0:0:0:
453,260,211936,2,0,P|449:210|443:148,1,93.5000028533936
291,54,212281,2,0,P|287:104|281:166,1,93.5000028533936,2|8,0:0|0:0,0:0:0:0:
443,74,212626,1,2,0:0:0:0:
283,148,212798,6,0,P|240:102|124:103,1,140.25000428009,4|0,0:0|0:0,0:0:0:0:
155,82,213143,6,0,B|181:136|164:202|164:202|171:172|186:158,1,165.749992412568,8|0,0:0|0:0,0:0:0:0:
263,170,213488,1,0,0:0:0:0:
184,362,213660,1,0,0:0:0:0:
90,251,213833,1,8,0:0:0:0:
286,303,214005,1,2,0:0:0:0:
68,376,214178,6,0,B|75:308|75:308|56:259|56:259|71:167,1,187.000005706787,2|8,0:0|0:0,0:0:0:0:
158,121,214695,2,0,P|209:144|311:79,1,187.000005706787,0|2,0:0|0:0,0:0:0:0:
43,51,215212,1,8,0:0:0:0:
43,51,215557,6,0,B|160:83|160:83|221:56,1,187.000005706787,4|8,0:0|0:0,0:0:0:0:
338,125,216074,1,0,0:0:0:0:
448,54,216247,2,0,P|459:107|460:167,1,93.5000028533936,0|2,0:0|0:0,0:0:0:0:
462,172,216505,1,2,0:0:0:0:
459,195,216591,1,10,0:0:0:0:
338,125,216764,1,2,0:0:0:0:
336,272,216936,6,0,P|246:274|201:197,1,187.000005706787,2|8,0:0|0:0,0:0:0:0:
201,197,217453,1,0,0:0:0:0:
70,278,217626,2,0,P|111:199|201:197,1,187.000005706787,0|8,0:0|0:0,0:0:0:0:
200,196,218143,1,2,0:0:0:0:
322,384,218316,6,0,B|331:319|331:319|316:262|316:262|326:193,1,187.000005706787,4|8,0:0|0:0,0:0:0:0:
235,330,218833,1,0,0:0:0:0:
414,259,219005,2,0,L|426:159,1,93.5000028533936,0|2,0:0|0:0,0:0:0:0:
300,17,219350,2,0,L|312:117,1,93.5000028533936,8|2,0:0|0:0,0:0:0:0:
335,289,219695,5,0,0:0:0:0:
166,200,219867,1,2,0:0:0:0:
311,110,220040,1,8,0:0:0:0:
203,328,220212,1,0,0:0:0:0:
106,102,220385,1,2,0:0:0:0:
203,328,220557,1,0,3:0:0:0:
225,306,220643,1,0,3:0:0:0:
252,291,220729,1,8,3:0:0:0:
282,284,220816,1,8,3:0:0:0:
313,286,220902,1,8,3:0:0:0:
343,295,220988,1,8,3:0:0:0:
369,313,221074,6,0,P|419:330|510:227,1,187.000005706787,4|8,0:0|0:0,0:0:0:0:
400,91,221591,1,0,0:0:0:0:
233,190,221764,2,0,P|279:180|335:194,1,93.5000028533936,0|2,0:0|0:0,0:0:0:0:
345,200,222022,1,2,0:0:0:0:
363,216,222109,1,10,0:0:0:0:
275,292,222281,1,2,0:0:0:0:
106,107,222453,6,0,P|155:193|241:186,1,187.000005706787,2|8,0:0|0:0,0:0:0:0:
352,342,222971,2,0,P|318:309|272:292,1,93.5000028533936
239,100,223316,2,0,P|228:146|236:195,1,93.5000028533936,2|8,0:0|0:0,0:0:0:0:
337,152,223660,1,2,0:0:0:0:
127,75,223833,6,0,P|111:147|129:214,1,140.25000428009,4|0,0:0|0:0,0:0:0:0:
142,232,224178,6,0,B|215:236|248:205|248:205|216:250,1,165.749992412568,8|0,0:0|0:0,0:0:0:0:
188,384,224522,1,0,0:0:0:0:
248,205,224695,1,0,0:0:0:0:
94,311,224867,1,8,0:0:0:0:
282,314,225040,1,2,0:0:0:0:
131,201,225212,6,0,P|108:113|141:21,1,187.000005706787,2|8,0:0|0:0,0:0:0:0:
406,124,225729,2,0,P|316:146|229:116,1,187.000005706787,0|2,0:0|0:0,0:0:0:0:
39,182,226247,2,0,L|142:203,1,93.5000028533936,8|0,0:0|0:0,0:0:0:0:
299,379,226591,6,0,B|285:315|285:315|296:260|296:260|283:191,1,187.000005706787,4|8,0:0|0:0,0:0:0:0:
204,262,227109,1,0,0:0:0:0:
388,237,227281,2,0,L|368:144,1,93.5000028533936,0|2,0:0|0:0,0:0:0:0:
363,123,227540,1,2,0:0:0:0:
359,101,227626,1,10,0:0:0:0:
285,197,227798,1,2,0:0:0:0:
334,29,227971,6,0,P|313:89|203:79,1,187.000005706787,2|8,0:0|0:0,0:0:0:0:
121,23,228488,1,0,0:0:0:0:
0,134,228660,2,0,P|42:157|100:160,1,93.5000028533936,0|2,0:0|0:0,0:0:0:0:
246,243,229005,2,0,P|204:266|146:269,1,93.5000028533936,8|2,0:0|0:0,0:0:0:0:
4,317,229350,6,0,B|21:227|21:227|-6:112,1,187.000005706787,4|8,0:0|0:0,0:0:0:0:
190,138,229867,2,0,B|168:230|168:230|185:320,1,187.000005706787,0|2,0:0|0:0,0:0:0:0:
366,365,230385,1,8,0:0:0:0:
366,365,230729,5,0,3:0:0:0:
277,240,230902,1,2,3:0:0:0:
490,192,231074,1,0,3:0:0:0:
392,253,231247,1,2,3:0:0:0:
259,130,231419,1,8,3:0:0:0:
232,107,231505,1,8,3:0:0:0:
200,94,231591,1,8,3:0:0:0:
165,94,231678,1,8,3:0:0:0:
132,106,231764,1,8,3:0:0:0:
105,128,231850,1,8,3:0:0:0:
72,140,231936,1,8,3:0:0:0:
38,138,232022,1,8,3:0:0:0:
6,123,232109,6,0,L|13:219,1,85,4|0,0:0|0:0,0:0:0:0:
22,308,232453,1,8,0:0:0:0:
131,195,232626,2,0,L|124:291,1,85
126,373,232971,1,2,0:0:0:0:
126,373,233057,1,2,0:0:0:0:
126,373,233143,1,10,0:0:0:0:
258,287,233316,1,2,0:0:0:0:
12,186,233488,6,0,P|31:248|127:278,1,170,2|8,0:0|0:0,0:0:0:0:
278,219,234005,1,0,0:0:0:0:
188,357,234178,1,0,0:0:0:0:
179,192,234350,1,2,0:0:0:0:
283,320,234522,1,8,0:0:0:0:
123,278,234695,1,2,0:0:0:0:
384,154,234867,6,0,L|379:267,1,85,4|0,0:0|0:0,0:0:0:0:
376,332,235212,1,8,0:0:0:0:
460,213,235385,2,0,P|419:232|373:239,1,85
303,112,235729,2,0,P|344:131|390:138,1,85,0|8,0:0|0:0,0:0:0:0:
456,68,236074,1,2,0:0:0:0:
376,332,236247,6,0,P|322:255|225:259,1,170,2|8,0:0|0:0,0:0:0:0:
174,315,236764,1,2,0:0:0:0:
174,315,236936,2,0,B|99:358|99:358|10:318,1,170,2|8,0:0|0:0,0:0:0:0:
0,224,237453,1,0,0:0:0:0:
92,144,237626,6,0,P|116:187|113:253,1,85,4|0,0:0|0:0,0:0:0:0:
0,224,237971,1,8,0:0:0:0:
139,46,238143,2,0,L|223:36,1,85
306,122,238488,1,2,0:0:0:0:
308,105,238574,1,2,0:0:0:0:
311,88,238660,1,10,0:0:0:0:
239,209,238833,1,2,0:0:0:0:
430,301,239005,6,0,P|369:334|265:299,1,170,2|8,0:0|0:0,0:0:0:0:
239,209,239522,1,0,0:0:0:0:
192,365,239695,1,0,0:0:0:0:
134,270,239867,1,2,0:0:0:0:
275,309,240040,1,8,0:0:0:0:
103,260,240212,1,2,0:0:0:0:
352,254,240385,6,0,P|368:295|350:369,1,85,4|0,0:0|0:0,0:0:0:0:
275,309,240729,1,8,0:0:0:0:
322,150,240902,2,0,P|285:169|259:203,1,85
190,296,241247,2,0,L|297:312,1,85,0|8,0:0|0:0,0:0:0:0:
425,256,241591,1,2,0:0:0:0:
433,240,241678,1,2,0:0:0:0:
440,225,241764,6,0,L|434:170,3,42.5,0|0|0|0,3:0|3:0|3:0|3:0,3:0:0:0:
502,140,242109,2,0,L|496:85,3,42.5,0|0|0|0,3:0|3:0|3:0|3:0,3:0:0:0:
442,40,242453,2,0,P|400:58|344:49,1,85,0|0,3:0|3:0,3:0:0:0:
361,55,242712,1,8,3:0:0:0:
361,55,242798,1,8,3:0:0:0:
234,172,242971,1,8,3:0:0:0:
239,214,243057,1,8,3:0:0:0:
245,255,243143,5,2,3:2:0:0:
