osu file format v14

[General]
AudioFilename: audio.mp3
AudioLeadIn: 0
PreviewTime: 57453
Countdown: 0
SampleSet: Soft
StackLeniency: 0.3
Mode: 0
LetterboxInBreaks: 0
WidescreenStoryboard: 1

[Editor]
Bookmarks: 11419,22453,44522,58316,80385,91419,101764,113488,127281,149350,160385,171419,176936,187971,199005,210040,232109,243143
DistanceSpacing: 1.4
BeatDivisor: 4
GridSize: 4
TimelineZoom: 1.3

[Metadata]
Title:Akane Contrast
TitleUnicode:茜コントラスト
Artist:Usa
ArtistUnicode:うさ
Creator:timemon
Version:Advanced
Source:
Tags:Hana はな さころにー usacolony doriko Romeo and Cinderella Hatsune Miku 初音ミク うさころ よん Usacolo Yon Lasse deppyforce
BeatmapID:1486685
BeatmapSetID:699833

[Difficulty]
HPDrainRate:5
CircleSize:3.6
OverallDifficulty:5
ApproachRate:6
SliderMultiplier:1.15
SliderTickRate:1

[Events]
//Background and Video events
0,0,"yettt.jpg",0,0
//Break Periods
2,91619,101403
2,171619,175886
2,187971,197955
//Storyboard Layer 0 (Background)
//Storyboard Layer 1 (Fail)
//Storyboard Layer 2 (Pass)
//Storyboard Layer 3 (Foreground)
//Storyboard Sound Samples

[TimingPoints]
385,344.827586206897,4,2,1,50,1,0
10040,-100,4,2,1,50,0,0
11419,-100,4,2,1,50,0,0
22453,-100,4,2,1,40,0,0
42022,-100,4,2,1,5,0,0
42109,-100,4,2,1,40,0,0
44522,-100,4,2,1,45,0,0
45126,-100,4,2,1,5,0,0
45212,-100,4,2,1,45,0,0
47885,-100,4,2,1,5,0,0
47971,-100,4,2,1,45,0,0
50643,-100,4,2,1,5,0,0
50729,-100,4,2,1,45,0,0
54436,-100,4,2,1,5,0,0
54522,-100,4,2,1,45,0,0
57281,-100,4,2,1,45,0,0
58316,-100,4,2,1,55,0,1
59953,-100,4,2,1,5,0,1
60040,-100,4,2,1,55,0,1
61333,-100,4,2,1,5,0,1
61419,-100,4,2,1,55,0,1
61678,-100,4,2,1,5,0,1
61764,-100,4,2,1,55,0,1
62453,-100,4,2,1,55,0,1
66591,-100,4,2,1,55,0,0
69350,-100,4,2,1,55,0,1
72367,-100,4,2,1,5,0,1
72453,-100,4,2,1,55,0,1
72712,-100,4,2,1,5,0,1
72798,-100,4,2,1,55,0,1
73488,-100,4,2,1,55,0,1
80385,-100,4,2,1,50,0,0
101764,-100,4,2,1,40,0,0
113488,-100,4,2,1,45,0,0
114091,-100,4,2,1,5,0,0
114178,-100,4,2,1,45,0,0
116850,-100,4,2,1,5,0,0
116936,-100,4,2,1,45,0,0
119609,-100,4,2,1,5,0,0
119695,-100,4,2,1,45,0,0
123402,-100,4,2,1,5,0,0
123488,-100,4,2,1,45,0,0
126247,-100,4,2,1,45,0,0
127281,-100,4,2,1,55,0,1
130298,-100,4,2,1,5,0,1
130385,-100,4,2,1,55,0,1
130643,-100,4,2,1,55,0,1
130729,-100,4,2,1,55,0,1
131419,-100,4,2,1,55,0,1
135557,-100,4,2,1,55,0,0
138316,-100,4,2,1,55,0,1
139956,-100,4,2,1,5,0,1
140040,-100,4,2,1,55,0,1
141333,-100,4,2,1,5,0,1
141419,-100,4,2,1,55,0,1
141678,-100,4,2,1,5,0,1
141764,-100,4,2,1,55,0,1
142453,-100,4,2,1,55,0,1
149350,-100,4,2,1,50,0,0
176936,-100,4,2,1,40,0,0
181764,-100,4,2,1,50,0,0
184522,-100,4,2,1,35,0,0
187281,-100,4,2,1,5,0,0
199005,-100,4,2,1,35,0,0
209350,-100,4,2,1,50,0,0
210040,-100,4,2,1,55,0,1
211678,-100,4,2,1,5,0,1
211764,-100,4,2,1,55,0,1
213057,-100,4,2,1,5,0,1
213143,-100,4,2,1,55,0,1
213402,-100,4,2,1,5,0,1
213488,-100,4,2,1,55,0,1
214178,-100,4,2,1,55,0,1
218316,-100,4,2,1,55,0,0
221074,-100,4,2,1,55,0,1
224091,-100,4,2,1,5,0,1
224178,-100,4,2,1,55,0,1
224436,-100,4,2,1,5,0,1
224522,-100,4,2,1,55,0,1
225212,-100,4,2,1,55,0,1
232109,-100,4,2,1,50,0,0

[Colours]
Combo1 : 255,228,147
Combo2 : 255,202,149
Combo3 : 220,220,184
Combo4 : 255,149,149

[HitObjects]
400,40,11419,6,0,L|392:168,1,115,4|8,0:0|0:0,0:0:0:0:
316,179,11936,2,0,L|328:308,1,115,0|2,0:0|0:0,0:0:0:0:
184,370,12626,1,2,0:0:0:0:
184,370,12798,2,0,P|157:325|85:318,1,115,2|8,0:0|0:0,0:0:0:0:
20,334,13316,1,0,0:0:0:0:
20,334,13488,2,0,B|6:264|6:264|18:201,1,115,0|8,0:0|0:0,0:0:0:0:
68,161,14005,1,2,0:0:0:0:
68,161,14178,6,0,L|191:176,1,115,4|8,0:0|0:0,0:0:0:0:
238,117,14695,2,0,P|285:131|360:101,1,115,0|0,0:0|0:0,0:0:0:0:
487,34,15385,1,2,0:0:0:0:
487,34,15557,2,0,L|481:157,1,115,2|8,0:0|0:0,0:0:0:0:
433,213,16074,1,2,0:0:0:0:
433,213,16247,2,0,P|379:194|324:208,1,115,2|8,0:0|0:0,0:0:0:0:
196,304,16936,5,4,0:0:0:0:
196,304,17109,2,0,L|132:296,1,57.5,0|8,0:0|0:0,0:0:0:0:
84,240,17453,2,0,P|72:176|104:112,1,115,0|2,0:0|0:0,0:0:0:0:
229,52,18143,1,2,0:0:0:0:
229,52,18316,2,0,L|360:66,1,115,2|8,0:0|0:0,0:0:0:0:
398,123,18833,1,0,0:0:0:0:
398,123,19005,2,0,L|386:195,2,57.5,0|2|8,0:0|0:0|0:0,0:0:0:0:
459,70,19522,1,2,0:0:0:0:
492,143,19695,6,0,P|502:196|486:259,1,115,4|8,0:0|0:0,0:0:0:0:
421,300,20212,2,0,B|357:275|357:275|291:276,1,115,0|0,0:0|0:0,0:0:0:0:
165,347,20902,1,2,0:0:0:0:
165,347,21074,2,0,P|148:286|179:226,1,115,0|0,3:0|3:0,0:0:0:0:
296,144,21764,2,0,B|365:172|365:172|424:163,1,115,0|8,3:0|3:0,0:0:0:0:
481,138,22281,1,8,3:0:0:0:
481,138,22453,6,0,L|472:258,1,115,4|8,0:0|0:0,0:0:0:0:
405,298,22971,2,0,B|336:270|336:270|277:279,1,115,0|2,0:0|0:0,0:0:0:0:
150,346,23660,1,2,0:0:0:0:
150,346,23833,2,0,P|90:365|33:346,1,115,2|8,0:0|0:0,0:0:0:0:
56,272,24350,2,0,P|70:219|50:158,1,115,0|2,0:0|0:0,0:0:0:0:
14,91,24867,1,8,0:0:0:0:
14,91,25040,1,2,0:0:0:0:
78,43,25212,6,0,B|173:63|173:63|206:57,1,115,4|8,0:0|0:0,0:0:0:0:
267,34,25729,2,0,L|386:61,1,115,0|0,0:0|0:0,0:0:0:0:
491,175,26419,1,2,0:0:0:0:
491,175,26591,2,0,L|464:294,1,115,2|8,0:0|0:0,0:0:0:0:
397,331,27109,1,0,0:0:0:0:
397,331,27281,2,0,L|370:212,1,115,0|8,0:0|0:0,0:0:0:0:
371,218,27971,6,0,P|318:243|252:229,1,115,4|8,0:0|0:0,0:0:0:0:
183,232,28488,2,0,P|231:265|252:329,1,115,0|2,0:0|0:0,0:0:0:0:
98,367,29178,1,2,0:0:0:0:
98,367,29350,2,0,B|83:305|83:305|92:240,1,115,2|8,0:0|0:0,0:0:0:0:
138,189,29867,2,0,P|194:207|246:181,1,115,0|2,0:0|0:0,0:0:0:0:
115,84,30557,1,2,0:0:0:0:
115,84,30729,6,0,P|59:102|7:76,1,115,4|8,0:0|0:0,0:0:0:0:
66,20,31247,1,0,0:0:0:0:
115,84,31419,2,0,L|234:72,1,115,0|8,0:0|0:0,0:0:0:0:
309,61,31936,1,2,0:0:0:0:
389,50,32109,6,0,P|406:107|391:182,1,115,2|8,0:0|0:0,0:0:0:0:
336,211,32626,1,2,0:0:0:0:
336,211,32798,2,0,P|319:268|334:343,1,115,2|8,0:0|0:0,0:0:0:0:
142,371,33488,6,0,L|267:363,1,115,4|8,0:0|0:0,0:0:0:0:
325,322,34005,2,0,P|336:265|308:200,1,115,0|2,0:0|0:0,0:0:0:0:
180,127,34695,1,2,0:0:0:0:
180,127,34867,2,0,B|123:152|123:152|55:136,1,115,2|8,0:0|0:0,0:0:0:0:
19,77,35385,2,0,B|44:134|44:134|28:202,1,115,0|2,0:0|0:0,0:0:0:0:
42,265,35902,1,8,0:0:0:0:
42,265,36074,1,2,0:0:0:0:
91,328,36247,6,0,P|120:293|199:287,1,115,4|8,0:0|0:0,0:0:0:0:
258,317,36764,2,0,P|300:333|371:302,1,115,0|0,0:0|0:0,0:0:0:0:
449,173,37453,1,2,0:0:0:0:
449,173,37626,2,0,L|436:49,1,115,2|8,0:0|0:0,0:0:0:0:
356,54,38143,1,0,0:0:0:0:
356,54,38316,2,0,L|343:178,1,115,0|8,0:0|0:0,0:0:0:0:
344,168,39005,6,0,P|293:184|231:158,1,115,4|8,0:0|0:0,0:0:0:0:
169,119,39522,2,0,P|116:98|62:114,2,115,0|2|2,0:0|0:0|0:0,0:0:0:0:
237,163,40385,6,0,B|248:225|248:225|238:292,1,115,2|8,0:0|0:0,0:0:0:0:
227,356,40902,2,0,L|354:354,1,115,0|2,0:0|0:0,0:0:0:0:
394,292,41419,1,8,0:0:0:0:
394,292,41591,1,2,0:0:0:0:
458,340,41764,6,0,P|476:288|442:228,1,115,4|8,0:0|0:0,0:0:0:0:
385,190,42281,1,2,0:0:0:0:
477,58,42626,1,2,0:0:0:0:
316,43,42971,1,4,0:0:0:0:
360,197,43316,5,2,0:0:0:0:
360,197,43488,2,0,L|356:272,2,57.5,8|2|0,0:0|0:0|0:0,0:0:0:0:
283,223,44005,2,0,L|279:298,2,57.5,0|8|8,3:0|3:0|3:0,0:0:0:0:
274,142,44522,5,4,0:0:0:0:
274,142,44867,2,0,P|218:160|162:129,1,115,8|0,0:0|0:0,0:0:0:0:
110,81,45385,2,0,P|77:79|37:94,2,57.5,2|8|2,0:0|0:0|0:0,0:0:0:0:
181,41,45902,2,0,P|237:23|293:54,1,115,2|8,0:0|0:0,0:0:0:0:
353,85,46419,2,0,L|475:105,2,115,2|2|0,0:0|0:0|0:0,0:0:0:0:
298,25,47281,5,4,0:0:0:0:
298,25,47626,2,0,P|312:84|295:150,1,115,8|0,0:0|0:0,0:0:0:0:
239,188,48143,2,0,L|244:260,2,57.5,0|8|2,0:0|0:0|0:0,0:0:0:0:
180,131,48660,2,0,B|117:128|117:128|64:147,1,115,2|8,0:0|0:0,0:0:0:0:
31,218,49178,2,0,L|41:345,1,115,2|2,0:0|0:0,0:0:0:0:
108,375,49695,1,10,0:0:0:0:
224,264,50040,5,4,0:0:0:0:
224,264,50385,2,0,B|290:277|290:277|344:270,1,115,8|0,0:0|0:0,0:0:0:0:
395,215,50902,2,0,P|397:177|397:143,2,57.5,2|8|2,0:0|0:0|0:0,0:0:0:0:
337,270,51419,2,0,P|331:310|361:382,1,115,2|8,0:0|0:0,0:0:0:0:
430,344,51936,1,2,0:0:0:0:
301,246,52281,1,2,0:0:0:0:
445,174,52626,1,0,0:0:0:0:
445,174,52798,6,0,L|434:52,1,115,4|8,0:0|0:0,0:0:0:0:
361,24,53316,1,0,0:0:0:0:
361,24,53488,2,0,P|324:69|246:76,1,115,0|8,0:0|0:0,0:0:0:0:
110,58,54178,2,0,L|99:180,1,115,2|8,0:0|0:0,0:0:0:0:
42,229,54695,1,0,0:0:0:0:
42,229,54867,2,0,L|47:290,2,57.5,0|2|8,0:0|0:0|0:0,0:0:0:0:
99,172,55385,1,0,0:0:0:0:
163,219,55557,6,0,P|208:228|274:191,1,115,4|8,0:0|0:0,0:0:0:0:
319,136,56074,1,0,0:0:0:0:
433,248,56419,1,2,0:0:0:0:
433,248,56591,2,0,L|429:323,1,57.5,8|8,3:0|3:0,0:0:0:0:
361,348,56936,1,2,0:0:0:0:
319,278,57109,1,2,0:0:0:0:
240,292,57281,1,2,0:0:0:0:
39,294,58316,6,0,P|84:313|158:287,1,115,4|8,0:0|0:0,0:0:0:0:
210,248,58833,1,0,0:0:0:0:
210,248,59005,2,0,P|264:231|317:251,1,115,0|10,0:0|0:0,0:0:0:0:
382,297,59522,1,2,0:0:0:0:
382,297,59695,2,0,B|410:233|410:233|406:172,1,115,2|8,0:0|0:0,0:0:0:0:
360,121,60212,2,0,L|286:131,1,57.5
244,73,60557,2,0,L|187:65,1,57.5,2|8,0:0|0:0,0:0:0:0:
126,11,60902,1,2,0:0:0:0:
61,61,61074,5,4,0:0:0:0:
72,221,61419,2,0,P|97:159|151:134,1,115,8|0,0:0|0:0,0:0:0:0:
206,177,61936,1,0,0:0:0:0:
271,130,62109,1,8,0:0:0:0:
258,50,62281,1,2,0:0:0:0:
334,72,62453,2,0,P|379:93|443:71,1,115,2|8,0:0|0:0,0:0:0:0:
490,137,62971,2,0,L|483:254,1,115,0|2,0:0|0:0,0:0:0:0:
478,332,63488,1,8,0:0:0:0:
478,332,63833,6,0,B|399:351|399:351|351:342,1,115,4|8,0:0|0:0,0:0:0:0:
320,278,64350,1,0,0:0:0:0:
320,278,64522,2,0,B|241:259|241:259|193:268,1,115,0|10,0:0|0:0,0:0:0:0:
141,312,65040,1,2,0:0:0:0:
141,312,65212,2,0,P|87:332|24:306,1,115,2|8,0:0|0:0,0:0:0:0:
53,236,65729,1,0,0:0:0:0:
53,236,65902,2,0,B|60:173|60:173|50:113,1,115,0|8,0:0|0:0,0:0:0:0:
96,54,66419,1,2,0:0:0:0:
96,54,66591,6,0,L|219:67,1,115,4|8,0:0|0:0,0:0:0:0:
267,124,67109,1,0,0:0:0:0:
267,124,67281,2,0,L|329:115,1,57.5,0|2,0:0|0:0,0:0:0:0:
326,196,67626,2,0,L|382:204,1,57.5,8|2,0:0|0:0,0:0:0:0:
431,268,67971,2,0,L|487:259,2,57.5,0|2|8,0:0|0:0|0:0,0:0:0:0:
374,326,68488,1,0,0:0:0:0:
300,294,68660,2,0,P|256:283|219:283,1,57.5,2|0,0:0|3:0,0:0:0:0:
207,354,69005,2,0,P|178:357|151:365,1,57.5,8|8,3:0|3:0,0:0:0:0:
90,312,69350,6,0,P|63:258|75:196,1,115,4|8,0:0|0:0,0:0:0:0:
122,144,69867,1,0,0:0:0:0:
122,144,70040,2,0,P|154:169|231:169,1,115,0|8,0:0|0:0,0:0:0:0:
294,127,70557,1,2,0:0:0:0:
340,192,70729,2,0,L|331:313,1,115,2|8,0:0|0:0,0:0:0:0:
250,310,71247,2,0,L|254:370,1,57.5,0|0,0:0|0:0,0:0:0:0:
168,368,71591,2,0,L|171:307,1,57.5,2|8,0:0|0:0,0:0:0:0:
184,229,71936,1,2,0:0:0:0:
107,255,72109,5,4,0:0:0:0:
247,177,72453,2,0,P|277:214|360:240,1,115,8|0,0:0|0:0,0:0:0:0:
391,176,72971,1,0,0:0:0:0:
420,101,73143,1,8,0:0:0:0:
379,30,73316,1,2,0:0:0:0:
305,61,73488,2,0,P|245:83|181:72,1,115,2|8,0:0|0:0,0:0:0:0:
150,10,74005,2,0,P|117:56|109:113,1,115,0|2,0:0|0:0,0:0:0:0:
133,190,74522,1,8,0:0:0:0:
133,190,74867,6,0,B|140:253|140:253|133:314,1,115,4|8,0:0|0:0,0:0:0:0:
284,363,75557,2,0,P|295:312|356:282,1,115,0|10,0:0|0:0,0:0:0:0:
426,269,76074,1,2,0:0:0:0:
378,203,76247,2,0,B|369:145|369:145|377:82,1,115,2|8,0:0|0:0,0:0:0:0:
221,12,76936,2,0,P|171:38|158:92,1,115,0|8,0:0|0:0,0:0:0:0:
97,154,77453,1,2,0:0:0:0:
155,217,77626,6,0,L|279:211,1,115,4|8,0:0|0:0,0:0:0:0:
308,134,78143,2,0,L|432:140,1,115,0|2,0:0|0:0,0:0:0:0:
468,206,78660,1,8,0:0:0:0:
468,206,79005,6,0,L|464:280,1,57.5,0|2,3:0|3:0,0:0:0:0:
386,284,79350,2,0,L|390:358,1,57.5,0|2,3:0|3:0,0:0:0:0:
310,359,79695,1,8,3:0:0:0:
310,359,79867,2,0,P|278:367|242:358,2,57.5,8|8|8,3:0|3:0|3:0,0:0:0:0:
389,341,80385,6,0,L|397:204,1,115,4|8,0:0|0:0,0:0:0:0:
340,167,80902,2,0,P|283:194|223:178,1,115,0|2,0:0|0:0,0:0:0:0:
100,94,81591,1,2,0:0:0:0:
100,94,81764,2,0,B|116:146|116:146|112:210,1,115,2|8,0:0|0:0,0:0:0:0:
140,282,82281,1,0,0:0:0:0:
140,282,82453,2,0,P|191:262|250:280,1,115,0|8,0:0|0:0,0:0:0:0:
310,328,82971,1,2,0:0:0:0:
355,261,83143,6,0,P|369:203|365:131,1,115,4|8,0:0|0:0,0:0:0:0:
315,86,83660,2,0,B|247:106|247:106|193:95,1,115,0|0,0:0|0:0,0:0:0:0:
203,97,84350,1,2,0:0:0:0:
159,164,84522,2,0,P|142:209|163:275,1,115,2|8,0:0|0:0,0:0:0:0:
207,337,85040,1,2,0:0:0:0:
266,281,85212,2,0,L|388:304,1,115,2|8,0:0|0:0,0:0:0:0:
468,167,85902,6,0,B|460:98|460:98|473:43,1,115,4|8,0:0|0:0,0:0:0:0:
399,14,86419,2,0,L|270:26,1,115,0|2,0:0|0:0,0:0:0:0:
168,137,87109,1,2,0:0:0:0:
168,137,87281,2,0,P|186:189|171:268,1,115,2|8,0:0|0:0,0:0:0:0:
144,320,87798,1,0,0:0:0:0:
144,320,87971,1,0,0:0:0:0:
87,263,88143,2,0,L|19:273,2,57.5,2|8|2,0:0|0:0|0:0,0:0:0:0:
144,320,88660,6,0,L|280:340,1,115,4|8,0:0|0:0,0:0:0:0:
313,277,89178,2,0,P|334:221|315:161,1,115,0|0,0:0|0:0,0:0:0:0:
218,45,89867,1,2,0:0:0:0:
218,45,90040,2,0,P|221:79|224:115,1,57.5,0|0,3:0|3:0,0:0:0:0:
295,137,90385,2,0,P|292:171|289:207,1,57.5,0|0,3:0|3:0,0:0:0:0:
210,180,90729,2,0,P|213:214|216:250,1,57.5,0|0,3:0|3:0,0:0:0:0:
287,272,91074,2,0,P|284:306|281:342,1,57.5,8|8,3:0|3:0,0:0:0:0:
212,369,91419,5,8,3:0:0:0:
46,254,102453,6,0,L|52:128,1,115,4|8,0:0|0:0,0:0:0:0:
132,143,102971,2,0,L|126:257,1,115,0|2,0:0|0:0,0:0:0:0:
244,367,103660,1,2,0:0:0:0:
284,297,103833,2,0,P|315:270|402:279,1,115,2|8,0:0|0:0,0:0:0:0:
460,299,104350,2,0,B|488:249|488:249|487:183,1,115,0|2,0:0|0:0,0:0:0:0:
482,110,104867,1,8,0:0:0:0:
482,110,105040,1,2,0:0:0:0:
414,153,105212,6,0,P|370:169|298:141,1,115,4|8,0:0|0:0,0:0:0:0:
244,98,105729,2,0,P|191:78|136:94,1,115,0|0,0:0|0:0,0:0:0:0:
44,227,106419,1,2,0:0:0:0:
44,227,106591,2,0,L|41:106,1,115,2|8,0:0|0:0,0:0:0:0:
91,48,107109,1,0,0:0:0:0:
91,48,107281,2,0,P|136:78|213:79,1,115,0|8,0:0|0:0,0:0:0:0:
195,83,107971,6,0,L|321:79,1,115,4|8,0:0|0:0,0:0:0:0:
366,137,108488,2,0,B|382:193|382:193|378:256,1,115,0|2,0:0|0:0,0:0:0:0:
272,371,109178,1,2,0:0:0:0:
272,371,109350,2,0,B|221:345|221:345|149:352,1,115,2|8,0:0|0:0,0:0:0:0:
95,307,109867,2,0,L|102:240,1,57.5,0|0,0:0|0:0,0:0:0:0:
175,219,110212,2,0,L|169:161,1,57.5,2|8,0:0|0:0,0:0:0:0:
159,81,110557,1,2,0:0:0:0:
236,100,110729,6,0,P|299:114|361:98,1,115,4|8,0:0|0:0,0:0:0:0:
414,57,111247,1,2,0:0:0:0:
448,213,111591,1,2,0:0:0:0:
356,345,111936,1,4,0:0:0:0:
356,345,112109,2,0,L|283:341,2,57.5,0|2|8,0:0|0:0|0:0,0:0:0:0:
383,269,112626,2,0,L|456:265,2,57.5,2|0|0,0:0|0:0|3:0,0:0:0:0:
324,212,113143,2,0,P|316:176|321:137,1,57.5,8|8,3:0|3:0,0:0:0:0:
332,76,113488,5,4,0:0:0:0:
332,76,113833,2,0,L|202:86,1,115,8|0,0:0|0:0,0:0:0:0:
160,27,114350,2,0,L|95:22,2,57.5,2|8|2,0:0|0:0|0:0,0:0:0:0:
217,84,114867,2,0,P|240:125|224:204,1,115,2|8,0:0|0:0,0:0:0:0:
171,243,115385,2,0,L|180:360,2,115,2|2|0,0:0|0:0|0:0,0:0:0:0:
125,176,116247,5,4,0:0:0:0:
125,176,116591,2,0,P|79:203|2:181,1,115,8|0,0:0|0:0,0:0:0:0:
32,114,117109,2,0,L|22:52,2,57.5,0|8|2,0:0|0:0|0:0,0:0:0:0:
107,85,117626,2,0,L|221:98,1,115,2|8,0:0|0:0,0:0:0:0:
272,160,118143,2,0,L|386:147,1,115,2|2,0:0|0:0,0:0:0:0:
450,97,118660,1,10,0:0:0:0:
417,254,119005,5,4,0:0:0:0:
417,254,119350,2,0,L|425:375,1,115,8|0,0:0|0:0,0:0:0:0:
504,356,119867,2,0,L|500:298,2,57.5,2|8|2,0:0|0:0|0:0,0:0:0:0:
424,368,120385,2,0,P|374:322|311:333,1,115,2|8,0:0|0:0,0:0:0:0:
253,349,120902,2,0,B|179:358|179:358|123:335,2,115,2|2|0,0:0|0:0|0:0,0:0:0:0:
302,285,121764,6,0,L|292:161,1,115,4|8,0:0|0:0,0:0:0:0:
328,97,122281,1,0,0:0:0:0:
268,42,122453,2,0,P|220:68|152:56,1,115,0|8,0:0|0:0,0:0:0:0:
109,213,123143,2,0,P|156:243|178:295,1,115,2|8,0:0|0:0,0:0:0:0:
241,346,123660,1,0,0:0:0:0:
241,346,123833,2,0,L|313:342,2,57.5,0|2|8,0:0|0:0|0:0,0:0:0:0:
164,371,124350,1,0,0:0:0:0:
125,300,124522,6,0,L|137:175,1,115,4|8,0:0|0:0,0:0:0:0:
195,130,125040,2,0,B|243:158|243:158|328:150,1,115,0|2,0:0|0:0,0:0:0:0:
365,102,125557,2,0,L|358:34,1,57.5,8|8,3:0|3:0,0:0:0:0:
289,3,125902,1,2,0:0:0:0:
230,57,126074,1,2,0:0:0:0:
152,35,126247,1,2,0:0:0:0:
433,315,127281,6,0,L|423:193,1,115,4|8,0:0|0:0,0:0:0:0:
421,119,127798,1,0,0:0:0:0:
350,158,127971,2,0,P|281:172|230:145,1,115,0|10,0:0|0:0,0:0:0:0:
184,98,128488,1,2,0:0:0:0:
132,159,128660,2,0,B|139:225|139:225|131:284,1,115,2|8,0:0|0:0,0:0:0:0:
89,342,129178,2,0,L|11:334,1,57.5
0,256,129522,2,0,L|78:248,1,57.5,2|8,0:0|0:0,0:0:0:0:
132,273,129867,1,2,0:0:0:0:
198,227,130040,5,4,0:0:0:0:
245,374,130385,2,0,L|374:363,1,115,8|0,0:0|0:0,0:0:0:0:
409,300,130902,1,0,0:0:0:0:
358,237,131074,1,8,0:0:0:0:
404,170,131247,1,2,0:0:0:0:
351,109,131419,2,0,P|301:137|229:122,1,115,2|8,0:0|0:0,0:0:0:0:
178,85,131936,2,0,P|206:135|191:207,1,115,0|2,0:0|0:0,0:0:0:0:
160,261,132453,1,8,0:0:0:0:
160,261,132798,6,0,L|44:256,1,115,4|8,0:0|0:0,0:0:0:0:
8,183,133316,1,0,0:0:0:0:
63,124,133488,2,0,P|87:64|69:14,1,115,0|10,0:0|0:0,0:0:0:0:
142,58,134005,1,2,0:0:0:0:
142,58,134178,2,0,L|271:50,1,115,2|8,0:0|0:0,0:0:0:0:
308,112,134695,1,0,0:0:0:0:
382,81,134867,2,0,B|399:148|399:148|391:215,1,115,0|8,0:0|0:0,0:0:0:0:
381,273,135385,1,2,0:0:0:0:
381,273,135557,6,0,P|310:257|270:287,1,115,4|8,0:0|0:0,0:0:0:0:
215,329,136074,1,0,0:0:0:0:
143,367,136247,2,0,L|78:361,1,57.5,0|2,0:0|0:0,0:0:0:0:
95,281,136591,2,0,L|152:286,1,57.5,8|2,0:0|0:0,0:0:0:0:
207,227,136936,2,0,P|214:197|214:169,2,57.5,0|2|8,0:0|0:0|0:0,0:0:0:0:
152,286,137453,1,0,0:0:0:0:
210,342,137626,2,0,L|267:336,1,57.5,2|0,0:0|3:0,0:0:0:0:
308,267,137971,2,0,L|365:272,1,57.5,8|8,3:0|3:0,0:0:0:0:
423,215,138316,6,0,B|442:159|442:159|438:96,1,115,4|8,0:0|0:0,0:0:0:0:
383,43,138833,1,0,0:0:0:0:
383,43,139005,2,0,P|333:63|256:45,1,115,0|10,0:0|0:0,0:0:0:0:
194,40,139522,1,2,0:0:0:0:
218,117,139695,2,0,L|212:231,1,115,2|8,0:0|0:0,0:0:0:0:
287,263,140212,2,0,L|280:344,1,57.5
201,314,140557,2,0,L|205:371,1,57.5,2|8,0:0|0:0,0:0:0:0:
122,313,140902,1,2,0:0:0:0:
61,365,141074,5,4,0:0:0:0:
11,225,141419,2,0,L|16:99,1,115,8|0,0:0|0:0,0:0:0:0:
67,47,141936,1,0,0:0:0:0:
113,113,142109,1,8,0:0:0:0:
190,91,142281,1,2,0:0:0:0:
245,149,142453,2,0,P|266:201|243:273,1,115,2|8,0:0|0:0,0:0:0:0:
199,317,142971,2,0,P|251:296|323:319,1,115,0|2,0:0|0:0,0:0:0:0:
375,350,143488,1,8,0:0:0:0:
375,350,143833,6,0,L|501:337,1,115,4|8,0:0|0:0,0:0:0:0:
435,186,144522,2,0,P|416:122|443:66,1,115,0|10,0:0|0:0,0:0:0:0:
373,22,145040,1,2,0:0:0:0:
373,22,145212,2,0,L|255:29,1,115,2|8,0:0|0:0,0:0:0:0:
119,111,145902,2,0,B|132:175|132:175|123:243,1,115,0|8,0:0|0:0,0:0:0:0:
99,300,146419,1,2,0:0:0:0:
157,355,146591,6,0,P|207:325|268:338,1,115,4|8,0:0|0:0,0:0:0:0:
331,373,147109,2,0,L|450:358,1,115,0|2,0:0|0:0,0:0:0:0:
478,284,147626,1,8,0:0:0:0:
347,189,147971,2,0,L|276:195,1,57.5,0|0,3:0|3:0,0:0:0:0:
253,121,148316,2,0,L|195:116,1,57.5,0|0,3:0|3:0,0:0:0:0:
134,167,148660,1,8,3:0:0:0:
134,167,148833,2,0,L|138:224,2,57.5,8|8|8,3:0|3:0|3:0,0:0:0:0:
195,116,149350,6,0,P|239:130|310:108,1,115,4|8,0:0|0:0,0:0:0:0:
369,65,149867,2,0,P|422:47|477:61,1,115,0|2,0:0|0:0,0:0:0:0:
503,138,150385,2,0,L|497:212,1,57.5,10|2,0:0|0:0,0:0:0:0:
418,187,150729,2,0,L|429:328,1,115,2|8,0:0|0:0,0:0:0:0:
346,312,151247,2,0,L|205:323,1,115,0|2,0:0|0:0,0:0:0:0:
166,273,151764,1,8,0:0:0:0:
166,273,151936,1,2,0:0:0:0:
98,317,152109,6,0,P|82:280|112:207,1,115,4|8,0:0|0:0,0:0:0:0:
162,155,152626,2,0,B|226:175|226:175|287:157,1,115,0|2,0:0|0:0,0:0:0:0:
345,127,153143,1,8,0:0:0:0:
345,127,153488,2,0,L|418:125,1,57.5,0|0,3:0|3:0,0:0:0:0:
408,205,153833,2,0,L|481:203,1,57.5,0|0,3:0|3:0,0:0:0:0:
480,282,154178,2,0,P|486:323|480:355,1,57.5,4|8,3:0|3:0,0:0:0:0:
399,336,154522,2,0,P|397:307|403:279,1,57.5,8|8,3:0|3:0,0:0:0:0:
332,238,154867,6,0,B|260:250|260:250|215:233,1,115,4|8,0:0|0:0,0:0:0:0:
178,165,155385,2,0,L|47:176,1,115,0|2,0:0|0:0,0:0:0:0:
11,114,155902,1,10,0:0:0:0:
123,228,156247,2,0,P|150:278|130:346,1,115,2|8,0:0|0:0,0:0:0:0:
70,375,156764,2,0,B|144:352|144:352|207:365,1,115,0|2,0:0|0:0,0:0:0:0:
249,317,157281,1,8,0:0:0:0:
249,317,157453,1,2,0:0:0:0:
310,368,157626,6,0,L|428:355,1,115,4|8,0:0|0:0,0:0:0:0:
478,203,158316,1,0,0:0:0:0:
423,261,158488,1,0,0:0:0:0:
350,227,158660,1,8,0:0:0:0:
360,148,158833,1,2,0:0:0:0:
439,132,159005,6,0,L|436:62,1,57.5,8|0,0:0|0:0,0:0:0:0:
356,64,159350,2,0,L|353:-6,1,57.5,8|2,0:0|0:0,0:0:0:0:
275,28,159695,1,2,0:0:0:0:
275,28,159867,2,0,P|242:37|199:32,2,57.5,8|8|8,3:0|3:0|3:0,0:0:0:0:
356,64,160385,6,0,L|351:179,1,115,4|8,0:0|0:0,0:0:0:0:
287,229,160902,1,0,0:0:0:0:
287,229,161247,2,0,P|224:197|168:214,1,115,2|2,2:0|0:0,0:0:0:0:
102,210,161764,2,0,P|124:261|174:288,1,115,2|8,0:0|0:0,0:0:0:0:
317,214,162453,1,0,0:0:0:0:
317,214,162626,1,2,0:0:0:0:
292,290,162798,1,8,0:0:0:0:
292,290,162971,1,2,0:0:0:0:
347,347,163143,6,0,P|410:343|411:343,2,57.5,4|0|8,0:0|0:0|0:0,0:0:0:0:
292,290,163660,2,0,P|234:308|178:278,1,115,0|0,0:0|0:0,0:0:0:0:
131,227,164178,1,8,0:0:0:0:
189,172,164350,1,2,0:0:0:0:
189,172,164522,6,0,L|184:110,1,57.5,0|0,3:0|3:0,0:0:0:0:
263,98,164867,2,0,L|258:36,1,57.5,0|0,3:0|3:0,0:0:0:0:
339,38,165212,2,0,L|343:95,1,57.5,0|0,3:0|3:0,0:0:0:0:
424,97,165557,2,0,L|428:154,1,57.5,8|8,3:0|3:0,0:0:0:0:
368,209,165902,6,0,B|360:278|360:278|379:333,1,115,4|8,0:0|0:0,0:0:0:0:
311,371,166419,1,0,0:0:0:0:
311,371,166591,2,0,L|188:357,1,115,0|10,0:0|0:0,0:0:0:0:
131,310,167109,1,2,0:0:0:0:
159,234,167281,2,0,P|172:190|147:118,1,115,2|8,0:0|0:0,0:0:0:0:
103,61,167798,1,0,0:0:0:0:
173,22,167971,2,0,B|244:39|244:39|303:27,1,115,0|8,0:0|0:0,0:0:0:0:
347,81,168488,1,2,0:0:0:0:
347,81,168660,6,0,L|350:154,1,57.5,12|2,0:0|0:0,0:0:0:0:
421,173,169005,2,0,L|418:246,1,57.5,8|2,0:0|0:0,0:0:0:0:
349,272,169350,1,2,0:0:0:0:
410,323,169522,2,0,B|444:329|475:327|476:327,2,57.5,8|8|8,0:0|0:0|0:0,0:0:0:0:
322,367,170040,5,4,0:0:0:0:
256,192,170126,12,2,171419,0:0:0:0:
104,43,176936,6,0,L|113:161,1,115,2|2,0:0|0:0,0:0:0:0:
269,197,177626,2,0,L|260:315,1,115,2|2,0:0|0:0,0:0:0:0:
110,372,178316,2,0,B|120:311|120:311|116:251,1,115,2|2,0:0|0:0,0:0:0:0:
149,184,178833,2,0,P|199:204|267:187,2,115,0|8|8,0:0|0:0|0:0,0:0:0:0:
116,110,179695,6,0,B|172:70|172:70|234:77,1,115,2|2,0:0|0:0,0:0:0:0:
282,123,180212,1,0,0:0:0:0:
282,123,180385,2,0,L|403:113,1,115,2|10,0:0|0:0,0:0:0:0:
505,231,181074,2,0,P|519:291|496:358,1,115,2|2,0:0|0:0,0:0:0:0:
430,312,181591,1,0,0:0:0:0:
370,366,181764,6,0,L|307:363,2,57.5,4|8|0,0:0|3:0|3:0,0:0:0:0:
430,312,182281,1,0,3:0:0:0:
378,250,182453,2,0,P|370:192|398:137,1,115,4|8,0:0|0:0,0:0:0:0:
442,77,182971,2,0,P|403:101|317:86,1,115,0|2,0:0|0:0,0:0:0:0:
265,46,183488,2,0,L|192:56,1,57.5,8|8,3:0|3:0,0:0:0:0:
143,111,183833,5,2,0:0:0:0:
195,178,184005,1,2,0:0:0:0:
178,257,184178,1,2,0:0:0:0:
178,257,184522,6,0,L|181:326,2,38.3333333333333,8|8|8,3:0|3:0|3:0,0:0:0:0:
220,223,184867,2,0,L|223:154,2,38.3333333333333,8|8|8,3:0|3:0|3:0,0:0:0:0:
264,253,185212,1,4,1:0:0:0:
256,192,185298,12,0,187281,0:0:0:0:
106,43,199005,6,0,B|114:102|114:102|90:151|90:151|97:229,1,172.5,2|0,0:0|0:0,0:0:0:0:
144,273,199695,2,0,P|189:245|259:259,1,115,0|0,0:0|0:0,0:0:0:0:
306,308,200212,1,0,0:0:0:0:
306,308,200385,2,0,L|426:300,1,115,0|0,0:0|0:0,0:0:0:0:
471,237,200902,1,0,0:0:0:0:
384,100,201247,1,2,0:0:0:0:
338,254,201591,1,2,0:0:0:0:
307,179,201764,6,0,P|245:196|193:166,2,115,2|0|0,0:0|0:0|0:0,0:0:0:0:
362,120,202626,1,0,0:0:0:0:
362,120,202798,2,0,L|432:131,1,57.5,0|0,0:0|0:0,0:0:0:0:
485,176,203143,2,0,B|490:243|490:243|478:296,1,115,0|0,0:0|0:0,0:0:0:0:
419,343,203660,2,0,P|378:309|309:310,1,115,0|2,0:0|0:0,0:0:0:0:
245,343,204178,1,0,0:0:0:0:
114,249,204522,6,0,L|121:135,1,115,2|0,0:0|0:0,0:0:0:0:
259,50,205212,2,0,L|266:164,1,115,0|0,0:0|0:0,0:0:0:0:
279,325,205902,2,0,P|323:257|378:257,1,115,0|0,0:0|0:0,0:0:0:0:
211,184,206591,2,0,B|135:216|135:216|87:192,1,115,0|0,0:0|0:0,0:0:0:0:
32,152,207109,1,2,0:0:0:0:
32,152,207281,6,0,P|99:115|17:220,1,460,2|0,0:0|0:0,0:0:0:0:
420,212,209695,6,0,L|418:143,1,57.5,8|8,3:0|3:0,0:0:0:0:
473,90,210040,6,0,P|428:71|354:97,1,115,4|8,0:0|0:0,0:0:0:0:
302,136,210557,1,0,0:0:0:0:
302,136,210729,2,0,P|248:153|195:133,1,115,0|8,0:0|0:0,0:0:0:0:
130,87,211246,1,2,0:0:0:0:
130,87,211419,2,0,B|102:151|102:151|106:212,1,115,2|8,0:0|0:0,0:0:0:0:
152,263,211936,2,0,L|226:253,1,57.5,0|0,0:0|0:0,0:0:0:0:
268,311,212281,2,0,L|325:319,1,57.5,2|8,0:0|0:0,0:0:0:0:
390,270,212626,1,2,0:0:0:0:
451,323,212798,5,4,0:0:0:0:
440,163,213143,2,0,P|415:225|361:250,1,115,8|0,0:0|0:0,0:0:0:0:
306,207,213660,1,0,0:0:0:0:
241,254,213833,1,8,0:0:0:0:
254,334,214005,1,2,0:0:0:0:
178,312,214177,2,0,P|133:291|69:313,1,115,2|8,0:0|0:0,0:0:0:0:
22,247,214695,2,0,L|29:130,1,115,0|2,0:0|0:0,0:0:0:0:
34,52,215212,1,8,0:0:0:0:
34,52,215557,6,0,B|113:33|113:33|161:42,1,115,4|8,0:0|0:0,0:0:0:0:
192,106,216074,1,0,0:0:0:0:
192,106,216246,2,0,B|271:125|271:125|319:116,1,115,0|10,0:0|0:0,0:0:0:0:
371,72,216764,1,2,0:0:0:0:
371,72,216936,2,0,P|425:52|488:78,1,115,2|8,0:0|0:0,0:0:0:0:
459,148,217453,1,0,0:0:0:0:
459,148,217626,2,0,B|452:211|452:211|462:271,1,115,0|8,0:0|0:0,0:0:0:0:
416,330,218143,1,2,0:0:0:0:
416,330,218315,6,0,L|293:317,1,115,4|8,0:0|0:0,0:0:0:0:
245,260,218833,1,0,0:0:0:0:
245,260,219005,2,0,L|183:269,1,57.5,0|2,0:0|0:0,0:0:0:0:
186,188,219350,2,0,L|130:180,1,57.5,8|2,0:0|0:0,0:0:0:0:
81,116,219695,2,0,L|25:125,2,57.5,0|2|8,0:0|0:0|0:0,0:0:0:0:
138,58,220212,1,0,0:0:0:0:
212,90,220384,2,0,P|256:101|293:101,1,57.5,2|0,0:0|3:0,0:0:0:0:
305,30,220729,2,0,P|334:27|361:19,1,57.5,8|8,3:0|3:0,0:0:0:0:
422,72,221074,6,0,P|449:126|437:188,1,115,4|8,0:0|0:0,0:0:0:0:
390,240,221591,1,0,0:0:0:0:
390,240,221764,2,0,P|358:215|281:215,1,115,0|10,0:0|0:0,0:0:0:0:
218,257,222281,1,2,0:0:0:0:
172,192,222453,2,0,L|181:71,1,115,2|8,0:0|0:0,0:0:0:0:
262,74,222971,2,0,L|258:14,1,57.5,0|0,0:0|0:0,0:0:0:0:
339,17,223315,2,0,L|336:78,1,57.5,2|8,0:0|0:0,0:0:0:0:
328,155,223660,1,2,0:0:0:0:
405,129,223833,5,4,0:0:0:0:
280,230,224177,2,0,P|250:193|167:167,1,115,8|0,0:0|0:0,0:0:0:0:
121,208,224695,1,0,0:0:0:0:
92,283,224867,1,8,0:0:0:0:
133,354,225040,1,2,0:0:0:0:
207,323,225212,2,0,P|267:301|331:312,1,115,2|8,0:0|0:0,0:0:0:0:
362,374,225729,2,0,P|395:328|403:271,1,115,0|2,0:0|0:0,0:0:0:0:
379,194,226246,1,8,0:0:0:0:
379,194,226591,6,0,B|372:131|372:131|379:70,1,115,4|8,0:0|0:0,0:0:0:0:
228,21,227281,2,0,P|217:72|156:102,1,115,0|10,0:0|0:0,0:0:0:0:
86,115,227798,1,2,0:0:0:0:
134,181,227971,2,0,B|143:239|143:239|135:302,1,115,2|8,0:0|0:0,0:0:0:0:
281,362,228660,2,0,B|273:306|273:306|282:248,1,115,0|8,0:0|0:0,0:0:0:0:
363,250,229177,1,2,0:0:0:0:
357,167,229350,6,0,L|233:173,1,115,4|8,0:0|0:0,0:0:0:0:
204,250,229867,2,0,L|80:244,1,115,0|2,0:0|0:0,0:0:0:0:
44,178,230384,1,8,0:0:0:0:
44,178,230729,6,0,L|39:108,1,57.5,0|2,3:0|3:0,0:0:0:0:
120,123,231074,2,0,L|115:53,1,57.5,0|2,3:0|3:0,0:0:0:0:
184,23,231419,1,8,3:0:0:0:
184,23,231591,2,0,P|217:32|248:27,2,57.5,8|8|8,3:0|3:0|3:0,0:0:0:0:
106,47,232109,6,0,L|114:175,1,115,4|8,0:0|0:0,0:0:0:0:
190,186,232626,2,0,L|178:315,1,115,0|2,0:0|0:0,0:0:0:0:
322,377,233316,1,2,0:0:0:0:
322,377,233488,2,0,P|349:332|421:325,1,115,2|8,0:0|0:0,0:0:0:0:
486,341,234006,1,0,0:0:0:0:
486,341,234178,2,0,B|500:271|500:271|488:208,1,115,0|8,0:0|0:0,0:0:0:0:
438,168,234695,1,2,0:0:0:0:
438,168,234868,6,0,L|315:183,1,115,4|8,0:0|0:0,0:0:0:0:
268,124,235385,2,0,P|221:138|146:108,1,115,0|0,0:0|0:0,0:0:0:0:
19,41,236075,1,2,0:0:0:0:
19,41,236247,2,0,L|25:164,1,115,2|8,0:0|0:0,0:0:0:0:
73,220,236764,1,2,0:0:0:0:
73,220,236937,2,0,P|127:201|182:215,1,115,2|8,0:0|0:0,0:0:0:0:
310,311,237626,5,4,0:0:0:0:
310,311,237799,2,0,L|374:303,1,57.5,0|8,0:0|0:0,0:0:0:0:
422,247,238143,2,0,P|434:183|402:119,1,115,0|2,0:0|0:0,0:0:0:0:
277,59,238833,1,2,0:0:0:0:
277,59,239006,2,0,L|146:73,1,115,2|8,0:0|0:0,0:0:0:0:
108,130,239523,1,0,0:0:0:0:
108,130,239695,2,0,L|121:193,2,57.5,0|2|8,0:0|0:0|0:0,0:0:0:0:
47,77,240212,1,2,0:0:0:0:
14,150,240385,6,0,P|4:203|20:266,1,115,4|8,0:0|0:0,0:0:0:0:
85,307,240902,2,0,B|149:282|149:282|215:283,1,115,0|0,0:0|0:0,0:0:0:0:
342,348,241592,1,2,0:0:0:0:
342,348,241764,2,0,L|405:338,1,57.5,0|0,3:0|3:0,0:0:0:0:
431,265,242109,2,0,L|368:255,1,57.5,0|0,3:0|3:0,0:0:0:0:
314,202,242453,2,0,P|310:165|315:132,1,57.5,0|0,3:0|3:0,0:0:0:0:
390,123,242798,2,0,P|394:86|389:53,1,57.5,8|8,3:0|3:0,0:0:0:0:
324,21,243143,5,2,3:2:0:0:
