osu file format v14

[General]
AudioFilename: audio.mp3
AudioLeadIn: 0
PreviewTime: 39768
Countdown: 0
SampleSet: Soft
StackLeniency: 0.5
Mode: 0
LetterboxInBreaks: 0
WidescreenStoryboard: 1

[Editor]
Bookmarks: 83067
DistanceSpacing: 1
BeatDivisor: 4
GridSize: 16
TimelineZoom: 1

[Metadata]
Title:Omoikou
TitleUnicode:思ひ恋ふ
Artist:Uruha Rushia
ArtistUnicode:潤羽るしあ
Creator:fieryrage
Version:yuuma's insane
Source:
Tags:yearning original song vtuber virtual youtuber hololive idol project ホロライブ 3rd third generation fantasy ホロライブファンタジー japanese pop jpop j-pop wanpachi gorou cycopton birbsmb my angel hooni amateurre akito yuuma ogura yui daycore midorijeon
BeatmapID:3710705
BeatmapSetID:1714807

[Difficulty]
HPDrainRate:5
CircleSize:4
OverallDifficulty:8
ApproachRate:8.7
SliderMultiplier:2.79999990463257
SliderTickRate:2

[Events]
//Background and Video events
Video,0,"i wish you were still here.mp4"
0,0,"those sad stories we still tell each other.jpg",0,0
//Break Periods
//Storyboard Layer 0 (Background)
//Storyboard Layer 1 (Fail)
//Storyboard Layer 2 (Pass)
//Storyboard Layer 3 (Foreground)
//Storyboard Layer 4 (Overlay)
//Storyboard Sound Samples

[TimingPoints]
45,697.674418604651,4,2,1,50,1,0
45,-100,4,2,1,50,0,0
742,697.674418604651,4,2,2,50,1,0
742,-100,4,2,2,50,0,0
916,-100,4,2,1,50,0,0
2137,-100,4,2,3,50,0,0
2311,-100,4,2,1,50,0,0
2835,-100,4,2,4,50,0,0
3358,-100,4,2,1,50,0,0
3532,-100,4,2,5,50,0,0
3707,-100,4,2,1,50,0,0
4230,-100,4,2,6,50,0,0
4404,-100,4,2,1,50,0,0
4928,-100,4,2,7,50,0,0
5102,-100,4,2,1,50,0,0
5277,-100,4,2,8,50,0,0
5626,-100,4,2,9,50,0,0
5975,-100,4,2,4,50,0,0
6323,-100,4,2,10,50,0,0
6497,-100,4,2,1,50,0,0
7021,-100,4,2,11,50,0,0
7195,-100,4,2,1,50,0,0
7719,-100,4,2,12,50,0,0
7893,-100,4,2,1,50,0,0
8416,-100,4,2,13,50,0,0
8765,-100,4,2,1,50,0,0
9114,-100,4,2,14,50,0,0
9288,-100,4,2,1,50,0,0
9811,-100,4,2,15,50,0,0
10160,-100,4,2,16,50,0,0
10509,-100,4,2,17,50,0,0
10683,-100,4,2,1,50,0,0
11207,-100,4,2,18,50,0,0
11730,-100,4,2,1,50,0,0
11904,-100,4,2,1,60,0,0
12602,-100,4,2,19,60,0,0
12776,-100,4,2,1,60,0,0
13300,-100,4,2,20,60,0,0
13474,-100,4,2,1,60,0,0
13998,-100,4,2,21,60,0,0
14521,-100,4,2,1,60,0,0
14695,-100,4,2,22,60,0,0
14869,-100,4,2,1,60,0,0
15393,-100,4,2,23,60,0,0
15567,-100,4,2,1,60,0,0
16090,-100,4,2,24,60,0,0
16265,-100,4,2,1,60,0,0
16789,-100,4,2,25,60,0,0
17486,-76.9230769230769,4,2,2,70,0,0
17660,-76.9230769230769,4,2,1,70,0,0
18183,-76.9230769230769,4,2,3,70,0,0
18532,-76.9230769230769,4,2,1,70,0,0
18881,-76.9230769230769,4,2,4,70,0,0
19055,-76.9230769230769,4,2,1,70,0,0
19230,-76.9230769230769,4,2,4,70,0,0
19404,-76.9230769230769,4,2,1,70,0,0
19579,-125,4,2,5,70,0,0
19753,-125,4,2,1,70,0,0
20276,-76.9230769230769,4,2,6,70,0,0
20625,-76.9230769230769,4,2,1,70,0,0
20974,-76.9230769230769,4,2,7,70,0,0
21323,-76.9230769230769,4,2,1,70,0,0
21672,-76.9230769230769,4,2,8,70,0,0
22021,-76.9230769230769,4,2,1,70,0,0
22195,-76.9230769230769,4,2,4,70,0,0
22369,-76.9230769230769,4,2,9,70,0,0
22544,-76.9230769230769,4,2,1,70,0,0
23067,-100,4,2,6,65,0,0
23416,-100,4,2,1,65,0,0
24462,-100,4,2,2,65,0,0
24637,-100,4,2,1,65,0,0
25858,-100,4,2,3,65,0,0
26207,-100,4,2,1,65,0,0
27253,-100,4,2,4,65,0,0
27602,-100,4,2,1,65,0,0
28648,-100,4,2,5,65,0,0
28997,-100,4,2,1,65,0,0
30044,-100,4,2,2,65,0,0
30393,-100,4,2,1,65,0,0
31439,-100,4,2,26,50,0,0
31788,-100,4,2,1,50,0,0
32835,-100,4,2,15,50,0,0
33183,-100,4,2,1,50,0,0
34230,-100,4,2,10,70,0,0
34404,-100,4,2,27,70,0,0
34579,-100,4,2,28,70,0,0
34928,-100,4,2,29,70,0,0
35276,-100,4,2,30,70,0,0
35625,-100,4,2,31,70,0,0
35800,-100,4,2,30,70,0,0
35974,-100,4,2,32,70,0,0
36323,-100,4,2,33,70,0,0
36497,-100,4,2,34,70,0,0
36672,-100,4,2,35,70,0,0
37021,-100,4,2,6,70,0,0
37282,-100,4,2,100,5,0,0
37369,-83.3333333333333,4,2,7,70,0,0
37631,-83.3333333333333,4,2,100,5,0,0
37718,-71.4285714285714,4,2,8,70,0,0
37980,-71.4285714285714,4,2,100,5,0,0
38067,-100,4,2,11,70,0,0
38416,-100,4,2,36,70,0,0
38765,-100,4,2,37,70,0,0
39114,-100,4,2,12,70,0,0
39288,-100,4,2,1,70,0,0
39462,-166.666666666667,4,2,1,70,0,0
39724,-166.666666666667,4,2,100,5,0,0
39811,-83.3333333333333,4,2,13,80,0,1
40160,-83.3333333333333,4,2,38,80,0,1
40335,-83.3333333333333,4,2,39,80,0,1
40509,-83.3333333333333,4,2,40,80,0,1
40683,-83.3333333333333,4,2,39,80,0,1
40858,-83.3333333333333,4,2,41,80,0,1
41032,-83.3333333333333,4,2,39,80,0,1
41207,-83.3333333333333,4,2,14,80,0,1
41381,-83.3333333333333,4,2,39,80,0,1
41555,-83.3333333333333,4,2,15,80,0,1
41730,-83.3333333333333,4,2,39,80,0,1
41904,-83.3333333333333,4,2,42,80,0,1
42253,-83.3333333333333,4,2,41,80,0,1
42428,-83.3333333333333,4,2,39,80,0,1
42602,-83.3333333333333,4,2,16,80,0,1
42776,-83.3333333333333,4,2,39,80,0,1
42951,-83.3333333333333,4,2,38,80,0,1
43300,-83.3333333333333,4,2,43,80,0,1
43474,-83.3333333333333,4,2,39,80,0,1
43648,-83.3333333333333,4,2,38,80,0,1
43997,-83.3333333333333,4,2,17,80,0,1
44172,-83.3333333333333,4,2,39,80,0,1
44346,-83.3333333333333,4,2,15,80,0,1
44695,-83.3333333333333,4,2,44,80,0,1
45044,-83.3333333333333,4,2,18,80,0,1
45218,-83.3333333333333,4,2,39,80,0,1
45393,-83.3333333333333,4,2,19,80,0,1
45741,-83.3333333333333,4,2,38,80,0,1
45916,-83.3333333333333,4,2,39,80,0,1
46090,-83.3333333333333,4,2,40,80,0,1
46439,-83.3333333333333,4,2,38,80,0,1
46614,-83.3333333333333,4,2,39,80,0,1
46788,-83.3333333333333,4,2,20,80,0,1
47137,-83.3333333333333,4,2,18,80,0,1
47311,-83.3333333333333,4,2,39,80,0,1
47486,-83.3333333333333,4,2,45,80,0,1
47835,-83.3333333333333,4,2,41,80,0,1
48009,-83.3333333333333,4,2,39,80,0,1
48183,-125,4,2,21,80,0,1
48358,-125,4,2,39,80,0,1
48881,-125,4,2,46,80,0,1
49230,-125,4,2,39,80,0,1
49404,-125,4,2,47,80,0,1
49579,-100,4,2,22,80,0,1
49753,-100,4,2,48,80,0,1
49928,-100,4,2,41,80,0,1
50102,-100,4,2,1,80,0,1
50276,-100,4,2,49,80,0,1
50625,-166.666666666667,4,2,9,80,0,1
50887,-166.666666666667,4,2,100,5,0,1
50974,-83.3333333333333,4,2,19,80,0,1
51323,-83.3333333333333,4,2,38,80,0,1
51497,-83.3333333333333,4,2,39,80,0,1
51672,-83.3333333333333,4,2,40,80,0,1
51846,-83.3333333333333,4,2,39,80,0,1
52021,-83.3333333333333,4,2,41,80,0,1
52195,-83.3333333333333,4,2,39,80,0,1
52369,-83.3333333333333,4,2,14,80,0,1
52544,-83.3333333333333,4,2,39,80,0,1
52718,-83.3333333333333,4,2,15,80,0,1
52893,-83.3333333333333,4,2,39,80,0,1
53067,-83.3333333333333,4,2,42,80,0,1
53416,-83.3333333333333,4,2,41,80,0,1
53590,-83.3333333333333,4,2,39,80,0,1
53765,-83.3333333333333,4,2,16,80,0,1
53939,-83.3333333333333,4,2,39,80,0,1
54114,-83.3333333333333,4,2,38,80,0,1
54462,-83.3333333333333,4,2,50,80,0,1
54811,-83.3333333333333,4,2,38,80,0,1
54986,-83.3333333333333,4,2,39,80,0,1
55160,-83.3333333333333,4,2,23,80,0,1
55335,-83.3333333333333,4,2,39,80,0,1
55509,-83.3333333333333,4,2,15,80,0,1
55858,-83.3333333333333,4,2,51,80,0,1
56207,-83.3333333333333,4,2,18,80,0,1
56381,-83.3333333333333,4,2,39,80,0,1
56555,-83.3333333333333,4,2,19,80,0,1
56904,-83.3333333333333,4,2,38,80,0,1
57079,-83.3333333333333,4,2,39,80,0,1
57253,-83.3333333333333,4,2,40,80,0,1
57602,-83.3333333333333,4,2,38,80,0,1
57776,-83.3333333333333,4,2,39,80,0,1
57951,-83.3333333333333,4,2,20,80,0,1
58300,-83.3333333333333,4,2,18,80,0,1
58474,-83.3333333333333,4,2,39,80,0,1
58648,-83.3333333333333,4,2,52,80,0,1
58997,-83.3333333333333,4,2,38,80,0,1
59172,-83.3333333333333,4,2,39,80,0,1
59346,-83.3333333333333,4,2,24,80,0,1
59521,-83.3333333333333,4,2,39,80,0,1
60044,-83.3333333333333,4,2,53,80,0,1
60393,-83.3333333333333,4,2,39,80,0,1
60567,-83.3333333333333,4,2,54,80,0,1
60741,-83.3333333333333,4,2,25,80,0,1
61090,-83.3333333333333,4,2,1,80,0,1
61439,-83.3333333333333,4,2,26,80,0,1
61614,-83.3333333333333,4,2,1,80,0,1
61788,-166.666666666667,4,2,1,80,0,1
62050,-166.666666666667,4,2,100,5,0,1
62137,-83.3333333333333,4,2,27,80,0,1
62486,-83.3333333333333,4,2,38,80,0,1
62835,-83.3333333333333,4,2,55,80,0,1
63183,-83.3333333333333,4,2,38,80,0,1
63532,-83.3333333333333,4,2,16,80,0,1
63881,-83.3333333333333,4,2,18,80,0,1
64230,-83.3333333333333,4,2,56,80,0,1
64579,-83.3333333333333,4,2,38,80,0,1
64928,-83.3333333333333,4,2,19,80,0,1
65276,-83.3333333333333,4,2,41,80,0,1
65451,-83.3333333333333,4,2,1,80,0,1
65625,-83.3333333333333,4,2,57,80,0,1
65974,-83.3333333333333,4,2,41,80,0,1
66323,-83.3333333333333,4,2,28,70,0,0
66846,-83.3333333333333,4,2,39,70,0,0
67718,-125,4,2,58,55,0,0
68067,-125,4,2,59,55,0,0
68416,-125,4,2,60,55,0,0
68765,-125,4,2,16,55,0,0
69114,-125,4,2,26,55,0,0
69462,-125,4,2,61,55,0,0
69811,-125,4,2,62,55,0,0
70160,-125,4,2,60,55,0,0
70509,-125,4,2,63,55,0,0
70858,-125,4,2,64,55,0,0
71207,-125,4,2,65,55,0,0
71555,-125,4,2,59,55,0,0
71904,-125,4,2,58,55,0,0
72602,-125,4,2,66,55,0,0
73300,-125,4,2,67,55,0,0
73474,-125,4,2,100,5,0,0
73997,-125,4,2,67,35,0,0
74346,-125,4,2,65,55,0,0
74521,-125,4,2,59,55,0,0
74695,-125,4,2,68,55,0,0
75393,-125,4,2,64,55,0,0
76090,-125,4,2,69,55,0,0
76439,-125,4,2,15,55,0,0
76788,-125,4,2,16,55,0,0
77137,-125,4,2,64,55,0,0
77486,-1000,4,2,70,55,0,0
77660,-1000,4,2,100,5,0,0
78881,-125,4,2,1,55,0,0
78968,-250,4,2,1,50,0,0
79230,-250,4,2,1,45,0,0
79579,-250,4,2,1,40,0,0
79928,-250,4,2,1,35,0,0
80276,-250,4,2,1,30,0,0
80625,-250,4,2,1,25,0,0
80974,-250,4,2,1,20,0,0
81323,-250,4,2,1,15,0,0
81672,-250,4,2,1,10,0,0
82021,-250,4,2,1,5,0,0
83067,-250,4,2,100,5,0,0

[Colours]
Combo1 : 120,120,120
Combo2 : 23,219,126
Combo3 : 113,208,244
Combo4 : 239,175,129
Combo5 : 235,120,120

[HitObjects]
62,195,568,5,2,2:2:0:0:
120,133,742,1,2,2:2:0:0:
203,153,916,1,2,2:2:0:0:
145,215,1090,2,0,L|132:293,1,69.9999976158143,2|0,2:2|0:0,0:0:0:0:
203,153,1439,5,2,2:2:0:0:
286,173,1614,2,0,L|303:261,1,69.9999976158143,2|2,2:2|2:2,0:0:0:0:
344,111,1962,1,2,2:2:0:0:
369,193,2137,5,2,2:2:0:0:
261,91,2311,1,2,2:2:0:0:
404,49,2486,1,2,2:2:0:0:
369,193,2660,1,2,2:2:0:0:
344,111,2835,1,2,2:2:0:0:
227,234,3358,5,2,2:2:0:0:
145,215,3532,2,0,L|67:197,1,69.9999976158143,2|2,2:2|2:2,2:2:0:0:
286,173,3881,2,0,L|357:154,1,69.9999976158143,2|0,2:2|0:0,0:0:0:0:
168,296,4230,5,2,2:2:0:0:
310,254,4404,1,2,2:2:0:0:
145,215,4579,1,2,2:2:0:0:
252,316,4753,1,0,0:0:0:0:
203,153,4928,5,2,2:2:0:0:
168,296,5102,1,2,2:2:0:0:
310,254,5276,5,2,2:2:0:0:
180,68,5625,5,2,2:2:0:0:
82,281,5974,5,2,2:2:0:0:
310,254,6323,5,2,2:2:0:0:
286,173,6497,1,2,2:2:0:0:
226,235,6672,2,0,L|146:217,1,69.9999976158143,2|0,2:2|0:0,0:0:0:0:
334,335,7021,5,2,2:2:0:0:
251,315,7195,1,2,2:2:0:0:
394,274,7369,2,0,L|477:262,1,69.9999976158143,2|2,2:2|2:2,0:0:0:0:
310,254,7718,1,2,2:2:0:0:
370,193,7893,1,2,2:2:0:0:
394,274,8067,5,0,0:0:0:0:
168,296,8416,5,2,2:2:0:0:
261,91,8765,5,2,2:2:0:0:
344,111,8939,1,2,2:2:0:0:
369,193,9114,1,2,2:2:0:0:
404,49,9288,5,2,2:2:0:0:
404,49,9637,1,2,2:2:0:0:
261,91,9811,5,2,2:2:0:0:
203,153,10160,5,2,2:2:0:0:
178,71,10509,5,2,2:2:0:0:
120,133,10683,1,2,2:2:0:0:
145,215,10858,1,2,2:2:0:0:
90,48,11207,5,2,2:2:0:0:
310,254,11730,5,2,2:2:0:0:
394,274,11904,1,10,2:1:0:0:
370,193,12079,1,2,2:2:0:0:
334,335,12253,5,2,2:2:0:0:
227,234,12428,1,0,0:0:0:0:
196,370,12602,1,2,2:2:0:0:
310,254,12776,5,2,2:2:0:0:
168,296,12951,2,0,L|85:278,1,69.9999976158143,2|0,2:2|0:0,0:0:0:0:
310,254,13300,5,2,2:2:0:0:
286,173,13474,1,2,2:2:0:0:
261,91,13648,1,2,2:2:0:0:
227,234,13823,1,2,2:2:0:0:
339,112,13997,1,2,2:2:0:0:
251,315,14521,5,2,2:2:0:0:
394,274,14695,1,2,2:2:0:0:
251,315,14869,1,2,2:2:0:0:
286,173,15044,2,0,L|301:93,1,69.9999976158143,2|0,2:2|0:0,0:0:0:0:
394,274,15393,2,0,L|412:346,1,69.9999976158143,2|0,2:2|0:0,0:0:0:0:
430,131,15741,1,2,2:2:0:0:
430,131,15916,1,0,0:0:0:0:
310,254,16090,5,2,2:2:0:0:
261,91,16265,1,2,2:2:0:0:
168,296,16788,5,2,2:2:0:0:
251,36,17486,6,0,B|222:25|224:105|278:89|303:126|303:126|309:80|378:72|345:1|317:21,1,272.999978204728,14|2,2:1|2:2,0:0:0:0:
465,161,18183,6,0,B|493:150|491:230|437:214|412:251|412:251|406:205|337:197|370:126|398:146,1,272.999978204728,14|2,2:1|2:2,0:0:0:0:
255,289,18881,6,0,B|226:278|228:358|282:342|307:379|307:379|313:333|382:325|349:254|321:274,1,272.999978204728,14|2,2:1|2:2,0:0:0:0:
221,186,19579,6,0,B|133:190|159:259|66:259,1,167.999994277954,14|0,2:1|0:0,0:0:0:0:
167,112,20276,6,0,B|138:90|97:98|61:124|77:219|122:236|166:180|219:234,1,272.999978204728,14|2,2:1|2:2,0:0:0:0:
193,103,20974,6,0,B|204:68|243:52|287:53|327:141|299:180|231:158|218:233,1,272.999978204728,14|2,2:1|2:2,0:0:0:0:
246,329,21672,5,10,2:1:0:0:
454,257,22021,5,8,2:2:0:0:
378,52,22369,5,10,2:1:0:0:
329,224,22544,1,8,2:2:0:0:
418,159,22718,1,4,2:3:0:0:
418,159,23067,6,0,P|335:116|279:131,1,139.999995231629,14|6,2:1|2:3,0:0:0:0:
193,195,23590,1,2,2:2:0:0:
73,164,23765,2,0,L|87:87,1,69.9999976158143,12|0,2:3|0:0,0:0:0:0:
192,37,24114,2,0,L|204:105,1,69.9999976158143,4|2,2:3|2:2,0:0:0:0:
261,263,24462,5,14,2:3:0:0:
170,241,24637,1,2,2:2:0:0:
124,322,24811,2,0,P|90:321|54:291,1,69.9999976158143,6|0,2:3|2:3,2:3:0:0:
88,193,25160,5,14,2:3:0:0:
170,241,25335,1,2,2:2:0:0:
208,327,25509,1,4,2:3:0:0:
279,231,25683,1,2,2:2:0:0:
310,345,25858,6,0,B|383:352|366:293|444:303,1,139.999995231629,14|6,2:3|2:3,0:0:0:0:
354,165,26381,1,2,2:2:0:0:
450,216,26555,2,0,P|466:167|457:133,1,69.9999976158143,12|0,2:3|0:0,0:0:0:0:
291,70,26904,2,0,P|275:119|284:153,1,69.9999976158143,4|2,2:3|2:2,0:0:0:0:
344,242,27253,6,0,P|271:222|172:214,1,139.999995231629,14|6,2:3|2:3,0:0:0:0:
103,248,27776,1,2,2:2:0:0:
245,320,27951,1,14,2:3:0:0:
372,130,28300,1,4,2:3:0:0:
164,34,28648,5,14,2:3:0:0:
164,34,28997,1,6,2:3:0:0:
259,69,29172,1,2,2:2:0:0:
181,133,29346,5,14,2:3:0:0:
86,98,29521,2,0,P|50:88|11:82,1,69.9999976158143,2|4,2:2|2:3,0:0:0:0:
184,153,29869,5,2,2:2:0:0:
279,118,30044,2,0,P|315:108|354:102,1,69.9999976158143,14|0,2:3|0:0,0:0:0:0:
189,175,30393,5,6,2:3:0:0:
92,138,30567,1,2,2:2:0:0:
200,277,30741,1,12,2:3:0:0:
279,118,31090,1,6,2:3:0:0:
189,175,31439,5,2,2:2:0:0:
292,227,32835,5,2,2:2:0:0:
395,279,34230,5,14,2:1:0:0:
244,223,34404,1,2,2:2:0:0:
81,235,34579,1,2,2:2:0:0:
71,246,34928,5,2,2:2:0:0:
206,198,35276,1,2,2:2:0:0:
353,211,35625,5,2,2:2:0:0:
267,125,35800,1,2,2:2:0:0:
300,11,35974,1,2,2:2:0:0:
285,16,36323,5,2,2:2:0:0:
231,98,36497,1,2,2:2:0:0:
272,191,36672,1,2,2:2:0:0:
500,58,37021,6,0,L|370:38,1,104.999996423721,14|0,2:3|0:0,0:0:0:0:
355,117,37369,6,0,L|225:97,1,125.999991863251,14|0,2:3|0:0,0:0:0:0:
190,173,37718,6,0,L|38:149,1,146.999990507126,14|0,2:3|0:0,0:0:0:0:
91,253,38067,5,14,2:1:0:0:
276,189,38416,5,2,2:2:0:0:
129,61,38765,5,10,2:2:0:0:
91,253,38939,1,8,2:2:0:0:
239,74,39114,1,14,2:1:0:0:
210,294,39288,1,8,2:2:0:0:
348,99,39462,2,0,P|321:81|290:77,1,62.9999959316255,8|0,2:2|0:0,0:0:0:0:
276,189,39811,6,0,B|367:185|346:254|426:251,1,167.999989151001,14|2,2:1|2:2,0:0:0:0:
423,156,40335,1,2,2:2:0:0:
279,282,40509,1,10,2:2:0:0:
265,105,40683,2,0,L|278:213,1,83.9999945755007,2|2,2:2|2:2,0:0:0:0:
415,334,41032,2,0,L|425:250,1,83.9999945755007,2|10,2:2|2:1,0:0:0:0:
342,32,41381,2,0,L|355:140,1,83.9999945755007,2|10,2:2|2:1,0:0:0:0:
501,207,41730,1,2,2:2:0:0:
501,53,41904,2,0,B|410:49|431:118|351:115,1,167.999989151001,10|2,2:2|2:2,0:0:0:0:
166,75,42428,1,2,2:2:0:0:
300,230,42602,5,10,2:1:0:0:
92,163,42776,1,2,2:2:0:0:
286,69,42951,1,2,2:2:0:0:
179,277,43125,1,0,0:0:0:0:
137,85,43300,2,0,L|114:-19,1,83.9999945755007,10|2,2:2|2:2,0:0:0:0:
340,156,43648,2,0,L|364:59,1,83.9999945755007,2|0,2:2|0:0,0:0:0:0:
179,277,43997,5,10,2:1:0:0:
244,183,44172,1,2,2:2:0:0:
348,240,44346,2,0,P|399:265|444:256,1,83.9999945755007,10|0,2:1|0:0,0:0:0:0:
485,167,44695,2,0,P|430:109|349:120,1,167.999989151001,10|10,2:2|2:1,0:0:0:0:
227,255,45218,1,10,2:2:0:0:
165,95,45393,5,14,2:1:0:0:
339,122,45567,1,0,0:0:0:0:
184,203,45741,1,2,2:2:0:0:
261,45,45916,1,2,2:2:0:0:
290,219,46090,1,10,2:2:0:0:
290,219,46439,1,2,2:2:0:0:
261,45,46614,1,2,2:2:0:0:
163,224,46788,5,10,2:1:0:0:
368,117,46962,1,0,0:0:0:0:
138,81,47137,1,10,2:1:0:0:
303,245,47311,1,2,2:2:0:0:
265,14,47486,2,0,P|253:97|252:213,1,167.999989151001,10|2,2:2|2:2,0:0:0:0:
138,81,48009,1,2,2:2:0:0:
53,268,48183,6,0,B|89:307|134:289|134:289|160:255|209:264,1,167.999994277954,14|0,2:1|0:0,0:0:0:0:
357,298,48881,6,0,B|370:339|331:373|331:373|280:358|278:305,1,167.999994277954,14|2,2:2|2:2,0:0:0:0:
302,147,49579,5,10,2:1:0:0:
198,368,49928,1,10,2:2:0:0:
357,298,50102,1,8,2:1:0:0:
213,202,50276,5,10,2:2:0:0:
413,240,50451,1,8,2:2:0:0:
346,48,50625,2,0,P|327:87|322:125,1,62.9999959316255,10|0,2:3|0:0,0:0:0:0:
249,52,50974,6,0,P|296:120|310:202,1,167.999989151001,14|2,2:1|2:2,0:0:0:0:
406,108,51497,1,2,2:2:0:0:
365,275,51672,1,10,2:2:0:0:
227,191,51846,2,0,P|186:188|149:207,1,83.9999945755007,2|2,2:2|2:2,0:0:0:0:
222,360,52195,2,0,P|263:363|300:344,1,83.9999945755007,2|10,2:2|2:1,0:0:0:0:
447,260,52544,2,0,P|429:222|394:200,1,83.9999945755007,2|10,2:2|2:1,0:0:0:0:
248,116,52893,1,2,2:2:0:0:
247,116,53067,2,0,P|193:180|198:264,1,167.999989151001,10|2,2:2|2:2,0:0:0:0:
300,343,53590,1,2,2:2:0:0:
367,147,53765,5,10,2:1:0:0:
399,332,53939,1,2,2:2:0:0:
270,160,54114,2,0,L|281:69,1,83.9999945755007,2|0,2:2|0:0,0:0:0:0:
183,329,54462,5,10,2:2:0:0:
183,329,54637,1,0,0:0:0:0:
348,238,54811,1,2,2:2:0:0:
186,141,54986,1,2,2:2:0:0:
88,300,55160,5,10,2:1:0:0:
277,193,55335,1,2,2:2:0:0:
107,130,55509,2,0,L|123:229,1,83.9999945755007,10|0,2:1|0:0,0:0:0:0:
252,360,55858,2,0,L|279:185,1,167.999989151001,10|10,2:2|2:1,0:0:0:0:
303,79,56381,1,10,2:2:0:0:
356,274,56555,5,14,2:1:0:0:
201,193,56730,1,0,0:0:0:0:
375,166,56904,1,2,2:2:0:0:
250,290,57079,1,2,2:2:0:0:
279,116,57253,1,10,2:2:0:0:
279,116,57602,1,2,2:2:0:0:
250,290,57776,1,2,2:2:0:0:
402,152,57951,5,10,2:1:0:0:
172,188,58125,1,0,0:0:0:0:
377,295,58300,1,10,2:1:0:0:
274,86,58474,1,2,2:2:0:0:
237,316,58648,2,0,P|182:316|146:285,1,83.9999945755007,10|0,2:2|0:0,0:0:0:0:
45,162,58997,2,0,P|79:137|140:142,1,83.9999945755007,2|2,2:2|2:2,0:0:0:0:
220,211,59346,6,0,B|310:211|283:284|364:281,1,167.999989151001,14|2,2:1|2:2,0:0:0:0:
471,204,59869,1,0,0:0:0:0:
373,176,60044,2,0,P|350:113|360:81,1,83.9999945755007,14|0,2:2|0:0,0:0:0:0:
471,204,60393,1,2,2:2:0:0:
364,280,60567,1,2,2:2:0:0:
441,126,60741,5,14,2:1:0:0:
448,111,61090,1,8,2:2:0:0:
354,300,61265,1,8,2:2:0:0:
260,87,61439,5,14,2:1:0:0:
471,251,61614,1,8,2:2:0:0:
358,45,61788,2,0,L|349:107,1,62.9999959316255,8|0,2:2|0:0,0:0:0:0:
379,194,62137,6,0,P|337:199|299:183,1,83.9999945755007,14|0,2:1|0:0,0:0:0:0:
196,84,62486,2,0,P|221:117|226:158,1,83.9999945755007,2|0,2:2|0:0,0:0:0:0:
192,297,62835,2,0,P|208:259|241:233,1,83.9999945755007,10|0,2:2|0:0,0:0:0:0:
379,194,63183,2,0,P|337:199|299:183,1,83.9999945755007,2|0,2:2|0:0,0:0:0:0:
106,189,63532,6,0,P|159:181|208:202,1,83.9999945755007,10|0,2:1|0:0,0:0:0:0:
340,329,63881,2,0,P|308:287|302:234,1,83.9999945755007,10|0,2:1|0:0,0:0:0:0:
345,55,64230,2,0,P|325:104|282:138,1,83.9999945755007,10|0,2:2|0:0,0:0:0:0:
106,189,64579,2,0,P|159:181|208:202,1,83.9999945755007,2|0,2:2|0:0,0:0:0:0:
340,329,64928,5,10,2:1:0:0:
350,340,65276,1,10,2:2:0:0:
148,270,65451,1,8,2:1:0:0:
319,86,65625,5,10,2:2:0:0:
330,73,65974,1,10,2:2:0:0:
250,304,66148,1,8,2:2:0:0:
159,6,66323,5,10,2:1:0:0:
365,359,67718,5,2,2:2:0:0:
437,259,68067,1,2,2:2:0:0:
365,160,68416,1,2,2:2:0:0:
248,198,68765,1,2,2:2:0:0:
248,321,69114,5,2,2:2:0:0:
264,210,69462,1,2,2:2:0:0:
358,179,69811,1,2,2:2:0:0:
416,259,70160,1,2,2:2:0:0:
353,323,70509,5,2,2:2:0:0:
399,259,70858,1,2,2:2:0:0:
353,195,71207,1,2,2:2:0:0:
278,220,71555,1,2,2:2:0:0:
278,298,71904,5,2,2:2:0:0:
278,298,72602,5,2,2:2:0:0:
278,298,73300,6,0,B|322:253|338:214|309:159|268:152|232:175|229:211,1,223.999992370606,2|0,2:2|0:0,0:0:0:0:
228,210,74346,2,0,P|220:184|223:156,1,55.9999980926514,2|2,2:2|2:2,0:0:0:0:
244,63,74695,1,2,2:2:0:0:
194,330,75393,1,2,2:2:0:0:
244,63,76090,5,2,2:2:0:0:
293,130,76439,1,2,2:2:0:0:
371,155,76788,1,2,2:2:0:0:
426,143,77137,1,2,2:2:0:0:
450,128,77486,6,0,P|470:115|494:112,1,48.99999833107,2|0,2:2|0:0,0:0:0:0:
276,94,78881,6,0,B|299:53|367:33|408:59|408:59|353:113|383:167|383:167|351:183|311:184|311:184|353:200|391:232|391:232|344:255|311:305|311:305|279:256|257:192|257:192|232:256|201:304|201:304|170:257|120:232|120:232|145:202|199:183|199:183|161:184|129:169|129:169|144:113|101:56|101:56|159:33|223:73|234:97,1,1343.99995422363,2|0,2:2|0:0,0:0:0:0:
