osu file format v14

[General]
AudioFilename: audio.mp3
AudioLeadIn: 0
PreviewTime: 39768
Countdown: 0
SampleSet: Soft
StackLeniency: 0.5
Mode: 0
LetterboxInBreaks: 0
WidescreenStoryboard: 1

[Editor]
Bookmarks: 11904,23067,34230,39811,50974,62137,67718
DistanceSpacing: 1
BeatDivisor: 4
GridSize: 32
TimelineZoom: 1

[Metadata]
Title:Omoikou
TitleUnicode:思ひ恋ふ
Artist:Uruha Rushia
ArtistUnicode:潤羽るしあ
Creator:fieryrage
Version:wanpachi's normal
Source:
Tags:yearning original song vtuber virtual youtuber hololive idol project ホロライブ 3rd third generation fantasy ホロライブファンタジー japanese pop jpop j-pop wanpachi gorou cycopton birbsmb my angel hooni amateurre akito yuuma ogura yui daycore midorijeon
BeatmapID:3534311
BeatmapSetID:1714807

[Difficulty]
HPDrainRate:4
CircleSize:3.5
OverallDifficulty:4
ApproachRate:5
SliderMultiplier:1.8
SliderTickRate:1

[Events]
//Background and Video events
Video,0,"i wish you were still here.mp4"
0,0,"those sad stories we still tell each other.jpg",0,0
//Break Periods
//Storyboard Layer 0 (Background)
//Storyboard Layer 1 (Fail)
//Storyboard Layer 2 (Pass)
//Storyboard Layer 3 (Foreground)
//Storyboard Layer 4 (Overlay)
//Storyboard Sound Samples

[TimingPoints]
45,697.674418604651,4,2,1,50,1,0
45,-100,4,2,1,50,0,0
742,697.674418604651,4,2,2,50,1,0
742,-100,4,2,2,50,0,0
916,-100,4,2,1,50,0,0
2137,-100,4,2,3,50,0,0
2311,-100,4,2,1,50,0,0
2835,-100,4,2,4,50,0,0
3358,-100,4,2,1,50,0,0
3532,-100,4,2,5,50,0,0
3707,-100,4,2,1,50,0,0
4230,-100,4,2,6,50,0,0
4404,-100,4,2,1,50,0,0
4928,-100,4,2,7,50,0,0
5102,-100,4,2,1,50,0,0
5276,-100,4,2,1,50,0,0
5277,-100,4,2,8,50,0,0
5626,-100,4,2,9,50,0,0
5975,-100,4,2,4,50,0,0
6323,-100,4,2,10,50,0,0
6497,-100,4,2,1,50,0,0
7021,-100,4,2,11,50,0,0
7195,-100,4,2,1,50,0,0
7718,-100,4,2,1,50,0,0
7719,-100,4,2,12,50,0,0
7893,-100,4,2,1,50,0,0
8067,-100,4,2,1,50,0,0
8416,-100,4,2,13,50,0,0
8765,-100,4,2,1,50,0,0
9114,-100,4,2,14,50,0,0
9288,-100,4,2,1,50,0,0
9811,-100,4,2,15,50,0,0
10160,-100,4,2,16,50,0,0
10509,-100,4,2,17,50,0,0
10683,-100,4,2,1,50,0,0
11207,-100,4,2,18,50,0,0
11730,-100,4,2,1,50,0,0
11904,-100,4,2,1,60,0,0
12079,-100,4,2,1,60,0,0
12602,-100,4,2,19,60,0,0
12776,-100,4,2,1,60,0,0
13300,-100,4,2,20,60,0,0
13474,-100,4,2,1,60,0,0
13997,-100,4,2,1,60,0,0
13998,-100,4,2,21,60,0,0
14521,-100,4,2,1,60,0,0
14695,-100,4,2,22,60,0,0
14869,-100,4,2,1,60,0,0
15393,-100,4,2,23,60,0,0
15567,-100,4,2,1,60,0,0
16090,-100,4,2,24,60,0,0
16265,-100,4,2,1,60,0,0
16439,-100,4,2,1,60,0,0
16789,-100,4,2,25,60,0,0
17486,-100,4,2,2,70,0,0
17660,-100,4,2,1,70,0,0
18183,-100,4,2,3,70,0,0
18532,-100,4,2,1,70,0,0
18881,-100,4,2,4,70,0,0
19055,-100,4,2,1,70,0,0
19230,-100,4,2,4,70,0,0
19404,-100,4,2,1,70,0,0
19579,-100,4,2,5,70,0,0
19753,-100,4,2,1,70,0,0
20276,-100,4,2,6,70,0,0
20625,-100,4,2,1,70,0,0
20974,-100,4,2,7,70,0,0
21323,-100,4,2,1,70,0,0
21672,-100,4,2,8,70,0,0
22021,-100,4,2,1,70,0,0
22195,-100,4,2,4,70,0,0
22369,-100,4,2,9,70,0,0
22544,-100,4,2,1,70,0,0
23067,-100,4,2,6,65,0,0
23416,-100,4,2,1,65,0,0
23765,-100,4,2,1,65,0,0
24288,-100,4,2,1,65,0,0
24462,-100,4,2,2,65,0,0
24637,-100,4,2,1,65,0,0
25509,-100,4,2,1,65,0,0
25683,-100,4,2,1,65,0,0
25858,-100,4,2,3,65,0,0
26207,-100,4,2,1,65,0,0
26555,-100,4,2,1,65,0,0
27079,-100,4,2,1,65,0,0
27253,-100,4,2,4,65,0,0
27602,-100,4,2,1,65,0,0
28300,-100,4,2,1,65,0,0
28648,-100,4,2,5,65,0,0
28997,-100,4,2,1,65,0,0
29695,-100,4,2,1,65,0,0
29869,-100,4,2,1,65,0,0
30044,-100,4,2,2,65,0,0
30393,-100,4,2,1,65,0,0
30741,-100,4,2,1,65,0,0
31090,-100,4,2,1,65,0,0
31439,-100,4,2,26,50,0,0
31788,-100,4,2,1,50,0,0
32835,-100,4,2,15,50,0,0
33183,-100,4,2,1,50,0,0
34230,-100,4,2,10,70,0,0
34404,-100,4,2,27,70,0,0
34579,-100,4,2,28,70,0,0
34928,-100,4,2,29,70,0,0
35276,-100,4,2,30,70,0,0
35625,-100,4,2,31,70,0,0
35800,-100,4,2,30,70,0,0
35974,-100,4,2,32,70,0,0
36323,-100,4,2,33,70,0,0
36497,-100,4,2,34,70,0,0
36672,-100,4,2,35,70,0,0
37021,-100,4,2,6,70,0,0
37369,-100,4,2,7,70,0,0
37718,-100,4,2,8,70,0,0
38067,-100,4,2,11,70,0,0
38416,-100,4,2,36,70,0,0
38765,-100,4,2,37,70,0,0
39114,-100,4,2,12,70,0,0
39288,-100,4,2,1,70,0,0
39811,-90.9090909090909,4,2,13,80,0,1
40160,-90.9090909090909,4,2,38,80,0,1
40335,-90.9090909090909,4,2,39,80,0,1
40509,-90.9090909090909,4,2,40,80,0,1
40683,-90.9090909090909,4,2,39,80,0,1
40858,-90.9090909090909,4,2,41,80,0,1
41032,-90.9090909090909,4,2,39,80,0,1
41207,-90.9090909090909,4,2,14,80,0,1
41381,-90.9090909090909,4,2,39,80,0,1
41555,-90.9090909090909,4,2,15,80,0,1
41730,-90.9090909090909,4,2,39,80,0,1
41904,-90.9090909090909,4,2,42,80,0,1
42253,-90.9090909090909,4,2,41,80,0,1
42428,-90.9090909090909,4,2,39,80,0,1
42602,-90.9090909090909,4,2,16,80,0,1
42776,-90.9090909090909,4,2,39,80,0,1
42951,-90.9090909090909,4,2,38,80,0,1
43300,-90.9090909090909,4,2,43,80,0,1
43474,-90.9090909090909,4,2,39,80,0,1
43648,-90.9090909090909,4,2,38,80,0,1
43997,-90.9090909090909,4,2,17,80,0,1
44172,-90.9090909090909,4,2,39,80,0,1
44346,-90.9090909090909,4,2,15,80,0,1
44695,-90.9090909090909,4,2,44,80,0,1
45044,-90.9090909090909,4,2,18,80,0,1
45218,-90.9090909090909,4,2,39,80,0,1
45393,-90.9090909090909,4,2,19,80,0,1
45741,-90.9090909090909,4,2,38,80,0,1
45916,-90.9090909090909,4,2,39,80,0,1
46090,-90.9090909090909,4,2,40,80,0,1
46439,-90.9090909090909,4,2,38,80,0,1
46614,-90.9090909090909,4,2,39,80,0,1
46788,-90.9090909090909,4,2,20,80,0,1
47137,-90.9090909090909,4,2,18,80,0,1
47311,-90.9090909090909,4,2,39,80,0,1
47486,-90.9090909090909,4,2,45,80,0,1
47835,-90.9090909090909,4,2,41,80,0,1
48009,-90.9090909090909,4,2,39,80,0,1
48183,-90.9090909090909,4,2,21,80,0,1
48358,-90.9090909090909,4,2,39,80,0,1
48881,-90.9090909090909,4,2,46,80,0,1
49230,-90.9090909090909,4,2,39,80,0,1
49404,-90.9090909090909,4,2,47,80,0,1
49579,-90.9090909090909,4,2,22,80,0,1
49753,-90.9090909090909,4,2,48,80,0,1
49928,-90.9090909090909,4,2,41,80,0,1
50102,-90.9090909090909,4,2,1,80,0,1
50276,-90.9090909090909,4,2,49,80,0,1
50451,-90.9090909090909,4,2,49,80,0,1
50625,-90.9090909090909,4,2,9,80,0,1
50974,-90.9090909090909,4,2,19,80,0,1
51323,-90.9090909090909,4,2,38,80,0,1
51497,-90.9090909090909,4,2,39,80,0,1
51672,-90.9090909090909,4,2,40,80,0,1
51846,-90.9090909090909,4,2,39,80,0,1
52021,-90.9090909090909,4,2,41,80,0,1
52195,-90.9090909090909,4,2,39,80,0,1
52369,-90.9090909090909,4,2,14,80,0,1
52544,-90.9090909090909,4,2,39,80,0,1
52718,-90.9090909090909,4,2,15,80,0,1
52893,-90.9090909090909,4,2,39,80,0,1
53067,-90.9090909090909,4,2,42,80,0,1
53416,-90.9090909090909,4,2,41,80,0,1
53590,-90.9090909090909,4,2,39,80,0,1
53765,-90.9090909090909,4,2,16,80,0,1
53939,-90.9090909090909,4,2,39,80,0,1
54114,-90.9090909090909,4,2,38,80,0,1
54462,-90.9090909090909,4,2,50,80,0,1
54811,-90.9090909090909,4,2,38,80,0,1
54986,-90.9090909090909,4,2,39,80,0,1
55160,-90.9090909090909,4,2,23,80,0,1
55335,-90.9090909090909,4,2,39,80,0,1
55509,-90.9090909090909,4,2,15,80,0,1
55858,-90.9090909090909,4,2,51,80,0,1
56207,-90.9090909090909,4,2,18,80,0,1
56381,-90.9090909090909,4,2,39,80,0,1
56555,-90.9090909090909,4,2,19,80,0,1
56904,-90.9090909090909,4,2,38,80,0,1
57079,-90.9090909090909,4,2,39,80,0,1
57253,-90.9090909090909,4,2,40,80,0,1
57602,-90.9090909090909,4,2,38,80,0,1
57776,-90.9090909090909,4,2,39,80,0,1
57951,-90.9090909090909,4,2,20,80,0,1
58300,-90.9090909090909,4,2,18,80,0,1
58474,-90.9090909090909,4,2,39,80,0,1
58648,-90.9090909090909,4,2,52,80,0,1
58997,-90.9090909090909,4,2,38,80,0,1
59172,-90.9090909090909,4,2,39,80,0,1
59346,-90.9090909090909,4,2,24,80,0,1
59521,-90.9090909090909,4,2,39,80,0,1
60044,-90.9090909090909,4,2,53,80,0,1
60393,-90.9090909090909,4,2,39,80,0,1
60567,-90.9090909090909,4,2,54,80,0,1
60741,-90.9090909090909,4,2,25,80,0,1
61090,-90.9090909090909,4,2,1,80,0,1
61439,-90.9090909090909,4,2,26,80,0,1
61614,-90.9090909090909,4,2,1,80,0,1
62137,-90.9090909090909,4,2,27,80,0,1
62486,-90.9090909090909,4,2,38,80,0,1
62835,-90.9090909090909,4,2,55,80,0,1
63183,-90.9090909090909,4,2,38,80,0,1
63532,-90.9090909090909,4,2,16,80,0,1
63881,-90.9090909090909,4,2,18,80,0,1
64230,-90.9090909090909,4,2,56,80,0,1
64579,-90.9090909090909,4,2,38,80,0,1
64928,-90.9090909090909,4,2,19,80,0,1
65276,-90.9090909090909,4,2,41,80,0,1
65451,-90.9090909090909,4,2,1,80,0,1
65625,-90.9090909090909,4,2,57,80,0,1
65974,-90.9090909090909,4,2,41,80,0,1
66323,-100,4,2,28,70,0,0
66846,-100,4,2,39,70,0,0
67718,-111.111111111111,4,2,58,55,0,0
68067,-111.111111111111,4,2,59,55,0,0
68416,-111.111111111111,4,2,60,55,0,0
68765,-111.111111111111,4,2,16,55,0,0
69114,-111.111111111111,4,2,26,55,0,0
69462,-111.111111111111,4,2,61,55,0,0
69811,-111.111111111111,4,2,62,55,0,0
70160,-111.111111111111,4,2,60,55,0,0
70509,-111.111111111111,4,2,63,55,0,0
70858,-111.111111111111,4,2,64,55,0,0
71207,-111.111111111111,4,2,65,55,0,0
71555,-111.111111111111,4,2,59,55,0,0
71904,-111.111111111111,4,2,58,55,0,0
72602,-111.111111111111,4,2,66,55,0,0
73300,-111.111111111111,4,2,67,55,0,0
74346,-111.111111111111,4,2,65,55,0,0
74521,-111.111111111111,4,2,59,55,0,0
74695,-111.111111111111,4,2,68,55,0,0
75393,-111.111111111111,4,2,64,55,0,0
76090,-111.111111111111,4,2,69,55,0,0
76439,-111.111111111111,4,2,15,55,0,0
76788,-111.111111111111,4,2,16,55,0,0
77137,-111.111111111111,4,2,64,55,0,0
77486,-111.111111111111,4,2,70,55,0,0
77660,-111.111111111111,4,2,100,5,0,0
78881,-111.111111111111,4,2,1,55,0,0
78968,-111.111111111111,4,2,1,55,0,0
79230,-111.111111111111,4,2,1,55,0,0
79579,-111.111111111111,4,2,1,55,0,0
79928,-111.111111111111,4,2,1,55,0,0
80276,-111.111111111111,4,2,1,55,0,0
80625,-111.111111111111,4,2,1,55,0,0
80974,-111.111111111111,4,2,1,55,0,0
81323,-111.111111111111,4,2,1,55,0,0
81672,-111.111111111111,4,2,1,55,0,0
82021,-111.111111111111,4,2,1,55,0,0
82369,-111.111111111111,4,2,1,55,0,0
83067,-111.111111111111,4,2,1,55,0,0

[Colours]
Combo1 : 120,120,120
Combo2 : 23,219,126
Combo3 : 113,208,244
Combo4 : 239,175,129
Combo5 : 235,120,120

[HitObjects]
442,341,742,6,0,P|454:293|473:247,1,90,2|2,2:2|2:2,0:0:0:0:
391,209,1439,2,0,P|379:161|360:115,1,90,2|2,2:2|2:2,0:0:0:0:
296,62,2137,2,0,P|247:86|159:4,1,180,2|2,2:2|2:2,0:0:0:0:
27,138,3532,6,0,P|34:191|40:244,2,90,2|2|2,2:2|2:2|2:2,0:0:0:0:
94,77,4579,1,2,2:2:0:0:
147,149,4928,2,0,B|235:129|212:81|310:63,1,180,2|2,2:2|2:2,0:0:0:0:
464,142,6323,6,0,P|452:202|446:240,1,90,2|2,2:2|2:2,0:0:0:0:
501,302,7021,2,0,P|412:316|324:335,1,180,2|2,2:2|2:2,0:0:0:0:
243,375,8067,1,0,0:0:0:0:
336,221,8765,5,2,2:2:0:0:
357,133,9114,2,0,P|334:77|296:38,1,90,2|0,2:2|0:0,0:0:0:0:
231,21,9811,1,2,2:2:0:0:
188,100,10160,1,2,2:2:0:0:
101,75,10509,2,0,P|6:101|13:187,1,180,2|2,2:2|2:2,0:0:0:0:
97,330,11904,6,0,P|146:319|195:311,1,90,10|2,2:1|2:2,0:0:0:0:
260,262,12602,2,0,P|304:269|348:279,1,90,2|2,2:2|2:2,0:0:0:0:
408,346,13300,2,0,P|437:307|434:257,1,90,2|2,2:2|2:2,0:0:0:0:
420,230,13823,1,2,2:2:0:0:
420,230,13997,1,2,2:2:0:0:
473,58,14695,6,0,P|424:69|375:77,1,90,2|2,2:2|2:2,0:0:0:0:
348,158,15393,2,0,P|299:147|250:139,1,90,2|2,2:2|2:2,0:0:0:0:
236,58,16090,1,2,2:2:0:0:
236,58,16265,2,0,B|156:85|196:116|112:144,1,135,2|2,2:2|2:2,0:0:0:0:
10,272,17486,6,0,P|84:283|111:356,1,135,14|2,2:1|2:2,0:0:0:0:
147,358,18183,2,0,B|158:277|200:308|213:222,1,135,14|2,2:1|2:2,0:0:0:0:
192,199,18881,1,14,2:1:0:0:
316,69,19579,2,0,P|359:84|421:97,1,90,14|2,2:1|2:2,0:0:0:0:
491,107,20276,2,0,P|437:115|415:204,1,135,14|2,2:1|2:2,0:0:0:0:
379,218,20974,2,0,P|404:274|419:361,1,135,14|2,2:1|2:2,0:0:0:0:
381,372,21672,1,10,2:1:0:0:
299,333,22021,1,8,2:2:0:0:
215,367,22369,2,0,P|179:371|157:375,2,45,10|8|4,2:1|2:2|2:3,0:0:0:0:
226,277,23067,6,0,B|209:223|188:256|165:188,1,90,14|6,2:1|2:3,0:0:0:0:
112,139,23765,1,12,2:3:0:0:
251,22,24462,2,0,P|301:30|355:38,1,90,14|6,2:3|2:3,0:0:0:0:
374,119,25160,2,0,P|424:111|478:103,1,90,14|4,2:3|2:3,0:0:0:0:
498,188,25858,6,0,P|437:216|426:253,1,90,14|6,2:3|2:3,0:0:0:0:
435,323,26555,1,12,2:3:0:0:
264,371,27253,2,0,P|217:354|171:350,1,90,14|6,2:3|2:3,0:0:0:0:
126,275,27951,2,0,P|143:228|147:182,1,90,14|4,2:3|2:3,0:0:0:0:
216,131,28648,5,14,2:3:0:0:
149,70,28997,1,6,2:3:0:0:
79,127,29346,2,0,P|20:142|6:221,1,135,14|2,2:3|2:2,0:0:0:0:
26,244,30044,2,0,P|79:263|115:286,1,90,14|6,2:3|2:3,0:0:0:0:
165,349,30741,2,0,P|203:326|246:312,1,90,12|6,2:3|2:3,0:0:0:0:
332,339,31439,5,2,2:2:0:0:
425,41,34230,6,0,B|381:10|314:71|341:133|451:171|504:77|504:77|486:124|518:165|518:165|563:222|520:333|426:308|393:242|463:192,1,630,14|2,2:1|2:2,0:0:0:0:
353,194,37021,5,14,2:3:0:0:
266,217,37369,1,14,2:3:0:0:
248,305,37718,1,14,2:3:0:0:
161,328,38067,2,0,P|152:223|169:136,1,180,14|10,2:1|2:2,0:0:0:0:
199,121,38939,1,8,2:2:0:0:
199,121,39114,2,0,L|256:126,2,45,14|8|8,2:1|2:2|2:2,0:0:0:0:
164,28,39811,6,0,P|108:36|63:90,1,99.0000030212403,14|2,2:1|2:2,0:0:0:0:
21,145,40509,1,10,2:2:0:0:
21,145,40683,2,0,P|43:197|56:254,1,99.0000030212403,2|2,2:2|2:2,0:0:0:0:
27,280,41207,1,10,2:1:0:0:
92,353,41555,1,10,2:1:0:0:
176,300,41904,1,10,2:2:0:0:
313,356,42428,5,2,2:2:0:0:
313,356,42602,2,0,P|366:338|417:327,1,99.0000030212403,10|2,2:1|2:2,0:0:0:0:
446,297,43125,1,0,0:0:0:0:
485,266,43300,2,0,P|432:248|381:237,1,99.0000030212403,10|2,2:2|2:2,0:0:0:0:
305,186,43997,1,10,2:1:0:0:
305,186,44172,2,0,P|316:122|410:69,1,148.50000453186,2|10,2:2|2:2,0:0:0:0:
302,9,45044,2,0,L|244:20,1,49.5000015106202,10|10,2:1|2:2,0:0:0:0:
212,45,45393,6,0,P|163:22|98:9,2,99.0000030212403,14|2|10,2:1|2:2|2:2,0:0:0:0:
234,141,46439,2,0,P|199:147|151:161,1,49.5000015106202,2|2,2:2|2:2,0:0:0:0:
143,182,46788,2,0,P|98:212|54:262,1,99.0000030212403,10|10,2:1|2:1,0:0:0:0:
79,292,47311,1,2,2:2:0:0:
94,340,47486,1,10,2:2:0:0:
238,375,48009,5,2,2:2:0:0:
238,375,48183,2,0,P|254:310|276:262,1,99.0000030212403,14|2,2:1|2:2,0:0:0:0:
234,242,48707,1,0,0:0:0:0:
202,204,48881,2,0,P|186:139|164:91,1,99.0000030212403,14|2,2:2|2:2,0:0:0:0:
132,81,49404,1,2,2:2:0:0:
196,5,49753,2,0,B|274:7|242:63|348:62,1,148.50000453186,2|10,2:2|2:2,0:0:0:0:
376,41,50451,1,8,2:2:0:0:
376,41,50625,1,10,2:3:0:0:
456,98,50974,6,0,P|451:151|449:214,1,99.0000030212403,14|2,2:1|2:2,0:0:0:0:
490,287,51672,1,10,2:2:0:0:
490,287,51846,2,0,P|433:302|398:340,1,99.0000030212403,2|2,2:2|2:2,0:0:0:0:
371,365,52369,1,10,2:1:0:0:
275,337,52718,1,10,2:1:0:0:
273,237,53067,1,10,2:2:0:0:
131,282,53590,5,2,2:2:0:0:
131,282,53765,2,0,P|66:294|22:307,1,99.0000030212403,10|2,2:1|2:2,0:0:0:0:
4,208,54462,2,0,P|18:144|64:112,1,99.0000030212403,10|2,2:2|2:2,0:0:0:0:
55,27,55160,1,10,2:1:0:0:
55,27,55335,2,0,B|144:28|106:82|194:88,1,148.50000453186,2|10,2:2|2:2,0:0:0:0:
276,49,56207,2,0,P|300:52|338:57,1,49.5000015106202,10|10,2:1|2:2,0:0:0:0:
362,87,56555,6,0,P|389:43|437:8,2,99.0000030212403,14|2|10,2:1|2:2|2:2,0:0:0:0:
287,153,57602,2,0,P|315:169|349:181,1,49.5000015106202,2|2,2:2|2:2,0:0:0:0:
380,182,57951,2,0,P|404:227|410:286,1,99.0000030212403,10|10,2:1|2:1,0:0:0:0:
414,323,58474,1,2,2:2:0:0:
384,362,58648,1,10,2:2:0:0:
309,296,58997,2,0,P|275:290|240:282,1,49.5000015106202,2|2,2:2|2:2,0:0:0:0:
215,265,59346,5,14,2:1:0:0:
176,356,59695,2,0,P|127:364|78:374,1,99.0000030212403,2|14,2:2|2:2,0:0:0:0:
11,300,60393,2,0,P|16:275|21:251,1,49.5000015106202,2|2,2:2|2:2,0:0:0:0:
59,220,60741,2,0,P|21:159|52:95,1,148.50000453186,14|8,2:1|2:2,0:0:0:0:
71,50,61439,2,0,P|119:41|168:31,1,99.0000030212403,14|8,2:1|2:2,0:0:0:0:
265,57,62137,5,14,2:1:0:0:
244,153,62486,1,2,2:2:0:0:
331,198,62835,2,0,P|340:246|352:294,1,99.0000030212403,10|2,2:2|2:2,0:0:0:0:
430,354,63532,1,10,2:1:0:0:
506,291,63881,1,10,2:1:0:0:
427,230,64230,2,0,P|436:181|448:133,1,99.0000030212403,10|2,2:2|2:2,0:0:0:0:
431,35,64928,6,0,B|408:34|385:49|385:49|366:89|285:106|234:59,2,198.000006042481,10|10|10,2:1|2:2|2:1,0:0:0:0:
256,307,67718,6,0,P|169:345|108:303,1,161.999995056153,2|2,2:2|2:2,0:0:0:0:
10,191,69114,2,0,P|40:122|66:28,1,161.999995056153,2|2,2:2|2:2,0:0:0:0:
213,101,70509,2,0,P|255:94|301:85,1,80.9999975280763,2|2,2:2|2:2,0:0:0:0:
362,44,71207,2,0,P|404:51|450:60,1,80.9999975280763,2|2,2:2|2:2,0:0:0:0:
490,123,71904,2,0,B|504:197|452:188|471:298,1,161.999995056153,2|2,2:2|2:2,0:0:0:0:
318,343,73300,5,2,2:2:0:0:
199,130,74346,2,0,L|205:70,1,40.4999987640381,2|2,2:2|2:2,0:0:0:0:
231,60,74695,2,0,P|168:24|82:65,1,161.999995056153,2|2,2:2|2:2,0:0:0:0:
16,199,76090,2,0,P|21:239|24:279,1,80.9999975280763,2|2,2:2|2:2,0:0:0:0:
84,334,76788,2,0,P|124:328|164:325,1,80.9999975280763,2|2,2:2|2:2,0:0:0:0:
210,258,77486,2,0,B|389:197|311:368|510:311,1,323.999990112305,2|2,2:2|2:2,0:0:0:0:
