osu file format v14

[General]
AudioFilename: audio.mp3
AudioLeadIn: 0
PreviewTime: 39768
Countdown: 0
SampleSet: Soft
StackLeniency: 0.5
Mode: 0
LetterboxInBreaks: 0
WidescreenStoryboard: 1

[Editor]
DistanceSpacing: 1.4
BeatDivisor: 4
GridSize: 16
TimelineZoom: 1

[Metadata]
Title:Omoikou
TitleUnicode:思ひ恋ふ
Artist:Uruha Rushia
ArtistUnicode:潤羽るしあ
Creator:fieryrage
Version:hooni's insane
Source:
Tags:yearning original song vtuber virtual youtuber hololive idol project ホロライブ 3rd third generation fantasy ホロライブファンタジー japanese pop jpop j-pop wanpachi gorou cycopton birbsmb my angel hooni amateurre akito yuuma ogura yui daycore midorijeon
BeatmapID:3524008
BeatmapSetID:1714807

[Difficulty]
HPDrainRate:5
CircleSize:3.7
OverallDifficulty:8
ApproachRate:8.5
SliderMultiplier:1.99999990463257
SliderTickRate:1

[Events]
//Background and Video events
0,0,"those sad stories we still tell each other.jpg",0,0
Video,0,"i wish you were still here.mp4"
//Break Periods
//Storyboard Layer 0 (Background)
//Storyboard Layer 1 (Fail)
//Storyboard Layer 2 (Pass)
//Storyboard Layer 3 (Foreground)
//Storyboard Layer 4 (Overlay)
//Storyboard Sound Samples

[TimingPoints]
45,697.674418604651,4,2,1,50,1,0
45,-83.3333333333333,4,2,1,50,0,0
742,697.674418604651,4,2,2,50,1,0
742,-83.3333333333333,4,2,2,50,0,0
916,-100,4,2,1,50,0,0
1352,-83.3333333333333,4,2,1,50,0,0
1439,-83.3333333333333,4,2,1,50,0,0
2137,-83.3333333333333,4,2,3,50,0,0
2311,-83.3333333333333,4,2,1,50,0,0
2660,-100,4,2,1,50,0,0
2835,-100,4,2,4,50,0,0
3358,-100,4,2,1,50,0,0
3532,-83.3333333333333,4,2,5,50,0,0
3707,-83.3333333333333,4,2,1,50,0,0
4230,-83.3333333333333,4,2,6,50,0,0
4404,-83.3333333333333,4,2,1,50,0,0
4928,-100,4,2,7,50,0,0
5102,-100,4,2,1,50,0,0
5277,-100,4,2,8,50,0,0
5626,-100,4,2,9,50,0,0
5975,-100,4,2,4,50,0,0
6323,-83.3333333333333,4,2,10,50,0,0
6497,-83.3333333333333,4,2,1,50,0,0
7021,-83.3333333333333,4,2,11,50,0,0
7195,-83.3333333333333,4,2,1,50,0,0
7718,-100,4,2,1,50,0,0
7719,-100,4,2,12,50,0,0
7893,-100,4,2,1,50,0,0
8416,-100,4,2,13,50,0,0
8765,-100,4,2,1,50,0,0
9114,-83.3333333333333,4,2,14,50,0,0
9288,-83.3333333333333,4,2,1,50,0,0
9811,-83.3333333333333,4,2,15,50,0,0
10160,-83.3333333333333,4,2,16,50,0,0
10509,-83.3333333333333,4,2,17,50,0,0
10683,-83.3333333333333,4,2,1,50,0,0
11207,-142.857142857143,4,2,18,50,0,0
11730,-142.857142857143,4,2,1,50,0,0
11904,-76.9230769230769,4,2,1,60,0,0
12079,-76.9230769230769,4,2,1,60,0,0
12602,-76.9230769230769,4,2,19,60,0,0
12776,-76.9230769230769,4,2,1,60,0,0
13300,-76.9230769230769,4,2,20,60,0,0
13474,-76.9230769230769,4,2,1,60,0,0
13998,-76.9230769230769,4,2,21,60,0,0
14521,-76.9230769230769,4,2,1,60,0,0
14695,-76.9230769230769,4,2,22,60,0,0
14869,-76.9230769230769,4,2,1,60,0,0
15393,-76.9230769230769,4,2,23,60,0,0
15567,-76.9230769230769,4,2,1,60,0,0
16090,-76.9230769230769,4,2,24,60,0,0
16265,-76.9230769230769,4,2,1,60,0,0
16789,-76.9230769230769,4,2,25,60,0,0
17486,-76.9230769230769,4,2,2,70,0,0
17660,-76.9230769230769,4,2,1,70,0,0
18183,-76.9230769230769,4,2,3,70,0,0
18532,-76.9230769230769,4,2,1,70,0,0
18881,-76.9230769230769,4,2,4,70,0,0
19055,-76.9230769230769,4,2,1,70,0,0
19230,-76.9230769230769,4,2,4,70,0,0
19404,-76.9230769230769,4,2,1,70,0,0
19579,-76.9230769230769,4,2,5,70,0,0
19753,-76.9230769230769,4,2,1,70,0,0
20276,-76.9230769230769,4,2,6,70,0,0
20625,-76.9230769230769,4,2,1,70,0,0
20974,-76.9230769230769,4,2,7,70,0,0
21323,-76.9230769230769,4,2,1,70,0,0
21672,-76.9230769230769,4,2,8,70,0,0
22021,-76.9230769230769,4,2,1,70,0,0
22195,-76.9230769230769,4,2,4,70,0,0
22369,-76.9230769230769,4,2,9,70,0,0
22544,-76.9230769230769,4,2,1,70,0,0
23067,-76.9230769230769,4,2,6,65,0,0
23416,-76.9230769230769,4,2,1,65,0,0
24462,-76.9230769230769,4,2,2,65,0,0
24637,-76.9230769230769,4,2,1,65,0,0
25160,-100,4,2,1,65,0,0
25858,-76.9230769230769,4,2,3,65,0,0
26207,-76.9230769230769,4,2,1,65,0,0
27253,-76.9230769230769,4,2,4,65,0,0
27602,-76.9230769230769,4,2,1,65,0,0
28648,-76.9230769230769,4,2,5,65,0,0
28997,-76.9230769230769,4,2,1,65,0,0
30044,-76.9230769230769,4,2,2,65,0,0
30393,-76.9230769230769,4,2,1,65,0,0
31439,-76.9230769230769,4,2,26,50,0,0
31788,-76.9230769230769,4,2,1,50,0,0
32835,-76.9230769230769,4,2,15,50,0,0
33183,-76.9230769230769,4,2,1,50,0,0
34230,-100,4,2,10,70,0,0
34404,-100,4,2,27,70,0,0
34579,-100,4,2,28,70,0,0
34753,-100,4,2,28,70,0,0
34928,-100,4,2,29,70,0,0
35276,-100,4,2,30,70,0,0
35625,-100,4,2,31,70,0,0
35800,-100,4,2,30,70,0,0
35974,-100,4,2,32,70,0,0
36323,-100,4,2,33,70,0,0
36497,-100,4,2,34,70,0,0
36672,-100,4,2,35,70,0,0
37021,-76.9230769230769,4,2,6,70,0,0
37369,-76.9230769230769,4,2,7,70,0,0
37718,-76.9230769230769,4,2,8,70,0,0
38067,-76.9230769230769,4,2,11,70,0,0
38416,-76.9230769230769,4,2,36,70,0,0
38590,-76.9230769230769,4,2,100,5,0,0
38765,-76.9230769230769,4,2,37,70,0,0
39114,-76.9230769230769,4,2,12,70,0,0
39288,-76.9230769230769,4,2,1,70,0,0
39811,-71.4285714285714,4,2,13,80,0,1
40160,-71.4285714285714,4,2,38,80,0,1
40335,-71.4285714285714,4,2,39,80,0,1
40509,-71.4285714285714,4,2,40,80,0,1
40683,-71.4285714285714,4,2,39,80,0,1
40858,-71.4285714285714,4,2,41,80,0,1
41032,-71.4285714285714,4,2,39,80,0,1
41207,-71.4285714285714,4,2,14,80,0,1
41381,-71.4285714285714,4,2,39,80,0,1
41555,-71.4285714285714,4,2,15,80,0,1
41730,-71.4285714285714,4,2,39,80,0,1
41904,-71.4285714285714,4,2,42,80,0,1
42253,-71.4285714285714,4,2,41,80,0,1
42428,-71.4285714285714,4,2,39,80,0,1
42602,-71.4285714285714,4,2,16,80,0,1
42776,-71.4285714285714,4,2,39,80,0,1
42951,-71.4285714285714,4,2,38,80,0,1
43300,-71.4285714285714,4,2,43,80,0,1
43474,-71.4285714285714,4,2,39,80,0,1
43648,-71.4285714285714,4,2,38,80,0,1
43997,-71.4285714285714,4,2,17,80,0,1
44172,-71.4285714285714,4,2,39,80,0,1
44346,-71.4285714285714,4,2,15,80,0,1
44695,-111.111111111111,4,2,44,80,0,1
45044,-111.111111111111,4,2,18,80,0,1
45218,-111.111111111111,4,2,39,80,0,1
45393,-71.4285714285714,4,2,19,80,0,1
45741,-71.4285714285714,4,2,38,80,0,1
45916,-71.4285714285714,4,2,39,80,0,1
46090,-71.4285714285714,4,2,40,80,0,1
46439,-71.4285714285714,4,2,38,80,0,1
46614,-71.4285714285714,4,2,39,80,0,1
46788,-71.4285714285714,4,2,20,80,0,1
47137,-71.4285714285714,4,2,18,80,0,1
47311,-71.4285714285714,4,2,39,80,0,1
47486,-71.4285714285714,4,2,45,80,0,1
47835,-71.4285714285714,4,2,41,80,0,1
48009,-71.4285714285714,4,2,39,80,0,1
48183,-71.4285714285714,4,2,21,80,0,1
48358,-71.4285714285714,4,2,39,80,0,1
48881,-71.4285714285714,4,2,46,80,0,1
49230,-71.4285714285714,4,2,39,80,0,1
49404,-71.4285714285714,4,2,47,80,0,1
49579,-71.4285714285714,4,2,22,80,0,1
49753,-71.4285714285714,4,2,48,80,0,1
49928,-71.4285714285714,4,2,41,80,0,1
50102,-71.4285714285714,4,2,1,80,0,1
50276,-71.4285714285714,4,2,49,80,0,1
50625,-83.3333333333333,4,2,9,80,0,1
50974,-71.4285714285714,4,2,19,80,0,1
51323,-71.4285714285714,4,2,38,80,0,1
51497,-71.4285714285714,4,2,39,80,0,1
51672,-71.4285714285714,4,2,40,80,0,1
51846,-71.4285714285714,4,2,39,80,0,1
52021,-71.4285714285714,4,2,41,80,0,1
52195,-71.4285714285714,4,2,39,80,0,1
52369,-71.4285714285714,4,2,14,80,0,1
52544,-71.4285714285714,4,2,39,80,0,1
52718,-71.4285714285714,4,2,15,80,0,1
52893,-71.4285714285714,4,2,39,80,0,1
53067,-71.4285714285714,4,2,42,80,0,1
53416,-71.4285714285714,4,2,41,80,0,1
53590,-71.4285714285714,4,2,39,80,0,1
53765,-71.4285714285714,4,2,16,80,0,1
53939,-71.4285714285714,4,2,39,80,0,1
54114,-71.4285714285714,4,2,38,80,0,1
54462,-71.4285714285714,4,2,50,80,0,1
54811,-71.4285714285714,4,2,38,80,0,1
54986,-71.4285714285714,4,2,39,80,0,1
55160,-71.4285714285714,4,2,23,80,0,1
55335,-71.4285714285714,4,2,39,80,0,1
55509,-71.4285714285714,4,2,15,80,0,1
55858,-111.111111111111,4,2,51,80,0,1
56207,-111.111111111111,4,2,18,80,0,1
56381,-111.111111111111,4,2,39,80,0,1
56555,-71.4285714285714,4,2,19,80,0,1
56904,-71.4285714285714,4,2,38,80,0,1
57079,-71.4285714285714,4,2,39,80,0,1
57253,-71.4285714285714,4,2,40,80,0,1
57602,-71.4285714285714,4,2,38,80,0,1
57776,-71.4285714285714,4,2,39,80,0,1
57951,-71.4285714285714,4,2,20,80,0,1
58300,-71.4285714285714,4,2,18,80,0,1
58474,-71.4285714285714,4,2,39,80,0,1
58648,-71.4285714285714,4,2,52,80,0,1
58997,-71.4285714285714,4,2,38,80,0,1
59172,-71.4285714285714,4,2,39,80,0,1
59346,-71.4285714285714,4,2,24,80,0,1
59521,-71.4285714285714,4,2,39,80,0,1
60044,-71.4285714285714,4,2,53,80,0,1
60393,-71.4285714285714,4,2,39,80,0,1
60567,-71.4285714285714,4,2,54,80,0,1
60741,-71.4285714285714,4,2,25,80,0,1
61090,-71.4285714285714,4,2,1,80,0,1
61439,-71.4285714285714,4,2,26,80,0,1
61614,-71.4285714285714,4,2,1,80,0,1
61788,-83.3333333333333,4,2,1,80,0,1
62137,-71.4285714285714,4,2,27,80,0,1
62486,-71.4285714285714,4,2,38,80,0,1
62835,-71.4285714285714,4,2,55,80,0,1
63183,-71.4285714285714,4,2,38,80,0,1
63532,-71.4285714285714,4,2,16,80,0,1
63881,-71.4285714285714,4,2,18,80,0,1
64230,-71.4285714285714,4,2,56,80,0,1
64579,-71.4285714285714,4,2,38,80,0,1
64928,-71.4285714285714,4,2,19,80,0,1
65276,-71.4285714285714,4,2,41,80,0,1
65451,-71.4285714285714,4,2,1,80,0,1
65625,-71.4285714285714,4,2,57,80,0,1
65974,-71.4285714285714,4,2,41,80,0,1
66323,-71.4285714285714,4,2,28,70,0,0
66846,-71.4285714285714,4,2,39,70,0,0
67718,-200,4,2,58,55,0,0
68067,-200,4,2,59,55,0,0
68416,-200,4,2,60,55,0,0
68765,-200,4,2,16,55,0,0
69114,-200,4,2,26,55,0,0
69462,-200,4,2,61,55,0,0
69811,-200,4,2,62,55,0,0
70160,-200,4,2,60,55,0,0
70509,-200,4,2,63,55,0,0
70858,-200,4,2,64,55,0,0
71207,-200,4,2,65,55,0,0
71555,-200,4,2,59,55,0,0
71904,-200,4,2,58,55,0,0
72428,-200,4,2,100,5,0,0
72602,-200,4,2,66,55,0,0
73125,-200,4,2,100,5,0,0
73300,-200,4,2,67,55,0,0
73997,-200,4,2,67,35,0,0
74346,-200,4,2,65,55,0,0
74521,-200,4,2,59,55,0,0
74695,-200,4,2,68,55,0,0
75393,-200,4,2,64,55,0,0
76090,-181.818181818182,4,2,69,55,0,0
76439,-181.818181818182,4,2,15,55,0,0
76788,-181.818181818182,4,2,16,55,0,0
77137,-181.818181818182,4,2,64,55,0,0
77486,-181.818181818182,4,2,70,55,0,0
78881,-200,4,2,1,55,0,0
79230,-200,4,2,1,50,0,0
79579,-200,4,2,1,45,0,0
79928,-200,4,2,1,40,0,0
80276,-200,4,2,1,35,0,0
80625,-200,4,2,1,30,0,0
80974,-200,4,2,1,25,0,0
81323,-200,4,2,1,20,0,0
81672,-200,4,2,1,15,0,0
82021,-200,4,2,1,10,0,0
82369,-200,4,2,1,5,0,0
83067,-200,4,2,100,5,0,0

[Colours]
Combo1 : 120,120,120
Combo2 : 23,219,126
Combo3 : 113,208,244
Combo4 : 239,175,129
Combo5 : 235,120,120

[HitObjects]
20,146,742,6,0,P|68:114|125:127,1,119.999990615845,2|2,2:2|2:2,0:0:0:0:
226,262,1439,2,0,P|222:233|216:202,1,59.9999953079226,2|2,2:2|2:2,0:0:0:0:
289,131,1788,2,0,P|293:100|298:71,1,59.9999953079226,2|0,2:2|0:0,0:0:0:0:
440,41,2137,5,2,2:2:0:0:
486,125,2311,1,2,2:2:0:0:
418,193,2486,1,2,2:2:0:0:
480,301,2660,2,0,P|405:290|331:282,1,149.999992847443,2|0,2:2|0:0,0:0:0:0:
170,234,3532,6,0,P|170:263|160:291,1,59.9999953079226,2|2,2:2|2:2,0:0:0:0:
48,269,3881,2,0,P|47:239|57:211,1,59.9999953079226,2|0,2:2|0:0,0:0:0:0:
133,133,4230,1,2,2:2:0:0:
135,118,4404,1,2,2:2:0:0:
65,43,4579,1,2,2:2:0:0:
63,28,4753,1,0,0:0:0:0:
202,7,4928,6,0,L|324:28,1,99.9999952316285,2|2,2:2|2:2,0:0:0:0:
482,108,5625,2,0,L|383:125,1,99.9999952316285,2|2,2:2|2:2,0:0:0:0:
182,112,6323,6,0,P|214:160|200:217,1,119.999990615845,2|2,2:2|2:2,0:0:0:0:
114,272,6846,1,0,0:0:0:0:
99,271,7021,2,0,P|68:267|39:262,1,59.9999953079226,2|2,2:2|2:2,0:0:0:0:
172,355,7369,2,0,P|201:349|231:346,1,59.9999953079226,2|2,2:2|2:2,0:0:0:0:
380,370,7718,6,0,P|370:320|362:271,1,99.9999952316285,2|0,2:2|0:0,0:0:0:0:
432,138,8416,1,2,2:2:0:0:
318,41,8765,2,0,P|293:44|268:49,1,49.9999976158143,2|2,2:2|2:2,0:0:0:0:
99,90,9114,6,0,P|156:99|186:149,1,119.999990615845,2|0,2:2|0:0,0:0:0:0:
168,261,9637,1,2,2:2:0:0:
177,251,9811,2,0,P|204:240|234:241,1,59.9999953079226,2|0,2:2|0:0,0:0:0:0:
255,354,10160,2,0,P|227:364|197:363,1,59.9999953079226,2|0,2:2|0:0,0:0:0:0:
339,278,10509,5,2,2:2:0:0:
425,320,10683,1,2,2:2:0:0:
490,249,10858,2,0,L|476:170,1,59.9999953079226,2|0,2:2|0:0,0:0:0:0:
445,72,11207,6,0,B|426:47|446:24|446:24|475:38|468:67,1,104.999991788864,2|2,2:2|2:2,0:0:0:0:
341,156,11904,6,0,P|308:160|277:167,1,64.9999939250949,10|2,2:1|2:2,0:0:0:0:
149,77,12253,2,0,P|181:81|212:88,1,64.9999939250949,2|0,2:2|0:0,0:0:0:0:
38,67,12602,5,2,2:2:0:0:
24,163,12776,1,2,2:2:0:0:
82,242,12951,1,2,2:2:0:0:
68,338,13125,1,0,0:0:0:0:
188,259,13300,6,0,P|220:257|250:269,1,64.9999939250949,2|2,2:2|2:2,0:0:0:0:
317,357,13648,1,2,2:2:0:0:
338,212,13823,1,2,2:2:0:0:
451,304,13997,2,0,P|463:240|471:175,1,129.99998785019,2|0,2:2|0:0,0:0:0:0:
475,77,14521,1,2,2:2:0:0:
350,111,14695,5,2,2:2:0:0:
279,27,14869,1,2,2:2:0:0:
241,131,15044,2,0,P|245:163|252:194,1,64.9999939250949,2|0,2:2|0:0,0:0:0:0:
378,299,15393,5,2,2:2:0:0:
282,285,15567,1,2,2:2:0:0:
203,343,15741,1,2,2:2:0:0:
107,329,15916,1,0,0:0:0:0:
44,201,16090,5,2,2:2:0:0:
58,193,16265,2,0,B|100:172|111:132|109:102|75:75|75:75|49:83|37:105,1,194.999981775285,2|2,2:2|2:2,0:0:0:0:
107,329,17137,1,0,0:0:0:0:
193,83,17486,6,0,B|242:47|285:100|262:98|305:161|361:127,1,194.999981775285,14|2,2:1|2:2,0:0:0:0:
497,129,18183,2,0,B|475:106|470:74|470:74|446:206,1,194.999981775285,14|2,2:1|2:2,0:0:0:0:
431,368,18881,2,0,B|455:365|473:344|473:344|461:302|429:286|390:284|358:314,1,194.999981775285,14|2,2:1|2:2,0:0:0:0:
247,382,19579,5,14,2:1:0:0:
274,229,19753,1,2,2:2:0:0:
119,201,19928,1,2,2:2:0:0:
92,354,20102,1,0,0:0:0:0:
32,135,20276,6,0,B|87:120|113:171|113:171|121:113|176:110,1,194.999981775285,14|2,2:1|2:2,0:0:0:0:
314,151,20974,2,0,B|274:131|263:93|267:58|302:32|302:32|328:42|339:63,1,194.999981775285,14|2,2:1|2:2,0:0:0:0:
405,207,21672,6,0,L|469:195,1,64.9999939250949,10|0,2:1|0:0,0:0:0:0:
334,287,22021,2,0,L|269:275,1,64.9999939250949,8|2,2:2|2:2,0:0:0:0:
149,158,22369,5,10,2:1:0:0:
131,254,22544,1,8,2:2:0:0:
114,350,22718,1,4,2:3:0:0:
8,98,23067,6,0,L|72:87,1,64.9999939250949,14|0,2:1|0:0,0:0:0:0:
4,78,23416,2,0,L|68:67,1,64.9999939250949,6|2,2:3|2:2,0:0:0:0:
149,158,23765,2,0,L|213:168,1,64.9999939250949,12|0,2:3|0:0,0:0:0:0:
145,178,24114,2,0,L|209:188,1,64.9999939250949,4|2,2:3|2:2,0:0:0:0:
297,60,24462,5,14,2:3:0:0:
389,169,24637,1,2,2:2:0:0:
438,34,24811,1,6,2:3:0:0:
376,92,24986,1,0,0:0:0:0:
478,218,25160,5,14,2:3:0:0:
475,238,25335,2,0,L|457:336,1,99.9999952316285,2|2,2:2|2:2,0:0:0:0:
344,259,25858,6,0,P|312:251|280:248,1,64.9999939250949,14|0,2:3|0:0,0:0:0:0:
342,277,26207,2,0,P|310:269|278:266,1,64.9999939250949,6|2,2:3|2:2,0:0:0:0:
149,353,26555,2,0,P|180:345|212:342,1,64.9999939250949,12|0,2:3|0:0,0:0:0:0:
151,371,26904,2,0,P|182:363|214:360,1,64.9999939250949,4|2,2:3|2:2,0:0:0:0:
73,212,27253,6,0,L|61:276,1,64.9999939250949,14|0,2:3|0:0,0:0:0:0:
153,149,27602,1,6,2:3:0:0:
24,126,27776,1,2,2:2:0:0:
132,42,27951,6,0,B|181:6|224:59|201:57|244:120|300:86,1,194.999981775285,14|0,2:3|0:0,0:0:0:0:
432,32,28648,6,0,L|443:96,1,64.9999939250949,14|0,2:3|0:0,0:0:0:0:
452,28,28997,2,0,L|463:91,1,64.9999939250949,6|2,2:3|2:2,0:0:0:0:
384,179,29346,2,0,L|373:243,1,64.9999939250949,14|2,2:3|2:2,0:0:0:0:
364,175,29695,2,0,L|353:239,1,64.9999939250949,4|2,2:3|2:2,0:0:0:0:
243,336,30044,6,0,P|196:295|138:317,1,129.99998785019,14|6,2:3|2:3,0:0:0:0:
54,379,30567,1,2,2:2:0:0:
52,363,30741,2,0,L|40:298,1,64.9999939250949,12|0,2:3|0:0,0:0:0:0:
103,232,31090,2,0,L|114:167,1,64.9999939250949,6|0,2:3|0:0,0:0:0:0:
53,92,31439,5,2,2:2:0:0:
48,68,32835,1,2,2:2:0:0:
409,71,34230,6,0,P|394:144|382:218,1,149.999992847443,14|0,2:1|0:0,0:0:0:0:
367,305,34928,1,2,2:2:0:0:
493,170,35276,1,2,2:2:0:0:
286,133,35625,6,0,L|214:119,2,49.9999976158143,2|2|2,2:2|2:2|2:2,0:0:0:0:
106,45,36323,2,0,L|155:35,2,49.9999976158143,2|2|2,2:2|2:2|2:2,0:0:0:0:
173,331,37021,6,0,P|189:303|193:272,1,64.9999939250949,14|0,2:3|0:0,0:0:0:0:
18,306,37369,2,0,P|33:334|58:352,1,64.9999939250949,14|0,2:3|0:0,0:0:0:0:
117,183,37718,2,0,P|85:182|56:195,1,64.9999939250949,14|0,2:3|0:0,0:0:0:0:
298,322,38067,6,0,B|347:358|390:305|367:307|410:244|466:278,1,194.999981775285,14|0,2:1|0:0,0:0:0:0:
268,178,38765,5,10,2:2:0:0:
448,152,38939,1,8,2:2:0:0:
336,10,39114,1,14,2:1:0:0:
358,166,39288,1,8,2:2:0:0:
227,71,39462,2,0,L|149:84,1,64.9999939250949,8|0,2:2|0:0,0:0:0:0:
34,307,39811,6,0,P|66:248|133:248,1,139.999989051819,14|2,2:1|2:2,0:0:0:0:
206,326,40335,1,2,2:2:0:0:
268,178,40509,1,10,2:2:0:0:
387,333,40683,2,0,P|398:263|405:194,1,139.999989051819,2|2,2:2|2:2,0:0:0:0:
354,73,41207,6,0,P|388:70|421:83,1,69.9999945259097,10|2,2:1|2:2,0:0:0:0:
268,178,41555,1,10,2:1:0:0:
241,19,41730,1,2,2:2:0:0:
137,168,41904,2,0,B|114:176|90:176|90:176|51:154|51:154|26:154|3:163,1,139.999989051819,10|2,2:2|2:2,0:0:0:0:
114,72,42428,1,2,2:2:0:0:
37,259,42602,5,10,2:1:0:0:
114,319,42776,1,2,2:2:0:0:
211,303,42951,1,2,2:2:0:0:
269,224,43125,1,0,0:0:0:0:
374,347,43300,6,0,P|369:312|362:278,1,69.9999945259097,10|2,2:2|2:2,0:0:0:0:
478,147,43648,2,0,P|471:181|466:215,1,69.9999945259097,2|0,2:2|0:0,0:0:0:0:
283,86,43997,6,0,B|300:55|329:39|329:39|365:40|397:61,1,139.999989051819,10|10,2:1|2:1,0:0:0:0:
357,159,44521,1,0,0:0:0:0:
117,70,44695,6,0,B|124:109|124:109|120:115|120:115|128:157,1,89.9999929618838,10|10,2:2|2:1,0:0:0:0:
148,260,45218,1,10,2:2:0:0:
357,159,45393,5,14,2:1:0:0:
330,367,45567,1,0,0:0:0:0:
255,194,45741,1,2,2:2:0:0:
443,221,45916,1,2,2:2:0:0:
198,355,46090,6,0,P|163:362|129:367,1,69.9999945259097,10|0,2:2|0:0,0:0:0:0:
148,260,46439,5,2,2:2:0:0:
145,243,46614,1,2,2:2:0:0:
54,191,46788,5,10,2:1:0:0:
220,170,46962,1,0,0:0:0:0:
196,3,47137,1,10,2:1:0:0:
30,24,47311,1,2,2:2:0:0:
285,74,47486,6,0,P|354:65|423:52,1,139.999989051819,10|2,2:2|2:2,0:0:0:0:
369,167,48009,1,2,2:2:0:0:
485,324,48183,6,0,B|432:362|386:305|411:307|364:240|304:276,1,209.999983577729,14|0,2:1|0:0,0:0:0:0:
123,333,48881,2,0,B|134:355|162:366|162:366|200:338|204:300|193:259|149:238,1,209.999983577729,14|2,2:2|2:2,0:0:0:0:
0,179,49579,6,0,L|68:166,1,69.9999945259097,10|2,2:1|2:2,0:0:0:0:
211,64,49928,2,0,L|142:51,1,69.9999945259097,10|8,2:2|2:1,0:0:0:0:
386,34,50276,5,10,2:2:0:0:
369,145,50451,1,8,2:2:0:0:
349,255,50625,2,0,L|338:317,1,59.9999953079226,10|0,2:3|0:0,0:0:0:0:
211,64,50974,6,0,P|146:45|91:84,1,139.999989051819,14|2,2:1|2:2,0:0:0:0:
39,192,51497,1,2,2:2:0:0:
4,27,51672,1,10,2:2:0:0:
166,149,51846,2,0,P|158:218|148:287,1,139.999989051819,2|2,2:2|2:2,0:0:0:0:
296,352,52369,6,0,P|263:364|229:361,1,69.9999945259097,10|2,2:1|2:2,0:0:0:0:
346,231,52718,1,10,2:1:0:0:
408,380,52893,1,2,2:2:0:0:
486,201,53067,2,0,P|475:131|467:62,1,139.999989051819,10|2,2:2|2:2,0:0:0:0:
383,0,53590,1,2,2:2:0:0:
244,107,53765,5,10,2:1:0:0:
178,35,53939,1,2,2:2:0:0:
88,75,54114,2,0,P|81:109|76:143,1,69.9999945259097,2|0,2:2|0:0,0:0:0:0:
132,302,54462,5,10,2:2:0:0:
228,285,54637,1,0,0:0:0:0:
310,338,54811,1,2,2:2:0:0:
406,321,54986,1,2,2:2:0:0:
306,137,55160,6,0,B|268:132|246:167|246:167|236:127|204:118,1,139.999989051819,10|10,2:1|2:1,0:0:0:0:
271,37,55683,1,0,0:0:0:0:
446,200,55858,6,0,B|453:161|453:161|449:155|449:155|457:113,1,89.9999929618838,10|10,2:2|2:1,0:0:0:0:
477,10,56381,1,10,2:2:0:0:
306,137,56555,5,14,2:1:0:0:
170,15,56730,1,0,0:0:0:0:
136,193,56904,1,2,2:2:0:0:
271,37,57079,1,2,2:2:0:0:
35,143,57253,6,0,P|28:177|23:211,1,69.9999945259097,10|0,2:2|0:0,0:0:0:0:
145,307,57602,5,2,2:2:0:0:
162,304,57776,1,2,2:2:0:0:
261,370,57951,5,10,2:1:0:0:
232,204,58125,1,0,0:0:0:0:
400,179,58300,1,10,2:1:0:0:
428,343,58474,1,2,2:2:0:0:
303,117,58648,6,0,P|297:82|291:48,1,69.9999945259097,10|0,2:2|0:0,0:0:0:0:
482,1,58997,2,0,P|475:35|470:69,1,69.9999945259097,2|2,2:2|2:2,0:0:0:0:
331,264,59346,6,0,B|392:225|438:295|413:293|459:350|512:312,1,209.999983577729,14|0,2:1|0:0,0:0:0:0:
233,352,60044,2,0,P|223:282|209:214,1,139.999989051819,14|2,2:2|2:2,0:0:0:0:
118,302,60567,1,2,2:2:0:0:
219,99,60741,6,0,B|183:95|183:95|152:111,1,69.9999945259097,14|0,2:1|0:0,0:0:0:0:
313,183,61090,1,8,2:2:0:0:
285,10,61265,1,8,2:2:0:0:
470,93,61439,5,14,2:1:0:0:
453,204,61614,1,8,2:2:0:0:
433,314,61788,2,0,L|422:376,1,59.9999953079226,8|0,2:2|0:0,0:0:0:0:
313,183,62137,6,0,P|278:188|244:195,1,69.9999945259097,14|0,2:1|0:0,0:0:0:0:
106,99,62486,2,0,P|140:104|174:111,1,69.9999945259097,2|0,2:2|0:0,0:0:0:0:
319,206,62835,2,0,P|284:211|250:218,1,69.9999945259097,10|0,2:2|0:0,0:0:0:0:
110,72,63183,2,0,P|144:77|178:84,1,69.9999945259097,2|0,2:2|0:0,0:0:0:0:
113,299,63532,6,0,P|65:253|89:191,1,139.999989051819,10|10,2:1|2:1,0:0:0:0:
331,274,64230,2,0,L|316:190,1,69.9999945259097,10|0,2:2|0:0,0:0:0:0:
446,94,64579,2,0,L|433:162,1,69.9999945259097,2|0,2:2|0:0,0:0:0:0:
256,50,64928,6,0,B|289:35|289:35|323:37,1,69.9999945259097,10|0,2:1|0:0,0:0:0:0:
192,164,65276,1,10,2:2:0:0:
153,0,65451,1,8,2:1:0:0:
64,182,65625,2,0,L|51:113,1,69.9999945259097,10|0,2:2|0:0,0:0:0:0:
91,327,65974,5,10,2:2:0:0:
192,164,66148,1,8,2:2:0:0:
393,293,66323,5,10,2:1:0:0:
446,59,67718,6,0,P|371:69|298:84,1,149.999992847443,2|2,2:2|2:2,0:0:0:0:
158,162,69114,2,0,P|191:101|137:58,1,149.999992847443,2|2,2:2|2:2,0:0:0:0:
12,140,70509,6,0,P|26:213|37:287,1,149.999992847443,2|2,2:2|2:2,0:0:0:0:
169,359,71904,2,0,P|205:350|242:344,1,74.9999964237214,2|0,2:2|0:0,0:0:0:0:
300,255,72602,2,0,P|263:246|226:240,1,74.9999964237214,2|0,2:2|0:0,0:0:0:0:
129,162,73300,6,0,P|202:147|276:136,1,149.999992847443,2|2,2:2|2:2,0:0:0:0:
421,155,74695,2,0,P|428:106|403:64,1,99.9999952316285,2|2,2:2|2:2,0:0:0:0:
282,298,76090,6,0,B|345:257|390:326|367:328|415:387|470:348,1,219.99999622345,2|2,2:2|2:2,0:0:0:0:
90,225,78881,6,0,B|93:194|130:162|130:162|179:106|235:48|140:-12|106:49|106:49|37:7|-4:113|67:134|126:162|126:162|174:175|187:206,1,599.999971389771,2|0,2:2|0:0,0:0:0:0:
