osu file format v14

[General]
AudioFilename: audio.mp3
AudioLeadIn: 0
PreviewTime: 39768
Countdown: 0
SampleSet: Soft
StackLeniency: 0.5
Mode: 0
LetterboxInBreaks: 0
WidescreenStoryboard: 1

[Editor]
DistanceSpacing: 0.8
BeatDivisor: 2
GridSize: 16
TimelineZoom: 1

[Metadata]
Title:Omoikou
TitleUnicode:思ひ恋ふ
Artist:Uruha Rushia
ArtistUnicode:潤羽るしあ
Creator:fieryrage
Version:easy
Source:
Tags:yearning original song vtuber virtual youtuber hololive idol project ホロライブ 3rd third generation fantasy ホロライブファンタジー japanese pop jpop j-pop wanpachi gorou cycopton birbsmb my angel hooni amateurre akito yuuma ogura yui daycore midorijeon
BeatmapID:3511666
BeatmapSetID:1714807

[Difficulty]
HPDrainRate:3
CircleSize:2
OverallDifficulty:3
ApproachRate:4
SliderMultiplier:1.4
SliderTickRate:1

[Events]
//Background and Video events
Video,0,"i wish you were still here.mp4"
0,0,"those sad stories we still tell each other.jpg",0,0
//Break Periods
2,31639,32835
//Storyboard Layer 0 (Background)
//Storyboard Layer 1 (Fail)
//Storyboard Layer 2 (Pass)
//Storyboard Layer 3 (Foreground)
//Storyboard Layer 4 (Overlay)
//Storyboard Sound Samples

[TimingPoints]
45,697.674418604651,4,2,1,50,1,0
45,-100,4,2,1,50,0,0
742,697.674418604651,4,2,2,50,1,0
742,-100,4,2,2,50,0,0
916,-100,4,2,1,50,0,0
2137,-100,4,2,3,50,0,0
2311,-100,4,2,1,50,0,0
2835,-100,4,2,4,50,0,0
3358,-100,4,2,1,50,0,0
3532,-100,4,2,5,50,0,0
3707,-100,4,2,1,50,0,0
4230,-100,4,2,6,50,0,0
4404,-100,4,2,1,50,0,0
4928,-100,4,2,7,50,0,0
5102,-100,4,2,1,50,0,0
5276,-100,4,2,1,50,0,0
5277,-100,4,2,8,50,0,0
5626,-100,4,2,9,50,0,0
5975,-100,4,2,4,50,0,0
6323,-100,4,2,10,50,0,0
6497,-100,4,2,1,50,0,0
7021,-100,4,2,11,50,0,0
7195,-100,4,2,1,50,0,0
7718,-100,4,2,1,50,0,0
7719,-100,4,2,12,50,0,0
7893,-100,4,2,1,50,0,0
8067,-100,4,2,1,50,0,0
8416,-100,4,2,13,50,0,0
8765,-100,4,2,1,50,0,0
9114,-100,4,2,14,50,0,0
9288,-100,4,2,1,50,0,0
9811,-100,4,2,15,50,0,0
10160,-100,4,2,16,50,0,0
10509,-100,4,2,17,50,0,0
10683,-100,4,2,1,50,0,0
11207,-100,4,2,18,50,0,0
11730,-100,4,2,1,50,0,0
11904,-100,4,2,1,60,0,0
12079,-100,4,2,1,60,0,0
12602,-100,4,2,19,60,0,0
12776,-100,4,2,1,60,0,0
13300,-100,4,2,20,60,0,0
13474,-100,4,2,1,60,0,0
13997,-100,4,2,1,60,0,0
13998,-100,4,2,21,60,0,0
14521,-100,4,2,1,60,0,0
14695,-100,4,2,22,60,0,0
14869,-100,4,2,1,60,0,0
15393,-100,4,2,23,60,0,0
15567,-100,4,2,1,60,0,0
16090,-100,4,2,24,60,0,0
16265,-100,4,2,1,60,0,0
16439,-100,4,2,1,60,0,0
16789,-100,4,2,25,60,0,0
17486,-100,4,2,2,70,0,0
17660,-100,4,2,1,70,0,0
18183,-100,4,2,3,70,0,0
18532,-100,4,2,1,70,0,0
18881,-100,4,2,4,70,0,0
19055,-100,4,2,1,70,0,0
19230,-100,4,2,4,70,0,0
19404,-100,4,2,1,70,0,0
19579,-100,4,2,5,70,0,0
19753,-100,4,2,1,70,0,0
20276,-100,4,2,6,70,0,0
20625,-100,4,2,1,70,0,0
20974,-100,4,2,7,70,0,0
21323,-100,4,2,1,70,0,0
21672,-100,4,2,8,70,0,0
22021,-100,4,2,1,70,0,0
22195,-100,4,2,4,70,0,0
22369,-100,4,2,9,70,0,0
22544,-100,4,2,1,70,0,0
23067,-100,4,2,6,65,0,0
23416,-100,4,2,1,65,0,0
23765,-100,4,2,1,65,0,0
24288,-100,4,2,1,65,0,0
24462,-100,4,2,2,65,0,0
24637,-100,4,2,1,65,0,0
25509,-100,4,2,1,65,0,0
25683,-100,4,2,1,65,0,0
25858,-100,4,2,3,65,0,0
26207,-100,4,2,1,65,0,0
26555,-100,4,2,1,65,0,0
27079,-100,4,2,1,65,0,0
27253,-100,4,2,4,65,0,0
27602,-100,4,2,1,65,0,0
28300,-100,4,2,1,65,0,0
28648,-100,4,2,5,65,0,0
28997,-100,4,2,1,65,0,0
29695,-100,4,2,1,65,0,0
29869,-100,4,2,1,65,0,0
30044,-100,4,2,2,65,0,0
30393,-100,4,2,1,65,0,0
30741,-100,4,2,1,65,0,0
31090,-100,4,2,1,65,0,0
31439,-100,4,2,26,50,0,0
31788,-100,4,2,1,50,0,0
32835,-100,4,2,15,50,0,0
33183,-100,4,2,1,50,0,0
34230,-100,4,2,10,70,0,0
34404,-100,4,2,27,70,0,0
34579,-100,4,2,28,70,0,0
34928,-100,4,2,29,70,0,0
35276,-100,4,2,30,70,0,0
35625,-100,4,2,31,70,0,0
35800,-100,4,2,30,70,0,0
35974,-100,4,2,32,70,0,0
36323,-100,4,2,33,70,0,0
36497,-100,4,2,34,70,0,0
36672,-100,4,2,35,70,0,0
37021,-100,4,2,6,70,0,0
37369,-100,4,2,7,70,0,0
37718,-100,4,2,8,70,0,0
38067,-100,4,2,11,70,0,0
38416,-100,4,2,36,70,0,0
38765,-100,4,2,37,70,0,0
39114,-100,4,2,12,70,0,0
39288,-100,4,2,1,70,0,0
39811,-100,4,2,13,80,0,1
40160,-100,4,2,38,80,0,1
40335,-100,4,2,39,80,0,1
40509,-100,4,2,40,80,0,1
40683,-100,4,2,39,80,0,1
40858,-100,4,2,41,80,0,1
41032,-100,4,2,39,80,0,1
41207,-100,4,2,14,80,0,1
41381,-100,4,2,39,80,0,1
41555,-100,4,2,15,80,0,1
41730,-100,4,2,39,80,0,1
41904,-100,4,2,42,80,0,1
42253,-100,4,2,41,80,0,1
42428,-100,4,2,39,80,0,1
42602,-100,4,2,16,80,0,1
42776,-100,4,2,39,80,0,1
42951,-100,4,2,38,80,0,1
43300,-100,4,2,43,80,0,1
43474,-100,4,2,39,80,0,1
43648,-100,4,2,38,80,0,1
43997,-100,4,2,17,80,0,1
44172,-100,4,2,39,80,0,1
44346,-100,4,2,15,80,0,1
44695,-100,4,2,44,80,0,1
45044,-100,4,2,18,80,0,1
45218,-100,4,2,39,80,0,1
45393,-100,4,2,19,80,0,1
45741,-100,4,2,38,80,0,1
45916,-100,4,2,39,80,0,1
46090,-100,4,2,40,80,0,1
46439,-100,4,2,38,80,0,1
46614,-100,4,2,39,80,0,1
46788,-100,4,2,20,80,0,1
47137,-100,4,2,18,80,0,1
47311,-100,4,2,39,80,0,1
47486,-100,4,2,45,80,0,1
47835,-100,4,2,41,80,0,1
48009,-100,4,2,39,80,0,1
48183,-100,4,2,21,80,0,1
48358,-100,4,2,39,80,0,1
48881,-100,4,2,46,80,0,1
49230,-100,4,2,39,80,0,1
49404,-100,4,2,47,80,0,1
49579,-100,4,2,22,80,0,1
49753,-100,4,2,48,80,0,1
49928,-100,4,2,41,80,0,1
50102,-100,4,2,1,80,0,1
50276,-100,4,2,49,80,0,1
50451,-100,4,2,49,80,0,1
50625,-100,4,2,9,80,0,1
50974,-100,4,2,19,80,0,1
51323,-100,4,2,38,80,0,1
51497,-100,4,2,39,80,0,1
51672,-100,4,2,40,80,0,1
51846,-100,4,2,39,80,0,1
52021,-100,4,2,41,80,0,1
52195,-100,4,2,39,80,0,1
52369,-100,4,2,14,80,0,1
52544,-100,4,2,39,80,0,1
52718,-100,4,2,15,80,0,1
52893,-100,4,2,39,80,0,1
53067,-100,4,2,42,80,0,1
53416,-100,4,2,41,80,0,1
53590,-100,4,2,39,80,0,1
53765,-100,4,2,16,80,0,1
53939,-100,4,2,39,80,0,1
54114,-100,4,2,38,80,0,1
54462,-100,4,2,50,80,0,1
54811,-100,4,2,38,80,0,1
54986,-100,4,2,39,80,0,1
55160,-100,4,2,23,80,0,1
55335,-100,4,2,39,80,0,1
55509,-100,4,2,15,80,0,1
55858,-100,4,2,51,80,0,1
56207,-100,4,2,18,80,0,1
56381,-100,4,2,39,80,0,1
56555,-100,4,2,19,80,0,1
56904,-100,4,2,38,80,0,1
57079,-100,4,2,39,80,0,1
57253,-100,4,2,40,80,0,1
57602,-100,4,2,38,80,0,1
57776,-100,4,2,39,80,0,1
57951,-100,4,2,20,80,0,1
58300,-100,4,2,18,80,0,1
58474,-100,4,2,39,80,0,1
58648,-100,4,2,52,80,0,1
58997,-100,4,2,38,80,0,1
59172,-100,4,2,39,80,0,1
59346,-100,4,2,24,80,0,1
59521,-100,4,2,39,80,0,1
60044,-100,4,2,53,80,0,1
60393,-100,4,2,39,80,0,1
60567,-100,4,2,54,80,0,1
60741,-100,4,2,25,80,0,1
61090,-100,4,2,1,80,0,1
61439,-100,4,2,26,80,0,1
61614,-100,4,2,1,80,0,1
62137,-100,4,2,27,80,0,1
62486,-100,4,2,38,80,0,1
62835,-100,4,2,55,80,0,1
63183,-100,4,2,38,80,0,1
63532,-100,4,2,16,80,0,1
63881,-100,4,2,18,80,0,1
64230,-100,4,2,56,80,0,1
64579,-100,4,2,38,80,0,1
64928,-100,4,2,19,80,0,1
65276,-100,4,2,41,80,0,1
65451,-100,4,2,1,80,0,1
65625,-100,4,2,57,80,0,1
65974,-100,4,2,41,80,0,1
66323,-100,4,2,28,70,0,0
66846,-100,4,2,39,70,0,0
67718,-100,4,2,58,55,0,0
68067,-100,4,2,59,55,0,0
68416,-100,4,2,60,55,0,0
68765,-100,4,2,16,55,0,0
69114,-100,4,2,26,55,0,0
69462,-100,4,2,61,55,0,0
69811,-100,4,2,62,55,0,0
70160,-100,4,2,60,55,0,0
70509,-100,4,2,63,55,0,0
70858,-100,4,2,64,55,0,0
71207,-100,4,2,65,55,0,0
71555,-100,4,2,59,55,0,0
71904,-100,4,2,58,55,0,0
72602,-100,4,2,66,55,0,0
73300,-100,4,2,67,55,0,0
73997,-100,4,2,67,35,0,0
74346,-100,4,2,65,55,0,0
74521,-100,4,2,59,55,0,0
74695,-100,4,2,68,55,0,0
75393,-100,4,2,64,55,0,0
76090,-100,4,2,69,55,0,0
76439,-100,4,2,15,55,0,0
76788,-100,4,2,16,55,0,0
77137,-100,4,2,64,55,0,0
77486,-100,4,2,70,55,0,0
78881,-100,4,2,1,55,0,0
78968,-100,4,2,1,55,0,0
79230,-100,4,2,1,50,0,0
79579,-100,4,2,1,45,0,0
79928,-100,4,2,1,40,0,0
80276,-100,4,2,1,35,0,0
80625,-100,4,2,1,30,0,0
80974,-100,4,2,1,25,0,0
81323,-100,4,2,1,20,0,0
81672,-100,4,2,1,15,0,0
82021,-100,4,2,1,10,0,0
82369,-100,4,2,1,5,0,0
83067,-100,4,2,100,5,0,0

[Colours]
Combo1 : 120,120,120
Combo2 : 23,219,126
Combo3 : 113,208,244
Combo4 : 239,175,129
Combo5 : 235,120,120

[HitObjects]
62,253,742,6,0,P|123:263|184:217,1,140,2|2,2:2|2:2,0:0:0:0:
199,165,1788,1,2,2:2:0:0:
214,111,2137,2,0,P|267:68|334:76,1,140,2|2,2:2|2:2,0:0:0:0:
415,154,3532,1,2,2:2:0:0:
331,228,4230,1,2,2:2:0:0:
426,285,4928,2,0,L|434:375,2,70,2|2|2,2:2|2:2|2:2,0:0:0:0:
331,228,6323,6,0,L|180:217,1,140,2|2,2:2|2:2,0:0:0:0:
85,253,7718,1,2,2:2:0:0:
36,151,8416,2,0,P|32:120|39:75,1,70,2|2,2:2|2:2,0:0:0:0:
72,37,9114,2,0,B|132:67|132:67|214:44,1,140,2|2,2:2|2:2,0:0:0:0:
254,26,10160,1,2,2:2:0:0:
302,54,10509,2,0,P|312:94|310:132,2,70,2|2|2,2:2|2:2|2:2,0:0:0:0:
404,8,11904,6,0,P|476:46|465:115,1,140,10|2,2:1|2:2,0:0:0:0:
450,146,12951,1,2,2:2:0:0:
396,130,13300,2,0,P|324:168|335:237,1,140,2|2,2:2|2:2,0:0:0:0:
402,298,14695,2,0,P|338:326|265:312,1,140,2|2,2:2|2:2,0:0:0:0:
169,266,16090,2,0,L|74:273,1,70,2|0,2:2|0:0,0:0:0:0:
43,278,16788,1,2,2:2:0:0:
54,166,17486,6,0,L|69:9,2,140,14|14|14,2:1|2:1|2:1,0:0:0:0:
43,278,19579,1,14,2:1:0:0:
126,352,20276,2,0,P|184:360|249:317,1,140,14|14,2:1|2:1,0:0:0:0:
276,207,21672,2,0,P|270:174|274:136,1,70,10|8,2:1|2:2,0:0:0:0:
285,83,22369,1,10,2:1:0:0:
363,2,23067,6,0,P|386:40|380:141,1,140,14|12,2:1|2:3,0:0:0:0:
338,235,24462,2,0,L|331:315,1,70,14|6,2:3|2:3,0:0:0:0:
325,360,25160,1,14,2:3:0:0:
213,345,25858,2,0,L|67:331,1,140,14|12,2:3|2:3,0:0:0:0:
4,243,27253,2,0,P|2:200|10:163,1,70,14|6,2:3|2:3,0:0:0:0:
20,119,27951,1,14,2:3:0:0:
127,157,28648,6,0,P|196:157|256:115,1,140,14|14,2:3|2:3,0:0:0:0:
280,69,29695,1,4,2:3:0:0:
302,17,30044,2,0,L|312:194,1,140,14|12,2:3|2:3,0:0:0:0:
316,268,31439,1,2,2:2:0:0:
316,268,34230,6,0,L|411:263,1,70,14|2,2:1|2:2,0:0:0:0:
441,260,34928,1,2,2:2:0:0:
509,171,35625,2,0,P|509:135|494:92,2,70,2|2|2,2:2|2:2|2:2,0:0:0:0:
441,260,37021,2,0,P|431:293|431:328,1,70,14|14,2:3|2:3,0:0:0:0:
393,369,37718,1,14,2:3:0:0:
344,341,38067,2,0,P|280:316|203:337,1,140,14|10,2:1|2:2,0:0:0:0:
171,369,39114,1,14,2:1:0:0:
60,360,39811,6,0,P|44:299|59:215,1,140,14|10,2:1|2:2,0:0:0:0:
87,177,40858,1,2,2:2:0:0:
120,131,41207,2,0,L|124:46,2,70,10|10|10,2:1|2:1|2:2,0:0:0:0:
192,216,42602,6,0,P|260:218|323:170,1,140,10|10,2:1|2:2,0:0:0:0:
341,127,43648,1,2,2:2:0:0:
365,76,43997,2,0,L|452:72,1,70,10|10,2:1|2:1,0:0:0:0:
491,69,44695,1,10,2:2:0:0:
484,180,45393,6,0,L|474:331,1,140,14|10,2:1|2:2,0:0:0:0:
426,347,46439,1,2,2:2:0:0:
379,315,46788,2,0,L|388:175,1,140,10|10,2:1|2:2,0:0:0:0:
318,87,48183,6,0,P|283:75|242:78,1,70,14|2,2:1|2:2,0:0:0:0:
201,103,48881,2,0,P|166:103|133:91,1,70,14|2,2:2|2:2,0:0:0:0:
85,62,49579,2,0,P|29:72|13:153,1,140,10|10,2:1|2:2,0:0:0:0:
42,189,50625,1,10,2:3:0:0:
76,232,50974,6,0,L|67:378,1,140,14|10,2:1|2:2,0:0:0:0:
179,365,52369,2,0,L|260:355,1,70,10|10,2:1|2:1,0:0:0:0:
304,348,53067,1,10,2:2:0:0:
360,251,53765,6,0,P|335:180|344:111,1,140,10|10,2:1|2:2,0:0:0:0:
375,71,54811,1,2,2:2:0:0:
425,95,55160,2,0,P|462:97|499:87,2,70,10|10|10,2:1|2:1|2:2,0:0:0:0:
319,56,56555,6,0,P|282:54|245:64,1,70,14|2,2:1|2:2,0:0:0:0:
204,95,57253,1,10,2:2:0:0:
119,168,57951,2,0,P|85:175|50:173,2,70,10|10|10,2:1|2:1|2:2,0:0:0:0:
167,139,58997,1,2,2:2:0:0:
212,171,59346,6,0,L|224:334,1,140,14|14,2:1|2:2,0:0:0:0:
273,333,60393,1,2,2:2:0:0:
321,304,60741,2,0,L|310:164,1,140,14|14,2:1|2:1,0:0:0:0:
262,62,62137,6,0,P|297:51|342:58,1,70,14|2,2:1|2:2,0:0:0:0:
375,86,62835,2,0,P|409:88|442:77,1,70,10|2,2:2|2:2,0:0:0:0:
480,36,63532,2,0,P|465:97|478:187,1,140,10|10,2:1|2:2,0:0:0:0:
496,224,64579,1,2,2:2:0:0:
467,272,64928,6,0,L|294:263,1,140,10|10,2:1|2:2,0:0:0:0:
271,262,65974,1,10,2:2:0:0:
221,288,66323,1,10,2:1:0:0:
78,115,67718,6,0,B|104:252|104:252|12:363,2,280,2|2|2,2:2|2:2|2:2,0:0:0:0:
278,15,71904,2,0,L|305:161,1,140,2|2,2:2|2:2,0:0:0:0:
203,203,73300,6,0,P|269:259|415:156,1,280,2|2,2:2|2:2,0:0:0:0:
374,66,75393,1,2,2:2:0:0:
303,152,76090,2,0,L|298:261,1,70,2|2,2:2|2:2,0:0:0:0:
259,261,76788,2,0,L|255:330,1,70,2|2,2:2|2:2,0:0:0:0:
213,368,77486,1,2,2:2:0:0:
213,368,78881,6,0,B|204:330|161:304|118:276|73:249|73:249|30:221|22:186|12:151|40:107|76:98|111:90|155:118|155:118|183:74|218:66|253:57|297:85|305:121|314:156|286:199|286:199|259:244|231:287|239:322,1,840,2|0,2:2|0:0,0:0:0:0:
