osu file format v14

[General]
AudioFilename: audio.mp3
AudioLeadIn: 0
PreviewTime: 39768
Countdown: 0
SampleSet: Soft
StackLeniency: 1
Mode: 0
LetterboxInBreaks: 0
WidescreenStoryboard: 1

[Editor]
Bookmarks: 742,11904,17486,23067,31439,34230,39811,50974,62137,67718
DistanceSpacing: 1.5
BeatDivisor: 4
GridSize: 4
TimelineZoom: 1

[Metadata]
Title:Omoikou
TitleUnicode:思ひ恋ふ
Artist:Uruha Rushia
ArtistUnicode:潤羽るしあ
Creator:fieryrage
Version:daycore's hard
Source:
Tags:yearning original song vtuber virtual youtuber hololive idol project ホロライブ 3rd third generation fantasy ホロライブファンタジー japanese pop jpop j-pop wanpachi gorou cycopton birbsmb my angel hooni amateurre akito yuuma ogura yui daycore midorijeon
BeatmapID:3994868
BeatmapSetID:1714807

[Difficulty]
HPDrainRate:4.5
CircleSize:4.7
OverallDifficulty:6
ApproachRate:7.5
SliderMultiplier:2.8
SliderTickRate:1

[Events]
//Background and Video events
Video,0,"i wish you were still here.mp4"
0,0,"those sad stories we still tell each other.jpg",0,0
//Break Periods
//Storyboard Layer 0 (Background)
//Storyboard Layer 1 (Fail)
//Storyboard Layer 2 (Pass)
//Storyboard Layer 3 (Foreground)
//Storyboard Layer 4 (Overlay)
//Storyboard Sound Samples

[TimingPoints]
45,697.674418604651,4,2,1,50,1,0
45,-142.857142857143,4,2,1,50,0,0
742,697.674418604651,4,2,2,50,1,0
742,-142.857142857143,4,2,2,50,0,0
916,-142.857142857143,4,2,1,50,0,0
2137,-142.857142857143,4,2,3,50,0,0
2311,-142.857142857143,4,2,1,50,0,0
2835,-142.857142857143,4,2,4,50,0,0
3358,-142.857142857143,4,2,1,50,0,0
3532,-142.857142857143,4,2,5,50,0,0
3707,-142.857142857143,4,2,1,50,0,0
4230,-142.857142857143,4,2,6,50,0,0
4404,-142.857142857143,4,2,1,50,0,0
4928,-142.857142857143,4,2,7,50,0,0
5102,-142.857142857143,4,2,1,50,0,0
5276,-142.857142857143,4,2,8,50,0,0
5625,-142.857142857143,4,2,9,50,0,0
5974,-142.857142857143,4,2,4,50,0,0
6323,-142.857142857143,4,2,10,50,0,0
6497,-142.857142857143,4,2,1,50,0,0
7021,-142.857142857143,4,2,11,50,0,0
7195,-142.857142857143,4,2,1,50,0,0
7718,-142.857142857143,4,2,12,50,0,0
7893,-142.857142857143,4,2,1,50,0,0
8416,-142.857142857143,4,2,13,50,0,0
8765,-142.857142857143,4,2,1,50,0,0
9114,-142.857142857143,4,2,14,50,0,0
9288,-142.857142857143,4,2,1,50,0,0
9811,-142.857142857143,4,2,15,50,0,0
10160,-142.857142857143,4,2,16,50,0,0
10509,-142.857142857143,4,2,17,50,0,0
10683,-142.857142857143,4,2,1,50,0,0
11207,-142.857142857143,4,2,18,50,0,0
11730,-142.857142857143,4,2,1,50,0,0
11904,-111.111111111111,4,2,1,60,0,0
12602,-111.111111111111,4,2,19,60,0,0
12776,-111.111111111111,4,2,1,60,0,0
13300,-111.111111111111,4,2,20,60,0,0
13474,-111.111111111111,4,2,1,60,0,0
13997,-111.111111111111,4,2,21,60,0,0
14521,-111.111111111111,4,2,1,60,0,0
14695,-111.111111111111,4,2,22,60,0,0
14869,-111.111111111111,4,2,1,60,0,0
15393,-111.111111111111,4,2,23,60,0,0
15567,-111.111111111111,4,2,1,60,0,0
16090,-111.111111111111,4,2,24,60,0,0
16265,-111.111111111111,4,2,1,60,0,0
16788,-111.111111111111,4,2,25,60,0,0
17486,-100,4,2,2,70,0,0
17660,-100,4,2,1,70,0,0
18183,-100,4,2,3,70,0,0
18532,-100,4,2,1,70,0,0
18881,-100,4,2,4,70,0,0
19055,-100,4,2,1,70,0,0
19230,-100,4,2,4,70,0,0
19404,-100,4,2,1,70,0,0
19579,-100,4,2,5,70,0,0
19753,-100,4,2,1,70,0,0
20276,-100,4,2,6,70,0,0
20625,-100,4,2,1,70,0,0
20974,-100,4,2,7,70,0,0
21323,-100,4,2,1,70,0,0
21672,-100,4,2,8,70,0,0
22021,-100,4,2,1,70,0,0
22195,-100,4,2,4,70,0,0
22369,-100,4,2,9,70,0,0
22544,-100,4,2,1,70,0,0
23067,-100,4,2,6,65,0,0
23416,-100,4,2,1,65,0,0
24462,-100,4,2,2,65,0,0
24637,-100,4,2,1,65,0,0
25858,-100,4,2,3,65,0,0
26207,-100,4,2,1,65,0,0
27253,-100,4,2,4,65,0,0
27602,-100,4,2,1,65,0,0
28648,-100,4,2,5,65,0,0
28997,-100,4,2,1,65,0,0
30044,-100,4,2,2,65,0,0
30393,-100,4,2,1,65,0,0
31439,-133.333333333333,4,2,26,50,0,0
31788,-133.333333333333,4,2,1,50,0,0
32835,-133.333333333333,4,2,15,50,0,0
33183,-133.333333333333,4,2,1,50,0,0
34230,-125,4,2,10,70,0,0
34404,-125,4,2,27,70,0,0
34579,-125,4,2,28,70,0,0
34928,-125,4,2,29,70,0,0
35276,-125,4,2,30,70,0,0
35625,-125,4,2,31,70,0,0
35800,-125,4,2,30,70,0,0
35974,-125,4,2,32,70,0,0
36323,-125,4,2,33,70,0,0
36497,-125,4,2,34,70,0,0
36672,-125,4,2,35,70,0,0
37021,-100,4,2,6,70,0,0
37369,-100,4,2,7,70,0,0
37718,-100,4,2,8,70,0,0
38067,-100,4,2,11,70,0,0
38416,-100,4,2,36,70,0,0
38765,-100,4,2,37,70,0,0
39114,-100,4,2,12,70,0,0
39288,-100,4,2,1,70,0,0
39811,-90.9090909090909,4,2,13,80,0,1
40160,-90.9090909090909,4,2,38,80,0,1
40335,-90.9090909090909,4,2,39,80,0,1
40509,-90.9090909090909,4,2,40,80,0,1
40683,-90.9090909090909,4,2,39,80,0,1
40858,-90.9090909090909,4,2,41,80,0,1
41032,-90.9090909090909,4,2,39,80,0,1
41207,-90.9090909090909,4,2,14,80,0,1
41381,-90.9090909090909,4,2,39,80,0,1
41555,-90.9090909090909,4,2,15,80,0,1
41730,-90.9090909090909,4,2,39,80,0,1
41904,-90.9090909090909,4,2,42,80,0,1
42253,-90.9090909090909,4,2,41,80,0,1
42428,-90.9090909090909,4,2,39,80,0,1
42602,-90.9090909090909,4,2,16,80,0,1
42776,-90.9090909090909,4,2,39,80,0,1
42951,-90.9090909090909,4,2,38,80,0,1
43300,-90.9090909090909,4,2,43,80,0,1
43474,-90.9090909090909,4,2,39,80,0,1
43648,-90.9090909090909,4,2,38,80,0,1
43997,-90.9090909090909,4,2,17,80,0,1
44172,-90.9090909090909,4,2,39,80,0,1
44346,-90.9090909090909,4,2,15,80,0,1
44695,-90.9090909090909,4,2,44,80,0,1
45044,-90.9090909090909,4,2,18,80,0,1
45218,-90.9090909090909,4,2,39,80,0,1
45393,-90.9090909090909,4,2,19,80,0,1
45741,-90.9090909090909,4,2,38,80,0,1
45916,-90.9090909090909,4,2,39,80,0,1
46090,-90.9090909090909,4,2,40,80,0,1
46439,-90.9090909090909,4,2,38,80,0,1
46614,-90.9090909090909,4,2,39,80,0,1
46788,-90.9090909090909,4,2,20,80,0,1
47137,-90.9090909090909,4,2,18,80,0,1
47311,-90.9090909090909,4,2,39,80,0,1
47486,-90.9090909090909,4,2,45,80,0,1
47835,-90.9090909090909,4,2,41,80,0,1
48009,-90.9090909090909,4,2,39,80,0,1
48183,-90.9090909090909,4,2,21,80,0,1
48358,-90.9090909090909,4,2,39,80,0,1
48881,-90.9090909090909,4,2,46,80,0,1
49230,-90.9090909090909,4,2,39,80,0,1
49404,-90.9090909090909,4,2,47,80,0,1
49579,-90.9090909090909,4,2,22,80,0,1
49753,-90.9090909090909,4,2,48,80,0,1
49928,-90.9090909090909,4,2,41,80,0,1
50102,-90.9090909090909,4,2,1,80,0,1
50276,-90.9090909090909,4,2,49,80,0,1
50625,-90.9090909090909,4,2,9,80,0,1
50974,-90.9090909090909,4,2,19,80,0,1
51323,-90.9090909090909,4,2,38,80,0,1
51497,-90.9090909090909,4,2,39,80,0,1
51672,-90.9090909090909,4,2,40,80,0,1
51846,-90.9090909090909,4,2,39,80,0,1
52021,-90.9090909090909,4,2,41,80,0,1
52195,-90.9090909090909,4,2,39,80,0,1
52369,-90.9090909090909,4,2,14,80,0,1
52544,-90.9090909090909,4,2,39,80,0,1
52718,-90.9090909090909,4,2,15,80,0,1
52893,-90.9090909090909,4,2,39,80,0,1
53067,-90.9090909090909,4,2,42,80,0,1
53416,-90.9090909090909,4,2,41,80,0,1
53590,-90.9090909090909,4,2,39,80,0,1
53765,-90.9090909090909,4,2,16,80,0,1
53939,-90.9090909090909,4,2,39,80,0,1
54114,-90.9090909090909,4,2,38,80,0,1
54462,-90.9090909090909,4,2,50,80,0,1
54811,-90.9090909090909,4,2,38,80,0,1
54986,-90.9090909090909,4,2,39,80,0,1
55160,-90.9090909090909,4,2,23,80,0,1
55335,-90.9090909090909,4,2,39,80,0,1
55509,-90.9090909090909,4,2,15,80,0,1
55858,-90.9090909090909,4,2,51,80,0,1
56207,-90.9090909090909,4,2,18,80,0,1
56381,-90.9090909090909,4,2,39,80,0,1
56555,-90.9090909090909,4,2,19,80,0,1
56904,-90.9090909090909,4,2,38,80,0,1
57079,-90.9090909090909,4,2,39,80,0,1
57253,-90.9090909090909,4,2,40,80,0,1
57602,-90.9090909090909,4,2,38,80,0,1
57776,-90.9090909090909,4,2,39,80,0,1
57951,-90.9090909090909,4,2,20,80,0,1
58300,-90.9090909090909,4,2,18,80,0,1
58474,-90.9090909090909,4,2,39,80,0,1
58648,-90.9090909090909,4,2,52,80,0,1
58997,-90.9090909090909,4,2,38,80,0,1
59172,-90.9090909090909,4,2,39,80,0,1
59346,-90.9090909090909,4,2,24,80,0,1
59521,-90.9090909090909,4,2,39,80,0,1
60044,-90.9090909090909,4,2,53,80,0,1
60393,-90.9090909090909,4,2,39,80,0,1
60567,-90.9090909090909,4,2,54,80,0,1
60741,-90.9090909090909,4,2,25,80,0,1
61090,-90.9090909090909,4,2,1,80,0,1
61439,-90.9090909090909,4,2,26,80,0,1
61614,-90.9090909090909,4,2,1,80,0,1
62137,-100,4,2,27,80,0,0
62486,-100,4,2,38,80,0,0
62835,-100,4,2,55,80,0,0
63183,-100,4,2,38,80,0,0
63532,-100,4,2,16,80,0,0
63881,-100,4,2,18,80,0,0
64230,-100,4,2,56,80,0,0
64579,-100,4,2,38,80,0,0
64928,-100,4,2,19,80,0,0
65276,-100,4,2,41,80,0,0
65451,-100,4,2,1,80,0,0
65625,-100,4,2,57,80,0,0
65974,-100,4,2,41,80,0,0
66323,-125,4,2,28,70,0,0
66846,-125,4,2,39,70,0,0
67718,-166.666666666667,4,2,58,55,0,0
68241,-166.666666666667,4,2,100,5,0,0
68416,-166.666666666667,4,2,60,55,0,0
68765,-166.666666666667,4,2,16,55,0,0
69114,-166.666666666667,4,2,26,55,0,0
69462,-166.666666666667,4,2,61,55,0,0
69811,-166.666666666667,4,2,62,55,0,0
70160,-166.666666666667,4,2,60,55,0,0
70509,-166.666666666667,4,2,63,55,0,0
70858,-166.666666666667,4,2,64,55,0,0
71207,-166.666666666667,4,2,65,55,0,0
71555,-166.666666666667,4,2,59,55,0,0
71904,-166.666666666667,4,2,58,55,0,0
72602,-166.666666666667,4,2,66,55,0,0
72951,-166.666666666667,4,2,66,35,0,0
73300,-166.666666666667,4,2,67,55,0,0
73648,-166.666666666667,4,2,100,5,0,0
73997,-166.666666666667,4,2,67,35,0,0
74346,-166.666666666667,4,2,65,55,0,0
74521,-166.666666666667,4,2,59,55,0,0
74695,-166.666666666667,4,2,68,55,0,0
75393,-166.666666666667,4,2,64,55,0,0
75916,-166.666666666667,4,2,100,5,0,0
76090,-166.666666666667,4,2,69,55,0,0
76439,-166.666666666667,4,2,15,55,0,0
76788,-166.666666666667,4,2,16,55,0,0
77137,-166.666666666667,4,2,64,55,0,0
77486,-166.666666666667,4,2,70,55,0,0
78183,-166.666666666667,4,2,100,5,0,0
78881,-165,4,2,1,55,0,0
78968,-165,4,2,1,50,0,0
79230,-166.666666666667,4,2,1,45,0,0
79579,-166.666666666667,4,2,1,40,0,0
79928,-166.666666666667,4,2,1,35,0,0
80276,-166.666666666667,4,2,1,30,0,0
80625,-166.666666666667,4,2,1,25,0,0
80974,-166.666666666667,4,2,1,20,0,0
81323,-166.666666666667,4,2,1,15,0,0
81672,-166.666666666667,4,2,1,10,0,0
82021,-166.666666666667,4,2,1,5,0,0
82369,-166.666666666667,4,2,1,5,0,0
83067,-166.666666666667,4,2,100,5,0,0

[Colours]
Combo1 : 120,120,120
Combo2 : 23,219,126
Combo3 : 113,208,244
Combo4 : 239,175,129
Combo5 : 235,120,120

[HitObjects]
425,169,568,5,2,2:2:0:0:
425,169,742,2,0,P|390:174|378:238,1,97.9999970092774,2|2,2:2|2:2,0:0:0:0:
408,319,1439,2,0,P|367:308|299:297,1,97.9999970092774,2|2,2:2|2:2,0:0:0:0:
216,319,2137,2,0,P|184:306|176:277,1,48.9999985046387,2|2,2:2|2:2,0:0:0:0:
202,227,2486,1,2,2:2:0:0:
202,227,2660,2,0,P|182:182|94:209,1,146.999995513916,2|0,2:2|0:0,0:0:0:0:
48,255,3358,5,2,2:2:0:0:
48,255,3532,2,0,P|53:283|58:322,2,48.9999985046387,2|2|2,2:2|2:2|2:2,0:0:0:0:
16,161,4230,2,0,L|43:60,1,97.9999970092774,2|2,2:2|2:2,0:0:0:0:
92,13,4753,1,0,0:0:0:0:
92,13,4928,2,0,P|126:15|139:52,1,48.9999985046387,2|2,2:2|2:2,0:0:0:0:
130,97,5276,5,2,2:2:0:0:
220,61,5625,1,2,2:2:0:0:
249,154,5974,1,2,2:2:0:0:
320,220,6323,6,0,L|375:229,2,48.9999985046387,2|2|2,2:2|2:2|2:2,0:0:0:0:
254,250,6846,1,0,0:0:0:0:
254,250,7021,2,0,L|263:366,1,97.9999970092774,2|2,2:2|2:2,0:0:0:0:
367,376,7718,2,0,P|401:382|412:357,1,48.9999985046387,2|2,2:2|2:2,0:0:0:0:
478,349,8067,2,0,P|481:292|512:237,1,97.9999970092774,0|2,0:0|2:2,0:0:0:0:
499,152,8765,5,2,2:2:0:0:
499,152,8939,2,0,P|488:117|488:85,1,48.9999985046387,2|2,2:2|2:2,0:0:0:0:
512,31,9288,2,0,P|478:-6|416:28,1,97.9999970092774,2|2,2:2|2:2,0:0:0:0:
387,58,9811,2,0,P|358:58|317:50,1,48.9999985046387,2|0,2:2|0:0,0:0:0:0:
289,110,10160,1,2,2:2:0:0:
202,30,10509,6,0,P|171:33|144:79,1,48.9999985046387,2|2,2:2|2:2,0:0:0:0:
80,62,10858,2,0,P|94:105|98:129,1,48.9999985046387,2|0,2:2|0:0,0:0:0:0:
140,178,11207,2,0,B|95:174|50:219|87:228|56:264|21:269,1,146.999995513916,2|2,2:2|2:2,0:0:0:0:
0,336,11904,6,0,P|41:383|113:347,1,125.999996154785,10|2,2:1|2:2,0:0:0:0:
182,312,12602,1,2,2:2:0:0:
182,312,12776,1,2,2:2:0:0:
182,312,12951,2,0,L|260:318,1,62.9999980773926,2|0,2:2|0:0,0:0:0:0:
281,383,13300,2,0,B|278:351|297:307|311:356|332:283|307:248,1,125.999996154785,2|2,2:2|2:2,0:0:0:0:
294,194,13823,2,0,P|293:161|327:131,1,62.9999980773926,2|2,2:2|2:2,0:0:0:0:
425,39,14521,5,2,2:2:0:0:
425,39,14695,2,0,P|436:108|376:133,1,125.999996154785,2|2,2:2|2:2,0:0:0:0:
315,143,15218,1,0,0:0:0:0:
315,143,15393,2,0,P|276:171|261:206,1,62.9999980773926,2|2,2:2|2:2,0:0:0:0:
209,240,15741,2,0,P|182:222|131:232,1,62.9999980773926,2|0,2:2|0:0,0:0:0:0:
96,281,16090,1,2,2:2:0:0:
96,281,16265,1,2,2:2:0:0:
219,367,16788,5,2,2:2:0:0:
299,306,17137,1,0,0:0:0:0:
209,240,17486,2,0,P|186:214|130:226,1,70,14|2,2:1|2:2,0:0:0:0:
71,188,17835,2,0,L|84:264,1,70,2|2,2:2|2:2,0:0:0:0:
20,312,18183,2,0,P|77:363|161:342,1,140,14|2,2:1|2:2,0:0:0:0:
219,331,18707,1,2,2:2:0:0:
219,331,19055,1,2,2:2:0:0:
325,380,19404,5,2,2:2:0:0:
325,380,19579,2,0,P|341:330|381:297,1,70,14|2,2:1|2:2,0:0:0:0:
354,232,19928,2,0,P|390:248|434:262,1,70,2|0,2:2|0:0,0:0:0:0:
488,316,20276,2,0,P|500:201|493:157,1,140,14|2,2:1|2:2,0:0:0:0:
424,130,20800,1,2,2:2:0:0:
424,130,20974,2,0,P|435:86|464:76,1,70,14|0,2:1|0:0,0:0:0:0:
381,22,21323,2,0,L|300:4,1,70,2|2,2:2|2:2,0:0:0:0:
258,80,21672,5,10,2:1:0:0:
169,11,22021,1,8,2:2:0:0:
76,74,22369,1,10,2:1:0:0:
100,154,22544,1,8,2:2:0:0:
28,198,22718,2,0,P|31:237|82:268,1,70,4|0,2:3|0:0,0:0:0:0:
129,287,23067,6,0,P|60:298|31:380,2,140,14|6|12,2:1|2:3|2:3,0:0:0:0:
236,346,24114,1,4,2:3:0:0:
236,346,24288,1,2,2:2:0:0:
236,346,24462,2,0,L|340:359,1,70,14|2,2:3|2:2,0:0:0:0:
346,280,24811,2,0,L|276:271,1,70,6|0,2:3|0:0,0:0:0:0:
230,200,25160,1,14,2:3:0:0:
230,200,25335,2,0,P|270:133|333:146,1,140,2|2,2:2|2:2,0:0:0:0:
382,199,25858,6,0,P|371:100|415:17,2,140,14|6|12,2:3|2:3|2:3,0:0:0:0:
437,308,26904,1,4,2:3:0:0:
437,308,27079,1,2,2:2:0:0:
437,308,27253,2,0,P|398:283|355:295,1,70,14|0,2:3|0:0,0:0:0:0:
308,334,27602,1,6,2:3:0:0:
233,295,27776,1,2,2:2:0:0:
173,355,27951,2,0,L|194:174,1,140,14|4,2:3|2:3,0:0:0:0:
128,121,28648,6,0,P|45:148|56:214,1,140,14|6,2:3|2:3,0:0:0:0:
81,263,29172,1,2,2:2:0:0:
6,296,29346,1,14,2:3:0:0:
6,296,29521,2,0,L|18:368,1,70,2|4,2:2|2:3,0:0:0:0:
92,332,29869,1,2,2:2:0:0:
92,332,30044,2,0,L|80:260,1,70,14|0,2:3|0:0,0:0:0:0:
152,218,30393,2,0,P|206:222|221:317,1,140,6|12,2:3|2:3,0:0:0:0:
321,364,31090,6,0,L|395:355,1,70,6|0,2:3|0:0,0:0:0:0:
473,340,31439,2,0,B|518:225|518:225|436:171|436:171|401:215|401:215|413:277,1,315.000012016297,2|2,2:2|2:2,0:0:0:0:
292,241,32835,2,0,B|285:137|343:176|352:63|352:63|224:78,1,315.000012016297,2|2,2:2|2:2,0:0:0:0:
142,61,34230,5,14,2:1:0:0:
60,43,34404,1,2,2:2:0:0:
82,124,34579,2,0,L|61:221,1,56,2|0,2:2|0:0,0:0:0:0:
0,225,34928,2,0,P|54:261|111:252,1,112,2|2,2:2|2:2,0:0:0:0:
205,224,35625,5,2,2:2:0:0:
264,284,35800,1,2,2:2:0:0:
198,336,35974,2,0,L|328:359,1,112,2|2,2:2|2:2,0:0:0:0:
308,355,36497,1,2,2:2:0:0:
308,355,36672,1,2,2:2:0:0:
447,289,37021,6,0,L|364:259,1,70,14|0,2:3|0:0,0:0:0:0:
335,203,37369,2,0,L|418:173,1,70,14|0,2:3|0:0,0:0:0:0:
446,116,37718,2,0,L|363:86,1,70,14|0,2:3|0:0,0:0:0:0:
403,3,38067,2,0,L|256:58,1,140,14|2,2:1|2:2,0:0:0:0:
120,23,38765,5,10,2:2:0:0:
120,23,38939,1,8,2:2:0:0:
120,23,39114,2,0,L|130:123,1,70,14|8,2:1|2:2,0:0:0:0:
198,135,39462,1,8,2:2:0:0:
72,273,39811,6,0,B|116:260|170:277|135:321|231:324,1,154.000004699707,14|2,2:1|2:2,0:0:0:0:
285,281,40335,1,2,2:2:0:0:
355,324,40509,1,10,2:2:0:0:
428,366,40683,2,0,L|420:256,1,77.0000023498536,2|2,2:2|2:2,0:0:0:0:
452,209,41032,1,2,2:2:0:0:
381,163,41207,2,0,B|354:134|286:154|326:176|246:180|210:132,1,154.000004699707,10|10,2:1|2:1,0:0:0:0:
75,96,41904,6,0,B|36:71|36:71|196:38,1,154.000004699707,10|2,2:2|2:2,0:0:0:0:
225,63,42428,1,2,2:2:0:0:
299,22,42602,2,0,P|310:68|273:131,1,77.0000023498536,10|2,2:1|2:2,0:0:0:0:
250,162,42951,1,2,2:2:0:0:
308,222,43125,1,0,0:0:0:0:
252,286,43300,2,0,L|137:270,1,77.0000023498536,10|2,2:2|2:2,0:0:0:0:
190,358,43648,2,0,L|113:347,1,77.0000023498536,2|0,2:2|0:0,0:0:0:0:
35,380,43997,1,10,2:1:0:0:
6,300,44172,2,0,P|22:222|96:221,1,154.000004699707,2|0,2:2|0:0,0:0:0:0:
162,252,44695,6,0,B|138:154|184:214|184:131|153:72,1,154.000004699707,10|10,2:2|2:1,0:0:0:0:
89,65,45218,1,10,2:2:0:0:
27,125,45393,2,0,P|61:130|118:157,1,77.0000023498536,14|0,2:1|0:0,0:0:0:0:
165,102,45741,2,0,P|199:97|256:70,1,77.0000023498536,2|2,2:2|2:2,0:0:0:0:
296,131,46090,1,10,2:2:0:0:
408,25,46439,5,2,2:2:0:0:
408,25,46614,1,2,2:2:0:0:
448,90,46788,1,10,2:1:0:0:
393,143,46962,1,0,0:0:0:0:
437,206,47137,2,0,L|417:313,1,77.0000023498536,10|2,2:1|2:2,0:0:0:0:
490,318,47486,2,0,B|456:293|379:329|458:320|383:371|312:326,1,154.000004699707,10|2,2:2|2:2,0:0:0:0:
284,294,48009,5,2,2:2:0:0:
218,333,48183,2,0,P|159:323|141:279,1,77.0000023498536,14|2,2:1|2:2,0:0:0:0:
79,281,48532,2,0,P|96:231|97:171,1,77.0000023498536,2|0,2:2|0:0,0:0:0:0:
100,129,48881,2,0,P|23:159|26:236,1,154.000004699707,14|2,2:2|2:2,0:0:0:0:
72,276,49404,2,0,L|48:360,1,77.0000023498536,2|10,2:2|2:1,0:0:0:0:
124,384,49753,1,2,2:2:0:0:
124,384,49928,1,10,2:2:0:0:
177,328,50102,1,8,2:1:0:0:
251,347,50276,1,10,2:2:0:0:
238,273,50451,1,8,2:2:0:0:
288,215,50625,2,0,P|327:171|387:194,1,77.0000023498536,10|0,2:3|0:0,0:0:0:0:
385,232,50974,6,0,B|364:193|397:110|407:187|431:101|403:59,1,154.000004699707,14|2,2:1|2:2,0:0:0:0:
413,10,51497,1,2,2:2:0:0:
489,1,51672,1,10,2:2:0:0:
489,1,51846,2,0,P|498:73|488:131,1,77.0000023498536,2|2,2:2|2:2,0:0:0:0:
475,151,52195,2,0,P|476:189|483:227,1,77.0000023498536,2|10,2:2|2:1,0:0:0:0:
495,303,52544,2,0,P|446:336|413:292,1,77.0000023498536,2|10,2:2|2:1,0:0:0:0:
371,289,52893,1,2,2:2:0:0:
320,347,53067,1,10,2:2:0:0:
34,357,53590,5,2,2:2:0:0:
110,370,53765,2,0,P|147:340|136:290,1,77.0000023498536,10|2,2:1|2:2,0:0:0:0:
108,253,54114,1,2,2:2:0:0:
150,189,54288,1,0,0:0:0:0:
150,189,54375,1,0,0:0:0:0:
150,189,54462,2,0,B|136:84|186:130|162:15,1,154.000004699707,10|2,2:2|2:2,0:0:0:0:
92,13,54986,1,2,2:2:0:0:
15,22,55160,2,0,P|31:76|67:82,1,77.0000023498536,10|2,2:1|2:2,0:0:0:0:
121,90,55509,2,0,P|151:42|187:45,1,77.0000023498536,10|0,2:1|0:0,0:0:0:0:
235,74,55858,1,10,2:2:0:0:
383,34,56207,5,10,2:1:0:0:
355,105,56381,1,10,2:2:0:0:
418,147,56555,2,0,L|522:169,1,77.0000023498536,14|0,2:1|0:0,0:0:0:0:
488,240,56904,2,0,L|412:224,1,77.0000023498536,2|2,2:2|2:2,0:0:0:0:
337,204,57253,2,0,B|297:198|229:231|297:266|200:287,1,154.000004699707,10|2,2:2|2:2,0:0:0:0:
149,244,57776,1,2,2:2:0:0:
84,286,57951,2,0,P|118:342|168:348,1,77.0000023498536,10|0,2:1|0:0,0:0:0:0:
197,373,58300,1,10,2:1:0:0:
270,351,58474,1,2,2:2:0:0:
346,359,58648,2,0,P|429:357|416:273,1,154.000004699707,10|2,2:2|2:2,0:0:0:0:
393,152,59346,6,0,P|389:129|320:126,1,77.0000023498536,14|2,2:1|2:2,0:0:0:0:
289,163,59695,2,0,L|339:6,1,154.000004699707,2|14,2:2|2:2,0:0:0:0:
481,98,60393,1,2,2:2:0:0:
481,98,60567,1,2,2:2:0:0:
491,174,60741,2,0,B|434:191|468:202|414:220,1,77.0000023498536,14|0,2:1|0:0,0:0:0:0:
363,258,61090,1,8,2:2:0:0:
363,258,61265,1,8,2:2:0:0:
337,330,61439,1,14,2:1:0:0:
263,305,61614,1,8,2:2:0:0:
190,278,61788,2,0,B|177:302|177:302|201:367,1,77.0000023498536,8|0,2:2|0:0,0:0:0:0:
124,353,62137,6,0,L|157:161,2,140,14|2|10,2:1|2:2|2:2,0:0:0:0:
63,226,63183,2,0,P|62:178|109:167,1,70,2|0,2:2|0:0,0:0:0:0:
133,126,63532,2,0,P|81:132|39:36,1,140,10|10,2:1|2:1,0:0:0:0:
154,0,64230,2,0,P|168:44|185:84,1,70,10|0,2:2|0:0,0:0:0:0:
243,87,64579,2,0,P|258:118|224:156,1,70,2|0,2:2|0:0,0:0:0:0:
185,188,64928,5,10,2:1:0:0:
300,266,65276,1,10,2:2:0:0:
300,266,65451,1,8,2:1:0:0:
249,314,65625,2,0,L|150:293,1,70,10|0,2:2|0:0,0:0:0:0:
117,331,65974,1,10,2:2:0:0:
57,294,66148,1,8,2:2:0:0:
28,361,66323,1,10,2:1:0:0:
28,361,66846,6,0,L|13:294,2,56,2|2|2,2:2|2:2|2:2,0:0:0:0:
90,230,67544,1,2,2:2:0:0:
90,230,67718,6,0,B|79:158|143:183|121:86,1,125.999996154785,2|0,2:2|0:0,0:0:0:0:
76,61,68416,2,0,P|147:45|163:53,1,83.9999974365235,2|2,2:2|2:2,0:0:0:0:
211,109,69114,1,2,2:2:0:0:
293,94,69462,1,2,2:2:0:0:
360,143,69811,2,0,L|370:32,2,83.9999974365235,2|2|2,2:2|2:2|2:2,0:0:0:0:
321,217,70858,5,2,2:2:0:0:
382,274,71207,1,2,2:2:0:0:
457,237,71555,1,2,2:2:0:0:
442,154,71904,1,2,2:2:0:0:
286,90,72602,1,2,2:2:0:0:
237,158,72951,1,0,0:0:0:0:
166,112,73300,6,0,P|105:116|94:142,1,83.9999974365235,2|0,2:2|0:0,0:0:0:0:
34,186,73997,2,0,P|44:216|45:294,1,83.9999974365235,0|2,0:0|2:2,0:0:0:0:
48,267,74521,1,2,2:2:0:0:
48,267,74695,1,2,2:2:0:0:
199,340,75393,2,0,P|276:310|273:262,1,125.999996154785,2|0,2:2|0:0,0:0:0:0:
248,217,76090,6,0,P|259:173|268:105,1,83.9999974365235,2|2,2:2|2:2,0:0:0:0:
346,112,76788,2,0,P|335:156|326:224,1,83.9999974365235,2|2,2:2|2:2,0:0:0:0:
395,245,77486,2,0,P|462:232|439:154,1,167.999994873047,2|0,2:2|0:0,0:0:0:0:
441,155,78881,6,0,P|405:161|347:164,10,84.8484848484849,2|0|0|0|0|0|0|0|0|0|0,2:2|0:0|0:0|0:0|0:0|0:0|0:0|0:0|0:0|0:0|0:0,0:0:0:0:
