osu file format v14

[General]
AudioFilename: audio.mp3
AudioLeadIn: 0
PreviewTime: 39768
Countdown: 0
SampleSet: Soft
StackLeniency: 0.5
Mode: 0
LetterboxInBreaks: 0
WidescreenStoryboard: 1

[Editor]
Bookmarks: 11904,23067,24637,34230,39811,50974,62137,67718
DistanceSpacing: 1.35
BeatDivisor: 4
GridSize: 4
TimelineZoom: 1

[Metadata]
Title:Omoikou
TitleUnicode:思ひ恋ふ
Artist:Uruha Rushia
ArtistUnicode:潤羽るしあ
Creator:fieryrage
Version:birb's advanced
Source:
Tags:yearning original song vtuber virtual youtuber hololive idol project ホロライブ 3rd third generation fantasy ホロライブファンタジー japanese pop jpop j-pop wanpachi gorou cycopton birbsmb my angel hooni amateurre akito yuuma ogura yui daycore midorijeon
BeatmapID:3539204
BeatmapSetID:1714807

[Difficulty]
HPDrainRate:4.3
CircleSize:4.1
OverallDifficulty:5
ApproachRate:6.3
SliderMultiplier:2.2
SliderTickRate:1

[Events]
//Background and Video events
Video,0,"i wish you were still here.mp4"
0,0,"those sad stories we still tell each other.jpg",0,0
//Break Periods
//Storyboard Layer 0 (Background)
//Storyboard Layer 1 (Fail)
//Storyboard Layer 2 (Pass)
//Storyboard Layer 3 (Foreground)
//Storyboard Layer 4 (Overlay)
//Storyboard Sound Samples

[TimingPoints]
45,697.674418604651,4,2,1,50,1,0
45,-14.367816091954,4,2,1,50,0,0
742,697.674418604651,4,2,2,50,1,0
742,-125,4,2,2,50,0,0
916,-125,4,2,1,50,0,0
2137,-125,4,2,3,50,0,0
2311,-125,4,2,1,50,0,0
2835,-125,4,2,4,50,0,0
3358,-125,4,2,1,50,0,0
3532,-125,4,2,5,50,0,0
3707,-125,4,2,1,50,0,0
4230,-125,4,2,6,50,0,0
4404,-125,4,2,1,50,0,0
4928,-125,4,2,7,50,0,0
5102,-125,4,2,1,50,0,0
5276,-125,4,2,8,50,0,0
5277,-125,4,2,8,50,0,0
5625,-125,4,2,9,50,0,0
5626,-125,4,2,9,50,0,0
5974,-125,4,2,4,50,0,0
5975,-125,4,2,4,50,0,0
6323,-125,4,2,10,50,0,0
6497,-125,4,2,1,50,0,0
7021,-125,4,2,11,50,0,0
7195,-125,4,2,1,50,0,0
7718,-125,4,2,12,50,0,0
7719,-125,4,2,12,50,0,0
7893,-125,4,2,1,50,0,0
8067,-125,4,2,1,50,0,0
8416,-125,4,2,13,50,0,0
8765,-125,4,2,1,50,0,0
9114,-125,4,2,14,50,0,0
9288,-125,4,2,1,50,0,0
9811,-125,4,2,15,50,0,0
10160,-125,4,2,16,50,0,0
10509,-125,4,2,17,50,0,0
10683,-125,4,2,1,50,0,0
11207,-125,4,2,18,50,0,0
11730,-125,4,2,1,50,0,0
11904,-111.111111111111,4,2,1,60,0,0
12079,-111.111111111111,4,2,1,60,0,0
12602,-111.111111111111,4,2,19,60,0,0
12776,-111.111111111111,4,2,1,60,0,0
13300,-111.111111111111,4,2,20,60,0,0
13474,-111.111111111111,4,2,1,60,0,0
13997,-111.111111111111,4,2,21,60,0,0
13998,-111.111111111111,4,2,21,60,0,0
14521,-111.111111111111,4,2,1,60,0,0
14695,-111.111111111111,4,2,22,60,0,0
14869,-111.111111111111,4,2,1,60,0,0
15393,-111.111111111111,4,2,23,60,0,0
15567,-111.111111111111,4,2,1,60,0,0
16090,-111.111111111111,4,2,24,60,0,0
16265,-111.111111111111,4,2,1,60,0,0
16439,-111.111111111111,4,2,1,60,0,0
16788,-111.111111111111,4,2,25,60,0,0
16789,-111.111111111111,4,2,25,60,0,0
17486,-100,4,2,2,70,0,0
17660,-100,4,2,1,70,0,0
18183,-100,4,2,3,70,0,0
18532,-100,4,2,1,70,0,0
18881,-100,4,2,4,70,0,0
19055,-100,4,2,1,70,0,0
19230,-100,4,2,4,70,0,0
19404,-100,4,2,1,70,0,0
19579,-100,4,2,5,70,0,0
19753,-100,4,2,1,70,0,0
20276,-100,4,2,6,70,0,0
20625,-100,4,2,1,70,0,0
20974,-100,4,2,7,70,0,0
21323,-100,4,2,1,70,0,0
21672,-100,4,2,8,70,0,0
22021,-100,4,2,1,70,0,0
22195,-100,4,2,4,70,0,0
22369,-100,4,2,9,70,0,0
22544,-100,4,2,1,70,0,0
23067,-111.111111111111,4,2,6,65,0,0
23416,-111.111111111111,4,2,1,65,0,0
23765,-111.111111111111,4,2,1,65,0,0
24288,-111.111111111111,4,2,1,65,0,0
24462,-111.111111111111,4,2,2,65,0,0
24637,-111.111111111111,4,2,1,65,0,0
25509,-111.111111111111,4,2,1,65,0,0
25683,-111.111111111111,4,2,1,65,0,0
25858,-111.111111111111,4,2,3,65,0,0
26207,-111.111111111111,4,2,1,65,0,0
26555,-111.111111111111,4,2,1,65,0,0
27079,-111.111111111111,4,2,1,65,0,0
27253,-111.111111111111,4,2,4,65,0,0
27602,-111.111111111111,4,2,1,65,0,0
28300,-111.111111111111,4,2,1,65,0,0
28648,-111.111111111111,4,2,5,65,0,0
28997,-111.111111111111,4,2,1,65,0,0
29695,-111.111111111111,4,2,1,65,0,0
29869,-111.111111111111,4,2,1,65,0,0
30044,-111.111111111111,4,2,2,65,0,0
30393,-111.111111111111,4,2,1,65,0,0
30741,-111.111111111111,4,2,1,65,0,0
31090,-111.111111111111,4,2,1,65,0,0
31439,-111.111111111111,4,2,26,50,0,0
31788,-111.111111111111,4,2,1,50,0,0
32835,-111.111111111111,4,2,15,50,0,0
33183,-111.111111111111,4,2,1,50,0,0
34230,-111.111111111111,4,2,10,70,0,0
34404,-111.111111111111,4,2,27,70,0,0
34579,-100,4,2,28,70,0,0
34928,-111.111111111111,4,2,29,70,0,0
35102,-111.111111111111,4,2,28,35,0,0
35276,-111.111111111111,4,2,30,70,0,0
35625,-111.111111111111,4,2,31,70,0,0
35800,-111.111111111111,4,2,30,70,0,0
35974,-111.111111111111,4,2,32,70,0,0
36323,-111.111111111111,4,2,33,70,0,0
36497,-111.111111111111,4,2,34,70,0,0
36672,-111.111111111111,4,2,35,70,0,0
37021,-111.111111111111,4,2,6,70,0,0
37369,-111.111111111111,4,2,7,70,0,0
37718,-111.111111111111,4,2,8,70,0,0
38067,-111.111111111111,4,2,11,70,0,0
38416,-111.111111111111,4,2,36,70,0,0
38765,-111.111111111111,4,2,37,70,0,0
39114,-111.111111111111,4,2,12,70,0,0
39288,-111.111111111111,4,2,1,70,0,0
39811,-100,4,2,13,80,0,1
40160,-100,4,2,38,80,0,1
40335,-100,4,2,39,80,0,1
40509,-100,4,2,40,80,0,1
40683,-100,4,2,39,80,0,1
40858,-100,4,2,41,80,0,1
41032,-100,4,2,39,80,0,1
41207,-100,4,2,14,80,0,1
41381,-100,4,2,39,80,0,1
41555,-100,4,2,15,80,0,1
41730,-100,4,2,39,80,0,1
41904,-100,4,2,42,80,0,1
42253,-100,4,2,41,80,0,1
42428,-100,4,2,39,80,0,1
42602,-100,4,2,16,80,0,1
42776,-100,4,2,39,80,0,1
42951,-100,4,2,38,80,0,1
43300,-100,4,2,43,80,0,1
43474,-100,4,2,39,80,0,1
43648,-100,4,2,38,80,0,1
43997,-100,4,2,17,80,0,1
44172,-100,4,2,39,80,0,1
44346,-100,4,2,15,80,0,1
44695,-100,4,2,44,80,0,1
45044,-100,4,2,18,80,0,1
45218,-100,4,2,39,80,0,1
45393,-100,4,2,19,80,0,1
45741,-100,4,2,38,80,0,1
45916,-100,4,2,39,80,0,1
46090,-100,4,2,40,80,0,1
46439,-100,4,2,38,80,0,1
46614,-100,4,2,39,80,0,1
46788,-100,4,2,20,80,0,1
47137,-100,4,2,18,80,0,1
47311,-100,4,2,39,80,0,1
47486,-100,4,2,45,80,0,1
47835,-100,4,2,41,80,0,1
48009,-100,4,2,39,80,0,1
48183,-100,4,2,21,80,0,1
48358,-100,4,2,39,80,0,1
48881,-100,4,2,46,80,0,1
49230,-100,4,2,39,80,0,1
49404,-100,4,2,47,80,0,1
49579,-100,4,2,22,80,0,1
49753,-100,4,2,48,80,0,1
49928,-100,4,2,41,80,0,1
50102,-100,4,2,1,80,0,1
50276,-100,4,2,49,80,0,1
50451,-100,4,2,49,80,0,1
50625,-100,4,2,9,80,0,1
50974,-100,4,2,19,80,0,1
51323,-100,4,2,38,80,0,1
51497,-100,4,2,39,80,0,1
51672,-100,4,2,40,80,0,1
51846,-100,4,2,39,80,0,1
52021,-100,4,2,41,80,0,1
52195,-100,4,2,39,80,0,1
52369,-100,4,2,14,80,0,1
52544,-100,4,2,39,80,0,1
52718,-100,4,2,15,80,0,1
52893,-100,4,2,39,80,0,1
53067,-100,4,2,42,80,0,1
53416,-100,4,2,41,80,0,1
53590,-100,4,2,39,80,0,1
53765,-100,4,2,16,80,0,1
53939,-100,4,2,39,80,0,1
54114,-100,4,2,38,80,0,1
54462,-100,4,2,50,80,0,1
54811,-100,4,2,38,80,0,1
54986,-100,4,2,39,80,0,1
55160,-100,4,2,23,80,0,1
55335,-100,4,2,39,80,0,1
55509,-100,4,2,15,80,0,1
55858,-100,4,2,51,80,0,1
56207,-100,4,2,18,80,0,1
56381,-100,4,2,39,80,0,1
56555,-100,4,2,19,80,0,1
56904,-100,4,2,38,80,0,1
57079,-100,4,2,39,80,0,1
57253,-100,4,2,40,80,0,1
57602,-100,4,2,38,80,0,1
57776,-100,4,2,39,80,0,1
57951,-100,4,2,20,80,0,1
58300,-100,4,2,18,80,0,1
58474,-100,4,2,39,80,0,1
58648,-100,4,2,52,80,0,1
58997,-100,4,2,38,80,0,1
59172,-100,4,2,39,80,0,1
59346,-100,4,2,24,80,0,1
59521,-100,4,2,39,80,0,1
60044,-100,4,2,53,80,0,1
60393,-100,4,2,39,80,0,1
60567,-100,4,2,54,80,0,1
60741,-100,4,2,25,80,0,1
61090,-100,4,2,1,80,0,1
61439,-100,4,2,26,80,0,1
61614,-100,4,2,1,80,0,1
62137,-100,4,2,27,80,0,1
62486,-100,4,2,38,80,0,1
62835,-100,4,2,55,80,0,1
63183,-100,4,2,38,80,0,1
63532,-100,4,2,16,80,0,1
63881,-100,4,2,18,80,0,1
64230,-100,4,2,56,80,0,1
64579,-100,4,2,38,80,0,1
64928,-100,4,2,19,80,0,1
65276,-100,4,2,41,80,0,1
65451,-100,4,2,1,80,0,1
65625,-100,4,2,57,80,0,1
65974,-100,4,2,41,80,0,1
66323,-100,4,2,28,70,0,0
66846,-133.333333333333,4,2,39,70,0,0
67718,-133.333333333333,4,2,58,55,0,0
68067,-133.333333333333,4,2,59,55,0,0
68416,-133.333333333333,4,2,60,55,0,0
68765,-133.333333333333,4,2,16,55,0,0
69114,-133.333333333333,4,2,26,55,0,0
69462,-133.333333333333,4,2,61,55,0,0
69811,-133.333333333333,4,2,62,55,0,0
70160,-133.333333333333,4,2,60,55,0,0
70509,-133.333333333333,4,2,63,55,0,0
70858,-133.333333333333,4,2,64,55,0,0
71207,-133.333333333333,4,2,65,55,0,0
71555,-133.333333333333,4,2,59,55,0,0
71904,-133.333333333333,4,2,58,55,0,0
72602,-133.333333333333,4,2,66,55,0,0
73300,-133.333333333333,4,2,67,55,0,0
74346,-133.333333333333,4,2,65,55,0,0
74521,-133.333333333333,4,2,59,55,0,0
74695,-133.333333333333,4,2,68,55,0,0
75393,-133.333333333333,4,2,64,55,0,0
76090,-133.333333333333,4,2,69,55,0,0
76439,-133.333333333333,4,2,15,55,0,0
76788,-133.333333333333,4,2,16,55,0,0
77137,-133.333333333333,4,2,64,55,0,0
77486,-133.333333333333,4,2,70,55,0,0
77660,-133.333333333333,4,2,70,55,0,0
78881,-133.333333333333,4,2,1,55,0,0
78968,-133.333333333333,4,2,1,50,0,0
79230,-133.333333333333,4,2,1,45,0,0
79579,-133.333333333333,4,2,1,40,0,0
79928,-133.333333333333,4,2,1,35,0,0
80276,-133.333333333333,4,2,1,30,0,0
80625,-133.333333333333,4,2,1,25,0,0
80974,-133.333333333333,4,2,1,20,0,0
81323,-133.333333333333,4,2,1,15,0,0
81672,-133.333333333333,4,2,1,10,0,0
82021,-133.333333333333,4,2,1,5,0,0
82369,-133.333333333333,4,2,1,5,0,0
83067,-133.333333333333,4,2,100,5,0,0

[Colours]
Combo1 : 120,120,120
Combo2 : 23,219,126
Combo3 : 113,208,244
Combo4 : 239,175,129
Combo5 : 235,120,120

[HitObjects]
145,246,568,5,2,2:2:0:0:
145,246,742,2,0,P|140:203|153:161,2,88,2|2|2,2:2|2:2|2:2,0:0:0:0:
212,373,1788,1,2,2:2:0:0:
340,308,2137,2,0,L|426:293,1,88,2|2,2:2|2:2,0:0:0:0:
497,275,2660,1,2,2:2:0:0:
280,110,3358,5,2,2:2:0:0:
280,110,3532,2,0,P|263:68|275:27,2,88,2|2|2,2:2|2:2|2:2,0:0:0:0:
386,207,4579,1,2,2:2:0:0:
326,337,4928,2,0,L|239:351,1,88,2|2,2:2|2:2,0:0:0:0:
99,332,5625,1,2,2:2:0:0:
181,218,5974,1,2,2:2:0:0:
41,197,6323,6,0,P|27:155|38:113,1,88,2|2,2:2|2:2,0:0:0:0:
87,62,6846,1,0,0:0:0:0:
87,62,7021,2,0,L|173:48,1,88,2|2,2:2|2:2,0:0:0:0:
255,164,7718,2,0,L|341:177,2,88,2|0|2,2:2|0:0|2:2,0:0:0:0:
123,214,8765,2,0,P|113:233|110:255,1,44,2|2,2:2|2:2,0:0:0:0:
141,318,9114,6,0,P|184:315|224:333,1,88,2|0,2:2|0:0,0:0:0:0:
283,384,9637,1,2,2:2:0:0:
283,384,9811,2,0,L|370:370,1,88,2|2,2:2|2:2,0:0:0:0:
493,304,10509,2,0,L|503:238,1,44,2|2,2:2|2:2,0:0:0:0:
511,191,10858,1,2,2:2:0:0:
447,66,11207,2,0,P|383:58|338:103,1,132,2|2,2:2|2:2,0:0:0:0:
319,170,11904,6,0,L|300:285,1,98.9999969787599,10|2,2:1|2:2,0:0:0:0:
176,336,12602,2,0,P|176:360|184:383,2,49.4999984893799,2|2|2,2:2|2:2|2:2,0:0:0:0:
206,273,13125,1,0,0:0:0:0:
206,273,13300,2,0,L|190:175,1,98.9999969787599,2|2,2:2|2:2,0:0:0:0:
133,133,13823,2,0,P|108:128|84:134,1,49.4999984893799,2|2,2:2|2:2,0:0:0:0:
78,352,14521,1,2,2:2:0:0:
78,352,14695,6,0,L|176:336,1,98.9999969787599,2|2,2:2|2:2,0:0:0:0:
254,216,15393,2,0,P|279:211|303:213,1,49.4999984893799,2|2,2:2|2:2,0:0:0:0:
356,260,15741,2,0,P|380:262|404:257,1,49.4999984893799,2|0,2:2|0:0,0:0:0:0:
454,205,16090,1,2,2:2:0:0:
454,205,16265,2,0,B|444:143|444:143|430:124|430:124|421:63,1,148.49999546814,2|2,2:2|2:2,0:0:0:0:
295,0,17137,1,0,0:0:0:0:
232,126,17486,6,0,B|217:171|245:210|253:194|281:233|266:278,1,165,14|2,2:1|2:2,0:0:0:0:
233,342,18183,2,0,L|69:366,1,165,14|2,2:1|2:2,0:0:0:0:
3,336,18881,2,0,P|-23:259|19:192,1,165,14|2,2:1|2:2,0:0:0:0:
92,184,19579,1,14,2:1:0:0:
92,184,19753,2,0,P|117:194|144:194,2,55,2|2|0,2:2|2:2|0:0,0:0:0:0:
129,123,20276,6,0,P|202:153|207:231,1,165,14|2,2:1|2:2,0:0:0:0:
145,267,20974,2,0,B|213:278|213:278|234:293|234:293|302:303,1,165,14|2,2:1|2:2,0:0:0:0:
375,310,21672,1,10,2:1:0:0:
511,268,22021,1,8,2:2:0:0:
469,132,22369,2,0,P|463:105|468:78,2,55,10|8|4,2:1|2:2|2:3,0:0:0:0:
511,268,23067,6,0,P|512:317|483:357,1,98.9999969787599,14|6,2:1|2:3,0:0:0:0:
343,383,23765,2,0,L|245:367,1,98.9999969787599,12|4,2:3|2:3,0:0:0:0:
208,310,24288,1,2,2:2:0:0:
208,310,24462,2,0,P|203:285|206:261,1,49.4999984893799,14|2,2:3|2:2,0:0:0:0:
254,206,24811,2,0,P|257:181|252:157,1,49.4999984893799,6|0,2:3|0:0,0:0:0:0:
219,98,25160,1,14,2:3:0:0:
219,98,25335,2,0,L|121:82,1,98.9999969787599,2|2,2:2|2:2,0:0:0:0:
52,100,25858,6,0,P|20:137|18:186,2,98.9999969787599,14|6|12,2:3|2:3|2:3,0:0:0:0:
260,44,27079,1,2,2:2:0:0:
260,44,27253,2,0,L|357:59,1,98.9999969787599,14|6,2:3|2:3,0:0:0:0:
386,130,27776,1,2,2:2:0:0:
386,130,27951,2,0,L|288:145,1,98.9999969787599,14|4,2:3|2:3,0:0:0:0:
156,200,28648,6,0,P|134:243|139:292,1,98.9999969787599,14|6,2:3|2:3,0:0:0:0:
178,352,29172,1,2,2:2:0:0:
249,335,29346,1,14,2:3:0:0:
249,335,29521,2,0,L|346:319,1,98.9999969787599,2|2,2:2|2:2,0:0:0:0:
374,252,30044,2,0,L|277:236,1,98.9999969787599,14|6,2:3|2:3,0:0:0:0:
131,229,30741,2,0,P|89:202|73:155,1,98.9999969787599,12|6,2:3|2:3,0:0:0:0:
98,15,31439,5,2,2:2:0:0:
216,182,32835,1,2,2:2:0:0:
383,63,34230,6,0,P|406:54|430:55,2,49.4999984893799,14|2|2,2:1|2:2|2:2,0:0:0:0:
424,201,34928,2,0,P|444:214|457:235,2,49.4999984893799,2|2|2,2:2|0:0|2:2,0:0:0:0:
336,315,35625,2,0,P|336:339|328:362,2,49.4999984893799,2|2|2,2:2|2:2|2:2,0:0:0:0:
192,310,36323,2,0,P|172:325|148:331,2,49.4999984893799,2|2|2,2:2|2:2|2:2,0:0:0:0:
268,187,37021,5,14,2:3:0:0:
336,315,37369,1,14,2:3:0:0:
464,247,37718,1,14,2:3:0:0:
396,119,38067,1,14,2:1:0:0:
176,304,38765,5,10,2:2:0:0:
176,304,38939,1,8,2:2:0:0:
103,296,39114,2,0,L|54:303,2,49.4999984893799,14|8|8,2:1|2:2|2:2,0:0:0:0:
222,208,39811,6,0,L|239:100,1,110,14|2,2:1|2:2,0:0:0:0:
223,27,40335,1,2,2:2:0:0:
223,27,40509,1,10,2:2:0:0:
150,42,40683,2,0,P|123:51|96:53,1,55,2|2,2:2|2:2,0:0:0:0:
33,92,41032,2,0,L|40:153,1,55,2|10,2:2|2:1,0:0:0:0:
54,219,41381,2,0,P|135:229|158:245,1,110,2|2,2:2|2:2,0:0:0:0:
215,293,41904,1,10,2:2:0:0:
312,94,42428,1,2,2:2:0:0:
312,93,42602,6,0,P|340:96|367:91,1,55,10|2,2:1|2:2,0:0:0:0:
422,48,42951,1,2,2:2:0:0:
422,48,43125,1,0,0:0:0:0:
483,89,43300,2,0,L|491:143,1,55,10|2,2:2|2:2,0:0:0:0:
456,208,43648,2,0,L|464:262,1,55,2|0,2:2|0:0,0:0:0:0:
423,325,43997,1,10,2:1:0:0:
423,325,44172,2,0,P|344:310|310:238,1,165,2|10,2:2|2:2,0:0:0:0:
262,97,45044,1,10,2:1:0:0:
262,97,45218,1,10,2:2:0:0:
214,39,45393,6,0,P|187:30|160:31,1,55,14|0,2:1|0:0,0:0:0:0:
99,72,45741,2,0,P|90:98|91:125,1,55,2|2,2:2|2:2,0:0:0:0:
108,197,46090,1,10,2:2:0:0:
214,307,46439,1,2,2:2:0:0:
214,307,46614,1,2,2:2:0:0:
166,364,46788,2,0,L|107:373,1,55,10|0,2:1|0:0,0:0:0:0:
44,340,47137,2,0,L|34:281,1,55,10|2,2:1|2:2,0:0:0:0:
25,211,47486,1,10,2:2:0:0:
180,51,48009,1,2,2:2:0:0:
180,51,48183,6,0,L|234:59,1,55,14|2,2:1|2:2,0:0:0:0:
275,121,48532,2,0,L|266:175,1,55,2|0,2:2|0:0,0:0:0:0:
276,248,48881,2,0,P|314:285|368:283,1,110,14|2,2:2|2:2,0:0:0:0:
428,239,49404,2,0,P|423:212|429:185,1,55,2|10,2:2|2:1,0:0:0:0:
483,134,49753,1,2,2:2:0:0:
482,134,49928,2,0,P|489:107|484:80,1,55,10|8,2:2|2:1,0:0:0:0:
446,22,50276,1,10,2:2:0:0:
446,22,50451,2,0,L|391:13,1,55,8|10,2:2|2:3,0:0:0:0:
256,72,50974,6,0,P|243:125|268:173,1,110,14|2,2:1|2:2,0:0:0:0:
329,224,51497,1,2,2:2:0:0:
329,224,51672,1,10,2:2:0:0:
279,285,51846,2,0,L|148:263,1,110,2|2,2:2|2:2,0:0:0:0:
124,208,52369,2,0,L|70:217,1,55,10|2,2:1|2:2,0:0:0:0:
2,181,52718,2,0,P|-10:130|19:86,1,110,10|10,2:1|2:2,0:0:0:0:
229,15,53590,1,2,2:2:0:0:
229,15,53765,6,0,P|256:9|283:15,1,55,10|2,2:1|2:2,0:0:0:0:
333,70,54114,2,0,L|316:178,1,110,2|10,2:2|2:2,0:0:0:0:
303,255,54637,1,0,0:0:0:0:
303,255,54811,2,0,P|309:281|324:304,1,55,2|2,2:2|2:2,0:0:0:0:
393,342,55160,1,10,2:1:0:0:
393,342,55335,2,0,P|469:327|489:244,1,165,2|10,2:2|2:2,0:0:0:0:
488,105,56207,1,10,2:1:0:0:
488,105,56381,1,10,2:2:0:0:
416,122,56555,6,0,L|361:130,1,55,14|0,2:1|0:0,0:0:0:0:
315,72,56904,2,0,L|260:63,1,55,2|2,2:2|2:2,0:0:0:0:
187,48,57253,1,10,2:2:0:0:
44,76,57602,1,2,2:2:0:0:
44,76,57776,1,2,2:2:0:0:
23,146,57951,2,0,P|17:173|20:200,1,55,10|0,2:1|0:0,0:0:0:0:
74,252,58300,2,0,P|100:257|127:254,1,55,10|2,2:1|2:2,0:0:0:0:
185,207,58648,2,0,L|293:190,1,110,10|2,2:2|2:2,0:0:0:0:
438,220,59346,6,0,P|450:245|450:272,1,55,14|2,2:1|2:2,0:0:0:0:
388,314,59695,2,0,P|334:314|294:350,1,110,2|14,2:2|2:2,0:0:0:0:
152,384,60393,1,2,2:2:0:0:
152,384,60567,1,2,2:2:0:0:
78,368,60741,2,0,L|61:259,1,110,14|8,2:1|2:2,0:0:0:0:
18,203,61265,1,8,2:2:0:0:
18,203,61439,2,0,P|4:150|31:104,1,110,14|8,2:1|2:2,0:0:0:0:
166,41,62137,6,0,L|274:23,2,110,14|2|10,2:1|2:2|2:2,0:0:0:0:
82,163,63183,1,2,2:2:0:0:
202,245,63532,2,0,P|257:243|299:209,1,110,10|10,2:1|2:1,0:0:0:0:
353,70,64230,1,10,2:2:0:0:
478,147,64579,2,0,P|488:173|488:200,1,55,2|0,2:2|0:0,0:0:0:0:
461,270,64928,6,0,L|352:287,1,110,10|10,2:1|2:2,0:0:0:0:
282,301,65451,1,8,2:1:0:0:
282,301,65625,1,10,2:2:0:0:
141,253,65974,2,0,P|115:244|87:246,1,55,10|8,2:2|2:2,0:0:0:0:
17,271,66323,1,10,2:1:0:0:
476,287,67718,6,0,B|463:244|489:209|489:209|515:173|501:131,1,165.000006294251,2|2,2:2|2:2,0:0:0:0:
430,9,68765,1,2,2:2:0:0:
359,132,69114,2,0,P|283:160|215:118,1,165.000006294251,2|2,2:2|2:2,0:0:0:0:
141,1,70160,1,2,2:2:0:0:
21,76,70509,2,0,P|1:40|0:0,2,82.5000031471254,2|2|2,2:2|2:2|2:2,0:0:0:0:
97,193,71555,1,2,2:2:0:0:
216,119,71904,6,0,P|290:91|359:132,2,165.000006294251,2|2|2,2:2|2:2|2:2,0:0:0:0:
491,289,74346,2,0,L|481:232,1,41.2500015735627,2|2,2:2|2:2,0:0:0:0:
458,184,74695,2,0,P|390:139|309:140,2,165.000006294251,2|2|2,2:2|2:2|2:2,0:0:0:0:
350,273,76439,1,2,2:2:0:0:
215,241,76788,2,0,L|134:255,1,82.5000031471254,2|2,2:2|2:2,0:0:0:0:
36,352,77486,1,2,2:2:0:0:
290,221,78881,6,0,B|343:197|375:157|375:89|347:57|307:45|267:53|239:105|239:105|211:53|171:45|131:57|103:89|103:157|135:197|189:226|189:226|227:245|235:277|235:277|243:345|163:349|171:265|235:277|235:277|281:285|311:349|400:309,1,990.000037765504,2|0,2:2|0:0,0:0:0:0:
