osu file format v14

[General]
AudioFilename: audio.mp3
AudioLeadIn: 0
PreviewTime: 39768
Countdown: 0
SampleSet: Soft
StackLeniency: 0.5
Mode: 0
LetterboxInBreaks: 0
WidescreenStoryboard: 0

[Editor]
Bookmarks: 11904
DistanceSpacing: 1.4
BeatDivisor: 8
GridSize: 16
TimelineZoom: 1

[Metadata]
Title:Omoikou
TitleUnicode:思ひ恋ふ
Artist:Uruha Rushia
ArtistUnicode:潤羽るしあ
Creator:fieryrage
Version:arigatou
Source:
Tags:yearning original song vtuber virtual youtuber hololive idol project ホロライブ 3rd third generation fantasy ホロライブファンタジー japanese pop jpop j-pop wanpachi gorou cycopton birbsmb my angel hooni amateurre akito yuuma ogura yui daycore midorijeon
BeatmapID:3503817
BeatmapSetID:1714807

[Difficulty]
HPDrainRate:5
CircleSize:4
OverallDifficulty:8.2
ApproachRate:8.8
SliderMultiplier:3.4
SliderTickRate:1

[Events]
//Background and Video events
Video,0,"i wish you were still here.mp4"
0,0,"those sad stories we still tell each other.jpg",0,0
//Break Periods
//Storyboard Layer 0 (Background)
//Storyboard Layer 1 (Fail)
//Storyboard Layer 2 (Pass)
//Storyboard Layer 3 (Foreground)
//Storyboard Layer 4 (Overlay)
//Storyboard Sound Samples

[TimingPoints]
45,697.674418604651,4,2,1,50,1,0
45,-100,4,2,1,50,0,0
742,697.674418604651,4,2,2,50,1,0
742,-166.666666666667,4,2,2,50,0,0
916,-166.666666666667,4,2,1,50,0,0
1352,-166.666666666667,4,2,100,5,0,0
1439,-166.666666666667,4,2,1,50,0,0
2137,-166.666666666667,4,2,3,50,0,0
2311,-166.666666666667,4,2,1,50,0,0
2835,-166.666666666667,4,2,4,50,0,0
3358,-166.666666666667,4,2,1,50,0,0
3532,-166.666666666667,4,2,5,50,0,0
3707,-166.666666666667,4,2,1,50,0,0
4230,-166.666666666667,4,2,6,50,0,0
4404,-166.666666666667,4,2,1,50,0,0
4928,-166.666666666667,4,2,7,50,0,0
5102,-166.666666666667,4,2,1,50,0,0
5276,-166.666666666667,4,2,8,50,0,0
5625,-166.666666666667,4,2,9,50,0,0
5974,-166.666666666667,4,2,4,50,0,0
6323,-166.666666666667,4,2,10,50,0,0
6497,-166.666666666667,4,2,1,50,0,0
7021,-166.666666666667,4,2,11,50,0,0
7195,-166.666666666667,4,2,1,50,0,0
7718,-166.666666666667,4,2,12,50,0,0
7893,-166.666666666667,4,2,1,50,0,0
8241,-166.666666666667,4,2,100,5,0,0
8416,-166.666666666667,4,2,13,50,0,0
8765,-166.666666666667,4,2,1,50,0,0
9114,-166.666666666667,4,2,14,50,0,0
9288,-166.666666666667,4,2,1,50,0,0
9811,-166.666666666667,4,2,15,50,0,0
10160,-166.666666666667,4,2,16,50,0,0
10422,-166.666666666667,4,2,100,5,0,0
10509,-166.666666666667,4,2,17,50,0,0
10683,-166.666666666667,4,2,1,50,0,0
11207,-100,4,2,18,50,0,0
11730,-100,4,2,1,50,0,0
11904,-125,4,2,1,60,0,0
12602,-125,4,2,19,60,0,0
12776,-125,4,2,1,60,0,0
13300,-125,4,2,20,60,0,0
13474,-125,4,2,1,60,0,0
13997,-125,4,2,21,60,0,0
14521,-125,4,2,1,60,0,0
14695,-125,4,2,22,60,0,0
14869,-125,4,2,1,60,0,0
15305,-125,4,2,100,5,0,0
15393,-125,4,2,23,60,0,0
15567,-125,4,2,1,60,0,0
16090,-125,4,2,24,60,0,0
16265,-125,4,2,1,60,0,0
16788,-125,4,2,25,60,0,0
17486,-100,4,2,2,70,0,0
17660,-100,4,2,1,70,0,0
18183,-71.4285714285714,4,2,3,70,0,0
18532,-71.4285714285714,4,2,1,70,0,0
18881,-50,4,2,4,70,0,0
19055,-50,4,2,1,70,0,0
19230,-50,4,2,4,70,0,0
19404,-50,4,2,1,70,0,0
19579,-125,4,2,5,70,0,0
19753,-125,4,2,1,70,0,0
20276,-100,4,2,6,70,0,0
20625,-100,4,2,1,70,0,0
20974,-71.4285714285714,4,2,7,70,0,0
21323,-71.4285714285714,4,2,1,70,0,0
21672,-100,4,2,8,70,0,0
22021,-100,4,2,1,70,0,0
22195,-100,4,2,4,70,0,0
22369,-100,4,2,9,70,0,0
22544,-100,4,2,1,70,0,0
23067,-100,4,2,6,65,0,0
23416,-100,4,2,1,65,0,0
24462,-100,4,2,2,65,0,0
24637,-100,4,2,1,65,0,0
25858,-100,4,2,3,65,0,0
26207,-100,4,2,1,65,0,0
27253,-100,4,2,4,65,0,0
27602,-100,4,2,1,65,0,0
28648,-100,4,2,5,65,0,0
28997,-100,4,2,1,65,0,0
30044,-100,4,2,2,65,0,0
30393,-100,4,2,1,65,0,0
31352,-100,4,2,100,5,0,0
31439,-166.666666666667,4,2,26,50,0,0
31788,-166.666666666667,4,2,1,50,0,0
32835,-166.666666666667,4,2,15,50,0,0
33183,-166.666666666667,4,2,1,50,0,0
34230,-100,4,2,10,70,0,0
34404,-100,4,2,27,70,0,0
34579,-100,4,2,28,70,0,0
34928,-100,4,2,29,70,0,0
35276,-100,4,2,30,70,0,0
35625,-100,4,2,31,70,0,0
35800,-100,4,2,30,70,0,0
35974,-100,4,2,32,70,0,0
36323,-100,4,2,33,70,0,0
36497,-100,4,2,34,70,0,0
36672,-100,4,2,35,70,0,0
37021,-100,4,2,6,70,0,0
37282,-100,4,2,100,5,0,0
37369,-83.3333333333333,4,2,7,70,0,0
37631,-83.3333333333333,4,2,100,5,0,0
37718,-71.4285714285714,4,2,8,70,0,0
37980,-71.4285714285714,4,2,100,5,0,0
38067,-100,4,2,11,70,0,0
38416,-100,4,2,36,70,0,0
38765,-100,4,2,37,70,0,0
39114,-100,4,2,12,70,0,0
39288,-100,4,2,1,70,0,0
39811,-62.5,4,2,13,80,0,1
40073,-62.5,4,2,100,5,0,1
40160,-83.3333333333333,4,2,38,80,0,1
40335,-83.3333333333333,4,2,39,80,0,1
40509,-83.3333333333333,4,2,40,80,0,1
40683,-83.3333333333333,4,2,39,80,0,1
40858,-83.3333333333333,4,2,41,80,0,1
41032,-83.3333333333333,4,2,39,80,0,1
41207,-83.3333333333333,4,2,14,80,0,1
41381,-83.3333333333333,4,2,39,80,0,1
41555,-83.3333333333333,4,2,15,80,0,1
41730,-83.3333333333333,4,2,39,80,0,1
41904,-83.3333333333333,4,2,42,80,0,1
42253,-83.3333333333333,4,2,41,80,0,1
42428,-83.3333333333333,4,2,39,80,0,1
42602,-83.3333333333333,4,2,16,80,0,1
42776,-83.3333333333333,4,2,39,80,0,1
42951,-83.3333333333333,4,2,38,80,0,1
43300,-83.3333333333333,4,2,43,80,0,1
43474,-83.3333333333333,4,2,39,80,0,1
43648,-83.3333333333333,4,2,38,80,0,1
43910,-83.3333333333333,4,2,100,5,0,1
43997,-83.3333333333333,4,2,17,80,0,1
44172,-83.3333333333333,4,2,39,80,0,1
44346,-83.3333333333333,4,2,15,80,0,1
44695,-83.3333333333333,4,2,44,80,0,1
44957,-83.3333333333333,4,2,100,5,0,1
45044,-83.3333333333333,4,2,18,80,0,1
45218,-83.3333333333333,4,2,39,80,0,1
45393,-83.3333333333333,4,2,19,80,0,1
45741,-83.3333333333333,4,2,38,80,0,1
45916,-83.3333333333333,4,2,39,80,0,1
46090,-83.3333333333333,4,2,40,80,0,1
46439,-83.3333333333333,4,2,38,80,0,1
46614,-83.3333333333333,4,2,39,80,0,1
46788,-83.3333333333333,4,2,20,80,0,1
47137,-83.3333333333333,4,2,18,80,0,1
47311,-83.3333333333333,4,2,39,80,0,1
47486,-83.3333333333333,4,2,45,80,0,1
47835,-83.3333333333333,4,2,41,80,0,1
48009,-83.3333333333333,4,2,39,80,0,1
48183,-83.3333333333333,4,2,21,80,0,1
48358,-83.3333333333333,4,2,39,80,0,1
48881,-83.3333333333333,4,2,46,80,0,1
49230,-83.3333333333333,4,2,39,80,0,1
49404,-83.3333333333333,4,2,47,80,0,1
49579,-83.3333333333333,4,2,22,80,0,1
49753,-83.3333333333333,4,2,48,80,0,1
49928,-83.3333333333333,4,2,41,80,0,1
50102,-83.3333333333333,4,2,1,80,0,1
50276,-83.3333333333333,4,2,49,80,0,1
50625,-166.666666666667,4,2,9,80,0,0
50887,-166.666666666667,4,2,100,5,0,0
50974,-83.3333333333333,4,2,19,80,0,1
51323,-83.3333333333333,4,2,38,80,0,1
51497,-83.3333333333333,4,2,39,80,0,1
51672,-83.3333333333333,4,2,40,80,0,1
51846,-83.3333333333333,4,2,39,80,0,1
52021,-83.3333333333333,4,2,41,80,0,1
52195,-83.3333333333333,4,2,39,80,0,1
52369,-83.3333333333333,4,2,14,80,0,1
52544,-83.3333333333333,4,2,39,80,0,1
52718,-83.3333333333333,4,2,15,80,0,1
52893,-83.3333333333333,4,2,39,80,0,1
53067,-83.3333333333333,4,2,42,80,0,1
53416,-83.3333333333333,4,2,41,80,0,1
53590,-83.3333333333333,4,2,39,80,0,1
53765,-83.3333333333333,4,2,16,80,0,1
53939,-83.3333333333333,4,2,39,80,0,1
54114,-83.3333333333333,4,2,38,80,0,1
54462,-83.3333333333333,4,2,50,80,0,1
54811,-83.3333333333333,4,2,38,80,0,1
54986,-83.3333333333333,4,2,39,80,0,1
55160,-83.3333333333333,4,2,23,80,0,1
55335,-83.3333333333333,4,2,39,80,0,1
55509,-83.3333333333333,4,2,15,80,0,1
55771,-83.3333333333333,4,2,100,5,0,1
55858,-83.3333333333333,4,2,51,80,0,1
56207,-83.3333333333333,4,2,18,80,0,1
56381,-83.3333333333333,4,2,39,80,0,1
56555,-83.3333333333333,4,2,19,80,0,1
56904,-83.3333333333333,4,2,38,80,0,1
57079,-83.3333333333333,4,2,39,80,0,1
57253,-83.3333333333333,4,2,40,80,0,1
57602,-83.3333333333333,4,2,38,80,0,1
57776,-83.3333333333333,4,2,39,80,0,1
57951,-83.3333333333333,4,2,20,80,0,1
58300,-83.3333333333333,4,2,18,80,0,1
58474,-83.3333333333333,4,2,39,80,0,1
58648,-83.3333333333333,4,2,52,80,0,1
58910,-83.3333333333333,4,2,100,5,0,1
58997,-83.3333333333333,4,2,38,80,0,1
59172,-83.3333333333333,4,2,39,80,0,1
59346,-83.3333333333333,4,2,24,80,0,1
59521,-83.3333333333333,4,2,39,80,0,1
60044,-83.3333333333333,4,2,53,80,0,1
60393,-83.3333333333333,4,2,39,80,0,1
60567,-83.3333333333333,4,2,54,80,0,1
60741,-83.3333333333333,4,2,25,80,0,1
61003,-83.3333333333333,4,2,100,5,0,1
61090,-83.3333333333333,4,2,1,80,0,1
61439,-83.3333333333333,4,2,26,80,0,1
61614,-83.3333333333333,4,2,1,80,0,1
62137,-100,4,2,27,80,0,1
62486,-100,4,2,38,80,0,1
62835,-100,4,2,55,80,0,1
63183,-83.3333333333333,4,2,38,80,0,1
63445,-83.3333333333333,4,2,100,5,0,1
63532,-83.3333333333333,4,2,16,80,0,1
63881,-83.3333333333333,4,2,18,80,0,1
64230,-83.3333333333333,4,2,56,80,0,1
64579,-83.3333333333333,4,2,38,80,0,1
64928,-83.3333333333333,4,2,19,80,0,1
65189,-83.3333333333333,4,2,100,5,0,1
65276,-83.3333333333333,4,2,41,80,0,1
65451,-83.3333333333333,4,2,1,80,0,1
65625,-83.3333333333333,4,2,57,80,0,1
65974,-83.3333333333333,4,2,41,80,0,1
66323,-83.3333333333333,4,2,28,70,0,0
66846,-125,4,2,39,70,0,0
67718,-250,4,2,58,55,0,0
68067,-250,4,2,59,55,0,0
68416,-250,4,2,60,55,0,0
68765,-250,4,2,16,55,0,0
69114,-250,4,2,26,55,0,0
69462,-250,4,2,61,55,0,0
69811,-250,4,2,62,55,0,0
70160,-250,4,2,60,55,0,0
70509,-250,4,2,63,55,0,0
70858,-250,4,2,64,55,0,0
71207,-250,4,2,65,55,0,0
71555,-250,4,2,59,55,0,0
71904,-166.666666666667,4,2,58,55,0,0
72515,-166.666666666667,4,2,100,5,0,0
72602,-166.666666666667,4,2,66,55,0,0
73212,-166.666666666667,4,2,100,5,0,0
73300,-250.000000000001,4,2,67,55,0,0
74346,-250,4,2,65,55,0,0
74521,-250,4,2,59,55,0,0
74695,-250,4,2,68,55,0,0
75393,-250,4,2,64,55,0,0
76090,-250,4,2,69,55,0,0
76439,-250,4,2,15,55,0,0
76788,-250,4,2,16,55,0,0
77137,-250,4,2,64,55,0,0
77486,-250,4,2,70,55,0,0
78881,-250,4,2,1,55,0,0
78968,-250,4,2,1,50,0,0
79230,-250,4,2,1,45,0,0
79579,-250,4,2,1,40,0,0
79928,-250,4,2,1,35,0,0
80276,-250,4,2,1,30,0,0
80625,-250,4,2,1,25,0,0
80974,-250,4,2,1,20,0,0
81323,-250,4,2,1,15,0,0
81672,-250,4,2,1,10,0,0
82021,-250,4,2,1,5,0,0
83067,-250,4,2,100,5,0,0

[Colours]
Combo1 : 120,120,120
Combo2 : 23,219,126
Combo3 : 113,208,244
Combo4 : 239,175,129
Combo5 : 235,120,120

[HitObjects]
164,92,568,5,2,2:2:0:0:
156,98,742,2,0,P|149:127|150:167,1,50.9999984436036,2|2,2:2|2:2,0:0:0:0:
184,258,1090,2,0,P|150:242|91:242,1,76.4999976654053,2|0,2:2|0:0,0:0:0:0:
86,245,1439,2,0,P|92:271|93:307,2,50.9999984436036,2|2|2,2:2|2:2|2:2,0:0:0:0:
31,156,1962,1,0,0:0:0:0:
184,258,2137,6,0,P|214:258|245:249,1,50.9999984436036,2|2,2:2|2:2,0:0:0:0:
301,168,2486,1,2,2:2:0:0:
301,168,2660,2,0,P|278:227|288:322,1,152.999995330811,2|0,2:2|0:0,0:0:0:0:
363,384,3358,1,2,2:2:0:0:
363,384,3532,6,0,P|388:366|411:356,1,50.9999984436036,2|2,2:2|2:2,0:0:0:0:
465,246,3881,2,0,P|468:276|465:302,1,50.9999984436036,2|0,2:2|0:0,0:0:0:0:
301,168,4230,2,0,P|297:137|301:112,1,50.9999984436036,2|2,2:2|2:2,0:0:0:0:
348,35,4579,1,2,2:2:0:0:
348,35,4753,1,0,0:0:0:0:
201,99,4928,6,0,P|173:100|141:88,1,50.9999984436036,2|2,2:2|2:2,0:0:0:0:
70,14,5276,1,2,2:2:0:0:
49,156,5625,1,2,2:2:0:0:
32,269,5974,1,2,2:2:0:0:
18,359,6323,6,0,L|91:355,1,50.9999984436036,2|2,2:2|2:2,0:0:0:0:
125,276,6672,2,0,L|175:278,1,50.9999984436036,2|0,2:2|0:0,0:0:0:0:
256,370,7021,2,0,L|329:366,1,50.9999984436036,2|2,2:2|2:2,0:0:0:0:
385,246,7369,1,2,2:2:0:0:
385,246,7544,6,0,P|379:279|382:311,1,50.9999984436036,2|2,2:2|2:2,0:0:0:0:
326,162,7893,2,0,P|379:142|429:154,1,101.999996887207,2|0,2:2|0:0,0:0:0:0:
488,211,8416,1,2,2:2:0:0:
392,6,8765,1,2,2:2:0:0:
321,59,8939,6,0,P|292:60|261:51,1,50.9999984436036,2|2,2:2|2:2,0:0:0:0:
162,6,9288,2,0,P|177:30|185:61,1,50.9999984436036,2|0,2:2|0:0,0:0:0:0:
195,169,9637,1,2,2:2:0:0:
195,169,9811,2,0,P|208:144|231:121,1,50.9999984436036,2|0,2:2|0:0,0:0:0:0:
315,9,10160,2,0,P|323:47|319:84,1,76.4999976654053,2|0,2:2|0:0,0:0:0:0:
309,108,10509,5,2,2:2:0:0:
337,187,10683,1,2,2:2:0:0:
394,124,10858,1,2,2:2:0:0:
125,229,11163,5,2,0:0:0:0:
120,225,11207,2,0,P|95:270|209:256,1,255,2|2,2:2|2:2,0:0:0:0:
106,124,11904,5,10,2:1:0:0:
98,116,12079,1,2,2:2:0:0:
168,72,12253,1,2,2:2:0:0:
164,60,12428,1,0,0:0:0:0:
275,99,12602,2,0,P|285:138|283:173,1,68,2|2,2:2|2:2,0:0:0:0:
209,257,12951,2,0,P|199:289|199:323,1,68,2|0,2:2|0:0,0:0:0:0:
180,155,13300,5,2,2:2:0:0:
115,225,13474,1,2,2:2:0:0:
32,178,13648,2,0,P|41:145|41:111,1,68,2|2,2:2|2:2,0:0:0:0:
188,51,13997,2,0,P|118:68|87:21,1,136,2|0,2:2|0:0,0:0:0:0:
275,99,14521,1,2,2:2:0:0:
283,110,14695,6,0,L|370:113,1,68,2|2,2:2|2:2,0:0:0:0:
512,191,15044,2,0,L|386:195,1,102,2|0,2:2|0:0,0:0:0:0:
375,195,15393,2,0,P|365:232|370:268,1,68,2|2,2:2|2:2,0:0:0:0:
289,371,15741,2,0,P|291:337|281:304,1,68,2|0,2:2|0:0,0:0:0:0:
130,188,16090,5,2,2:2:0:0:
192,251,16265,1,2,2:2:0:0:
218,167,16439,1,0,0:0:0:0:
78,349,16788,1,2,2:2:0:0:
367,261,17137,1,0,0:0:0:0:
160,99,17486,6,0,P|72:91|146:180,1,255,14|2,2:1|2:2,0:0:0:0:
262,55,18183,6,0,L|250:292,1,237.999992736817,14|2,2:1|2:2,0:0:0:0:
243,383,18707,1,2,2:2:0:0:
398,189,18881,6,0,B|412:163|409:131|409:131|493:182|448:336|448:336|332:287|348:150,1,510,14|2,2:1|2:2,0:0:0:0:
216,9,19579,5,14,2:1:0:0:
284,104,19753,1,2,2:2:0:0:
298,22,19928,1,2,2:2:0:0:
203,91,20102,1,0,0:0:0:0:
425,33,20276,6,0,B|387:76|387:76|401:220,1,170,14|2,2:1|2:2,0:0:0:0:
411,290,20800,1,2,2:2:0:0:
203,91,20974,6,0,B|239:130|173:157|90:85|173:-4|275:15|295:97|221:134|173:191|189:240|214:277,1,356.999989105225,14|2,2:1|2:2,0:0:0:0:
307,350,21672,5,10,2:1:0:0:
34,173,22021,2,0,L|126:170,1,85,8|2,2:2|2:2,0:0:0:0:
312,104,22369,5,10,2:1:0:0:
81,265,22544,1,8,2:2:0:0:
203,91,22718,1,4,2:3:0:0:
203,91,23067,6,0,P|213:128|210:180,1,85,14|0,2:1|0:0,0:0:0:0:
368,219,23416,2,0,P|330:209|287:180,1,85,6|2,2:3|2:2,0:0:0:0:
174,301,23765,2,0,P|201:273|247:250,1,85,12|0,2:3|0:0,0:0:0:0:
203,91,24114,1,4,2:3:0:0:
211,174,24288,1,2,2:2:0:0:
126,20,24462,5,14,2:3:0:0:
297,99,24637,1,2,2:2:0:0:
116,15,24811,1,6,2:3:0:0:
306,103,24986,1,0,0:0:0:0:
86,148,25160,1,14,2:3:0:0:
74,154,25335,2,0,P|60:197|65:249,1,85,2|4,2:2|2:3,0:0:0:0:
110,357,25683,1,2,2:2:0:0:
294,185,25858,6,0,P|307:144|306:102,1,85,14|0,2:3|0:0,0:0:0:0:
328,265,26207,2,0,P|355:296|393:316,1,85,6|2,2:3|2:2,0:0:0:0:
243,257,26555,2,0,P|201:265|165:287,1,85,12|0,2:3|0:0,0:0:0:0:
110,357,26904,1,4,2:3:0:0:
205,172,27079,1,2,2:2:0:0:
210,159,27253,6,0,P|218:106|120:106,1,170,14|6,2:3|2:3,0:0:0:0:
84,194,27776,1,2,2:2:0:0:
32,28,27951,1,14,2:3:0:0:
243,257,28300,1,4,2:3:0:0:
417,0,28648,6,0,L|411:99,1,85,14|0,2:3|0:0,0:0:0:0:
399,243,28997,1,6,2:3:0:0:
330,105,29172,1,2,2:2:0:0:
477,182,29346,1,14,2:3:0:0:
488,191,29521,2,0,P|501:229|496:281,1,85,2|4,2:2|2:3,0:0:0:0:
436,384,29869,1,2,2:2:0:0:
303,199,30044,6,0,B|218:170|226:231|138:206,1,170,14|6,2:3|2:3,0:0:0:0:
31,66,30567,2,0,L|37:167,1,85,2|12,2:2|2:3,0:0:0:0:
43,253,30916,1,0,0:0:0:0:
161,55,31090,2,0,P|200:40|273:95,1,127.5,6|0,2:3|0:0,0:0:0:0:
278,122,31439,5,2,2:2:0:0:
278,122,32835,5,2,2:2:0:0:
278,122,34230,5,14,2:1:0:0:
137,277,34404,1,2,2:2:0:0:
372,192,34579,1,2,2:2:0:0:
385,188,34928,1,2,2:2:0:0:
398,184,35276,1,2,2:2:0:0:
143,148,35625,5,2,2:2:0:0:
302,327,35800,1,2,2:2:0:0:
370,99,35974,1,2,2:2:0:0:
155,152,36323,5,2,2:2:0:0:
298,313,36497,1,2,2:2:0:0:
360,108,36672,1,2,2:2:0:0:
121,346,37021,6,0,P|125:296|100:222,1,127.5,14|0,2:3|0:0,0:0:0:0:
29,189,37369,6,0,P|85:204|112:117,1,152.999995330811,14|0,2:3|0:0,0:0:0:0:
66,57,37718,6,0,B|108:107|108:107|256:86,1,178.499994552612,14|0,2:3|0:0,0:0:0:0:
413,59,38067,5,14,2:1:0:0:
353,125,38416,1,2,2:2:0:0:
440,140,38765,5,10,2:2:0:0:
237,52,38939,2,0,L|232:143,1,85,8|14,2:2|2:1,0:0:0:0:
456,146,39288,1,8,2:2:0:0:
226,218,39462,2,0,L|221:309,1,85,8|0,2:2|0:0,0:0:0:0:
66,57,39811,6,0,P|22:107|122:127,1,204,14|0,2:1|0:0,0:0:0:0:
138,91,40160,1,2,2:2:0:0:
226,218,40335,1,2,2:2:0:0:
261,0,40509,1,10,2:2:0:0:
349,127,40683,2,0,P|396:135|450:116,1,101.999996887207,2|2,2:2|2:2,0:0:0:0:
226,218,41032,6,0,L|220:319,1,101.999996887207,2|10,2:2|2:1,0:0:0:0:
335,382,41381,2,0,L|340:280,1,101.999996887207,2|10,2:2|2:1,0:0:0:0:
349,127,41730,1,2,2:2:0:0:
220,236,41904,2,0,P|163:238|111:111,1,203.999993774414,10|2,2:2|2:2,0:0:0:0:
192,1,42428,1,2,2:2:0:0:
9,137,42602,5,10,2:1:0:0:
237,93,42776,1,2,2:2:0:0:
79,265,42951,1,2,2:2:0:0:
105,31,43125,1,0,0:0:0:0:
220,236,43300,2,0,P|267:234|316:208,1,101.999996887207,10|2,2:2|2:2,0:0:0:0:
391,0,43648,2,0,P|375:68|388:155,1,152.999995330811,2|0,2:2|0:0,0:0:0:0:
412,193,43997,5,10,2:1:0:0:
237,93,44172,1,2,2:2:0:0:
314,208,44346,2,0,P|327:261|320:309,1,101.999996887207,10|0,2:1|0:0,0:0:0:0:
146,330,44695,2,0,P|129:271|205:234,1,152.999995330811,10|0,2:2|0:0,0:0:0:0:
239,262,45044,1,10,2:1:0:0:
127,140,45218,1,10,2:2:0:0:
236,356,45393,5,14,2:1:0:0:
395,166,45567,1,0,0:0:0:0:
154,226,45741,1,2,2:2:0:0:
384,318,45916,1,2,2:2:0:0:
253,109,46090,1,10,2:2:0:0:
249,96,46439,5,2,2:2:0:0:
393,326,46614,1,2,2:2:0:0:
140,225,46788,1,10,2:1:0:0:
406,159,46962,1,0,0:0:0:0:
231,368,47137,1,10,2:1:0:0:
249,96,47311,1,2,2:2:0:0:
393,326,47486,2,0,P|451:331|498:211,1,203.999993774414,10|2,2:2|2:2,0:0:0:0:
345,88,48009,1,2,2:2:0:0:
422,246,48183,6,0,P|364:241|317:361,1,203.999993774414,14|2,2:1|2:2,0:0:0:0:
203,167,48707,1,0,0:0:0:0:
480,100,48881,2,0,B|366:128|393:64|276:96,1,203.999993774414,14|2,2:2|2:2,0:0:0:0:
194,278,49404,2,0,L|190:156,1,101.999996887207,2|10,2:2|2:1,0:0:0:0:
121,29,49753,1,2,2:2:0:0:
296,197,49928,5,10,2:2:0:0:
87,123,50102,1,8,2:1:0:0:
330,114,50276,5,10,2:2:0:0:
53,217,50451,1,8,2:2:0:0:
232,0,50625,6,0,L|235:81,1,76.4999976654053,10|0,2:3|0:0,0:0:0:0:
236,127,50974,5,14,2:1:0:0:
236,127,51323,1,2,2:2:0:0:
387,183,51497,1,2,2:2:0:0:
175,231,51672,1,10,2:2:0:0:
403,180,51846,2,0,P|393:242|400:289,1,101.999996887207,2|2,2:2|2:2,0:0:0:0:
255,371,52195,6,0,P|206:331|162:313,1,101.999996887207,2|10,2:2|2:1,0:0:0:0:
166,148,52544,2,0,P|224:125|261:96,1,101.999996887207,2|10,2:2|2:1,0:0:0:0:
314,0,52893,1,2,2:2:0:0:
94,82,53067,2,0,P|65:161|141:240,1,203.999993774414,10|2,2:2|2:2,0:0:0:0:
281,228,53590,1,2,2:2:0:0:
92,369,53765,5,10,2:1:0:0:
166,148,53939,1,2,2:2:0:0:
272,358,54114,2,0,P|325:361|377:331,1,101.999996887207,2|0,2:2|0:0,0:0:0:0:
431,115,54462,1,10,2:2:0:0:
476,247,54637,1,0,0:0:0:0:
342,84,54811,1,2,2:2:0:0:
306,276,54986,1,2,2:2:0:0:
253,53,55160,5,10,2:1:0:0:
359,185,55335,1,2,2:2:0:0:
171,96,55509,2,0,P|103:98|76:174,1,152.999995330811,10|0,2:1|0:0,0:0:0:0:
91,217,55858,2,0,L|85:330,1,101.999996887207,10|0,2:2|0:0,0:0:0:0:
250,165,56207,1,10,2:1:0:0:
54,111,56381,1,10,2:2:0:0:
194,289,56555,5,14,2:1:0:0:
167,59,56730,1,0,0:0:0:0:
196,308,56904,1,2,2:2:0:0:
256,90,57079,1,2,2:2:0:0:
285,339,57253,1,10,2:2:0:0:
288,358,57602,5,2,2:2:0:0:
344,82,57776,1,2,2:2:0:0:
415,312,57951,1,10,2:1:0:0:
211,123,58125,1,0,0:0:0:0:
445,177,58300,1,10,2:1:0:0:
181,258,58474,1,2,2:2:0:0:
471,80,58648,2,0,P|446:162|458:239,1,152.999995330811,10|0,2:2|0:0,0:0:0:0:
483,270,58997,1,2,2:2:0:0:
344,82,59172,1,2,2:2:0:0:
240,338,59346,6,0,P|160:356|84:273,1,203.999993774414,14|2,2:1|2:2,0:0:0:0:
125,89,59869,1,0,0:0:0:0:
314,171,60044,2,0,L|320:279,1,101.999996887207,14|0,2:2|0:0,0:0:0:0:
426,66,60393,1,2,2:2:0:0:
210,153,60567,1,2,2:2:0:0:
460,346,60741,6,0,L|468:193,1,152.999995330811,14|0,2:1|0:0,0:0:0:0:
472,141,61090,1,8,2:2:0:0:
319,272,61265,1,8,2:2:0:0:
234,32,61439,5,14,2:1:0:0:
465,246,61614,1,8,2:2:0:0:
143,288,61788,1,8,2:2:0:0:
143,288,62137,6,0,P|102:275|43:279,1,85,14|0,2:1|0:0,0:0:0:0:
215,201,62486,2,0,P|246:171|272:118,1,85,2|0,2:2|0:0,0:0:0:0:
251,306,62835,2,0,P|260:348|293:397,1,85,10|0,2:2|0:0,0:0:0:0:
158,101,63183,2,0,P|148:143|40:154,1,152.999995330811,2|0,2:2|0:0,0:0:0:0:
23,123,63532,6,0,L|17:16,1,101.999996887207,10|0,2:1|0:0,0:0:0:0:
137,186,63881,2,0,L|142:287,1,101.999996887207,10|0,2:1|0:0,0:0:0:0:
267,135,64230,2,0,L|272:33,1,101.999996887207,10|0,2:2|0:0,0:0:0:0:
334,181,64579,1,2,2:2:0:0:
189,122,64753,1,0,0:0:0:0:
468,36,64928,6,0,P|451:69|443:187,1,152.999995330811,10|0,2:1|0:0,0:0:0:0:
466,227,65276,1,10,2:2:0:0:
362,95,65451,1,8,2:1:0:0:
304,331,65625,2,0,P|257:354|201:343,1,101.999996887207,10|0,2:2|0:0,0:0:0:0:
82,61,65974,5,10,2:2:0:0:
246,257,66148,1,8,2:2:0:0:
324,12,66323,1,10,2:1:0:0:
324,12,66846,5,2,2:2:0:0:
254,52,67021,1,2,2:2:0:0:
325,89,67195,2,0,P|342:147|334:237,1,136,2|2,2:2|2:2,0:0:0:0:
304,331,67718,5,2,2:2:0:0:
306,341,68067,2,0,P|338:350|383:346,2,68,2|2|2,2:2|2:2|2:2,0:0:0:0:
215,237,69114,1,2,2:2:0:0:
213,227,69462,2,0,P|181:218|136:222,2,68,2|2|2,2:2|2:2|2:2,0:0:0:0:
362,164,70509,5,2,2:2:0:0:
398,253,70858,1,2,2:2:0:0:
459,179,71207,1,2,2:2:0:0:
307,246,71555,1,2,2:2:0:0:
189,50,71904,6,0,P|134:53|101:159,1,178.499994552612,2|0,2:2|0:0,0:0:0:0:
122,178,72602,2,0,B|156:203|156:203|144:346,1,178.499994552612,2|0,2:2|0:0,0:0:0:0:
142,370,73300,5,2,2:2:0:0:
142,370,74346,6,0,L|177:368,1,34,2|2,2:2|2:2,0:0:0:0:
307,355,74695,2,0,P|271:331|281:239,1,136,2|2,2:2|2:2,0:0:0:0:
273,246,76090,5,2,2:2:0:0:
351,220,76439,1,2,2:2:0:0:
384,110,76788,1,2,2:2:0:0:
313,17,77137,1,2,2:2:0:0:
121,214,77486,5,2,2:2:0:0:
121,214,78881,6,0,B|101:226|83:231|67:229|53:218|40:199|36:174|47:159|66:145|66:145|44:125|41:100|48:59|48:59|89:58|122:105|136:125|136:125|153:120|167:130|167:130|187:117|234:84|273:99|273:99|266:139|253:162|226:174|226:174|239:193|245:210|232:233|214:246|196:252|180:248|166:237|152:219|152:219|148:243|130:248|130:248|116:237|121:214,1,816,2|0,2:2|0:0,0:0:0:0:
