osu file format v14

[General]
AudioFilename: audio.mp3
AudioLeadIn: 0
PreviewTime: 39768
Countdown: 0
SampleSet: Soft
StackLeniency: 0.5
Mode: 0
LetterboxInBreaks: 0
WidescreenStoryboard: 1

[Editor]
DistanceSpacing: 1
BeatDivisor: 4
GridSize: 16
TimelineZoom: 1

[Metadata]
Title:Omoikou
TitleUnicode:思ひ恋ふ
Artist:Uruha Rushia
ArtistUnicode:潤羽るしあ
Creator:fieryrage
Version:amakito's tragic love insane
Source:
Tags:yearning original song vtuber virtual youtuber hololive idol project ホロライブ 3rd third generation fantasy ホロライブファンタジー japanese pop jpop j-pop wanpachi gorou cycopton birbsmb my angel hooni amateurre akito yuuma ogura yui daycore midorijeon
BeatmapID:3525002
BeatmapSetID:1714807

[Difficulty]
HPDrainRate:5
CircleSize:4
OverallDifficulty:8
ApproachRate:8.5
SliderMultiplier:3.4
SliderTickRate:1

[Events]
//Background and Video events
Video,0,"i wish you were still here.mp4"
0,0,"those sad stories we still tell each other.jpg",0,0
//Break Periods
2,34430,36346
//Storyboard Layer 0 (Background)
//Storyboard Layer 1 (Fail)
//Storyboard Layer 2 (Pass)
//Storyboard Layer 3 (Foreground)
//Storyboard Layer 4 (Overlay)
//Storyboard Sound Samples

[TimingPoints]
45,697.674418604651,4,2,1,50,1,0
742,697.674418604651,4,2,2,50,1,0
742,-111.111111111111,4,2,2,50,0,0
916,-111.111111111111,4,2,1,50,0,0
2137,-111.111111111111,4,2,3,50,0,0
2311,-111.111111111111,4,2,1,50,0,0
2835,-111.111111111111,4,2,4,50,0,0
3009,-111.111111111111,4,2,100,5,0,0
3358,-111.111111111111,4,2,1,50,0,0
3532,-111.111111111111,4,2,5,50,0,0
3707,-111.111111111111,4,2,1,50,0,0
4230,-111.111111111111,4,2,6,50,0,0
4404,-111.111111111111,4,2,1,50,0,0
4928,-111.111111111111,4,2,7,50,0,0
5102,-111.111111111111,4,2,1,50,0,0
5277,-111.111111111111,4,2,8,50,0,0
5451,-111.111111111111,4,2,100,5,0,0
5626,-111.111111111111,4,2,9,50,0,0
5975,-111.111111111111,4,2,4,50,0,0
6323,-111.111111111111,4,2,10,50,0,0
6497,-111.111111111111,4,2,1,50,0,0
7021,-111.111111111111,4,2,11,50,0,0
7195,-111.111111111111,4,2,1,50,0,0
7719,-111.111111111111,4,2,12,50,0,0
7893,-111.111111111111,4,2,1,50,0,0
8416,-111.111111111111,4,2,13,50,0,0
8765,-111.111111111111,4,2,1,50,0,0
9114,-111.111111111111,4,2,14,50,0,0
9288,-111.111111111111,4,2,1,50,0,0
9811,-111.111111111111,4,2,15,50,0,0
10160,-111.111111111111,4,2,16,50,0,0
10509,-111.111111111111,4,2,17,50,0,0
10683,-111.111111111111,4,2,1,50,0,0
11207,-111.111111111111,4,2,18,50,0,0
11730,-111.111111111111,4,2,1,50,0,0
11904,-111.111111111111,4,2,1,60,0,0
12079,-111.111111111111,4,2,1,60,0,0
12602,-111.111111111111,4,2,19,60,0,0
12776,-111.111111111111,4,2,1,60,0,0
13300,-111.111111111111,4,2,20,60,0,0
13474,-111.111111111111,4,2,1,60,0,0
13998,-111.111111111111,4,2,21,60,0,0
14521,-111.111111111111,4,2,1,60,0,0
14695,-111.111111111111,4,2,22,60,0,0
14869,-111.111111111111,4,2,1,60,0,0
15393,-111.111111111111,4,2,23,60,0,0
15567,-111.111111111111,4,2,1,60,0,0
16090,-111.111111111111,4,2,24,60,0,0
16265,-111.111111111111,4,2,1,60,0,0
16789,-111.111111111111,4,2,25,60,0,0
17486,-111.111111111111,4,2,2,70,0,0
17660,-111.111111111111,4,2,1,70,0,0
18183,-111.111111111111,4,2,3,70,0,0
18532,-111.111111111111,4,2,1,70,0,0
18881,-111.111111111111,4,2,4,70,0,0
19055,-111.111111111111,4,2,1,70,0,0
19230,-111.111111111111,4,2,4,70,0,0
19404,-111.111111111111,4,2,1,70,0,0
19579,-111.111111111111,4,2,5,70,0,0
19753,-111.111111111111,4,2,1,70,0,0
20276,-111.111111111111,4,2,6,70,0,0
20625,-111.111111111111,4,2,1,70,0,0
20974,-111.111111111111,4,2,7,70,0,0
21323,-111.111111111111,4,2,1,70,0,0
21672,-111.111111111111,4,2,8,70,0,0
22021,-111.111111111111,4,2,1,70,0,0
22195,-111.111111111111,4,2,4,70,0,0
22369,-111.111111111111,4,2,9,70,0,0
22544,-111.111111111111,4,2,1,70,0,0
23067,-111.111111111111,4,2,6,65,0,0
23416,-111.111111111111,4,2,1,65,0,0
24462,-111.111111111111,4,2,2,65,0,0
24637,-111.111111111111,4,2,1,65,0,0
25858,-111.111111111111,4,2,3,65,0,0
26207,-111.111111111111,4,2,1,65,0,0
27253,-111.111111111111,4,2,4,65,0,0
27602,-111.111111111111,4,2,1,65,0,0
28648,-111.111111111111,4,2,5,65,0,0
28997,-111.111111111111,4,2,1,65,0,0
30044,-111.111111111111,4,2,2,65,0,0
30393,-111.111111111111,4,2,1,65,0,0
31439,-111.111111111111,4,2,26,50,0,0
31788,-111.111111111111,4,2,1,50,0,0
32835,-111.111111111111,4,2,15,50,0,0
33183,-111.111111111111,4,2,1,50,0,0
34230,-111.111111111111,4,2,10,70,0,0
34404,-111.111111111111,4,2,27,70,0,0
34579,-111.111111111111,4,2,28,70,0,0
34928,-111.111111111111,4,2,29,70,0,0
35276,-111.111111111111,4,2,30,70,0,0
35625,-111.111111111111,4,2,31,70,0,0
35800,-111.111111111111,4,2,30,70,0,0
35974,-111.111111111111,4,2,32,70,0,0
36323,-111.111111111111,4,2,33,70,0,0
36497,-111.111111111111,4,2,34,70,0,0
36672,-111.111111111111,4,2,35,70,0,0
37021,-111.111111111111,4,2,6,70,0,0
37369,-111.111111111111,4,2,7,70,0,0
37718,-111.111111111111,4,2,8,70,0,0
38067,-200,4,2,11,70,0,0
38416,-200,4,2,36,70,0,0
38765,-200,4,2,37,70,0,0
39114,-200,4,2,12,70,0,0
39288,-200,4,2,1,70,0,0
39462,-111.111111111111,4,2,1,70,0,0
39811,-83.3333333333333,4,2,13,80,0,0
40160,-83.3333333333333,4,2,38,80,0,0
40335,-83.3333333333333,4,2,39,80,0,0
40509,-83.3333333333333,4,2,40,80,0,0
40683,-83.3333333333333,4,2,39,80,0,0
40858,-83.3333333333333,4,2,41,80,0,0
41032,-100,4,2,39,80,0,0
41207,-100,4,2,14,80,0,0
41381,-100,4,2,39,80,0,0
41555,-100,4,2,15,80,0,0
41730,-100,4,2,39,80,0,0
41904,-100,4,2,42,80,0,0
42253,-100,4,2,41,80,0,0
42428,-100,4,2,39,80,0,0
42602,-100,4,2,16,80,0,0
42776,-100,4,2,39,80,0,0
42951,-100,4,2,38,80,0,0
43300,-100,4,2,43,80,0,0
43474,-100,4,2,39,80,0,0
43648,-100,4,2,38,80,0,0
43997,-100,4,2,17,80,0,0
44172,-100,4,2,39,80,0,0
44346,-100,4,2,15,80,0,0
44695,-100,4,2,44,80,0,0
45044,-100,4,2,18,80,0,0
45218,-100,4,2,39,80,0,0
45393,-100,4,2,19,80,0,0
45741,-100,4,2,38,80,0,0
45916,-100,4,2,39,80,0,0
46090,-100,4,2,40,80,0,0
46439,-100,4,2,38,80,0,0
46614,-100,4,2,39,80,0,0
46788,-100,4,2,20,80,0,0
47137,-100,4,2,18,80,0,0
47311,-100,4,2,39,80,0,0
47486,-100,4,2,45,80,0,0
47835,-100,4,2,41,80,0,0
48009,-100,4,2,39,80,0,0
48183,-100,4,2,21,80,0,0
48358,-100,4,2,39,80,0,0
48881,-100,4,2,46,80,0,0
49230,-100,4,2,39,80,0,0
49404,-100,4,2,47,80,0,0
49579,-100,4,2,22,80,0,0
49753,-100,4,2,48,80,0,0
49928,-100,4,2,41,80,0,0
50102,-100,4,2,1,80,0,0
50276,-100,4,2,49,80,0,0
50625,-100,4,2,9,80,0,0
50974,-100,4,2,19,80,0,0
51323,-100,4,2,38,80,0,0
51497,-100,4,2,39,80,0,0
51672,-100,4,2,40,80,0,0
51846,-100,4,2,39,80,0,0
52021,-100,4,2,41,80,0,0
52195,-100,4,2,39,80,0,0
52369,-100,4,2,14,80,0,0
52544,-100,4,2,39,80,0,0
52718,-100,4,2,15,80,0,0
52893,-100,4,2,39,80,0,0
53067,-100,4,2,42,80,0,0
53416,-100,4,2,41,80,0,0
53590,-100,4,2,39,80,0,0
53765,-100,4,2,16,80,0,0
53939,-100,4,2,39,80,0,0
54114,-100,4,2,38,80,0,0
54462,-100,4,2,50,80,0,0
54811,-100,4,2,38,80,0,0
54986,-100,4,2,39,80,0,0
55160,-100,4,2,23,80,0,0
55335,-100,4,2,39,80,0,0
55509,-100,4,2,15,80,0,0
55858,-100,4,2,51,80,0,0
56207,-100,4,2,18,80,0,0
56381,-100,4,2,39,80,0,0
56555,-100,4,2,19,80,0,0
56904,-100,4,2,38,80,0,0
57079,-100,4,2,39,80,0,0
57253,-100,4,2,40,80,0,0
57602,-100,4,2,38,80,0,0
57776,-100,4,2,39,80,0,0
57951,-100,4,2,20,80,0,0
58300,-100,4,2,18,80,0,0
58474,-100,4,2,39,80,0,0
58648,-100,4,2,52,80,0,0
58997,-100,4,2,38,80,0,0
59172,-100,4,2,39,80,0,0
59346,-100,4,2,24,80,0,0
59521,-100,4,2,39,80,0,0
60044,-100,4,2,53,80,0,0
60393,-100,4,2,39,80,0,0
60567,-100,4,2,54,80,0,0
60741,-100,4,2,25,80,0,0
61090,-100,4,2,1,80,0,0
61439,-100,4,2,26,80,0,0
61614,-100,4,2,1,80,0,0
62137,-100,4,2,27,80,0,0
62486,-100,4,2,38,80,0,0
62835,-100,4,2,55,80,0,0
63183,-100,4,2,38,80,0,0
63532,-100,4,2,16,80,0,0
63881,-100,4,2,18,80,0,0
64230,-100,4,2,56,80,0,0
64579,-100,4,2,38,80,0,0
64928,-100,4,2,19,80,0,0
65276,-100,4,2,41,80,0,0
65451,-100,4,2,1,80,0,0
65625,-100,4,2,57,80,0,0
65974,-100,4,2,41,80,0,0
66323,-100,4,2,28,70,0,0
66846,-100,4,2,39,70,0,0
67718,-250,4,2,58,55,0,0
68067,-250,4,2,59,55,0,0
68416,-250,4,2,60,55,0,0
68765,-250,4,2,16,55,0,0
69114,-250,4,2,26,55,0,0
69462,-250,4,2,61,55,0,0
69811,-250,4,2,62,55,0,0
70160,-250,4,2,60,55,0,0
70509,-250,4,2,63,55,0,0
70858,-250,4,2,64,55,0,0
71207,-250,4,2,65,55,0,0
71555,-250,4,2,59,55,0,0
71904,-250,4,2,58,55,0,0
72602,-250,4,2,66,55,0,0
73300,-250,4,2,67,55,0,0
74346,-250,4,2,65,55,0,0
74521,-250,4,2,59,55,0,0
74695,-250,4,2,68,55,0,0
75393,-250,4,2,64,55,0,0
76090,-250,4,2,69,55,0,0
76439,-250,4,2,15,55,0,0
76788,-250,4,2,16,55,0,0
77137,-250,4,2,64,55,0,0
77486,-250,4,2,70,55,0,0
77660,-250,4,2,100,5,0,0
78881,-250,4,2,1,55,0,0
79230,-250,4,2,1,55,0,0
79579,-250,4,2,1,55,0,0
79928,-250,4,2,1,55,0,0
80276,-250,4,2,1,55,0,0
80625,-250,4,2,1,55,0,0
80974,-250,4,2,1,55,0,0
81323,-250,4,2,1,55,0,0
81672,-250,4,2,1,55,0,0
82021,-250,4,2,1,55,0,0
82369,-250,4,2,1,55,0,0

[Colours]
Combo1 : 248,118,157
Combo2 : 202,202,202

[HitObjects]
57,231,742,6,0,P|133:248|207:269,1,152.999995330811,2|2,2:2|2:2,0:0:0:0:
284,220,1265,1,0,0:0:0:0:
349,289,1439,2,0,P|340:327|332:365,1,76.4999976654053,2|2,2:2|2:2,0:0:0:0:
448,288,1788,2,0,P|443:250|406:211,1,76.4999976654053,2|0,2:2|0:0,0:0:0:0:
451,62,2137,6,0,P|409:123|329:118,1,152.999995330811,2|2,2:2|2:2,0:0:0:0:
222,9,2660,2,0,P|235:94|245:181,1,152.999995330811,2|0,2:2|0:0,0:0:0:0:
10,258,3358,5,2,2:2:0:0:
86,222,3532,1,2,2:2:0:0:
118,301,3707,1,2,2:2:0:0:
39,336,3881,1,2,2:2:0:0:
199,376,4055,1,0,0:0:0:0:
199,376,4230,2,0,P|207:340|221:292,1,76.4999976654053,2|2,2:2|2:2,0:0:0:0:
389,256,4579,2,0,P|348:248|300:234,1,76.4999976654053,2|0,2:2|0:0,0:0:0:0:
266,162,4928,1,2,2:2:0:0:
394,61,5102,2,0,P|459:122|440:200,1,152.999995330811,2|0,2:2|0:0,0:0:0:0:
32,36,6323,6,0,P|41:79|49:136,1,76.4999976654053,2|2,2:2|2:2,0:0:0:0:
118,179,6672,2,0,P|111:216|103:254,1,76.4999976654053,2|0,2:2|0:0,0:0:0:0:
189,112,7021,2,0,B|285:94|240:148|347:125,1,152.999995330811,2|2,2:2|2:2,0:0:0:0:
424,10,7544,2,0,P|388:22|343:35,1,76.4999976654053,2|2,2:2|2:2,0:0:0:0:
486,84,7893,1,2,2:2:0:0:
366,364,8765,5,2,2:2:0:0:
442,317,8939,2,0,P|449:279|461:226,1,76.4999976654053,2|2,2:2|2:2,0:0:0:0:
342,84,9288,2,0,P|313:113|316:166,1,76.4999976654053,2|0,2:2|0:0,0:0:0:0:
366,221,9637,1,2,2:2:0:0:
214,289,9811,2,0,P|209:257|197:192,1,76.4999976654053,2|0,2:2|0:0,0:0:0:0:
72,376,10160,2,0,P|104:371|169:359,1,76.4999976654053,2|0,2:2|0:0,0:0:0:0:
85,172,10509,1,2,2:2:0:0:
13,217,10683,1,2,2:2:0:0:
87,257,10858,1,2,2:2:0:0:
434,59,11904,6,0,P|448:112|454:132,1,76.4999976654053,10|2,2:1|2:2,0:0:0:0:
285,91,12253,2,0,P|323:52|338:37,1,76.4999976654053,2|0,2:2|0:0,0:0:0:0:
385,200,12602,2,0,P|332:185|311:180,1,76.4999976654053,2|2,2:2|2:2,0:0:0:0:
372,118,12951,1,2,2:2:0:0:
372,118,13125,1,0,0:0:0:0:
491,271,13300,2,0,P|419:290|327:318,1,152.999995330811,2|2,2:2|2:2,0:0:0:0:
267,262,13823,1,2,2:2:0:0:
267,262,13997,1,2,2:2:0:0:
86,318,14521,5,2,2:2:0:0:
86,318,14695,2,0,L|64:235,1,76.4999976654053,2|2,2:2|2:2,0:0:0:0:
149,192,15044,2,0,L|168:265,1,76.4999976654053,2|0,2:2|0:0,0:0:0:0:
0,177,15393,2,0,P|-19:123|42:55,1,152.999995330811,2|2,2:2|2:2,0:0:0:0:
290,50,16090,5,2,2:2:0:0:
225,114,16265,2,0,L|141:92,1,76.4999976654053,2|0,2:2|0:0,0:0:0:0:
38,303,16788,2,0,P|94:254|168:265,1,152.999995330811,2|0,2:2|0:0,0:0:0:0:
411,332,17486,5,14,2:1:0:0:
329,302,17660,1,2,2:2:0:0:
265,360,17835,1,2,2:2:0:0:
347,383,18009,1,2,2:2:0:0:
248,278,18183,6,0,P|231:205|205:124,1,152.999995330811,14|2,2:1|2:2,0:0:0:0:
332,85,18707,2,0,B|271:59|260:57,1,76.4999976654053,2|14,2:2|2:1,0:0:0:0:
309,196,19055,2,0,P|416:164|472:152,1,152.999995330811,2|2,2:2|2:2,0:0:0:0:
512,223,19579,1,14,2:1:0:0:
393,209,19753,1,2,2:2:0:0:
446,277,19928,1,2,2:2:0:0:
456,155,20102,1,0,0:0:0:0:
438,293,20276,6,0,P|317:308|266:307,1,152.999995330811,14|2,2:1|2:2,0:0:0:0:
241,378,20800,1,2,2:2:0:0:
140,239,20974,2,0,P|163:171|181:145,1,76.4999976654053,14|0,2:1|0:0,0:0:0:0:
224,58,21323,1,2,2:2:0:0:
155,2,21497,1,2,2:2:0:0:
78,47,21672,2,0,P|44:89|66:195,1,152.999995330811,10|8,2:1|2:2,0:0:0:0:
55,182,22369,5,10,2:1:0:0:
246,137,22544,1,8,2:2:0:0:
132,118,22718,2,0,P|148:152|157:189,1,76.4999976654053,4|0,2:3|0:0,0:0:0:0:
359,373,23067,6,0,P|269:327|283:272,1,152.999995330811,14|6,2:1|2:3,0:0:0:0:
182,344,23590,1,2,2:2:0:0:
283,285,23765,2,0,P|303:253|299:216,1,76.4999976654053,12|0,2:3|0:0,0:0:0:0:
371,186,24114,2,0,P|353:152|319:137,1,76.4999976654053,4|2,2:3|2:2,0:0:0:0:
223,230,24462,5,14,2:3:0:0:
145,247,24637,1,2,2:2:0:0:
358,344,24811,5,6,2:3:0:0:
436,327,24986,1,0,0:0:0:0:
272,371,25160,5,14,2:3:0:0:
287,291,25335,2,0,L|303:190,1,76.4999976654053,2|4,2:2|2:3,0:0:0:0:
452,107,25683,5,2,2:2:0:0:
386,55,25858,2,0,B|298:44|337:100|232:85,2,152.999995330811,14|6|12,2:3|2:3|2:3,0:0:0:0:
386,55,26904,2,0,P|365:87|373:128,1,76.4999976654053,4|2,2:3|2:2,0:0:0:0:
489,208,27253,6,0,P|435:260|360:263,1,152.999995330811,14|6,2:3|2:3,0:0:0:0:
212,208,27776,1,2,2:2:0:0:
307,327,27951,2,0,P|282:284|295:234,1,76.4999976654053,14|0,2:3|0:0,0:0:0:0:
328,175,28300,1,4,2:3:0:0:
122,334,28648,6,0,P|35:343|-2:262,1,152.999995330811,14|6,2:3|2:3,0:0:0:0:
60,229,29172,1,2,2:2:0:0:
19,146,29346,1,14,2:3:0:0:
72,238,29521,2,0,P|122:230|233:219,1,152.999995330811,2|2,2:2|2:2,0:0:0:0:
341,278,30044,2,0,P|326:180|342:105,1,152.999995330811,14|6,2:3|2:3,0:0:0:0:
275,35,30567,2,0,P|213:44|177:63,2,76.4999976654053,2|12|0,2:2|2:3|0:0,0:0:0:0:
334,127,31090,2,0,P|396:136|432:155,1,76.4999976654053,6|0,2:3|0:0,0:0:0:0:
251,218,31439,5,2,2:2:0:0:
345,151,32835,5,2,2:2:0:0:
439,84,34230,5,14,2:1:0:0:
439,84,37021,6,0,P|360:96|345:102,1,76.4999976654053,14|0,2:3|0:0,0:0:0:0:
249,31,37369,2,0,P|328:19|343:13,1,76.4999976654053,14|0,2:3|0:0,0:0:0:0:
416,171,37718,2,0,P|408:206|399:245,1,76.4999976654053,14|0,2:3|0:0,0:0:0:0:
280,114,38067,6,0,P|265:198|309:284,1,170,14|10,2:1|2:2,0:0:0:0:
398,245,38939,1,8,2:2:0:0:
371,338,39114,1,14,2:1:0:0:
204,292,39288,1,8,2:2:0:0:
232,203,39462,2,0,P|227:178|212:127,1,76.4999976654053,8|0,2:2|0:0,0:0:0:0:
24,40,39811,6,0,B|72:95|137:82|137:82|159:44|210:42,1,203.999993774414,14|2,2:1|2:2,0:0:0:0:
142,217,40335,1,2,2:2:0:0:
321,155,40509,1,10,2:2:0:0:
212,129,40683,2,0,P|223:165|241:235,1,101.999996887207,2|2,2:2|2:2,0:0:0:0:
453,384,41032,6,0,P|462:342|474:301,1,85,2|10,2:2|2:1,0:0:0:0:
411,231,41381,2,0,P|376:245|332:265,1,85,2|10,2:2|2:1,0:0:0:0:
239,227,41730,1,2,2:2:0:0:
495,159,41904,6,0,P|442:276|310:238,1,255,10|2,2:2|2:2,0:0:0:0:
228,55,42602,1,10,2:1:0:0:
310,79,42776,1,2,2:2:0:0:
230,201,42951,1,2,2:2:0:0:
171,126,43125,1,0,0:0:0:0:
319,84,43300,2,0,P|361:71|400:59,1,85,10|2,2:2|2:2,0:0:0:0:
228,210,43648,2,0,P|187:222|146:234,1,85,2|0,2:2|0:0,0:0:0:0:
318,181,43997,5,10,2:1:0:0:
394,228,44172,1,2,2:2:0:0:
489,194,44346,2,0,P|475:234|465:275,1,85,10|0,2:1|0:0,0:0:0:0:
353,343,44695,2,0,P|350:258|317:180,1,170,10|10,2:2|2:1,0:0:0:0:
416,114,45218,1,10,2:2:0:0:
354,21,45393,6,0,P|312:17|277:40,1,85,14|0,2:1|0:0,0:0:0:0:
127,135,45741,2,0,P|85:138|50:115,1,85,2|2,2:2|2:2,0:0:0:0:
175,4,46090,2,0,P|203:83|219:167,1,170,10|2,2:2|2:2,0:0:0:0:
219,167,46614,1,2,2:2:0:0:
114,365,46788,6,0,P|152:348|194:342,1,85,10|0,2:1|0:0,0:0:0:0:
52,161,47137,2,0,P|90:177|132:183,1,85,10|2,2:1|2:2,0:0:0:0:
10,297,47486,2,0,P|90:269|174:256,1,170,10|2,2:2|2:2,0:0:0:0:
175,256,48009,1,2,2:2:0:0:
323,329,48183,5,14,2:1:0:0:
441,305,48358,1,2,2:2:0:0:
367,257,48532,1,2,2:2:0:0:
398,377,48707,1,0,0:0:0:0:
360,245,48881,6,0,P|373:161|404:82,1,170,14|2,2:2|2:2,0:0:0:0:
283,127,49404,1,2,2:2:0:0:
246,46,49579,2,0,P|287:19|319:3,1,85,10|2,2:1|2:2,0:0:0:0:
473,180,49928,5,10,2:2:0:0:
274,132,50102,1,8,2:1:0:0:
132,47,50276,5,10,2:2:0:0:
329,0,50451,1,8,2:2:0:0:
264,143,50625,6,0,P|271:183|278:226,1,85,10|0,2:3|0:0,0:0:0:0:
16,98,50974,6,0,P|70:29|149:59,1,170,14|2,2:1|2:2,0:0:0:0:
264,143,51497,1,2,2:2:0:0:
347,105,51672,1,10,2:2:0:0:
374,212,51846,2,0,P|366:253|359:295,1,85,2|2,2:2|2:2,0:0:0:0:
477,171,52195,2,0,P|483:129|491:87,1,85,2|10,2:2|2:1,0:0:0:0:
344,12,52544,2,0,P|351:53|358:95,1,85,2|10,2:2|2:1,0:0:0:0:
374,212,52893,1,2,2:2:0:0:
220,194,53067,2,0,B|205:148|205:148|329:98|374:212,1,255,10|2,2:2|2:2,0:0:0:0:
477,270,53765,5,10,2:1:0:0:
380,335,53939,1,2,2:2:0:0:
381,219,54114,1,2,2:2:0:0:
486,279,54288,1,0,0:0:0:0:
285,237,54462,2,0,P|295:186|303:154,1,85,10|0,2:2|0:0,0:0:0:0:
174,289,54811,2,0,P|181:330|192:371,1,85,2|2,2:2|2:2,0:0:0:0:
294,249,55160,1,10,2:1:0:0:
181,192,55335,2,0,P|130:182|-13:157,1,170,2|0,2:2|0:0,0:0:0:0:
92,311,55858,2,0,P|143:298|174:288,1,85,10|0,2:2|0:0,0:0:0:0:
272,153,56207,5,10,2:1:0:0:
256,74,56381,1,10,2:2:0:0:
407,128,56555,5,14,2:1:0:0:
349,180,56730,1,0,0:0:0:0:
320,19,56904,5,2,2:2:0:0:
393,50,57079,1,2,2:2:0:0:
261,161,57253,6,0,P|164:179|78:202,1,170,10|2,2:2|2:2,0:0:0:0:
258,302,57776,1,2,2:2:0:0:
153,348,57951,2,0,P|166:288|173:265,1,85,10|0,2:1|0:0,0:0:0:0:
20,132,58300,2,0,P|7:172|0:214,1,85,10|2,2:1|2:2,0:0:0:0:
60,363,58648,2,0,P|74:279|94:196,1,170,10|2,2:2|2:2,0:0:0:0:
94,196,59172,1,2,2:2:0:0:
12,24,59346,6,0,P|76:108|154:72,1,170,14|2,2:1|2:2,0:0:0:0:
128,99,59869,1,0,0:0:0:0:
0,295,60044,2,0,P|43:282|82:275,1,85,14|0,2:2|0:0,0:0:0:0:
299,332,60393,1,2,2:2:0:0:
233,376,60567,1,2,2:2:0:0:
165,341,60741,2,0,P|196:218|237:138,1,170,14|8,2:1|2:2,0:0:0:0:
213,179,61265,5,8,2:2:0:0:
424,86,61439,1,14,2:1:0:0:
278,22,61614,1,8,2:2:0:0:
371,0,61788,2,0,P|355:41|347:81,1,85,8|0,2:2|0:0,0:0:0:0:
490,236,62137,6,0,P|417:283|332:265,2,170,14|2|10,2:1|2:2|2:2,0:0:0:0:
293,138,63183,1,2,2:2:0:0:
357,194,63358,1,0,0:0:0:0:
330,278,63532,2,0,P|330:314|338:362,1,85,10|0,2:1|0:0,0:0:0:0:
249,209,63881,2,0,P|214:197|171:174,1,85,10|0,2:1|0:0,0:0:0:0:
135,264,64230,2,0,P|169:275|212:298,1,85,10|0,2:2|0:0,0:0:0:0:
362,187,64579,2,0,P|362:151|353:102,1,85,2|0,2:2|0:0,0:0:0:0:
413,342,64928,6,0,P|483:314|423:208,1,170,10|10,2:1|2:2,0:0:0:0:
349,96,65451,1,8,2:1:0:0:
433,57,65625,1,10,2:2:0:0:
393,175,65800,1,0,0:0:0:0:
313,17,65974,1,10,2:2:0:0:
267,135,66148,1,8,2:2:0:0:
440,54,66323,5,10,2:1:0:0:
481,350,67718,6,0,P|413:330|350:313,1,136,2|2,2:2|2:2,0:0:0:0:
351,314,68765,1,2,2:2:0:0:
431,199,69114,2,0,P|365:216|300:235,1,136,2|2,2:2|2:2,0:0:0:0:
300,235,70160,1,2,2:2:0:0:
221,127,70509,6,0,P|211:159|202:192,2,68,2|2|2,2:2|2:2|2:2,0:0:0:0:
125,228,71555,1,2,2:2:0:0:
295,99,71904,6,0,P|210:45|170:65,2,136,2|2|2,2:2|2:2|2:2,0:0:0:0:
458,360,74346,5,2,2:2:0:0:
512,298,74521,1,2,2:2:0:0:
464,236,74695,2,0,P|406:250|332:270,2,136,2|2|2,2:2|2:2|2:2,0:0:0:0:
282,359,76439,2,0,P|226:334|189:322,1,68,2|2,2:2|2:2,0:0:0:0:
186,252,77137,1,2,2:2:0:0:
259,185,77486,2,0,P|246:106|123:110,1,204,2|0,2:2|0:0,0:0:0:0:
138,94,78881,5,2,2:2:0:0:
