osu file format v14

[General]
AudioFilename: audio.mp3
AudioLeadIn: 0
PreviewTime: 39768
Countdown: 0
SampleSet: Normal
StackLeniency: 0.7
Mode: 3
LetterboxInBreaks: 0
SpecialStyle: 0
WidescreenStoryboard: 1

[Editor]
Bookmarks: 44695,55858
DistanceSpacing: 1.35
BeatDivisor: 4
GridSize: 4
TimelineZoom: 1

[Metadata]
Title:Omoikou
TitleUnicode:思ひ恋ふ
Artist:Uruha Rushia
ArtistUnicode:潤羽るしあ
Creator:Koito Ria
Version:Okaeri
Source:
Tags:yearning original song vtuber virtual youtuber hololive idol project ホロライブ 3rd third generation fantasy ホロライブファンタジー japanese pop jpop j-pop yhsh すこっぷ 末尾 飴日和 Masahiro Kawata
BeatmapID:4408520
BeatmapSetID:2100951

[Difficulty]
HPDrainRate:8.5
CircleSize:6
OverallDifficulty:8.5
ApproachRate:5
SliderMultiplier:1.4
SliderTickRate:1

[Events]
//Background and Video events
Video,0,"i wish you were still here.mp4"
0,0,"those sad stories we still tell each other.jpg",0,0
//Break Periods
//Storyboard Layer 0 (Background)
//Storyboard Layer 1 (Fail)
//Storyboard Layer 2 (Pass)
//Storyboard Layer 3 (Foreground)
//Storyboard Layer 4 (Overlay)
//Storyboard Sound Samples

[TimingPoints]
742,697.674418604651,4,1,1,40,1,0
37021,-100,4,1,1,70,0,0
39811,-100,4,1,1,70,0,1
50625,-100,4,1,1,70,0,0
50974,-100,4,1,1,70,0,1
66323,-100,4,1,1,40,0,0

[HitObjects]
213,192,568,128,0,742:0:0:0:0:
42,192,742,128,0,1090:0:0:0:0:
128,192,742,1,0,0:0:0:0:
298,192,742,128,0,916:0:0:0:0:
384,192,916,128,0,1090:0:0:0:0:
128,192,1090,128,0,1265:0:0:0:0:
469,192,1090,128,0,1439:0:0:0:0:
213,192,1265,128,0,1439:0:0:0:0:
42,192,1439,128,0,1788:0:0:0:0:
298,192,1439,128,0,1614:0:0:0:0:
384,192,1614,128,0,1788:0:0:0:0:
213,192,1788,128,0,2137:0:0:0:0:
469,192,1788,128,0,1962:0:0:0:0:
298,192,1962,128,0,2137:0:0:0:0:
42,192,2137,128,0,2486:0:0:0:0:
128,192,2137,1,0,0:0:0:0:
384,192,2137,128,0,2311:0:0:0:0:
298,192,2311,128,0,2486:0:0:0:0:
213,192,2486,128,0,2660:0:0:0:0:
469,192,2486,128,0,2835:0:0:0:0:
128,192,2660,128,0,2835:0:0:0:0:
42,192,2835,1,0,0:0:0:0:
298,192,2835,1,0,0:0:0:0:
384,192,2835,128,0,3183:0:0:0:0:
128,192,3183,128,0,3532:0:0:0:0:
298,192,3358,128,0,3532:0:0:0:0:
213,192,3532,128,0,3707:0:0:0:0:
469,192,3532,128,0,3881:0:0:0:0:
128,192,3707,128,0,3881:0:0:0:0:
42,192,3881,128,0,4230:0:0:0:0:
298,192,3881,128,0,4055:0:0:0:0:
384,192,4055,128,0,4230:0:0:0:0:
128,192,4230,1,0,0:0:0:0:
213,192,4230,128,0,4404:0:0:0:0:
469,192,4230,128,0,4579:0:0:0:0:
298,192,4404,128,0,4579:0:0:0:0:
42,192,4579,128,0,4928:0:0:0:0:
213,192,4579,128,0,4753:0:0:0:0:
298,192,4753,128,0,4928:0:0:0:0:
128,192,4928,128,0,5102:0:0:0:0:
384,192,4928,128,0,5102:0:0:0:0:
469,192,4928,128,0,5276:0:0:0:0:
213,192,5102,128,0,5276:0:0:0:0:
128,192,5276,1,0,0:0:0:0:
298,192,5276,128,0,5451:0:0:0:0:
384,192,5276,128,0,5625:0:0:0:0:
42,192,5625,1,0,0:0:0:0:
213,192,5625,128,0,5800:0:0:0:0:
298,192,5625,128,0,5974:0:0:0:0:
128,192,5974,128,0,6148:0:0:0:0:
213,192,5974,128,0,6323:0:0:0:0:
384,192,5974,1,0,0:0:0:0:
42,192,6323,1,0,0:0:0:0:
298,192,6323,128,0,6497:0:0:0:0:
469,192,6323,128,0,6672:0:0:0:0:
213,192,6497,128,0,6672:0:0:0:0:
42,192,6672,128,0,7021:0:0:0:0:
384,192,6672,128,0,6846:0:0:0:0:
298,192,6846,128,0,7021:0:0:0:0:
128,192,7021,128,0,7195:0:0:0:0:
384,192,7021,1,0,0:0:0:0:
469,192,7021,128,0,7369:0:0:0:0:
213,192,7195,128,0,7369:0:0:0:0:
42,192,7369,128,0,7718:0:0:0:0:
298,192,7369,128,0,7544:0:0:0:0:
384,192,7544,128,0,7893:0:0:0:0:
128,192,7718,128,0,8067:0:0:0:0:
213,192,7718,1,0,0:0:0:0:
469,192,7718,1,0,0:0:0:0:
298,192,7893,128,0,8067:0:0:0:0:
42,192,8067,128,0,8416:0:0:0:0:
213,192,8416,128,0,8765:0:0:0:0:
298,192,8416,1,0,0:0:0:0:
384,192,8416,1,0,0:0:0:0:
42,192,8765,128,0,8939:0:0:0:0:
469,192,8765,128,0,9114:0:0:0:0:
384,192,8939,128,0,9288:0:0:0:0:
128,192,9114,1,0,0:0:0:0:
213,192,9114,1,0,0:0:0:0:
298,192,9114,128,0,9462:0:0:0:0:
42,192,9288,128,0,9462:0:0:0:0:
469,192,9462,128,0,9811:0:0:0:0:
128,192,9637,128,0,9811:0:0:0:0:
298,192,9811,128,0,10160:0:0:0:0:
384,192,9811,128,0,10160:0:0:0:0:
469,192,9986,128,0,10160:0:0:0:0:
128,192,10160,128,0,10509:0:0:0:0:
213,192,10160,128,0,10509:0:0:0:0:
42,192,10335,128,0,10509:0:0:0:0:
298,192,10509,128,0,10683:0:0:0:0:
384,192,10509,1,0,0:0:0:0:
469,192,10509,128,0,10858:0:0:0:0:
213,192,10683,128,0,10858:0:0:0:0:
42,192,10858,128,0,11730:0:0:0:0:
128,192,10858,128,0,11032:0:0:0:0:
469,192,11119,128,0,11730:0:0:0:0:
384,192,11163,128,0,11730:0:0:0:0:
298,192,11207,128,0,11730:0:0:0:0:
213,192,11730,128,0,11904:0:0:0:0:
42,192,11904,128,2,12602:0:0:0:0:
128,192,11904,1,4,0:0:0:0:
298,192,11904,128,0,12079:0:0:0:0:
384,192,11904,1,0,0:0:0:0:
469,192,11904,1,0,0:0:0:0:
213,192,12079,128,0,12253:0:0:0:0:
128,192,12253,128,0,12428:0:0:0:0:
384,192,12253,1,0,0:0:0:0:
298,192,12428,128,0,12602:0:0:0:0:
213,192,12602,128,0,12776:0:0:0:0:
384,192,12602,1,0,0:0:0:0:
469,192,12602,128,0,13300:0:0:0:0:
128,192,12776,128,0,12951:0:0:0:0:
42,192,12951,128,0,13125:0:0:0:0:
298,192,12951,1,0,0:0:0:0:
384,192,13125,128,0,13300:0:0:0:0:
42,192,13300,128,0,14695:0:0:0:0:
128,192,13300,128,0,13474:0:0:0:0:
298,192,13300,1,0,0:0:0:0:
213,192,13474,128,0,13648:0:0:0:0:
384,192,13648,128,0,13823:0:0:0:0:
469,192,13648,1,0,0:0:0:0:
298,192,13823,128,0,13997:0:0:0:0:
128,192,13997,1,0,0:0:0:0:
213,192,13997,1,0,0:0:0:0:
469,192,13997,1,0,0:0:0:0:
298,192,14346,1,0,0:0:0:0:
384,192,14346,1,0,0:0:0:0:
128,192,14521,128,0,14695:0:0:0:0:
213,192,14695,128,0,14869:0:0:0:0:
384,192,14695,1,0,0:0:0:0:
469,192,14695,128,0,15393:0:0:0:0:
298,192,14869,128,0,15044:0:0:0:0:
128,192,15044,1,0,0:0:0:0:
384,192,15044,128,0,15218:0:0:0:0:
213,192,15218,128,0,15393:0:0:0:0:
42,192,15393,128,0,16090:0:0:0:0:
128,192,15393,1,0,0:0:0:0:
298,192,15393,128,0,15567:0:0:0:0:
384,192,15567,128,0,15741:0:0:0:0:
213,192,15741,1,0,0:0:0:0:
298,192,15741,128,0,15916:0:0:0:0:
384,192,15916,128,0,16090:0:0:0:0:
128,192,16090,128,0,16265:0:0:0:0:
213,192,16090,128,0,17486:0:0:0:0:
469,192,16090,1,0,0:0:0:0:
298,192,16265,128,0,16439:0:0:0:0:
42,192,16439,1,0,0:0:0:0:
384,192,16439,1,0,0:0:0:0:
128,192,16788,1,0,0:0:0:0:
384,192,16788,1,0,0:0:0:0:
469,192,16788,1,0,0:0:0:0:
42,192,17137,1,0,0:0:0:0:
298,192,17137,1,0,0:0:0:0:
42,192,17486,128,2,18009:0:0:0:0:
128,192,17486,128,4,18009:0:0:0:0:
384,192,17486,128,0,17660:0:0:0:0:
469,192,17486,1,0,0:0:0:0:
298,192,17660,128,0,17835:0:0:0:0:
213,192,17835,128,0,18009:0:0:0:0:
298,192,18009,128,0,18183:0:0:0:0:
42,192,18183,1,2,0:0:0:0:
128,192,18183,128,4,18532:0:0:0:0:
384,192,18183,128,0,18707:0:0:0:0:
469,192,18183,128,0,18707:0:0:0:0:
298,192,18532,128,0,18707:0:0:0:0:
213,192,18707,128,0,18881:0:0:0:0:
42,192,18881,128,2,19404:0:0:0:0:
128,192,18881,128,4,19404:0:0:0:0:
384,192,18881,1,0,0:0:0:0:
469,192,18881,1,0,0:0:0:0:
298,192,19055,128,0,19230:0:0:0:0:
213,192,19404,128,0,19579:0:0:0:0:
42,192,19579,128,2,19753:0:0:0:0:
298,192,19579,1,4,0:0:0:0:
384,192,19579,128,0,20102:0:0:0:0:
469,192,19579,128,0,20102:0:0:0:0:
128,192,19753,128,0,19928:0:0:0:0:
213,192,19928,128,0,20102:0:0:0:0:
298,192,20102,128,0,20276:0:0:0:0:
42,192,20276,1,2,0:0:0:0:
128,192,20276,128,4,20800:0:0:0:0:
213,192,20276,128,0,20800:0:0:0:0:
469,192,20276,128,0,20451:0:0:0:0:
384,192,20625,128,0,20800:0:0:0:0:
298,192,20800,128,0,20974:0:0:0:0:
42,192,20974,1,2,0:0:0:0:
128,192,20974,128,4,21148:0:0:0:0:
384,192,20974,128,0,21497:0:0:0:0:
469,192,20974,128,0,21497:0:0:0:0:
213,192,21148,128,0,21323:0:0:0:0:
298,192,21323,128,0,21497:0:0:0:0:
213,192,21497,128,0,21672:0:0:0:0:
42,192,21672,128,2,22195:0:0:0:0:
128,192,21672,128,4,22195:0:0:0:0:
298,192,21672,128,0,22021:0:0:0:0:
384,192,21672,1,0,0:0:0:0:
213,192,22021,1,8,0:0:0:0:
384,192,22021,1,0,0:0:0:0:
469,192,22021,1,0,0:0:0:0:
298,192,22195,1,0,0:0:0:0:
42,192,22369,1,2,0:0:0:0:
128,192,22369,1,0,0:0:0:0:
298,192,22369,128,0,23067:0:0:0:0:
213,192,22544,1,8,0:0:0:0:
384,192,22544,1,0,0:0:0:0:
469,192,22544,1,0,0:0:0:0:
42,192,22718,1,0,0:0:0:40:tom.wav
128,192,22718,1,0,0:0:0:0:
42,192,23067,128,2,24462:0:0:0:0:
128,192,23067,128,4,23416:0:0:0:0:
213,192,23067,1,0,0:0:0:0:
384,192,23067,128,0,23241:0:0:0:0:
469,192,23067,1,0,0:0:0:0:
213,192,23416,128,0,23590:0:0:0:40:tom.wav
469,192,23416,128,0,23590:0:0:0:0:
298,192,23590,128,0,23765:0:0:0:0:
128,192,23765,1,8,0:0:0:0:
384,192,23765,128,0,23939:0:0:0:40:tom.wav
469,192,23765,1,0,0:0:0:0:
213,192,24114,1,0,0:0:0:40:tom.wav
469,192,24114,128,0,24288:0:0:0:0:
298,192,24288,128,0,24462:0:0:0:0:
128,192,24462,128,2,24637:0:0:0:0:
384,192,24462,128,0,24637:0:0:0:40:tom.wav
469,192,24462,128,0,25858:0:0:0:0:
213,192,24637,128,0,24811:0:0:0:0:
42,192,24811,128,0,24986:0:0:0:40:tom.wav
298,192,24811,128,0,24986:0:0:0:0:
384,192,24986,128,0,25160:0:0:0:0:
42,192,25160,1,8,0:0:0:0:
128,192,25160,128,0,25335:0:0:0:40:tom.wav
298,192,25160,128,0,25335:0:0:0:0:
213,192,25335,128,0,25509:0:0:0:0:
42,192,25509,128,0,25683:0:0:0:40:tom.wav
384,192,25509,1,0,0:0:0:0:
298,192,25683,128,0,25858:0:0:0:0:
42,192,25858,128,2,27253:0:0:0:0:
128,192,25858,128,0,26207:0:0:0:0:
384,192,25858,128,0,26032:0:0:0:0:
213,192,26207,128,0,26381:0:0:0:40:tom.wav
469,192,26207,128,0,26381:0:0:0:0:
298,192,26381,128,0,26555:0:0:0:0:
128,192,26555,1,8,0:0:0:0:
384,192,26555,128,0,26730:0:0:0:40:tom.wav
469,192,26555,1,0,0:0:0:0:
213,192,26904,1,0,0:0:0:40:tom.wav
469,192,26904,128,0,27079:0:0:0:0:
298,192,27079,128,0,27253:0:0:0:0:
213,192,27253,128,2,27428:0:0:0:0:
384,192,27253,128,0,27428:0:0:0:40:tom.wav
469,192,27253,128,0,28648:0:0:0:0:
128,192,27428,128,0,27602:0:0:0:0:
42,192,27602,128,0,27776:0:0:0:40:tom.wav
298,192,27602,128,0,27776:0:0:0:0:
213,192,27776,128,0,27951:0:0:0:0:
42,192,27951,1,8,0:0:0:0:
128,192,27951,128,0,28125:0:0:0:40:tom.wav
384,192,27951,128,0,28648:0:0:0:0:
42,192,28300,128,0,28474:0:0:0:40:tom.wav
298,192,28300,1,0,0:0:0:0:
42,192,28648,128,2,30044:0:0:0:0:
128,192,28648,1,4,0:0:0:0:
213,192,28648,1,0,0:0:0:0:
298,192,28648,128,0,28823:0:0:0:0:
128,192,28997,128,0,29172:0:0:0:40:tom.wav
469,192,28997,128,0,29172:0:0:0:0:
298,192,29172,128,0,29346:0:0:0:0:
213,192,29346,128,8,29521:0:0:0:0:
384,192,29346,128,0,29521:0:0:0:40:tom.wav
469,192,29346,1,0,0:0:0:0:
128,192,29521,128,0,29695:0:0:0:0:
213,192,29695,1,0,0:0:0:40:tom.wav
469,192,29695,128,0,29869:0:0:0:0:
298,192,29869,128,0,30044:0:0:0:0:
128,192,30044,128,2,30393:0:0:0:0:
384,192,30044,128,0,30218:0:0:0:40:tom.wav
469,192,30044,128,0,31439:0:0:0:0:
42,192,30393,128,0,30567:0:0:0:40:tom.wav
384,192,30393,128,0,30567:0:0:0:0:
298,192,30567,128,0,30741:0:0:0:0:
42,192,30741,1,8,0:0:0:0:
128,192,30741,128,0,30916:0:0:0:40:tom.wav
213,192,30741,1,0,0:0:0:0:
42,192,31090,128,0,31265:0:0:0:40:tom.wav
384,192,31090,128,0,31439:0:0:0:0:
42,192,31439,128,0,31701:0:0:0:0:
298,192,31439,128,0,32137:0:0:0:0:
128,192,31483,128,0,31744:0:0:0:0:
213,192,31526,128,0,31788:0:0:0:0:
384,192,31788,128,0,32486:0:0:0:0:
469,192,32137,128,0,32486:0:0:0:0:
42,192,32486,128,0,32835:0:0:0:0:
213,192,32835,128,0,33532:0:0:0:0:
469,192,32835,128,0,33096:0:0:0:0:
384,192,32878,128,0,33140:0:0:0:0:
298,192,32922,128,0,33183:0:0:0:0:
128,192,33183,128,0,33881:0:0:0:0:
42,192,33532,128,0,33881:0:0:0:0:
469,192,33881,128,0,35625:0:0:0:0:
42,192,34230,128,2,36846:0:0:0:0:
128,192,34230,128,4,34404:0:0:0:0:
298,192,34230,128,0,34404:0:0:0:0:
384,192,34230,1,0,0:0:0:0:
213,192,34404,128,0,34579:0:0:0:0:
298,192,34579,128,0,34753:0:0:0:0:
384,192,34579,128,0,34753:0:0:0:0:
128,192,34928,128,0,35102:0:0:0:0:
213,192,34928,128,0,35102:0:0:0:0:
298,192,35102,128,0,35276:0:0:0:0:
213,192,35276,128,0,35451:0:0:0:0:
384,192,35276,128,0,35451:0:0:0:0:
128,192,35625,128,0,35800:0:0:0:0:
298,192,35625,128,0,35800:0:0:0:0:
469,192,35800,128,0,35974:0:0:0:0:
213,192,35974,128,0,36148:0:0:0:0:
384,192,35974,128,0,36148:0:0:0:0:
128,192,36323,128,0,36497:0:0:0:0:
298,192,36323,128,0,36497:0:0:0:0:
384,192,36497,128,0,36672:0:0:0:0:
213,192,36672,128,0,36846:0:0:0:0:
298,192,36672,128,0,36846:0:0:0:0:
42,192,37021,128,2,37195:0:0:0:0:
128,192,37021,128,0,37195:0:0:0:70:tom.wav
384,192,37021,128,0,37195:0:0:0:0:
469,192,37021,128,0,37195:0:0:0:0:
42,192,37369,128,2,37544:0:0:0:0:
213,192,37369,128,0,37544:0:0:0:70:tom.wav
298,192,37369,128,0,37544:0:0:0:0:
469,192,37369,128,0,37544:0:0:0:0:
128,192,37718,128,2,37893:0:0:0:0:
213,192,37718,128,0,37893:0:0:0:70:tom.wav
298,192,37718,128,0,37893:0:0:0:0:
384,192,37718,128,0,37893:0:0:0:0:
42,192,38067,128,2,38416:0:0:0:0:
128,192,38067,128,4,38416:0:0:0:0:
298,192,38067,128,0,38590:0:0:0:0:
384,192,38067,128,0,38590:0:0:0:0:
469,192,38067,128,0,38590:0:0:0:0:
213,192,38416,1,0,0:0:0:0:
42,192,38765,128,8,39114:0:0:0:0:
298,192,38765,1,0,0:0:0:0:
384,192,38765,1,0,0:0:0:0:
128,192,38939,128,8,39114:0:0:0:0:
298,192,38939,1,0,0:0:0:0:
384,192,38939,1,0,0:0:0:0:
213,192,39114,1,2,0:0:0:0:
469,192,39114,128,0,39637:0:0:0:0:
42,192,39288,1,8,0:0:0:0:
128,192,39288,1,0,0:0:0:0:
384,192,39288,128,0,39637:0:0:0:0:
42,192,39462,1,8,0:0:0:0:
128,192,39462,1,0,0:0:0:0:
298,192,39462,128,0,39637:0:0:0:0:
213,192,39637,128,0,39811:0:0:0:0:
42,192,39811,128,2,40509:0:0:0:0:
128,192,39811,1,4,0:0:0:0:
298,192,39811,1,0,0:0:0:0:
384,192,39811,1,0,0:0:0:0:
469,192,39811,1,0,0:0:0:0:
213,192,40160,128,0,40335:0:0:0:0:
469,192,40160,1,0,0:0:0:0:
298,192,40335,128,0,40509:0:0:0:0:
128,192,40509,1,8,0:0:0:0:
384,192,40509,128,0,40683:0:0:0:0:
469,192,40509,128,0,41207:0:0:0:0:
42,192,40683,128,0,40858:0:0:0:0:
213,192,40858,128,0,41032:0:0:0:0:
384,192,40858,1,0,0:0:0:0:
298,192,41032,128,0,41207:0:0:0:0:
42,192,41207,1,2,0:0:0:0:
128,192,41207,1,0,0:0:0:0:
213,192,41207,128,0,41904:0:0:0:0:
469,192,41381,128,0,41555:0:0:0:0:
42,192,41555,1,2,0:0:0:0:
128,192,41555,1,0,0:0:0:0:
298,192,41555,1,0,0:0:0:0:
469,192,41730,128,0,41904:0:0:0:0:
42,192,41904,1,8,0:0:0:0:
298,192,41904,128,0,42602:0:0:0:0:
384,192,41904,1,0,0:0:0:0:
128,192,42079,1,0,0:0:0:0:
213,192,42253,1,0,0:0:0:0:
469,192,42253,1,0,0:0:0:0:
42,192,42428,128,0,42602:0:0:0:0:
128,192,42602,128,2,42776:0:0:0:0:
384,192,42602,1,0,0:0:0:0:
469,192,42602,128,0,43300:0:0:0:0:
213,192,42776,128,0,42951:0:0:0:0:
298,192,42951,128,0,43125:0:0:0:0:
384,192,42951,1,0,0:0:0:0:
42,192,43125,128,0,43300:0:0:0:0:
128,192,43300,1,8,0:0:0:0:
213,192,43300,128,0,43997:0:0:0:0:
384,192,43300,128,0,43474:0:0:0:0:
298,192,43474,128,0,43648:0:0:0:0:
42,192,43648,1,0,0:0:0:0:
469,192,43648,128,0,43997:0:0:0:0:
128,192,43997,128,2,44521:0:0:0:0:
298,192,43997,128,0,44172:0:0:0:0:
384,192,43997,1,0,0:0:0:0:
42,192,44172,128,0,44521:0:0:0:0:
298,192,44346,1,2,0:0:0:0:
384,192,44346,1,0,0:0:0:0:
469,192,44346,1,0,0:0:0:0:
213,192,44521,1,0,0:0:0:0:
42,192,44695,1,8,0:0:0:0:
128,192,44695,1,0,0:0:0:0:
469,192,44695,128,0,45393:0:0:0:0:
298,192,44869,1,0,0:0:0:0:
42,192,45044,1,2,0:0:0:0:
128,192,45044,1,0,0:0:0:0:
384,192,45044,128,0,45218:0:0:0:0:
213,192,45131,1,0,0:0:0:0:
298,192,45218,128,8,45393:0:0:0:0:
42,192,45393,128,2,46090:0:0:0:0:
128,192,45393,128,4,45567:0:0:0:0:
213,192,45393,1,0,0:0:0:0:
384,192,45393,1,0,0:0:0:0:
469,192,45567,128,0,45741:0:0:0:0:
213,192,45741,1,0,0:0:0:0:
384,192,45741,128,0,45916:0:0:0:0:
298,192,45916,128,0,46090:0:0:0:0:
128,192,46090,128,8,46265:0:0:0:0:
213,192,46090,1,0,0:0:0:0:
469,192,46090,128,0,46788:0:0:0:0:
42,192,46439,1,0,0:0:0:0:
384,192,46439,128,0,46614:0:0:0:0:
298,192,46614,128,0,46788:0:0:0:0:
42,192,46788,128,2,47486:0:0:0:0:
128,192,46788,1,0,0:0:0:0:
213,192,46788,128,0,46962:0:0:0:0:
298,192,46962,128,0,47137:0:0:0:0:
128,192,47137,1,2,0:0:0:0:
213,192,47137,1,0,0:0:0:0:
384,192,47137,128,0,47311:0:0:0:0:
469,192,47311,128,0,47486:0:0:0:0:
213,192,47486,128,8,47660:0:0:0:0:
298,192,47486,128,0,48183:0:0:0:0:
384,192,47486,1,0,0:0:0:0:
42,192,47835,1,0,0:0:0:0:
128,192,47835,1,0,0:0:0:0:
384,192,48009,128,0,48183:0:0:0:0:
42,192,48183,128,2,48707:0:0:0:0:
128,192,48183,128,4,48707:0:0:0:0:
213,192,48183,1,0,0:0:0:0:
469,192,48183,128,0,48358:0:0:0:0:
298,192,48358,128,0,48532:0:0:0:0:
384,192,48532,128,0,48707:0:0:0:0:
469,192,48532,1,0,0:0:0:0:
213,192,48707,128,0,48881:0:0:0:0:
128,192,48881,1,8,0:0:0:0:
298,192,48881,128,4,49230:0:0:0:0:
384,192,48881,128,0,49404:0:0:0:0:
469,192,48881,128,0,49404:0:0:0:0:
42,192,49230,1,0,0:0:0:0:
213,192,49230,128,0,49404:0:0:0:0:
128,192,49404,128,0,49579:0:0:0:0:
298,192,49579,1,2,0:0:0:0:
384,192,49579,1,0,0:0:0:0:
469,192,49579,1,0,0:0:0:0:
42,192,49753,128,0,50625:0:0:0:0:
128,192,49928,1,8,0:0:0:0:
213,192,49928,1,0,0:0:0:0:
298,192,49928,1,0,0:0:0:0:
384,192,50102,1,2,0:0:0:0:
469,192,50102,1,0,0:0:0:0:
128,192,50276,1,8,0:0:0:0:
213,192,50276,1,0,0:0:0:0:
298,192,50276,1,0,0:0:0:0:
128,192,50451,1,8,0:0:0:0:
213,192,50451,1,0,0:0:0:0:
469,192,50451,1,0,0:0:0:0:
298,192,50625,1,0,0:0:0:70:tom.wav
384,192,50625,1,0,0:0:0:0:
213,192,50800,1,0,0:0:0:0:
42,192,50974,1,2,0:0:0:0:
128,192,50974,1,4,0:0:0:0:
298,192,50974,1,0,0:0:0:0:
384,192,50974,1,0,0:0:0:0:
469,192,50974,128,0,51672:0:0:0:0:
42,192,51323,1,0,0:0:0:0:
298,192,51323,128,0,51497:0:0:0:0:
213,192,51497,128,0,51672:0:0:0:0:
42,192,51672,128,8,52369:0:0:0:0:
128,192,51672,128,0,51846:0:0:0:0:
298,192,51672,1,0,0:0:0:0:
384,192,51846,128,0,52195:0:0:0:0:
128,192,52021,1,0,0:0:0:0:
469,192,52021,1,0,0:0:0:0:
213,192,52195,128,0,52369:0:0:0:0:
298,192,52369,128,2,53067:0:0:0:0:
384,192,52369,1,0,0:0:0:0:
469,192,52369,1,0,0:0:0:0:
42,192,52544,128,0,52718:0:0:0:0:
213,192,52718,1,2,0:0:0:0:
384,192,52718,1,0,0:0:0:0:
469,192,52718,1,0,0:0:0:0:
42,192,52893,128,0,53067:0:0:0:0:
128,192,53067,1,8,0:0:0:0:
213,192,53067,128,0,53765:0:0:0:0:
469,192,53067,1,0,0:0:0:0:
384,192,53241,1,0,0:0:0:0:
42,192,53416,1,0,0:0:0:0:
298,192,53416,1,0,0:0:0:0:
384,192,53590,128,0,53765:0:0:0:0:
42,192,53765,1,2,0:0:0:0:
128,192,53765,128,0,53939:0:0:0:0:
469,192,53765,128,0,54462:0:0:0:0:
213,192,53939,128,0,54114:0:0:0:0:
298,192,54114,128,0,54288:0:0:0:0:
384,192,54114,1,0,0:0:0:0:
42,192,54288,128,0,54462:0:0:0:0:
128,192,54462,128,8,54637:0:0:0:0:
213,192,54462,128,0,55160:0:0:0:0:
298,192,54462,1,0,0:0:0:0:
469,192,54637,128,0,54811:0:0:0:0:
42,192,54811,1,0,0:0:0:0:
384,192,54811,128,0,54986:0:0:0:0:
298,192,54986,128,0,55160:0:0:0:0:
42,192,55160,1,2,0:0:0:0:
128,192,55160,128,0,55335:0:0:0:0:
469,192,55160,128,0,55683:0:0:0:0:
384,192,55335,128,0,55683:0:0:0:0:
42,192,55509,1,2,0:0:0:0:
128,192,55509,1,0,0:0:0:0:
298,192,55509,1,0,0:0:0:0:
213,192,55683,1,0,0:0:0:0:
42,192,55858,128,8,56555:0:0:0:0:
384,192,55858,1,0,0:0:0:0:
469,192,55858,1,0,0:0:0:0:
213,192,56032,1,0,0:0:0:0:
128,192,56207,128,2,56381:0:0:0:0:
384,192,56207,1,0,0:0:0:0:
469,192,56207,1,0,0:0:0:0:
298,192,56294,1,0,0:0:0:0:
213,192,56381,128,8,56555:0:0:0:0:
128,192,56555,1,2,0:0:0:0:
298,192,56555,1,4,0:0:0:0:
384,192,56555,128,0,56730:0:0:0:0:
469,192,56555,128,0,57253:0:0:0:0:
42,192,56730,128,0,56904:0:0:0:0:
128,192,56904,128,0,57079:0:0:0:0:
298,192,56904,1,0,0:0:0:0:
213,192,57079,128,0,57253:0:0:0:0:
42,192,57253,128,8,57951:0:0:0:0:
298,192,57253,1,0,0:0:0:0:
384,192,57253,128,0,57428:0:0:0:0:
128,192,57602,128,0,57776:0:0:0:0:
469,192,57602,1,0,0:0:0:0:
213,192,57776,128,0,57951:0:0:0:0:
298,192,57951,128,2,58125:0:0:0:0:
384,192,57951,1,0,0:0:0:0:
469,192,57951,128,0,58648:0:0:0:0:
213,192,58125,128,0,58300:0:0:0:0:
128,192,58300,128,2,58474:0:0:0:0:
298,192,58300,1,0,0:0:0:0:
384,192,58300,1,0,0:0:0:0:
213,192,58474,128,0,58648:0:0:0:0:
42,192,58648,128,8,59346:0:0:0:0:
128,192,58648,1,0,0:0:0:0:
384,192,58648,128,0,58997:0:0:0:0:
298,192,58997,128,0,59172:0:0:0:0:
469,192,58997,1,0,0:0:0:0:
213,192,59172,128,0,59521:0:0:0:0:
128,192,59346,1,2,0:0:0:0:
298,192,59346,1,4,0:0:0:0:
384,192,59346,128,0,59869:0:0:0:0:
469,192,59346,128,0,59869:0:0:0:0:
42,192,59521,128,0,59695:0:0:0:0:
213,192,59695,128,0,60044:0:0:0:0:
298,192,59695,1,0,0:0:0:0:
42,192,60044,128,8,60567:0:0:0:0:
128,192,60044,128,4,60567:0:0:0:0:
384,192,60044,1,0,0:0:0:0:
469,192,60044,1,0,0:0:0:0:
298,192,60393,128,0,60567:0:0:0:0:
469,192,60393,1,0,0:0:0:0:
213,192,60567,128,8,60741:0:0:0:0:
42,192,60741,1,2,0:0:0:0:
128,192,60741,1,4,0:0:0:0:
298,192,60741,1,0,0:0:0:0:
384,192,60741,128,0,61090:0:0:0:0:
42,192,61090,1,8,0:0:0:0:
128,192,61090,1,0,0:0:0:0:
469,192,61090,128,0,61788:0:0:0:0:
42,192,61265,1,8,0:0:0:0:
128,192,61265,1,0,0:0:0:0:
298,192,61265,1,0,0:0:0:0:
213,192,61439,1,6,0:0:0:0:
42,192,61614,1,8,0:0:0:0:
298,192,61614,1,0,0:0:0:0:
384,192,61614,1,0,0:0:0:0:
128,192,61788,1,8,0:0:0:0:
298,192,61788,1,0,0:0:0:0:
384,192,61788,1,0,0:0:0:0:
213,192,61962,1,0,0:0:0:0:
42,192,62137,128,2,62486:0:0:0:0:
128,192,62137,1,4,0:0:0:0:
298,192,62137,128,0,62835:0:0:0:0:
384,192,62137,1,0,0:0:0:0:
469,192,62137,1,0,0:0:0:0:
213,192,62486,1,0,0:0:0:0:
384,192,62486,128,0,63183:0:0:0:0:
128,192,62835,128,8,63532:0:0:0:0:
213,192,62835,1,0,0:0:0:0:
469,192,62835,128,0,63183:0:0:0:0:
42,192,63183,128,0,63532:0:0:0:0:
298,192,63183,128,0,63881:0:0:0:0:
213,192,63532,128,2,64230:0:0:0:0:
384,192,63532,1,0,0:0:0:0:
469,192,63532,1,0,0:0:0:0:
128,192,63881,128,2,64579:0:0:0:0:
384,192,63881,1,0,0:0:0:0:
469,192,63881,1,0,0:0:0:0:
42,192,64230,128,8,64579:0:0:0:0:
298,192,64230,1,0,0:0:0:0:
384,192,64230,128,0,64579:0:0:0:0:
298,192,64579,1,0,0:0:0:0:
469,192,64579,128,0,65974:0:0:0:0:
213,192,64753,1,0,0:0:0:0:
42,192,64928,1,2,0:0:0:0:
128,192,64928,1,4,0:0:0:0:
298,192,64928,1,0,0:0:0:0:
384,192,64928,1,0,0:0:0:0:
42,192,65276,1,8,0:0:0:0:
298,192,65276,1,0,0:0:0:0:
384,192,65276,1,0,0:0:0:0:
128,192,65451,1,2,0:0:0:0:
213,192,65451,1,0,0:0:0:0:
42,192,65625,1,8,0:0:0:0:
298,192,65625,1,0,0:0:0:0:
384,192,65625,1,0,0:0:0:0:
128,192,65974,1,8,0:0:0:0:
213,192,65974,1,0,0:0:0:0:
298,192,65974,1,0,0:0:0:0:
128,192,66148,1,8,0:0:0:0:
213,192,66148,1,0,0:0:0:0:
384,192,66148,1,0,0:0:0:0:
42,192,66323,128,2,66497:0:0:0:0:
128,192,66323,128,4,66497:0:0:0:0:
298,192,66323,128,0,66497:0:0:0:0:
384,192,66323,128,0,66497:0:0:0:0:
469,192,66323,128,0,66497:0:0:0:0:
213,192,66846,128,0,67021:0:0:0:0:
128,192,67021,128,0,67195:0:0:0:0:
298,192,67195,128,0,67544:0:0:0:0:
469,192,67544,128,0,68067:0:0:0:0:
42,192,67718,128,0,69114:0:0:0:0:
128,192,67718,1,0,0:0:0:0:
384,192,67718,1,0,0:0:0:0:
298,192,68067,1,0,0:0:0:0:
213,192,68416,1,0,0:0:0:30:sidestick.wav
384,192,68416,1,0,0:0:0:0:
128,192,68765,1,0,0:0:0:30:sidestick.wav
384,192,68765,1,0,0:0:0:0:
213,192,69114,1,0,0:0:0:0:
298,192,69114,1,0,0:0:0:0:
469,192,69114,128,0,70509:0:0:0:0:
128,192,69462,1,0,0:0:0:0:
42,192,69811,1,0,0:0:0:30:sidestick.wav
298,192,69811,1,0,0:0:0:0:
42,192,70160,1,0,0:0:0:30:sidestick.wav
384,192,70160,1,0,0:0:0:0:
128,192,70509,1,0,0:0:0:0:
213,192,70509,128,0,71904:0:0:0:0:
298,192,70509,1,0,0:0:0:0:
469,192,70858,1,0,0:0:0:0:
42,192,71207,1,0,0:0:0:30:sidestick.wav
298,192,71207,1,0,0:0:0:0:
128,192,71555,1,0,0:0:0:30:sidestick.wav
298,192,71555,1,0,0:0:0:0:
42,192,71904,128,0,72602:0:0:0:0:
384,192,71904,1,0,0:0:0:0:
469,192,71904,128,0,72602:0:0:0:0:
298,192,72253,1,0,0:0:0:0:
128,192,72602,128,0,73300:0:0:0:30:sidestick.wav
213,192,72602,1,0,0:0:0:0:
384,192,72602,128,0,73300:0:0:0:0:
213,192,72951,1,0,0:0:0:30:sidestick.wav
42,192,73300,128,0,73997:0:0:0:0:
298,192,73300,1,0,0:0:0:0:
469,192,73300,128,0,74695:0:0:0:0:
128,192,73648,1,0,0:0:0:0:
384,192,73997,1,0,0:0:0:30:sidestick.wav
213,192,74346,1,0,0:0:0:30:sidestick.wav
384,192,74346,1,0,0:0:0:0:
298,192,74521,1,0,0:0:0:0:
42,192,74695,1,0,0:0:0:0:
128,192,74695,1,0,0:0:0:0:
213,192,74695,128,0,76090:0:0:0:0:
384,192,75044,1,0,0:0:0:0:
42,192,75393,1,0,0:0:0:30:sidestick.wav
469,192,75393,1,0,0:0:0:0:
42,192,75741,1,0,0:0:0:30:sidestick.wav
128,192,76090,1,0,0:0:0:0:
384,192,76090,1,0,0:0:0:0:
469,192,76090,128,0,77486:0:0:0:0:
213,192,76439,1,0,0:0:0:0:
42,192,76788,1,0,0:0:0:30:sidestick.wav
298,192,76788,1,0,0:0:0:0:
128,192,77137,1,0,0:0:0:30:sidestick.wav
298,192,77137,1,0,0:0:0:0:
42,192,77486,128,0,78183:0:0:0:0:
128,192,77486,128,0,78009:0:0:0:0:
213,192,77486,128,0,77835:0:0:0:0:
42,192,78881,1,0,0:0:0:0:
213,192,78881,1,0,0:0:0:0:
298,192,78881,1,0,0:0:0:0:
469,192,78881,1,0,0:0:0:0:
