osu file format v14

[General]
AudioFilename: audio.mp3
AudioLeadIn: 0
PreviewTime: 39768
Countdown: 0
SampleSet: Normal
StackLeniency: 0.7
Mode: 3
LetterboxInBreaks: 0
SpecialStyle: 0
WidescreenStoryboard: 1

[Editor]
Bookmarks: 44695,55858,61090
DistanceSpacing: 1.35
BeatDivisor: 4
GridSize: 4
TimelineZoom: 1

[Metadata]
Title:Omoikou
TitleUnicode:思ひ恋ふ
Artist:Uruha Rushia
ArtistUnicode:潤羽るしあ
Creator:Koito Ria
Version:Normal
Source:
Tags:yearning original song vtuber virtual youtuber hololive idol project ホロライブ 3rd third generation fantasy ホロライブファンタジー japanese pop jpop j-pop yhsh すこっぷ 末尾 飴日和 Masahiro Kawata
BeatmapID:4409038
BeatmapSetID:2100951

[Difficulty]
HPDrainRate:7.5
CircleSize:6
OverallDifficulty:7.5
ApproachRate:5
SliderMultiplier:1.4
SliderTickRate:1

[Events]
//Background and Video events
Video,0,"i wish you were still here.mp4"
0,0,"those sad stories we still tell each other.jpg",0,0
//Break Periods
//Storyboard Layer 0 (Background)
//Storyboard Layer 1 (Fail)
//Storyboard Layer 2 (Pass)
//Storyboard Layer 3 (Foreground)
//Storyboard Layer 4 (Overlay)
//Storyboard Sound Samples
Sample,24462,0,"tom.wav",40
Sample,27253,0,"tom.wav",40
Sample,30044,0,"tom.wav",40

[TimingPoints]
742,697.674418604651,4,1,1,40,1,0
37021,-100,4,1,1,70,0,0
39811,-100,4,1,1,70,0,1
50625,-100,4,1,1,70,0,0
50974,-100,4,1,1,70,0,1
66323,-100,4,1,1,40,0,0

[HitObjects]
298,192,568,5,0,0:0:0:0:
128,192,742,1,0,0:0:0:0:
469,192,742,1,0,0:0:0:0:
213,192,916,1,0,0:0:0:0:
298,192,1090,1,0,0:0:0:0:
384,192,1265,1,0,0:0:0:0:
42,192,1439,1,0,0:0:0:0:
128,192,1614,1,0,0:0:0:0:
213,192,1788,1,0,0:0:0:0:
298,192,1962,1,0,0:0:0:0:
128,192,2137,1,0,0:0:0:0:
469,192,2137,1,0,0:0:0:0:
384,192,2311,1,0,0:0:0:0:
298,192,2486,1,0,0:0:0:0:
213,192,2660,1,0,0:0:0:0:
42,192,2835,1,0,0:0:0:0:
469,192,2835,1,0,0:0:0:0:
384,192,3358,1,0,0:0:0:0:
213,192,3532,1,0,0:0:0:0:
298,192,3707,1,0,0:0:0:0:
384,192,3881,1,0,0:0:0:0:
42,192,4055,1,0,0:0:0:0:
128,192,4230,1,0,0:0:0:0:
469,192,4230,1,0,0:0:0:0:
213,192,4404,1,0,0:0:0:0:
298,192,4579,1,0,0:0:0:0:
128,192,4753,1,0,0:0:0:0:
213,192,4928,1,0,0:0:0:0:
469,192,4928,1,0,0:0:0:0:
298,192,5102,1,0,0:0:0:0:
42,192,5276,1,0,0:0:0:0:
384,192,5276,1,0,0:0:0:0:
213,192,5625,1,0,0:0:0:0:
469,192,5625,1,0,0:0:0:0:
128,192,5974,1,0,0:0:0:0:
384,192,5974,1,0,0:0:0:0:
42,192,6323,1,0,0:0:0:0:
298,192,6323,1,0,0:0:0:0:
213,192,6497,1,0,0:0:0:0:
128,192,6672,1,0,0:0:0:0:
384,192,6846,1,0,0:0:0:0:
213,192,7021,1,0,0:0:0:0:
469,192,7021,1,0,0:0:0:0:
298,192,7195,1,0,0:0:0:0:
384,192,7369,1,0,0:0:0:0:
128,192,7544,1,0,0:0:0:0:
213,192,7718,1,0,0:0:0:0:
469,192,7718,1,0,0:0:0:0:
42,192,7893,1,0,0:0:0:0:
128,192,8416,1,0,0:0:0:0:
298,192,8416,1,0,0:0:0:0:
469,192,8765,1,0,0:0:0:0:
213,192,8939,1,0,0:0:0:0:
42,192,9114,1,0,0:0:0:0:
384,192,9114,1,0,0:0:0:0:
298,192,9288,1,0,0:0:0:0:
213,192,9637,1,0,0:0:0:0:
384,192,9811,128,0,10160:0:0:0:0:
128,192,10160,128,0,10509:0:0:0:0:
42,192,10509,1,0,0:0:0:0:
469,192,10509,1,0,0:0:0:0:
298,192,10683,1,0,0:0:0:0:
213,192,10858,1,0,0:0:0:0:
128,192,11207,1,0,0:0:0:0:
384,192,11207,1,0,0:0:0:0:
298,192,11730,1,0,0:0:0:0:
128,192,11904,1,2,0:0:0:0:
469,192,11904,128,4,12602:0:0:0:0:
42,192,12079,1,0,0:0:0:0:
384,192,12253,1,0,0:0:0:0:
298,192,12428,1,0,0:0:0:0:
213,192,12602,128,0,13300:0:0:0:0:
298,192,12776,1,0,0:0:0:0:
384,192,12951,1,0,0:0:0:0:
469,192,13125,1,0,0:0:0:0:
128,192,13300,128,0,14695:0:0:0:0:
384,192,13474,1,0,0:0:0:0:
298,192,13648,1,0,0:0:0:0:
213,192,13823,1,0,0:0:0:0:
469,192,13997,1,0,0:0:0:0:
213,192,14521,1,0,0:0:0:0:
384,192,14695,128,0,15393:0:0:0:0:
42,192,14869,1,0,0:0:0:0:
298,192,15044,1,0,0:0:0:0:
213,192,15218,1,0,0:0:0:0:
42,192,15393,128,0,16090:0:0:0:0:
298,192,15567,1,0,0:0:0:0:
213,192,15741,1,0,0:0:0:0:
128,192,15916,1,0,0:0:0:0:
469,192,16090,128,0,17486:0:0:0:0:
213,192,16265,1,0,0:0:0:0:
298,192,16788,1,0,0:0:0:0:
42,192,17486,128,2,18183:0:0:0:0:
384,192,17486,1,4,0:0:0:0:
298,192,17660,1,0,0:0:0:0:
213,192,17835,1,0,0:0:0:0:
384,192,18009,1,0,0:0:0:0:
128,192,18183,1,2,0:0:0:0:
298,192,18183,128,4,18881:0:0:0:0:
469,192,18532,1,0,0:0:0:0:
42,192,18707,1,0,0:0:0:0:
213,192,18881,128,2,19579:0:0:0:0:
384,192,18881,1,4,0:0:0:0:
128,192,19055,1,0,0:0:0:0:
384,192,19404,1,0,0:0:0:0:
42,192,19579,1,2,0:0:0:0:
469,192,19579,128,4,20276:0:0:0:0:
298,192,19753,1,0,0:0:0:0:
213,192,19928,1,0,0:0:0:0:
128,192,20102,1,0,0:0:0:0:
42,192,20276,128,2,20974:0:0:0:0:
384,192,20276,1,4,0:0:0:0:
213,192,20625,1,0,0:0:0:0:
298,192,20800,1,0,0:0:0:0:
128,192,20974,1,2,0:0:0:0:
469,192,20974,128,4,21672:0:0:0:0:
213,192,21148,1,0,0:0:0:0:
298,192,21323,1,0,0:0:0:0:
384,192,21497,1,0,0:0:0:0:
42,192,21672,128,2,22369:0:0:0:0:
128,192,21672,1,4,0:0:0:0:
384,192,22021,1,8,0:0:0:0:
469,192,22021,1,0,0:0:0:0:
298,192,22369,128,2,23067:0:0:0:0:
128,192,22544,1,8,0:0:0:0:
213,192,22544,1,0,0:0:0:0:
384,192,22718,1,0,0:0:0:40:tom.wav
42,192,23067,1,2,0:0:0:0:
128,192,23067,1,4,0:0:0:0:
469,192,23067,128,0,23416:0:0:0:0:
298,192,23416,1,0,0:0:0:40:tom.wav
213,192,23590,1,0,0:0:0:0:
128,192,23765,1,8,0:0:0:0:
469,192,23765,1,0,0:0:0:40:tom.wav
42,192,24114,1,0,0:0:0:40:tom.wav
384,192,24288,1,0,0:0:0:0:
128,192,24462,1,2,0:0:0:0:
213,192,24637,1,0,0:0:0:0:
298,192,24811,1,0,0:0:0:40:tom.wav
469,192,24986,1,0,0:0:0:0:
42,192,25160,1,8,0:0:0:0:
384,192,25160,1,0,0:0:0:40:tom.wav
213,192,25335,1,0,0:0:0:0:
469,192,25509,1,0,0:0:0:40:tom.wav
298,192,25683,1,0,0:0:0:0:
42,192,25858,128,2,26207:0:0:0:0:
298,192,26207,1,0,0:0:0:40:tom.wav
213,192,26381,1,0,0:0:0:0:
128,192,26555,1,8,0:0:0:0:
384,192,26555,1,0,0:0:0:40:tom.wav
469,192,26904,1,0,0:0:0:40:tom.wav
213,192,27079,1,0,0:0:0:0:
298,192,27253,1,2,0:0:0:0:
384,192,27428,1,0,0:0:0:0:
42,192,27602,1,0,0:0:0:40:tom.wav
298,192,27776,1,0,0:0:0:0:
128,192,27951,1,8,0:0:0:0:
469,192,27951,128,0,28648:0:0:0:40:tom.wav
213,192,28300,1,0,0:0:0:40:tom.wav
128,192,28648,1,2,0:0:0:0:
298,192,28648,1,4,0:0:0:0:
213,192,28997,1,0,0:0:0:40:tom.wav
298,192,29172,1,0,0:0:0:0:
42,192,29346,1,8,0:0:0:0:
384,192,29346,1,0,0:0:0:40:tom.wav
128,192,29521,1,0,0:0:0:0:
469,192,29695,1,0,0:0:0:40:tom.wav
213,192,29869,1,0,0:0:0:0:
384,192,30044,128,2,30393:0:0:0:0:
298,192,30393,1,0,0:0:0:40:tom.wav
128,192,30567,1,0,0:0:0:0:
42,192,30741,1,8,0:0:0:0:
469,192,30741,1,0,0:0:0:40:tom.wav
298,192,31090,128,0,31439:0:0:0:40:tom.wav
213,192,31439,128,0,31788:0:0:0:0:
384,192,31439,1,0,0:0:0:0:
128,192,31788,128,0,32137:0:0:0:0:
42,192,32137,128,0,32486:0:0:0:0:
469,192,32486,128,0,32835:0:0:0:0:
128,192,32835,1,0,0:0:0:0:
298,192,32835,128,0,33183:0:0:0:0:
213,192,33183,128,0,33532:0:0:0:0:
42,192,33532,128,0,33881:0:0:0:0:
469,192,33881,128,0,34230:0:0:0:0:
42,192,34230,1,2,0:0:0:0:
298,192,34230,1,4,0:0:0:0:
384,192,34230,1,0,0:0:0:0:
213,192,34404,1,0,0:0:0:0:
128,192,34579,1,0,0:0:0:0:
384,192,34928,1,0,0:0:0:0:
298,192,35102,1,0,0:0:0:0:
213,192,35276,1,0,0:0:0:0:
298,192,35625,1,0,0:0:0:0:
213,192,35800,1,0,0:0:0:0:
128,192,35974,1,0,0:0:0:0:
469,192,36323,1,0,0:0:0:0:
384,192,36497,1,0,0:0:0:0:
298,192,36672,1,0,0:0:0:0:
42,192,37021,1,2,0:0:0:0:
128,192,37021,1,0,0:0:0:70:tom.wav
213,192,37369,1,2,0:0:0:0:
298,192,37369,1,0,0:0:0:70:tom.wav
384,192,37718,1,2,0:0:0:0:
469,192,37718,1,0,0:0:0:70:tom.wav
42,192,38067,1,2,0:0:0:0:
128,192,38067,1,4,0:0:0:0:
213,192,38067,1,0,0:0:0:0:
384,192,38765,1,8,0:0:0:0:
469,192,38765,1,0,0:0:0:0:
42,192,38939,1,8,0:0:0:0:
128,192,38939,1,0,0:0:0:0:
213,192,39114,1,2,0:0:0:0:
384,192,39288,1,8,0:0:0:0:
469,192,39288,1,0,0:0:0:0:
42,192,39462,1,8,0:0:0:0:
128,192,39462,1,0,0:0:0:0:
213,192,39811,1,2,0:0:0:0:
298,192,39811,1,4,0:0:0:0:
384,192,39811,1,0,0:0:0:0:
128,192,40160,1,0,0:0:0:0:
42,192,40335,1,0,0:0:0:0:
384,192,40509,1,8,0:0:0:0:
469,192,40509,1,0,0:0:0:0:
213,192,40683,1,0,0:0:0:0:
298,192,40858,1,0,0:0:0:0:
42,192,41032,1,0,0:0:0:0:
384,192,41207,1,2,0:0:0:0:
128,192,41381,1,0,0:0:0:0:
469,192,41555,1,2,0:0:0:0:
213,192,41730,1,0,0:0:0:0:
42,192,41904,1,8,0:0:0:0:
384,192,41904,1,0,0:0:0:0:
298,192,42428,1,0,0:0:0:0:
213,192,42602,1,2,0:0:0:0:
128,192,42776,1,0,0:0:0:0:
384,192,42951,1,0,0:0:0:0:
298,192,43125,1,0,0:0:0:0:
42,192,43300,1,8,0:0:0:0:
128,192,43300,1,0,0:0:0:0:
213,192,43474,1,0,0:0:0:0:
469,192,43648,128,0,43997:0:0:0:0:
384,192,43997,1,2,0:0:0:0:
42,192,44172,128,0,44695:0:0:0:0:
298,192,44346,1,2,0:0:0:0:
128,192,44695,1,8,0:0:0:0:
469,192,44695,1,0,0:0:0:0:
298,192,45044,1,2,0:0:0:0:
213,192,45218,1,8,0:0:0:0:
42,192,45393,1,2,0:0:0:0:
128,192,45393,1,4,0:0:0:0:
469,192,45393,1,0,0:0:0:0:
384,192,45567,1,0,0:0:0:0:
298,192,45741,1,0,0:0:0:0:
213,192,45916,1,0,0:0:0:0:
42,192,46090,1,8,0:0:0:0:
128,192,46090,1,0,0:0:0:0:
213,192,46439,1,0,0:0:0:0:
298,192,46614,1,0,0:0:0:0:
384,192,46788,1,2,0:0:0:0:
42,192,46962,1,0,0:0:0:0:
128,192,47137,1,2,0:0:0:0:
213,192,47311,1,0,0:0:0:0:
298,192,47486,1,8,0:0:0:0:
469,192,47486,1,0,0:0:0:0:
213,192,48009,1,0,0:0:0:0:
42,192,48183,1,2,0:0:0:0:
298,192,48183,1,4,0:0:0:0:
384,192,48358,1,0,0:0:0:0:
213,192,48532,1,0,0:0:0:0:
298,192,48707,1,0,0:0:0:0:
128,192,48881,1,8,0:0:0:0:
469,192,48881,1,4,0:0:0:0:
384,192,49230,1,0,0:0:0:0:
42,192,49404,1,0,0:0:0:0:
469,192,49579,1,2,0:0:0:0:
298,192,49753,128,0,50625:0:0:0:0:
128,192,49928,1,8,0:0:0:0:
384,192,50102,1,2,0:0:0:0:
128,192,50276,1,8,0:0:0:0:
469,192,50451,1,8,0:0:0:0:
213,192,50625,1,0,0:0:0:70:tom.wav
42,192,50974,1,2,0:0:0:0:
128,192,50974,1,4,0:0:0:0:
298,192,50974,1,0,0:0:0:0:
384,192,51323,1,0,0:0:0:0:
469,192,51497,1,0,0:0:0:0:
42,192,51672,1,8,0:0:0:0:
128,192,51672,1,0,0:0:0:0:
298,192,51846,128,0,52195:0:0:0:0:
469,192,52195,1,0,0:0:0:0:
213,192,52369,1,2,0:0:0:0:
384,192,52544,1,0,0:0:0:0:
42,192,52718,1,2,0:0:0:0:
298,192,52893,1,0,0:0:0:0:
128,192,53067,1,8,0:0:0:0:
469,192,53067,1,0,0:0:0:0:
213,192,53590,1,0,0:0:0:0:
298,192,53765,1,2,0:0:0:0:
384,192,53939,1,0,0:0:0:0:
128,192,54114,1,0,0:0:0:0:
42,192,54462,1,8,0:0:0:0:
298,192,54462,1,0,0:0:0:0:
384,192,54637,1,0,0:0:0:0:
469,192,54811,1,0,0:0:0:0:
128,192,54986,1,0,0:0:0:0:
384,192,55160,1,2,0:0:0:0:
213,192,55335,128,0,55858:0:0:0:0:
298,192,55509,1,2,0:0:0:0:
42,192,55858,1,8,0:0:0:0:
469,192,55858,1,0,0:0:0:0:
213,192,56207,1,2,0:0:0:0:
298,192,56381,1,8,0:0:0:0:
42,192,56555,1,2,0:0:0:0:
384,192,56555,1,4,0:0:0:0:
469,192,56555,1,0,0:0:0:0:
128,192,56730,1,0,0:0:0:0:
213,192,56904,1,0,0:0:0:0:
298,192,57079,1,0,0:0:0:0:
384,192,57253,1,8,0:0:0:0:
469,192,57253,1,0,0:0:0:0:
298,192,57602,1,0,0:0:0:0:
213,192,57776,1,0,0:0:0:0:
128,192,57951,1,2,0:0:0:0:
384,192,58125,1,0,0:0:0:0:
298,192,58300,1,2,0:0:0:0:
213,192,58474,1,0,0:0:0:0:
42,192,58648,128,8,58997:0:0:0:0:
469,192,58648,1,0,0:0:0:0:
298,192,58997,1,0,0:0:0:0:
213,192,59172,1,0,0:0:0:0:
384,192,59346,1,2,0:0:0:0:
469,192,59346,1,4,0:0:0:0:
128,192,59521,1,0,0:0:0:0:
298,192,59695,128,0,60044:0:0:0:0:
42,192,60044,1,8,0:0:0:0:
128,192,60044,1,4,0:0:0:0:
469,192,60393,1,0,0:0:0:0:
384,192,60567,1,8,0:0:0:0:
213,192,60741,128,2,61090:0:0:0:0:
298,192,60741,1,4,0:0:0:0:
42,192,61090,1,8,0:0:0:0:
469,192,61265,1,8,0:0:0:0:
213,192,61439,1,2,0:0:0:0:
298,192,61439,1,4,0:0:0:0:
42,192,61614,1,8,0:0:0:0:
469,192,61788,1,8,0:0:0:0:
128,192,62137,128,2,62486:0:0:0:0:
298,192,62137,1,4,0:0:0:0:
384,192,62137,1,0,0:0:0:0:
469,192,62486,128,0,62835:0:0:0:0:
42,192,62835,128,8,63183:0:0:0:0:
298,192,62835,1,0,0:0:0:0:
384,192,63183,128,0,63532:0:0:0:0:
128,192,63532,128,2,63881:0:0:0:0:
298,192,63881,128,2,64230:0:0:0:0:
42,192,64230,128,8,64579:0:0:0:0:
384,192,64230,1,0,0:0:0:0:
469,192,64579,128,0,65974:0:0:0:0:
128,192,64928,1,2,0:0:0:0:
213,192,64928,1,4,0:0:0:0:
42,192,65276,1,8,0:0:0:0:
384,192,65451,1,2,0:0:0:0:
42,192,65625,1,8,0:0:0:0:
213,192,65974,1,8,0:0:0:0:
298,192,66148,1,8,0:0:0:0:
42,192,66323,1,2,0:0:0:0:
128,192,66323,1,4,0:0:0:0:
384,192,66323,1,0,0:0:0:0:
298,192,66846,1,0,0:0:0:0:
213,192,67021,1,0,0:0:0:0:
128,192,67195,128,0,67544:0:0:0:0:
469,192,67544,1,0,0:0:0:0:
42,192,67718,1,0,0:0:0:0:
213,192,67718,1,0,0:0:0:0:
298,192,68067,1,0,0:0:0:0:
384,192,68416,1,0,0:0:0:30:sidestick.wav
42,192,68765,1,0,0:0:0:30:sidestick.wav
213,192,69114,1,0,0:0:0:0:
469,192,69114,1,0,0:0:0:0:
298,192,69462,1,0,0:0:0:0:
128,192,69811,1,0,0:0:0:30:sidestick.wav
42,192,70160,1,0,0:0:0:30:sidestick.wav
298,192,70509,1,0,0:0:0:0:
469,192,70509,1,0,0:0:0:0:
128,192,70858,1,0,0:0:0:0:
213,192,71207,1,0,0:0:0:30:sidestick.wav
384,192,71555,1,0,0:0:0:30:sidestick.wav
213,192,71904,1,0,0:0:0:0:
469,192,71904,1,0,0:0:0:0:
128,192,72602,1,0,0:0:0:30:sidestick.wav
384,192,72602,1,0,0:0:0:0:
42,192,73300,1,0,0:0:0:0:
298,192,73300,1,0,0:0:0:0:
128,192,74346,1,0,0:0:0:30:sidestick.wav
213,192,74521,1,0,0:0:0:0:
298,192,74695,1,0,0:0:0:0:
469,192,74695,1,0,0:0:0:0:
128,192,75393,1,0,0:0:0:30:sidestick.wav
42,192,76090,1,0,0:0:0:0:
384,192,76090,1,0,0:0:0:0:
213,192,76439,1,0,0:0:0:0:
384,192,76788,1,0,0:0:0:30:sidestick.wav
128,192,77137,1,0,0:0:0:30:sidestick.wav
42,192,77486,1,0,0:0:0:0:
298,192,77486,1,0,0:0:0:0:
128,192,78881,1,0,0:0:0:0:
469,192,78881,1,0,0:0:0:0:
