osu file format v14

[General]
AudioFilename: audio.mp3
AudioLeadIn: 0
PreviewTime: 39768
Countdown: 0
SampleSet: Normal
StackLeniency: 0.7
Mode: 3
LetterboxInBreaks: 0
SpecialStyle: 0
WidescreenStoryboard: 1

[Editor]
Bookmarks: 44695,55858,61090
DistanceSpacing: 1.35
BeatDivisor: 4
GridSize: 4
TimelineZoom: 1

[Metadata]
Title:Omoikou
TitleUnicode:思ひ恋ふ
Artist:Uruha Rushia
ArtistUnicode:潤羽るしあ
Creator:Koito Ria
Version:Easy
Source:
Tags:yearning original song vtuber virtual youtuber hololive idol project ホロライブ 3rd third generation fantasy ホロライブファンタジー japanese pop jpop j-pop yhsh すこっぷ 末尾 飴日和 Masahiro Kawata
BeatmapID:4409104
BeatmapSetID:2100951

[Difficulty]
HPDrainRate:7
CircleSize:6
OverallDifficulty:7
ApproachRate:5
SliderMultiplier:1.4
SliderTickRate:1

[Events]
//Background and Video events
Video,0,"i wish you were still here.mp4"
0,0,"those sad stories we still tell each other.jpg",0,0
//Break Periods
//Storyboard Layer 0 (Background)
//Storyboard Layer 1 (Fail)
//Storyboard Layer 2 (Pass)
//Storyboard Layer 3 (Foreground)
//Storyboard Layer 4 (Overlay)
//Storyboard Sound Samples
Sample,23765,0,"tom.wav",40
Sample,24462,0,"tom.wav",40
Sample,25160,0,"tom.wav",40
Sample,26555,0,"tom.wav",40
Sample,27253,0,"tom.wav",40
Sample,27951,0,"tom.wav",40
Sample,29346,0,"tom.wav",40
Sample,30044,0,"tom.wav",40
Sample,30741,0,"tom.wav",40

[TimingPoints]
742,697.674418604651,4,1,1,40,1,0
37021,-100,4,1,1,70,0,0
39811,-100,4,1,1,70,0,1
50625,-100,4,1,1,70,0,0
50974,-100,4,1,1,70,0,1
66323,-100,4,1,1,40,0,0

[HitObjects]
128,192,568,5,0,0:0:0:0:
384,192,742,128,0,1090:0:0:0:0:
213,192,1090,128,0,1439:0:0:0:0:
42,192,1439,128,0,1788:0:0:0:0:
298,192,1788,128,0,2137:0:0:0:0:
128,192,2137,128,0,2486:0:0:0:0:
384,192,2486,1,0,0:0:0:0:
298,192,2660,1,0,0:0:0:0:
213,192,2835,1,0,0:0:0:0:
469,192,3358,1,0,0:0:0:0:
213,192,3532,128,0,3881:0:0:0:0:
384,192,3881,128,0,4230:0:0:0:0:
42,192,4230,128,0,4579:0:0:0:0:
213,192,4579,128,0,4928:0:0:0:0:
384,192,4928,1,0,0:0:0:0:
469,192,5102,1,0,0:0:0:0:
42,192,5276,1,0,0:0:0:0:
213,192,5625,1,0,0:0:0:0:
384,192,5974,1,0,0:0:0:0:
298,192,6323,128,0,6672:0:0:0:0:
42,192,6672,128,0,7021:0:0:0:0:
213,192,7021,128,0,7369:0:0:0:0:
384,192,7369,128,0,7718:0:0:0:0:
128,192,7718,1,0,0:0:0:0:
42,192,7893,1,0,0:0:0:0:
298,192,8416,1,0,0:0:0:0:
213,192,8765,1,0,0:0:0:0:
128,192,8939,128,0,9288:0:0:0:0:
469,192,9288,1,0,0:0:0:0:
42,192,9637,1,0,0:0:0:0:
213,192,9811,128,0,10160:0:0:0:0:
469,192,10160,128,0,10509:0:0:0:0:
298,192,10509,1,0,0:0:0:0:
213,192,10683,1,0,0:0:0:0:
128,192,10858,1,0,0:0:0:0:
384,192,11207,1,0,0:0:0:0:
469,192,11207,1,0,0:0:0:0:
128,192,11730,1,0,0:0:0:0:
42,192,11904,1,2,0:0:0:0:
298,192,11904,128,4,12253:0:0:0:0:
213,192,12253,128,0,12602:0:0:0:0:
469,192,12602,128,0,12951:0:0:0:0:
384,192,12951,128,0,13300:0:0:0:0:
42,192,13300,128,0,13648:0:0:0:0:
298,192,13648,1,0,0:0:0:0:
213,192,13823,1,0,0:0:0:0:
469,192,13997,1,0,0:0:0:0:
128,192,14521,1,0,0:0:0:0:
213,192,14695,128,0,15044:0:0:0:0:
384,192,15044,128,0,15393:0:0:0:0:
42,192,15393,128,0,15741:0:0:0:0:
213,192,15741,128,0,16090:0:0:0:0:
298,192,16090,1,0,0:0:0:0:
469,192,16265,1,0,0:0:0:0:
128,192,16788,1,0,0:0:0:0:
213,192,17486,1,2,0:0:0:0:
298,192,17486,128,4,17835:0:0:0:0:
128,192,17835,128,0,18183:0:0:0:0:
42,192,18183,1,2,0:0:0:0:
469,192,18183,128,4,18532:0:0:0:0:
213,192,18532,128,0,18881:0:0:0:0:
128,192,18881,1,2,0:0:0:0:
384,192,18881,1,4,0:0:0:0:
469,192,19055,1,0,0:0:0:0:
213,192,19404,1,0,0:0:0:0:
42,192,19579,1,2,0:0:0:0:
298,192,19579,128,4,19928:0:0:0:0:
128,192,19928,128,0,20276:0:0:0:0:
213,192,20276,1,2,0:0:0:0:
469,192,20276,1,4,0:0:0:0:
298,192,20625,128,0,20974:0:0:0:0:
42,192,20974,128,2,21323:0:0:0:0:
384,192,20974,1,4,0:0:0:0:
128,192,21323,1,0,0:0:0:0:
469,192,21497,1,0,0:0:0:0:
213,192,21672,1,2,0:0:0:0:
384,192,21672,1,4,0:0:0:0:
298,192,22021,1,8,0:0:0:0:
128,192,22369,1,2,0:0:0:0:
384,192,22544,1,8,0:0:0:0:
213,192,22718,1,0,0:0:0:40:tom.wav
42,192,23067,1,2,0:0:0:0:
469,192,23067,128,4,23416:0:0:0:0:
213,192,23416,1,0,0:0:0:40:tom.wav
298,192,23590,1,0,0:0:0:0:
128,192,23765,1,8,0:0:0:0:
469,192,24114,1,0,0:0:0:40:tom.wav
213,192,24288,1,0,0:0:0:0:
384,192,24462,128,2,24811:0:0:0:0:
128,192,24811,128,0,25160:0:0:0:40:tom.wav
298,192,25160,1,8,0:0:0:0:
384,192,25335,1,0,0:0:0:0:
213,192,25509,1,0,0:0:0:40:tom.wav
469,192,25683,1,0,0:0:0:0:
42,192,25858,128,2,26207:0:0:0:0:
298,192,26207,1,0,0:0:0:40:tom.wav
213,192,26381,1,0,0:0:0:0:
384,192,26555,1,8,0:0:0:0:
128,192,26904,1,0,0:0:0:40:tom.wav
298,192,27079,1,0,0:0:0:0:
213,192,27253,128,2,27602:0:0:0:0:
384,192,27602,128,0,27951:0:0:0:40:tom.wav
42,192,27951,128,8,28648:0:0:0:0:
469,192,28300,1,0,0:0:0:40:tom.wav
298,192,28648,1,2,0:0:0:0:
384,192,28648,1,4,0:0:0:0:
213,192,28997,128,0,29346:0:0:0:40:tom.wav
469,192,29346,1,8,0:0:0:0:
128,192,29521,1,0,0:0:0:0:
298,192,29695,1,0,0:0:0:40:tom.wav
384,192,29869,1,0,0:0:0:0:
42,192,30044,128,2,30393:0:0:0:0:
298,192,30393,1,0,0:0:0:40:tom.wav
128,192,30567,1,0,0:0:0:0:
469,192,30741,1,8,0:0:0:0:
384,192,31090,128,0,31439:0:0:0:40:tom.wav
213,192,31439,128,0,31788:0:0:0:0:
298,192,31788,128,0,32137:0:0:0:0:
128,192,32137,128,0,32486:0:0:0:0:
469,192,32486,128,0,32835:0:0:0:0:
42,192,32835,128,0,33183:0:0:0:0:
298,192,33183,128,0,33532:0:0:0:0:
128,192,33532,128,0,33881:0:0:0:0:
469,192,33881,128,0,35625:0:0:0:0:
213,192,34230,1,6,0:0:0:0:
384,192,34579,1,0,0:0:0:0:
42,192,34928,1,0,0:0:0:0:
298,192,35276,1,0,0:0:0:0:
128,192,35625,1,0,0:0:0:0:
384,192,35974,1,0,0:0:0:0:
213,192,36323,1,0,0:0:0:0:
469,192,36672,1,0,0:0:0:0:
42,192,37021,1,2,0:0:0:0:
128,192,37021,1,0,0:0:0:70:tom.wav
298,192,37369,1,2,0:0:0:0:
384,192,37369,1,0,0:0:0:70:tom.wav
128,192,37718,1,2,0:0:0:0:
213,192,37718,1,0,0:0:0:70:tom.wav
384,192,38067,1,2,0:0:0:0:
469,192,38067,1,4,0:0:0:0:
42,192,38765,1,8,0:0:0:0:
469,192,38939,1,8,0:0:0:0:
213,192,39114,1,2,0:0:0:0:
42,192,39288,1,8,0:0:0:0:
469,192,39462,1,8,0:0:0:0:
128,192,39811,1,2,0:0:0:0:
213,192,39811,1,4,0:0:0:0:
298,192,40160,128,0,40509:0:0:0:0:
42,192,40509,1,8,0:0:0:0:
469,192,40683,128,0,41032:0:0:0:0:
213,192,41032,1,0,0:0:0:0:
384,192,41381,1,0,0:0:0:0:
42,192,41730,1,0,0:0:0:0:
298,192,41904,1,8,0:0:0:0:
213,192,42428,1,0,0:0:0:0:
298,192,42602,128,2,42951:0:0:0:0:
128,192,42951,128,0,43300:0:0:0:0:
384,192,43300,128,8,43648:0:0:0:0:
213,192,43648,128,0,43997:0:0:0:0:
469,192,43997,1,2,0:0:0:0:
128,192,44172,128,0,44695:0:0:0:0:
298,192,44346,1,2,0:0:0:0:
384,192,44695,1,8,0:0:0:0:
213,192,45044,1,2,0:0:0:0:
298,192,45218,1,8,0:0:0:0:
42,192,45393,128,2,45741:0:0:0:0:
384,192,45393,1,4,0:0:0:0:
213,192,45741,128,0,46090:0:0:0:0:
384,192,46090,1,8,0:0:0:0:
128,192,46439,1,0,0:0:0:0:
42,192,46614,1,0,0:0:0:0:
469,192,46788,128,2,47137:0:0:0:0:
298,192,47137,128,2,47486:0:0:0:0:
128,192,47486,1,8,0:0:0:0:
384,192,48009,1,0,0:0:0:0:
213,192,48183,128,2,48532:0:0:0:0:
469,192,48183,1,4,0:0:0:0:
298,192,48532,128,0,48881:0:0:0:0:
42,192,48881,1,8,0:0:0:0:
128,192,48881,1,4,0:0:0:0:
469,192,49230,1,0,0:0:0:0:
213,192,49404,1,0,0:0:0:0:
384,192,49579,1,2,0:0:0:0:
42,192,49753,128,0,50276:0:0:0:0:
298,192,49928,1,8,0:0:0:0:
298,192,50276,1,8,0:0:0:0:
213,192,50451,1,8,0:0:0:0:
128,192,50625,1,0,0:0:0:70:tom.wav
42,192,50974,1,2,0:0:0:0:
469,192,50974,1,4,0:0:0:0:
213,192,51323,128,0,51672:0:0:0:0:
128,192,51672,1,8,0:0:0:0:
469,192,51846,128,0,52195:0:0:0:0:
42,192,52195,1,0,0:0:0:0:
298,192,52544,1,0,0:0:0:0:
128,192,52893,1,0,0:0:0:0:
384,192,53067,1,8,0:0:0:0:
213,192,53590,1,0,0:0:0:0:
469,192,53765,128,2,54114:0:0:0:0:
128,192,54114,128,0,54462:0:0:0:0:
384,192,54462,128,8,54811:0:0:0:0:
42,192,54811,128,0,55160:0:0:0:0:
469,192,55160,1,2,0:0:0:0:
213,192,55335,128,0,55858:0:0:0:0:
384,192,55509,1,2,0:0:0:0:
128,192,55858,1,8,0:0:0:0:
298,192,56207,1,2,0:0:0:0:
213,192,56381,1,8,0:0:0:0:
42,192,56555,128,2,56904:0:0:0:0:
469,192,56555,1,4,0:0:0:0:
213,192,56904,128,0,57253:0:0:0:0:
384,192,57253,1,8,0:0:0:0:
128,192,57602,1,0,0:0:0:0:
213,192,57776,1,0,0:0:0:0:
469,192,57951,128,2,58300:0:0:0:0:
42,192,58300,128,2,58648:0:0:0:0:
298,192,58648,128,8,58997:0:0:0:0:
128,192,58997,128,0,59346:0:0:0:0:
42,192,59346,1,2,0:0:0:0:
469,192,59346,1,4,0:0:0:0:
384,192,59521,1,0,0:0:0:0:
213,192,59695,128,0,60044:0:0:0:0:
128,192,60044,1,8,0:0:0:0:
298,192,60044,1,4,0:0:0:0:
469,192,60393,1,0,0:0:0:0:
213,192,60567,1,8,0:0:0:0:
42,192,60741,128,2,61090:0:0:0:0:
384,192,60741,1,4,0:0:0:0:
128,192,61090,1,8,0:0:0:0:
469,192,61265,1,8,0:0:0:0:
298,192,61439,1,6,0:0:0:0:
128,192,61614,1,8,0:0:0:0:
469,192,61788,1,8,0:0:0:0:
42,192,62137,1,2,0:0:0:0:
384,192,62137,128,4,62486:0:0:0:0:
213,192,62486,128,0,62835:0:0:0:0:
42,192,62835,128,8,63183:0:0:0:0:
469,192,63183,128,0,63532:0:0:0:0:
298,192,63532,128,2,63881:0:0:0:0:
128,192,63881,128,2,64230:0:0:0:0:
384,192,64230,128,8,64579:0:0:0:0:
42,192,64579,128,0,65974:0:0:0:0:
298,192,64928,1,6,0:0:0:0:
469,192,65276,1,8,0:0:0:0:
469,192,65625,1,8,0:0:0:0:
128,192,65974,1,8,0:0:0:0:
213,192,66148,1,8,0:0:0:0:
298,192,66323,1,2,0:0:0:0:
384,192,66323,1,4,0:0:0:0:
128,192,66846,1,0,0:0:0:0:
469,192,67021,1,0,0:0:0:0:
42,192,67195,128,0,67544:0:0:0:0:
213,192,67544,1,0,0:0:0:0:
384,192,67718,1,0,0:0:0:0:
128,192,68067,1,0,0:0:0:0:
298,192,68416,1,0,0:0:0:30:sidestick.wav
42,192,68765,1,0,0:0:0:30:sidestick.wav
469,192,69114,1,0,0:0:0:0:
213,192,69462,1,0,0:0:0:0:
384,192,69811,1,0,0:0:0:30:sidestick.wav
128,192,70160,1,0,0:0:0:30:sidestick.wav
298,192,70509,1,0,0:0:0:0:
42,192,70858,1,0,0:0:0:0:
213,192,71207,1,0,0:0:0:30:sidestick.wav
469,192,71555,1,0,0:0:0:30:sidestick.wav
298,192,71904,1,0,0:0:0:0:
213,192,72602,1,0,0:0:0:30:sidestick.wav
469,192,72602,1,0,0:0:0:0:
128,192,73300,1,0,0:0:0:0:
384,192,74346,1,0,0:0:0:30:sidestick.wav
42,192,74521,1,0,0:0:0:0:
469,192,74695,1,0,0:0:0:0:
213,192,75393,1,0,0:0:0:30:sidestick.wav
128,192,76090,1,0,0:0:0:0:
298,192,76439,1,0,0:0:0:0:
128,192,76788,1,0,0:0:0:30:sidestick.wav
469,192,77137,1,0,0:0:0:30:sidestick.wav
42,192,77486,1,0,0:0:0:0:
384,192,78881,1,0,0:0:0:0:
