osu file format v14

[General]
AudioFilename: audio.mp3
AudioLeadIn: 0
PreviewTime: 36455
Countdown: 0
SampleSet: Soft
StackLeniency: 0.7
Mode: 3
LetterboxInBreaks: 0
SpecialStyle: 0
WidescreenStoryboard: 1

[Editor]
Bookmarks: 13329,81094
DistanceSpacing: 0.6
BeatDivisor: 2
GridSize: 16
TimelineZoom: 1.3

[Metadata]
Title:Good-bye sengen
TitleUnicode:グッバイ宣言
Artist:Uruha Rushia
ArtistUnicode:潤羽るしあ
Creator:Antipole
Version:Ihram's Normal
Source:
Tags:symmatrix- doctortetravoid ml-ysg ihram-san angki ホロライブ hololive vtuber virtual youtuber chinozo japanese pop jpop j-pop ハイカラサウンド highkara highkarasound cover flower goodbye declaration 引き籠り hikikomori
BeatmapID:3579394
BeatmapSetID:1749636

[Difficulty]
HPDrainRate:7
CircleSize:4
OverallDifficulty:7
ApproachRate:5
SliderMultiplier:1.4
SliderTickRate:1

[Events]
//Background and Video events
0,0,"rushiamymommy.jpg",0,0
//Break Periods
//Storyboard Layer 0 (Background)
//Storyboard Layer 1 (Fail)
//Storyboard Layer 2 (Pass)
//Storyboard Layer 3 (Foreground)
//Storyboard Layer 4 (Overlay)
//Storyboard Sound Samples
Sample,36447,0,"normal-hitclap.wav",50
Sample,47741,0,"normal-hitfinish.wav",50
Sample,47917,0,"drum-hitwhistle.wav",50
Sample,64506,0,"normal-hitclap.wav",50
Sample,101035,0,"normal-hitwhistle.wav",50
Sample,101388,0,"normal-hitwhistle.wav",50
Sample,101565,0,"drum-hitwhistle.wav",50
Sample,107035,0,"cymbal_short.wav",40
Sample,112682,0,"cymbal_short.wav",40
Sample,115153,0,"normal-hitfinish.wav",50
Sample,118329,0,"cymbal_short.wav",40
Sample,123976,0,"cymbal_short.wav",40
Sample,126270,0,"drum-hitwhistle.wav",50
Sample,126270,0,"normal-hitfinish.wav",50
Sample,126800,0,"drum-hitwhistle.wav",50
Sample,132447,0,"normal-hitwhistle.wav",50
Sample,134388,0,"cymbal_short.wav",40
Sample,134741,0,"cymbal_short.wav",40
Sample,149388,0,"normal-hitfinish.wav",50
Sample,149565,0,"drum-hitwhistle.wav",50
Sample,160153,0,"normal-hitfinish.wav",50
Sample,170212,0,"cymbal_short.wav",40

[TimingPoints]
2926,352.941176470588,4,2,1,50,1,0
36808,-100,4,2,1,50,0,1
59396,-100,4,2,1,50,0,0
138455,-100,4,2,1,50,0,1
161043,-100,4,2,1,50,0,0
166690,-100,4,2,1,50,0,1
169514,-100,4,2,1,50,0,0

[HitObjects]
448,192,1514,5,2,0:1:0:0:
448,192,1867,1,2,0:1:0:0:
64,192,2220,1,2,0:1:0:0:
192,192,2396,1,2,0:1:0:0:
320,192,2573,1,2,0:1:0:0:
448,192,2749,1,2,0:1:0:0:
64,192,2926,128,2,3278:0:0:0:0:
192,192,2926,1,4,0:0:0:0:
320,192,3278,1,8,0:0:0:0:
448,192,3278,1,0,0:0:0:0:
192,192,3455,1,0,0:0:0:0:
448,192,3631,1,2,0:0:0:0:
320,192,3808,1,0,0:0:0:0:
64,192,3984,1,8,0:0:0:0:
192,192,3984,128,0,4337:0:0:0:0:
448,192,4337,1,2,0:0:0:0:
320,192,4514,1,0,0:0:0:0:
64,192,4690,1,8,0:0:0:0:
192,192,4690,1,0,0:0:0:0:
448,192,4867,1,0,0:0:0:0:
192,192,5043,1,2,0:0:0:0:
320,192,5220,1,0,0:0:0:0:
64,192,5396,1,8,0:0:0:0:
448,192,5396,1,0,0:0:0:0:
192,192,5573,1,0,0:0:0:0:
320,192,5749,1,2,0:0:0:0:
448,192,5749,128,0,6102:0:0:0:0:
64,192,6102,1,8,0:0:0:0:
192,192,6102,1,0,0:0:0:0:
320,192,6278,1,0,0:0:0:0:
64,192,6455,1,2,0:0:0:0:
192,192,6631,1,0,0:0:0:0:
320,192,6808,128,8,7161:0:0:0:0:
448,192,6808,1,0,0:0:0:0:
64,192,7161,1,2,0:0:0:0:
192,192,7337,1,0,0:0:0:0:
320,192,7514,1,8,0:0:0:0:
448,192,7514,1,0,0:0:0:0:
64,192,7690,1,0,0:0:0:0:
192,192,7867,1,2,0:0:0:0:
448,192,7867,1,4,0:0:0:0:
320,192,8043,1,2,0:3:0:0:
64,192,8220,128,8,8573:0:0:0:0:
192,192,8220,1,4,0:1:0:0:
320,192,8573,1,4,0:0:0:0:
448,192,8573,128,2,8925:0:0:0:0:
64,192,8925,1,8,0:0:0:0:
192,192,8925,1,0,0:0:0:0:
320,192,9102,1,0,0:0:0:0:
64,192,9278,1,2,0:0:0:0:
192,192,9455,1,0,0:0:0:0:
320,192,9631,128,8,9984:0:0:0:0:
448,192,9631,1,0,0:0:0:0:
64,192,9984,1,2,0:0:0:0:
192,192,10161,1,0,0:0:0:0:
320,192,10337,1,8,0:0:0:0:
448,192,10337,1,0,0:0:0:0:
64,192,10514,1,0,0:0:0:0:
320,192,10690,1,2,0:0:0:0:
192,192,10867,1,0,0:0:0:0:
64,192,11043,1,8,0:0:0:0:
448,192,11043,1,0,0:0:0:0:
320,192,11220,1,0,0:0:0:0:
64,192,11396,128,2,11749:0:0:0:0:
192,192,11396,1,0,0:0:0:0:
320,192,11749,1,8,0:0:0:0:
448,192,11749,1,0,0:0:0:0:
192,192,11925,1,0,0:0:0:0:
448,192,12102,1,2,0:0:0:0:
320,192,12278,1,0,0:0:0:0:
64,192,12455,1,8,0:0:0:0:
192,192,12455,128,0,12808:0:0:0:0:
448,192,12808,1,2,0:0:0:0:
320,192,12984,1,0,0:0:0:0:
64,192,13161,1,8,0:0:0:0:
192,192,13161,1,0,0:0:0:0:
448,192,13337,1,0,0:0:0:0:
192,192,13867,1,0,0:0:0:50:csbit.wav
320,192,14043,1,0,0:0:0:50:csbit.wav
64,192,14220,1,2,0:0:0:0:
448,192,14220,1,4,0:0:0:0:
192,192,14749,1,0,0:0:0:0:
64,192,15278,1,2,0:0:0:0:
448,192,15278,1,0,0:0:0:0:
320,192,15808,1,0,0:0:0:0:
64,192,16337,1,2,0:0:0:0:
192,192,16514,1,0,0:0:0:0:
320,192,16690,1,2,0:0:0:0:
192,192,16867,1,0,0:0:0:0:
64,192,17043,1,2,0:0:0:0:
448,192,17043,1,0,0:0:0:0:
320,192,17573,1,0,0:0:0:0:
64,192,17925,1,0,0:0:0:0:
192,192,18102,1,2,0:0:0:0:
448,192,18102,1,0,0:0:0:0:
320,192,18631,1,0,0:0:0:0:
192,192,18808,1,2,0:0:0:0:
64,192,18984,1,0,0:0:0:0:
448,192,19161,1,2,0:0:0:0:
320,192,19337,1,0,0:0:0:0:
64,192,19514,1,2,0:0:0:0:
192,192,19690,1,0,0:0:0:0:
320,192,19867,1,2,0:0:0:0:
448,192,19867,128,4,20220:0:0:0:0:
64,192,20220,1,2,0:0:0:0:
448,192,20573,128,2,20925:0:0:0:0:
192,192,20925,1,2,0:0:0:0:
64,192,21278,1,2,0:0:0:0:
320,192,21278,128,0,21631:0:0:0:0:
192,192,21631,1,2,0:0:0:0:
448,192,21984,1,2,0:0:0:0:
320,192,22161,1,0,0:0:0:0:
64,192,22337,1,2,0:0:0:0:
192,192,22514,1,0,0:0:0:0:
320,192,22690,1,2,0:0:0:0:
448,192,22690,128,0,23043:0:0:0:0:
64,192,23043,128,2,23396:0:0:0:0:
320,192,23396,128,2,23749:0:0:0:0:
192,192,23749,128,2,24102:0:0:0:0:
448,192,24102,1,2,0:0:0:0:
320,192,24278,1,0,0:0:0:0:
64,192,24455,1,2,0:0:0:0:
192,192,24631,1,0,0:0:0:0:
448,192,24808,128,2,25161:0:0:0:0:
64,192,25161,1,8,0:0:0:0:
192,192,25161,1,0,0:0:0:0:
64,192,25514,128,2,25867:0:0:0:0:
448,192,25514,1,4,0:0:0:0:
320,192,25867,1,8,0:0:0:0:
448,192,25867,1,0,0:0:0:0:
192,192,26043,128,0,26396:0:0:0:0:
448,192,26396,1,0,0:0:0:0:
64,192,26573,1,8,0:0:0:0:
320,192,26573,128,0,26925:0:0:0:0:
192,192,26925,1,2,0:0:0:0:
448,192,27102,1,0,0:0:0:0:
64,192,27278,1,8,0:0:0:0:
192,192,27278,1,0,0:0:0:0:
320,192,27455,1,0,0:0:0:0:
64,192,27631,1,2,0:0:0:0:
192,192,27808,1,0,0:0:0:0:
320,192,27984,1,8,0:0:0:0:
448,192,27984,1,0,0:0:0:0:
192,192,28161,1,0,0:0:0:0:
64,192,28337,1,2,0:0:0:0:
448,192,28337,128,0,28690:0:0:0:0:
64,192,28690,1,8,0:0:0:0:
192,192,28690,1,0,0:0:0:0:
320,192,28867,128,0,29220:0:0:0:0:
64,192,29220,1,0,0:0:0:0:
192,192,29396,128,8,29749:0:0:0:0:
448,192,29396,1,0,0:0:0:0:
320,192,29749,1,2,0:0:0:0:
64,192,29925,1,0,0:0:0:0:
320,192,30102,1,8,0:0:0:0:
448,192,30102,1,0,0:0:0:0:
192,192,30278,1,0,0:0:0:0:
448,192,30455,1,2,0:0:0:0:
320,192,30631,1,8,0:1:0:0:
64,192,30808,1,8,0:0:0:0:
192,192,30808,1,8,1:0:0:0:
448,192,30984,1,0,0:0:0:0:
64,192,31161,128,2,31514:0:0:0:0:
320,192,31161,1,4,0:0:0:0:
192,192,31514,1,8,0:0:0:0:
448,192,31514,1,0,0:0:0:0:
320,192,31690,1,0,0:0:0:0:
448,192,31867,128,2,32220:0:0:0:0:
64,192,32220,1,8,0:0:0:0:
320,192,32220,1,0,0:0:0:0:
192,192,32396,1,0,0:0:0:0:
64,192,32573,128,2,32925:0:0:0:0:
448,192,32925,1,8,0:0:0:0:
192,192,33102,1,0,0:0:0:0:
320,192,33278,1,2,0:0:0:0:
64,192,33455,1,2,0:1:0:0:
192,192,33631,1,8,0:0:0:0:
320,192,33808,1,4,0:0:0:0:
448,192,33808,128,2,34161:0:0:0:0:
64,192,34161,1,2,0:0:0:0:
320,192,34337,1,8,0:0:0:0:
192,192,34514,1,0,0:0:0:0:
64,192,34690,1,2,0:0:0:0:
448,192,34690,1,0,0:0:0:0:
320,192,34867,1,2,0:0:0:0:
192,192,35043,1,8,0:0:0:0:
64,192,35220,128,2,35573:0:0:0:0:
320,192,35220,1,0,0:0:0:40:cymbal_short.wav
192,192,35573,1,2,0:0:0:0:
448,192,35573,128,0,35925:0:0:0:40:cymbal_short.wav
64,192,35925,1,2,0:0:0:0:
320,192,35925,1,0,0:0:0:40:cymbal_short.wav
192,192,36102,1,2,0:0:0:0:
448,192,36455,1,2,0:0:0:0:
320,192,36631,1,0,0:0:0:0:
64,192,36808,1,2,0:0:0:0:
192,192,36808,1,4,0:0:0:0:
448,192,36984,1,0,0:0:0:0:
320,192,37161,1,8,0:0:0:0:
192,192,37337,1,0,0:0:0:0:
64,192,37514,128,2,37867:0:0:0:0:
192,192,37867,1,8,0:0:0:0:
320,192,37867,1,0,0:0:0:0:
448,192,38043,128,0,38396:0:0:0:0:
320,192,38396,1,0,0:0:0:0:
64,192,38573,1,8,0:0:0:0:
192,192,38573,1,0,0:0:0:0:
448,192,38749,1,0,0:0:0:0:
320,192,38925,1,2,0:0:0:0:
64,192,39102,1,0,0:0:0:0:
192,192,39278,1,8,0:0:0:0:
448,192,39278,1,0,0:0:0:0:
320,192,39455,1,0,0:0:0:0:
448,192,39631,128,2,39984:0:0:0:0:
64,192,39984,1,8,0:0:0:0:
192,192,39984,1,0,0:0:0:0:
320,192,40161,1,0,0:0:0:0:
64,192,40337,128,2,40690:0:0:0:0:
192,192,40690,1,8,0:0:0:0:
448,192,40690,1,0,0:0:0:0:
320,192,40867,1,0,0:0:0:0:
448,192,41043,128,2,41396:0:0:0:0:
64,192,41396,1,8,0:0:0:0:
192,192,41396,128,0,41749:0:0:0:0:
320,192,41749,128,2,42102:0:0:0:0:
448,192,42278,1,0,0:0:0:0:
192,192,42455,1,2,0:0:0:0:
320,192,42631,1,0,0:0:0:0:
64,192,42808,1,8,0:0:0:0:
192,192,42808,1,0,0:0:0:0:
448,192,42984,1,0,0:0:0:0:
64,192,43161,128,2,43514:0:0:0:0:
192,192,43514,1,8,0:0:0:0:
448,192,43514,1,0,0:0:0:0:
320,192,43690,128,0,44043:0:0:0:0:
448,192,44043,1,0,0:0:0:0:
64,192,44220,1,8,0:0:0:0:
192,192,44220,1,0,0:0:0:0:
448,192,44396,1,0,0:0:0:0:
320,192,44573,1,2,0:0:0:0:
192,192,44749,1,0,0:0:0:0:
64,192,44925,1,8,0:0:0:0:
448,192,44925,1,0,0:0:0:0:
320,192,45102,1,0,0:0:0:0:
448,192,45278,1,2,0:0:0:0:
64,192,45631,1,8,0:0:0:0:
320,192,45631,1,0,0:0:0:0:
192,192,45808,1,0,0:0:0:0:
448,192,45984,128,2,46337:0:0:0:0:
64,192,46337,128,8,46690:0:0:0:0:
320,192,46337,1,0,0:0:0:0:
192,192,46690,1,2,0:0:0:0:
320,192,46867,1,0,0:0:0:0:
64,192,47043,1,8,0:0:0:0:
448,192,47043,1,0,0:0:0:0:
192,192,47220,1,0,0:0:0:0:
448,192,47396,128,2,47749:0:0:0:0:
64,192,47749,1,8,0:0:0:0:
192,192,47925,1,8,1:0:0:0:
320,192,48102,1,2,0:0:0:0:
448,192,48102,1,4,0:0:0:0:
64,192,48278,1,0,0:0:0:0:
192,192,48455,1,8,0:0:0:0:
320,192,48631,1,0,0:0:0:0:
448,192,48808,128,2,49161:0:0:0:0:
192,192,49161,1,8,0:0:0:0:
320,192,49161,1,0,0:0:0:0:
64,192,49337,128,0,49690:0:0:0:0:
192,192,49690,1,0,0:0:0:0:
320,192,49867,1,8,0:0:0:0:
448,192,49867,1,0,0:0:0:0:
64,192,50043,1,0,0:0:0:0:
192,192,50220,1,2,0:0:0:0:
448,192,50396,1,0,0:0:0:0:
64,192,50573,1,8,0:0:0:0:
320,192,50573,1,0,0:0:0:0:
192,192,50749,1,0,0:0:0:0:
64,192,50925,128,2,51278:0:0:0:0:
320,192,51278,1,8,0:0:0:0:
448,192,51278,1,0,0:0:0:0:
192,192,51455,1,0,0:0:0:0:
448,192,51631,128,2,51984:0:0:0:0:
64,192,51984,1,8,0:0:0:0:
320,192,51984,1,0,0:0:0:0:
192,192,52161,1,0,0:0:0:0:
64,192,52337,128,2,52690:0:0:0:0:
320,192,52690,128,8,53043:0:0:0:0:
448,192,52690,1,0,0:0:0:0:
192,192,53043,128,2,53396:0:0:0:0:
448,192,53573,1,0,0:0:0:0:
64,192,53749,1,2,0:0:0:0:
192,192,53925,1,0,0:0:0:0:
320,192,54102,1,8,0:0:0:0:
448,192,54102,1,0,0:0:0:0:
64,192,54278,1,0,0:0:0:0:
448,192,54455,128,2,54808:0:0:0:0:
64,192,54808,1,8,0:0:0:0:
320,192,54808,1,0,0:0:0:0:
192,192,54984,128,0,55337:0:0:0:0:
64,192,55337,1,0,0:0:0:0:
320,192,55514,1,8,0:0:0:0:
448,192,55514,1,0,0:0:0:0:
64,192,55690,1,0,0:0:0:0:
192,192,55867,1,2,0:0:0:0:
320,192,56043,1,0,0:0:0:0:
64,192,56220,1,8,0:0:0:0:
448,192,56220,1,0,0:0:0:0:
192,192,56396,1,0,0:0:0:0:
64,192,56573,1,2,0:0:0:0:
192,192,56925,1,8,0:0:0:0:
448,192,56925,1,0,0:0:0:0:
320,192,57102,1,0,0:0:0:0:
64,192,57278,128,2,57631:0:0:0:0:
192,192,57631,1,8,0:0:0:0:
448,192,57631,128,0,57984:0:0:0:0:
320,192,57984,1,6,0:0:0:0:
192,192,58161,1,0,0:0:0:0:
64,192,58337,1,8,0:0:0:0:
448,192,58337,1,0,0:0:0:0:
320,192,58514,1,2,0:0:0:0:
64,192,58690,128,2,59043:0:3:0:0:
192,192,59043,1,2,0:0:0:0:
448,192,59043,1,4,0:0:0:0:
320,192,59396,1,2,0:0:0:0:
448,192,59396,128,0,59749:0:0:0:0:
64,192,59749,1,8,0:0:0:0:
192,192,59749,1,0,0:0:0:0:
320,192,59925,128,0,60278:0:0:0:0:
192,192,60278,1,2,0:0:0:0:
64,192,60455,128,8,60808:0:0:0:0:
448,192,60455,1,0,0:0:0:0:
192,192,60808,1,2,0:0:0:0:
320,192,60984,1,0,0:0:0:0:
64,192,61161,1,8,0:0:0:0:
192,192,61161,1,0,0:0:0:0:
448,192,61337,1,0,0:0:0:0:
320,192,61514,1,2,0:0:0:0:
192,192,61690,1,2,0:0:0:0:
64,192,61867,1,8,0:0:0:0:
448,192,61867,1,0,0:0:0:0:
320,192,62043,1,0,0:0:0:0:
64,192,62220,128,2,62573:0:0:0:0:
320,192,62573,1,8,0:0:0:0:
448,192,62573,1,0,0:0:0:0:
192,192,62749,128,0,63102:0:0:0:0:
320,192,63102,1,2,0:0:0:0:
64,192,63278,1,8,0:0:0:0:
448,192,63278,128,0,63631:0:0:0:0:
64,192,63631,1,2,0:0:0:0:
192,192,63808,1,0,0:0:0:0:
320,192,63984,1,8,0:0:0:0:
448,192,63984,1,0,0:0:0:0:
64,192,64161,1,0,0:0:0:0:
192,192,64337,1,2,0:0:0:0:
448,192,64514,1,2,0:0:0:0:
64,192,64690,1,8,0:0:0:0:
192,192,64690,1,0,0:0:0:0:
320,192,64867,1,0,0:0:0:0:
448,192,65043,128,2,65396:0:0:0:0:
64,192,65396,1,8,0:0:0:0:
192,192,65396,1,0,0:0:0:0:
320,192,65573,128,0,65925:0:0:0:0:
192,192,65925,1,2,0:0:0:0:
64,192,66102,128,8,66455:0:0:0:0:
448,192,66102,1,0,0:0:0:0:
320,192,66455,1,2,0:0:0:0:
192,192,66631,1,0,0:0:0:0:
64,192,66808,1,8,0:0:0:0:
320,192,66808,1,0,0:0:0:0:
448,192,66984,1,0,0:0:0:0:
192,192,67161,1,2,0:0:0:0:
64,192,67337,1,2,0:0:0:0:
192,192,67514,1,8,0:0:0:0:
448,192,67514,1,0,0:0:0:0:
320,192,67690,1,0,0:0:0:0:
448,192,67867,128,2,68220:0:0:0:0:
192,192,68220,128,0,68573:0:0:0:0:
320,192,68573,128,2,68925:0:0:0:0:
64,192,68925,128,2,69278:0:0:0:0:
448,192,69278,128,2,69631:0:0:0:0:
448,192,69984,1,0,0:0:0:0:
320,192,70161,1,0,0:0:0:0:
192,192,70337,1,0,0:0:0:0:
64,192,70514,1,0,0:0:0:0:
320,192,70690,1,4,0:0:0:0:
448,192,70690,128,2,71043:0:0:0:0:
64,192,71043,1,8,0:0:0:0:
192,192,71043,1,0,0:0:0:0:
320,192,71220,1,0,0:0:0:0:
64,192,71396,1,2,0:0:0:0:
192,192,71573,1,0,0:0:0:0:
320,192,71749,128,8,72102:0:0:0:0:
448,192,71749,1,0,0:0:0:0:
64,192,72102,1,2,0:0:0:0:
192,192,72278,1,0,0:0:0:0:
320,192,72455,1,8,0:0:0:0:
448,192,72455,1,0,0:0:0:0:
64,192,72631,1,0,0:0:0:0:
320,192,72808,1,2,0:0:0:0:
192,192,72984,1,0,0:0:0:0:
64,192,73161,1,8,0:0:0:0:
448,192,73161,1,0,0:0:0:0:
320,192,73337,1,0,0:0:0:0:
64,192,73514,128,2,73867:0:0:0:0:
192,192,73514,1,0,0:0:0:0:
320,192,73867,1,8,0:0:0:0:
448,192,73867,1,0,0:0:0:0:
192,192,74043,1,0,0:0:0:0:
448,192,74220,1,2,0:0:0:0:
320,192,74396,1,0,0:0:0:0:
64,192,74573,1,8,0:0:0:0:
192,192,74573,128,0,74925:0:0:0:0:
448,192,74925,1,2,0:0:0:0:
320,192,75102,1,0,0:0:0:0:
64,192,75278,1,8,0:0:0:0:
192,192,75278,1,0,0:0:0:0:
448,192,75455,1,0,0:0:0:0:
64,192,75631,1,4,0:0:0:0:
320,192,75631,1,2,0:0:0:0:
192,192,75808,1,2,0:3:0:0:
320,192,75984,1,4,0:1:0:0:
448,192,75984,128,8,76337:0:0:0:0:
64,192,76337,128,2,76690:0:0:0:0:
192,192,76337,1,4,0:0:0:0:
320,192,76690,1,8,0:0:0:0:
448,192,76690,1,0,0:0:0:0:
192,192,76867,1,0,0:0:0:0:
448,192,77043,1,2,0:0:0:0:
320,192,77220,1,0,0:0:0:0:
64,192,77396,1,8,0:0:0:0:
192,192,77396,128,0,77749:0:0:0:0:
448,192,77749,1,2,0:0:0:0:
320,192,77925,1,0,0:0:0:0:
64,192,78102,1,8,0:0:0:0:
192,192,78102,1,0,0:0:0:0:
448,192,78278,1,0,0:0:0:0:
192,192,78455,1,2,0:0:0:0:
320,192,78631,1,0,0:0:0:0:
64,192,78808,1,8,0:0:0:0:
448,192,78808,1,0,0:0:0:0:
192,192,78984,1,0,0:0:0:0:
320,192,79161,1,2,0:0:0:0:
448,192,79161,128,0,79514:0:0:0:0:
64,192,79514,1,8,0:0:0:0:
192,192,79514,1,0,0:0:0:0:
320,192,79690,1,0,0:0:0:0:
64,192,79867,1,2,0:0:0:0:
192,192,80043,1,0,0:0:0:0:
320,192,80220,128,8,80573:0:0:0:0:
448,192,80220,1,0,0:0:0:0:
64,192,80573,1,2,0:0:0:0:
192,192,80749,1,0,0:0:0:0:
320,192,80925,1,8,0:0:0:0:
448,192,80925,1,0,0:0:0:0:
64,192,81102,1,0,0:0:0:0:
192,192,81278,1,2,0:0:0:0:
448,192,81455,1,0,0:0:0:0:
320,192,81631,1,0,0:0:0:0:
192,192,81808,1,0,0:0:0:0:
64,192,81984,1,4,0:0:0:0:
448,192,81984,1,2,0:0:0:0:
320,192,82514,1,0,0:0:0:0:
64,192,83043,1,2,0:0:0:0:
448,192,83043,1,0,0:0:0:0:
192,192,83573,1,0,0:0:0:0:
448,192,84102,1,2,0:0:0:0:
320,192,84278,1,0,0:0:0:0:
192,192,84455,1,2,0:0:0:0:
320,192,84631,1,0,0:0:0:0:
64,192,84808,1,2,0:0:0:0:
448,192,84808,1,0,0:0:0:0:
192,192,85337,1,0,0:0:0:0:
448,192,85690,1,0,0:0:0:0:
64,192,85867,1,2,0:0:0:0:
320,192,85867,1,0,0:0:0:0:
192,192,86396,1,0,0:0:0:0:
320,192,86573,1,2,0:0:0:0:
448,192,86749,1,0,0:0:0:0:
64,192,86925,1,2,0:0:0:0:
192,192,87102,1,0,0:0:0:0:
448,192,87278,1,2,0:0:0:0:
320,192,87455,1,0,0:0:0:0:
64,192,87631,128,4,87984:0:0:0:0:
192,192,87631,1,2,0:0:0:0:
448,192,87984,1,2,0:0:0:0:
64,192,88337,128,2,88690:0:0:0:0:
320,192,88690,1,2,0:0:0:0:
192,192,89043,128,2,89396:0:0:0:0:
448,192,89043,1,0,0:0:0:0:
320,192,89396,1,2,0:0:0:0:
64,192,89749,1,2,0:0:0:0:
192,192,89925,1,0,0:0:0:0:
448,192,90102,1,2,0:0:0:0:
320,192,90278,1,0,0:0:0:0:
64,192,90455,128,2,90808:0:0:0:0:
192,192,90455,1,0,0:0:0:0:
448,192,90808,128,2,91161:0:0:0:0:
192,192,91161,128,2,91514:0:0:0:0:
320,192,91514,1,2,0:0:0:0:
64,192,91690,1,0,0:0:0:0:
448,192,91867,128,2,92220:0:0:0:0:
192,192,92220,1,2,0:0:0:0:
320,192,92396,1,0,0:0:0:0:
64,192,92573,128,2,92925:0:0:0:0:
320,192,92925,1,2,0:0:0:0:
448,192,92925,1,0,0:0:0:0:
64,192,93278,1,4,0:0:0:0:
448,192,93278,128,2,93631:0:0:0:0:
64,192,93631,1,8,0:0:0:0:
192,192,93631,1,0,0:0:0:0:
320,192,93808,128,0,94161:0:0:0:0:
64,192,94161,1,0,0:0:0:0:
192,192,94337,128,8,94690:0:0:0:0:
448,192,94337,1,0,0:0:0:0:
320,192,94690,1,2,0:0:0:0:
64,192,94867,1,0,0:0:0:0:
320,192,95043,1,8,0:0:0:0:
448,192,95043,1,0,0:0:0:0:
192,192,95220,1,0,0:0:0:0:
448,192,95396,1,2,0:0:0:0:
320,192,95573,1,0,0:0:0:0:
64,192,95749,1,8,0:0:0:0:
192,192,95749,1,0,0:0:0:0:
320,192,95925,1,0,0:0:0:0:
64,192,96102,128,2,96455:0:0:0:0:
448,192,96102,1,0,0:0:0:0:
320,192,96455,1,8,0:0:0:0:
448,192,96455,1,0,0:0:0:0:
192,192,96631,128,0,96984:0:0:0:0:
448,192,96984,1,0,0:0:0:0:
64,192,97161,1,8,0:0:0:0:
320,192,97161,128,0,97514:0:0:0:0:
192,192,97514,1,2,0:0:0:0:
448,192,97690,1,0,0:0:0:0:
64,192,97867,1,8,0:0:0:0:
192,192,97867,1,0,0:0:0:0:
320,192,98043,1,0,0:0:0:0:
64,192,98220,1,2,0:0:0:0:
192,192,98396,1,8,0:1:0:0:
320,192,98573,1,8,0:0:0:0:
448,192,98573,1,8,1:0:0:0:
64,192,98749,1,0,0:0:0:0:
192,192,98925,1,4,0:0:0:0:
448,192,98925,128,2,99278:0:0:0:0:
64,192,99278,1,8,0:0:0:0:
192,192,99278,1,0,0:0:0:0:
320,192,99631,128,2,99984:0:0:0:0:
64,192,99984,1,8,0:0:0:0:
448,192,99984,1,0,0:0:0:0:
192,192,100337,128,2,100690:0:0:0:0:
320,192,100690,1,8,0:0:0:0:
448,192,100690,1,0,0:0:0:0:
64,192,101043,128,2,101396:0:0:0:0:
448,192,101396,1,2,0:0:0:0:
320,192,101573,1,2,0:1:0:0:
64,192,101749,1,2,0:0:0:0:
192,192,101749,128,4,102102:0:0:0:0:
448,192,102102,128,8,102455:0:0:0:0:
64,192,102455,128,2,102808:0:0:0:0:
320,192,102808,128,8,103161:0:0:0:0:
64,192,103161,128,8,103867:0:0:0:0:
448,192,103161,1,2,0:0:0:0:
448,192,103514,1,10,0:0:0:0:
320,192,103867,1,2,0:0:0:0:
192,192,104043,1,2,0:0:0:0:
448,192,104220,1,2,0:0:0:0:
320,192,104396,1,2,0:0:0:0:
64,192,104573,1,4,0:0:0:0:
192,192,104573,1,2,0:0:0:0:
448,192,104925,1,8,0:0:0:0:
192,192,105102,1,0,0:0:0:0:
320,192,105455,1,0,0:0:0:0:
64,192,105631,1,8,0:0:0:0:
64,192,106161,1,0,0:0:0:0:
448,192,106690,1,2,0:0:0:0:
192,192,107043,1,8,0:0:0:0:
320,192,107396,1,2,0:0:0:0:
64,192,107749,1,8,0:0:0:0:
448,192,107925,1,0,0:0:0:0:
64,192,108278,1,0,0:0:0:0:
320,192,108455,1,8,0:0:0:0:
320,192,108984,1,0,0:0:0:0:
192,192,109161,128,8,109514:0:0:0:0:
448,192,109514,128,2,109867:0:0:0:0:
64,192,109867,128,8,110220:0:0:0:0:
320,192,110220,1,2,0:0:0:0:
448,192,110220,1,0,0:0:0:40:cymbal_short.wav
64,192,110573,1,8,0:0:0:0:
320,192,110749,1,0,0:0:0:0:
192,192,111102,1,0,0:0:0:0:
448,192,111278,1,8,0:0:0:0:
448,192,111808,1,0,0:0:0:0:
192,192,112337,1,2,0:0:0:0:
320,192,112690,1,8,0:0:0:0:
64,192,113043,1,2,0:0:0:0:
448,192,113396,1,8,0:0:0:0:
192,192,113573,128,0,113925:0:0:0:0:
448,192,113925,1,0,0:0:0:0:
64,192,114102,1,8,0:0:0:0:
192,192,114278,1,0,0:0:0:0:
448,192,114455,1,2,0:0:0:0:
320,192,114808,1,8,0:0:0:0:
64,192,114984,1,0,0:0:0:0:
448,192,115161,128,2,115514:0:0:0:0:
64,192,115514,128,12,115867:0:0:0:0:
320,192,115867,1,2,0:0:0:0:
448,192,115867,1,4,0:0:0:0:
192,192,116220,1,8,0:0:0:0:
320,192,116396,1,0,0:0:0:0:
64,192,116749,1,0,0:0:0:0:
448,192,116925,1,8,0:0:0:0:
448,192,117455,1,0,0:0:0:0:
64,192,117984,1,2,0:0:0:0:
320,192,118337,1,8,0:0:0:0:
192,192,118690,1,2,0:0:0:0:
448,192,119043,1,8,0:0:0:0:
64,192,119220,1,0,0:0:0:0:
320,192,119396,1,2,0:0:0:0:
192,192,119749,1,8,0:0:0:0:
64,192,119925,1,0,0:0:0:0:
192,192,120278,1,0,0:0:0:0:
320,192,120455,1,8,0:0:0:0:
448,192,120631,1,0,0:0:0:0:
64,192,120808,128,2,121161:0:0:0:0:
448,192,121161,128,8,121514:0:0:0:0:
64,192,121514,1,2,0:0:0:0:
192,192,121514,1,0,0:0:0:40:cymbal_short.wav
320,192,121867,1,8,0:0:0:0:
192,192,122043,1,0,0:0:0:0:
448,192,122396,1,0,0:0:0:0:
64,192,122573,1,8,0:0:0:0:
64,192,123102,1,0,0:0:0:0:
320,192,123631,1,2,0:0:0:0:
192,192,123984,1,8,0:0:0:0:
448,192,124337,1,2,0:0:0:0:
320,192,124514,128,0,125043:0:0:0:0:
64,192,125043,1,2,0:0:0:0:
192,192,125396,1,8,0:0:0:0:
320,192,125573,1,0,0:0:0:0:
448,192,125749,128,6,126102:0:0:0:0:
64,192,126102,1,2,0:3:0:0:
320,192,126278,128,2,126631:0:0:0:0:
64,192,126631,1,2,0:3:0:0:
192,192,126808,128,6,127161:0:0:0:0:
320,192,127161,1,2,0:0:0:0:
448,192,127161,1,4,0:0:0:0:
64,192,127514,1,8,0:0:0:0:
448,192,127514,128,0,127867:0:0:0:0:
320,192,127867,128,2,128220:0:0:0:0:
64,192,128220,128,8,128573:0:0:0:0:
192,192,128220,1,0,0:0:0:0:
448,192,128573,1,2,0:0:0:0:
320,192,128749,1,0,0:0:0:0:
192,192,128925,1,8,0:0:0:0:
448,192,128925,1,0,0:0:0:0:
64,192,129102,1,0,0:0:0:0:
192,192,129278,1,2,0:0:0:0:
448,192,129455,1,0,0:0:0:0:
64,192,129631,1,8,0:0:0:0:
320,192,129631,1,0,0:0:0:0:
192,192,129808,128,0,130161:0:0:0:0:
448,192,129984,1,2,0:0:0:0:
320,192,130161,1,0,0:0:0:0:
64,192,130337,1,8,0:0:0:0:
448,192,130337,1,0,0:0:0:0:
192,192,130514,1,0,0:0:0:0:
448,192,130690,1,2,0:0:0:0:
320,192,130867,1,0,0:0:0:0:
64,192,131043,1,8,0:0:0:0:
192,192,131043,1,0,0:0:0:0:
448,192,131220,128,0,131573:0:0:0:0:
64,192,131396,1,2,0:0:0:0:
192,192,131573,1,0,0:0:0:0:
64,192,131749,1,8,0:0:0:0:
320,192,131749,1,0,0:0:0:0:
448,192,131925,1,0,0:0:0:0:
192,192,132102,1,2,0:0:0:0:
64,192,132278,1,2,0:1:0:0:
448,192,132455,1,8,0:0:0:0:
64,192,132631,128,2,132984:0:0:0:0:
320,192,132631,1,4,0:0:0:0:
192,192,132984,1,2,0:0:0:0:
320,192,133161,1,8,0:0:0:0:
448,192,133337,128,0,133690:0:0:0:0:
192,192,133690,1,2,0:0:0:0:
320,192,133867,1,8,0:0:0:0:
64,192,134043,128,2,134925:0:0:0:0:
448,192,134043,1,0,0:0:0:40:cymbal_short.wav
320,192,134396,1,2,0:0:0:0:
192,192,134749,1,2,0:0:0:0:
448,192,134925,1,2,0:0:0:0:
448,192,135455,128,0,136337:0:0:0:0:
192,192,135808,1,0,0:0:0:0:
64,192,136161,1,0,0:0:0:0:
320,192,136337,1,0,0:0:0:0:
64,192,137043,1,0,0:0:0:10:csbit.wav
64,192,137396,1,0,0:0:0:20:csbit.wav
448,192,137749,1,0,0:0:0:30:csbit.wav
320,192,137925,1,0,0:0:0:30:csbit.wav
192,192,138102,1,0,0:0:0:40:csbit.wav
64,192,138278,1,0,0:0:0:40:csbit.wav
320,192,138455,1,2,0:0:0:0:
448,192,138455,1,4,0:0:0:0:
64,192,138631,1,0,0:0:0:0:
192,192,138808,1,8,0:0:0:0:
320,192,138984,1,0,0:0:0:0:
448,192,139161,128,2,139514:0:0:0:0:
192,192,139514,1,8,0:0:0:0:
320,192,139514,1,0,0:0:0:0:
64,192,139690,128,0,140043:0:0:0:0:
192,192,140043,1,0,0:0:0:0:
320,192,140220,1,8,0:0:0:0:
448,192,140220,1,0,0:0:0:0:
64,192,140396,1,0,0:0:0:0:
192,192,140573,1,2,0:0:0:0:
448,192,140749,1,0,0:0:0:0:
64,192,140925,1,8,0:0:0:0:
320,192,140925,1,0,0:0:0:0:
192,192,141102,1,0,0:0:0:0:
64,192,141278,128,2,141631:0:0:0:0:
320,192,141631,1,8,0:0:0:0:
448,192,141631,1,0,0:0:0:0:
192,192,141808,1,0,0:0:0:0:
448,192,141984,128,2,142337:0:0:0:0:
64,192,142337,1,8,0:0:0:0:
320,192,142337,1,0,0:0:0:0:
192,192,142514,1,0,0:0:0:0:
64,192,142690,128,2,143043:0:0:0:0:
320,192,143043,128,8,143396:0:0:0:0:
448,192,143043,1,0,0:0:0:0:
192,192,143396,128,2,143749:0:0:0:0:
64,192,143925,1,0,0:0:0:0:
320,192,144102,1,2,0:0:0:0:
192,192,144278,1,0,0:0:0:0:
320,192,144455,1,8,0:0:0:0:
448,192,144455,1,0,0:0:0:0:
64,192,144631,1,0,0:0:0:0:
448,192,144808,128,2,145161:0:0:0:0:
64,192,145161,1,8,0:0:0:0:
320,192,145161,1,0,0:0:0:0:
192,192,145337,128,0,145690:0:0:0:0:
64,192,145690,1,0,0:0:0:0:
320,192,145867,1,8,0:0:0:0:
448,192,145867,1,0,0:0:0:0:
64,192,146043,1,0,0:0:0:0:
192,192,146220,1,2,0:0:0:0:
320,192,146396,1,0,0:0:0:0:
64,192,146573,1,8,0:0:0:0:
448,192,146573,1,0,0:0:0:0:
192,192,146749,1,0,0:0:0:0:
320,192,146925,1,2,0:0:0:0:
192,192,147278,1,8,0:0:0:0:
448,192,147278,1,0,0:0:0:0:
320,192,147455,1,0,0:0:0:0:
64,192,147631,128,2,147984:0:0:0:0:
192,192,147984,1,8,0:0:0:0:
448,192,147984,128,0,148337:0:0:0:0:
320,192,148337,1,2,0:0:0:0:
192,192,148514,1,0,0:0:0:0:
64,192,148690,1,8,0:0:0:0:
448,192,148690,1,0,0:0:0:0:
320,192,148867,1,0,0:0:0:0:
64,192,149043,128,2,149396:0:0:0:0:
448,192,149396,1,8,0:0:0:0:
320,192,149573,1,8,1:0:0:0:
64,192,149749,1,2,0:0:0:0:
192,192,149749,1,4,0:0:0:0:
448,192,149925,1,0,0:0:0:0:
320,192,150102,1,8,0:0:0:0:
192,192,150278,1,0,0:0:0:0:
64,192,150455,128,2,150808:0:0:0:0:
192,192,150808,1,8,0:0:0:0:
320,192,150808,1,0,0:0:0:0:
448,192,150984,128,0,151337:0:0:0:0:
320,192,151337,1,0,0:0:0:0:
64,192,151514,1,8,0:0:0:0:
192,192,151514,1,0,0:0:0:0:
448,192,151690,1,0,0:0:0:0:
320,192,151867,1,2,0:0:0:0:
64,192,152043,1,0,0:0:0:0:
192,192,152220,1,8,0:0:0:0:
448,192,152220,1,0,0:0:0:0:
320,192,152396,1,0,0:0:0:0:
448,192,152573,128,2,152925:0:0:0:0:
64,192,152925,1,8,0:0:0:0:
192,192,152925,128,0,153278:0:0:0:0:
64,192,153278,128,2,153631:0:0:0:0:
192,192,153808,1,0,0:0:0:0:
320,192,153984,1,2,0:0:0:0:
448,192,154161,1,0,0:0:0:0:
64,192,154337,1,8,0:0:0:0:
320,192,154337,1,0,0:0:0:0:
192,192,154514,128,0,154867:0:0:0:0:
320,192,154867,1,8,0:1:0:0:
448,192,154867,1,0,0:0:0:0:
64,192,155043,1,8,0:0:0:0:
192,192,155220,1,0,0:0:0:0:
448,192,155396,1,2,0:0:0:0:
320,192,155573,1,0,0:0:0:0:
64,192,155749,1,8,0:0:0:0:
192,192,155749,1,0,0:0:0:0:
448,192,155925,1,0,0:0:0:0:
64,192,156102,128,2,156455:0:0:0:0:
192,192,156455,1,8,0:0:0:0:
448,192,156455,1,0,0:0:0:0:
320,192,156631,128,0,156984:0:0:0:0:
448,192,156984,1,0,0:0:0:0:
64,192,157161,1,8,0:0:0:0:
192,192,157161,1,0,0:0:0:0:
448,192,157337,1,0,0:0:0:0:
320,192,157514,1,2,0:0:0:0:
192,192,157690,1,0,0:0:0:0:
64,192,157867,1,8,0:0:0:0:
448,192,157867,1,0,0:0:0:0:
320,192,158043,1,0,0:0:0:0:
192,192,158220,1,2,0:0:0:0:
64,192,158573,1,8,0:0:0:0:
320,192,158573,1,0,0:0:0:0:
192,192,158749,1,0,0:0:0:0:
448,192,158925,128,2,159278:0:0:0:0:
64,192,159278,128,8,159631:0:0:0:0:
320,192,159278,1,0,0:0:0:0:
192,192,159631,1,2,0:0:0:0:
448,192,159631,1,4,0:0:0:0:
320,192,159808,1,0,0:0:0:0:
64,192,159984,1,8,0:0:0:0:
448,192,159984,1,0,0:0:0:0:
192,192,160161,1,2,0:0:0:0:
448,192,160337,128,2,160690:0:3:0:0:
64,192,160690,1,2,0:0:0:0:
320,192,160690,1,4,0:0:0:0:
64,192,161043,128,2,161396:0:0:0:0:
192,192,161043,1,0,0:0:0:0:
320,192,161396,1,8,0:0:0:0:
448,192,161396,1,0,0:0:0:0:
192,192,161573,128,0,161925:0:0:0:0:
320,192,161925,1,2,0:0:0:0:
64,192,162102,1,8,0:0:0:0:
448,192,162102,128,0,162455:0:0:0:0:
64,192,162455,1,2,0:0:0:0:
192,192,162631,1,0,0:0:0:0:
320,192,162808,1,8,0:0:0:0:
448,192,162808,1,0,0:0:0:0:
64,192,162984,1,0,0:0:0:0:
192,192,163161,1,2,0:0:0:0:
320,192,163337,1,2,0:0:0:0:
64,192,163514,1,8,0:0:0:0:
448,192,163514,1,0,0:0:0:0:
192,192,163690,1,0,0:0:0:0:
448,192,163867,128,2,164220:0:0:0:0:
64,192,164220,1,8,0:0:0:0:
192,192,164220,1,0,0:0:0:0:
320,192,164396,128,0,164749:0:0:0:0:
192,192,164749,1,2,0:0:0:0:
64,192,164925,128,8,165278:0:0:0:0:
448,192,164925,1,0,0:0:0:0:
448,192,165278,1,2,0:0:0:0:
320,192,165455,1,0,0:0:0:0:
64,192,165631,1,8,0:0:0:0:
192,192,165631,1,0,0:0:0:0:
448,192,165808,1,0,0:0:0:0:
192,192,165984,128,2,166337:0:0:0:0:
320,192,165984,1,4,0:0:0:0:
64,192,166337,1,2,0:0:0:0:
448,192,166337,128,0,166690:0:0:0:0:
64,192,166690,1,2,0:0:0:0:
192,192,166690,1,4,0:0:0:0:
320,192,166867,1,0,0:0:0:0:
64,192,167043,1,8,0:0:0:0:
448,192,167043,1,0,0:0:0:0:
192,192,167220,1,2,0:0:0:0:
320,192,167396,1,8,0:0:0:0:
448,192,167396,1,0,0:0:0:0:
192,192,167573,1,2,0:0:0:0:
64,192,167749,1,8,0:0:0:0:
448,192,167749,1,0,0:0:0:0:
320,192,167925,1,2,0:0:0:0:
64,192,168102,1,8,0:0:0:0:
192,192,168102,1,0,0:0:0:0:
448,192,168278,1,2,0:0:0:0:
192,192,168455,1,8,0:0:0:0:
320,192,168455,1,0,0:0:0:0:
64,192,168631,1,2,0:0:0:0:
320,192,168808,1,8,0:0:0:0:
448,192,168808,1,0,0:0:0:0:
192,192,168984,1,10,0:0:0:0:
64,192,169161,1,8,0:0:0:0:
448,192,169161,1,0,0:0:0:0:
320,192,169337,1,8,0:0:0:0:
64,192,169514,128,2,169867:0:0:0:0:
192,192,169514,1,0,0:0:0:40:cymbal_short.wav
320,192,169867,128,0,170220:0:0:0:0:
192,192,170220,128,2,170573:0:0:0:0:
448,192,170573,128,0,170925:0:0:0:0:
64,192,170925,128,0,171278:0:0:0:0:
