osu file format v14

[General]
AudioFilename: audio.mp3
AudioLeadIn: 0
PreviewTime: 246680
Countdown: 0
SampleSet: Soft
StackLeniency: 0.8
Mode: 0
LetterboxInBreaks: 0
WidescreenStoryboard: 0

[Editor]
Bookmarks: 780,13580,32780,58380,83980,108980,109580,135180,147980,173580,199180,223980,224780,240780,247180,259980,267180,272380,272780,295180,303180
DistanceSpacing: 1
BeatDivisor: 8
GridSize: 32
TimelineZoom: 1.3

[Metadata]
Title:remember
TitleUnicode:remember
Artist:Uru
ArtistUnicode:Uru
Creator:SeaRasp
Version:Youkai
Source:劇場版 夏目友人帳 ~うつせみに結ぶ~
Tags:Natsume Yujin-cho yuujinchou the Movie Ephemeral Bond ending ed theme song full version japanese jpop j-pop pop anime
BeatmapID:2879943
BeatmapSetID:1395240

[Difficulty]
HPDrainRate:6
CircleSize:4.5
OverallDifficulty:8
ApproachRate:8.3
SliderMultiplier:3.3
SliderTickRate:1

[Events]
//Background and Video events
0,0,"BG.jpg",0,0
//Break Periods
2,139180,145580
//Storyboard Layer 0 (Background)
//Storyboard Layer 1 (Fail)
//Storyboard Layer 2 (Pass)
//Storyboard Layer 3 (Foreground)
//Storyboard Layer 4 (Overlay)
//Storyboard Sound Samples

[TimingPoints]
780,800,4,2,1,15,1,0
780,-200,4,2,1,15,0,0
1580,-200,4,2,1,5,0,0
1980,-200,4,2,1,15,0,0
7980,-200,4,2,1,5,0,0
8780,-200,4,2,1,15,0,0
13580,-200,4,2,1,20,0,0
16680,-200,4,2,1,5,0,0
16780,-200,4,2,1,20,0,0
19880,-200,4,2,1,5,0,0
19980,-200,4,2,1,20,0,0
25580,-200,4,2,1,5,0,0
26380,-200,4,2,1,20,0,0
27980,-333.333333333333,4,2,1,20,0,0
28080,-333.333333333333,4,2,1,5,0,0
31180,-333.333333333333,4,2,1,15,0,0
31580,-333.333333333333,4,2,1,20,0,0
31980,-333.333333333333,4,2,1,25,0,0
32380,-333.333333333333,4,2,1,30,0,0
32780,-133.333333333333,4,2,1,35,0,0
44980,-133.333333333333,4,2,1,5,0,0
45180,-133.333333333333,4,2,1,35,0,0
45380,-133.333333333333,4,2,1,5,0,0
45580,-133.333333333333,4,2,1,35,0,0
54580,-166.666666666667,4,2,1,35,0,0
55180,-133.333333333333,4,2,1,35,0,0
58380,-111.111111111111,4,2,1,45,0,0
59980,-166.666666666667,4,2,1,45,0,0
60780,-111.111111111111,4,2,1,45,0,0
62380,-133.333333333333,4,2,1,35,0,0
64380,-133.333333333333,4,2,1,45,0,0
64780,-111.111111111111,4,2,1,45,0,0
66380,-166.666666666667,4,2,1,45,0,0
67180,-111.111111111111,4,2,1,45,0,0
68780,-133.333333333333,4,2,1,35,0,0
70780,-133.333333333333,4,2,1,45,0,0
71180,-111.111111111111,4,2,1,45,0,0
76180,-166.666666666667,4,2,1,45,0,0
77580,-133.333333333333,4,2,1,45,0,0
80780,-250,4,2,1,45,0,0
82880,-250,4,2,1,5,0,0
82980,-71.4285714285714,4,2,1,60,0,0
83080,-71.4285714285714,4,2,1,5,0,0
83180,-71.4285714285714,4,2,1,60,0,0
83280,-71.4285714285714,4,2,1,5,0,0
83380,-83.3333333333333,4,2,1,60,0,0
83980,-83.3333333333333,4,2,1,80,0,1
84380,-90.9090909090909,4,2,1,70,0,1
86280,-90.9090909090909,4,2,1,5,0,1
86380,-90.9090909090909,4,2,1,70,0,1
87180,-83.3333333333333,4,2,1,80,0,1
87580,-90.9090909090909,4,2,1,70,0,1
88280,-90.9090909090909,4,2,1,5,0,1
88380,-90.9090909090909,4,2,1,70,0,1
89880,-90.9090909090909,4,2,1,5,0,1
89980,-90.9090909090909,4,2,1,70,0,1
90380,-83.3333333333333,4,2,1,80,0,1
90780,-90.9090909090909,4,2,1,70,0,1
93580,-83.3333333333333,4,2,1,80,0,1
93980,-90.9090909090909,4,2,1,70,0,1
94680,-90.9090909090909,4,2,1,5,0,1
94780,-90.9090909090909,4,2,1,70,0,1
96280,-90.9090909090909,4,2,1,5,0,1
96380,-90.9090909090909,4,2,1,70,0,1
103180,-83.3333333333333,4,2,1,80,0,1
103580,-90.9090909090909,4,2,1,70,0,1
106380,-83.3333333333333,4,2,1,80,0,1
106780,-90.9090909090909,4,2,1,70,0,1
107480,-90.9090909090909,4,2,1,5,0,1
107580,-90.9090909090909,4,2,1,70,0,1
108980,-76.9230769230769,4,2,1,70,0,0
109580,-83.3333333333333,4,2,1,80,0,1
109980,-90.9090909090909,4,2,1,70,0,1
112280,-90.9090909090909,4,2,1,5,0,1
112380,-90.9090909090909,4,2,1,70,0,1
112780,-83.3333333333333,4,2,1,80,0,1
113180,-90.9090909090909,4,2,1,70,0,1
115980,-83.3333333333333,4,2,1,80,0,1
116380,-90.9090909090909,4,2,1,70,0,1
119180,-83.3333333333333,4,2,1,80,0,1
119580,-90.9090909090909,4,2,1,70,0,1
120280,-90.9090909090909,4,2,1,5,0,1
120380,-90.9090909090909,4,2,1,70,0,1
122280,-90.9090909090909,4,2,1,5,0,1
122380,-90.9090909090909,4,2,1,70,0,1
125580,-83.3333333333333,4,2,1,80,0,1
125980,-90.9090909090909,4,2,1,70,0,1
128780,-83.3333333333333,4,2,1,80,0,1
129180,-90.9090909090909,4,2,1,70,0,1
131980,-83.3333333333333,4,2,1,80,0,1
132380,-90.9090909090909,4,2,1,70,0,1
135180,-90.9090909090909,4,2,1,80,0,0
135280,-90.9090909090909,4,2,1,60,0,0
147980,-133.333333333333,4,2,1,40,0,0
160180,-133.333333333333,4,2,1,5,0,0
160380,-133.333333333333,4,2,1,40,0,0
160580,-133.333333333333,4,2,1,5,0,0
160780,-133.333333333333,4,2,1,40,0,0
172780,-133.333333333333,4,2,1,5,0,0
173180,-133.333333333333,4,2,1,50,0,0
173580,-111.111111111111,4,2,1,50,0,0
175180,-166.666666666667,4,2,1,50,0,0
175980,-111.111111111111,4,2,1,50,0,0
177380,-133.333333333333,4,2,1,40,0,0
179580,-133.333333333333,4,2,1,50,0,0
179980,-111.111111111111,4,2,1,50,0,0
181580,-166.666666666667,4,2,1,50,0,0
182380,-111.111111111111,4,2,1,50,0,0
183980,-133.333333333333,4,2,1,40,0,0
185880,-133.333333333333,4,2,1,5,0,0
185980,-133.333333333333,4,2,1,40,0,0
186380,-111.111111111111,4,2,1,50,0,0
191380,-166.666666666667,4,2,1,50,0,0
192380,-133.333333333333,4,2,1,50,0,0
195980,-250,4,2,1,50,0,0
198180,-71.4285714285714,4,2,1,60,0,0
198280,-71.4285714285714,4,2,1,5,0,0
198380,-71.4285714285714,4,2,1,60,0,0
198480,-71.4285714285714,4,2,1,5,0,0
198580,-71.4285714285714,4,2,1,60,0,0
199180,-83.3333333333333,4,2,1,80,0,1
199580,-90.9090909090909,4,2,1,70,0,1
201480,-90.9090909090909,4,2,1,5,0,1
201580,-90.9090909090909,4,2,1,70,0,1
202380,-83.3333333333333,4,2,1,80,0,1
202780,-90.9090909090909,4,2,1,70,0,1
203480,-90.9090909090909,4,2,1,5,0,1
203580,-90.9090909090909,4,2,1,70,0,1
205080,-90.9090909090909,4,2,1,5,0,1
205180,-90.9090909090909,4,2,1,70,0,1
205580,-83.3333333333333,4,2,1,80,0,1
205980,-90.9090909090909,4,2,1,70,0,1
208780,-83.3333333333333,4,2,1,80,0,1
209180,-90.9090909090909,4,2,1,70,0,1
209880,-90.9090909090909,4,2,1,5,0,1
209980,-90.9090909090909,4,2,1,70,0,1
211480,-90.9090909090909,4,2,1,5,0,1
211580,-90.9090909090909,4,2,1,70,0,1
215180,-83.3333333333333,4,2,1,80,0,1
215580,-90.9090909090909,4,2,1,70,0,1
217880,-90.9090909090909,4,2,1,5,0,1
217980,-90.9090909090909,4,2,1,70,0,1
218380,-83.3333333333333,4,2,1,80,0,1
218780,-90.9090909090909,4,2,1,70,0,1
221580,-83.3333333333333,4,2,1,80,0,1
221980,-90.9090909090909,4,2,1,70,0,1
223980,-90.9090909090909,4,2,1,80,0,0
224780,-83.3333333333333,4,2,1,80,0,1
225180,-90.9090909090909,4,2,1,70,0,1
226680,-90.9090909090909,4,2,1,5,0,1
226780,-90.9090909090909,4,2,1,70,0,1
228280,-90.9090909090909,4,2,1,5,0,1
228380,-90.9090909090909,4,2,1,70,0,1
230280,-90.9090909090909,4,2,1,5,0,1
230380,-90.9090909090909,4,2,1,70,0,1
231180,-83.3333333333333,4,2,1,80,0,1
231580,-90.9090909090909,4,2,1,70,0,1
233880,-90.9090909090909,4,2,1,5,0,1
233980,-90.9090909090909,4,2,1,70,0,1
237080,-90.9090909090909,4,2,1,5,0,1
237180,-90.9090909090909,4,2,1,70,0,1
237580,-83.3333333333333,4,2,1,80,0,1
237980,-90.9090909090909,4,2,1,70,0,1
240780,-90.9090909090909,4,2,1,70,0,0
241180,-100,4,2,1,50,0,0
241880,-100,4,2,1,5,0,0
241980,-100,4,2,1,50,0,0
246780,-100,4,2,1,20,0,0
247180,-200,4,2,1,20,0,0
247980,-200,4,2,1,5,0,0
248380,-200,4,2,1,20,0,0
251180,-200,4,2,1,5,0,0
251780,-200,4,2,1,20,0,0
257580,-200,4,2,1,5,0,0
257980,-200,4,2,1,20,0,0
259880,-200,4,2,1,5,0,0
259980,-166.666666666667,4,2,1,30,0,0
266780,-100,4,2,1,50,0,0
267180,-83.3333333333333,4,2,1,80,0,1
267580,-90.9090909090909,4,2,1,70,0,1
269080,-90.9090909090909,4,2,1,5,0,1
269180,-90.9090909090909,4,2,1,70,0,1
269580,-83.3333333333333,4,2,1,80,0,1
269980,-90.9090909090909,4,2,1,70,0,1
271980,-76.9230769230769,4,2,1,70,0,1
272380,-76.9230769230769,4,2,1,70,0,0
272780,-83.3333333333333,4,2,1,80,0,1
273180,-90.9090909090909,4,2,1,70,0,1
275080,-90.9090909090909,4,2,1,5,0,1
275180,-90.9090909090909,4,2,1,70,0,1
275980,-83.3333333333333,4,2,1,80,0,1
276380,-90.9090909090909,4,2,1,70,0,1
277080,-90.9090909090909,4,2,1,5,0,1
277180,-90.9090909090909,4,2,1,70,0,1
278680,-90.9090909090909,4,2,1,5,0,1
278780,-90.9090909090909,4,2,1,70,0,1
279180,-83.3333333333333,4,2,1,80,0,1
279580,-90.9090909090909,4,2,1,70,0,1
282380,-83.3333333333333,4,2,1,80,0,1
282780,-90.9090909090909,4,2,1,70,0,1
283480,-90.9090909090909,4,2,1,5,0,1
283580,-90.9090909090909,4,2,1,70,0,1
285080,-90.9090909090909,4,2,1,5,0,1
285180,-90.9090909090909,4,2,1,70,0,1
288780,-83.3333333333333,4,2,1,80,0,1
289180,-90.9090909090909,4,2,1,70,0,1
291980,-83.3333333333333,4,2,1,80,0,1
292380,-90.9090909090909,4,2,1,70,0,1
295180,-200,4,2,1,70,0,0
295980,-200,4,2,1,40,0,0
303180,-200,4,2,1,20,0,0

[Colours]
Combo1 : 224,101,101
Combo2 : 239,237,203
Combo3 : 188,155,133
Combo4 : 165,199,139

[HitObjects]
60,117,380,5,2,0:0:0:0:
37,32,780,2,0,B|134:23|97:82|213:69,1,165,2|0,3:0|0:0,0:0:0:0:
338,8,1980,1,2,0:0:0:0:
338,8,2380,5,2,0:3:0:0:
412,68,2780,1,2,0:0:0:0:
302,144,3180,1,2,0:0:0:0:
425,238,3580,1,2,0:0:0:0:
341,294,3980,6,0,P|298:276|250:276,2,82.5,2|2|2,3:0|0:0|0:0,0:0:0:0:
182,355,5180,1,2,0:0:0:0:
11,312,5580,5,2,0:3:0:0:
182,355,5980,1,2,0:0:0:0:
110,285,6380,5,2,0:0:0:0:
144,182,6780,1,2,0:0:0:0:
178,79,7180,2,0,P|258:64|356:39,1,165,2|0,3:0|0:0,0:0:0:0:
354,40,8780,5,2,0:3:0:0:
396,138,9180,1,2,0:0:0:0:
483,110,9580,5,2,0:0:0:0:
424,227,9980,1,2,0:0:0:0:
365,344,10380,2,0,P|321:352|267:365,2,82.5,2|2|2,3:0|0:0|0:0,0:0:0:0:
179,384,11580,5,2,0:0:0:0:
89,342,11980,2,0,P|63:297|101:207,1,123.75,2|0,0:3|3:0,0:0:0:0:
154,171,12780,2,0,P|169:125|155:70,1,82.5,8|2,0:1|0:0,0:0:0:0:
165,92,13580,6,0,P|101:101|31:112,1,123.75,2|0,0:3|0:0,0:0:0:0:
0,42,14380,1,8,0:1:0:0:
154,171,14780,2,0,P|186:164|222:159,1,41.25,4|0,0:3|3:0,0:0:0:0:
253,101,15180,5,2,0:3:0:0:
336,168,15580,1,2,0:0:0:0:
426,65,15980,1,2,0:0:0:0:
512,162,16380,2,0,P|513:194|504:238,1,61.875,2|0,0:0|0:0,0:0:0:0:
508,223,16780,6,0,P|444:232|374:243,1,123.75,2|0,0:3|0:0,0:0:0:0:
331,184,17580,1,8,0:1:0:0:
190,283,17980,2,0,P|188:304|193:333,1,41.25,4|0,0:3|3:0,0:0:0:0:
277,302,18380,1,2,3:0:0:0:
277,302,18780,5,2,0:0:0:0:
142,207,19180,1,2,0:0:0:0:
262,123,19580,2,0,P|271:87|264:44,1,61.875,2|0,0:0|0:0,0:0:0:0:
269,62,19980,5,2,0:3:0:0:
231,200,20380,1,2,0:0:0:0:
192,337,20780,2,0,P|149:344|96:355,1,82.5,10|4,0:1|0:3,0:0:0:0:
62,290,21380,5,0,3:0:0:0:
192,337,21580,2,0,B|288:338|258:381|364:378,1,165,0|2,3:0|0:0,0:0:0:0:
461,330,22780,2,0,P|475:292|461:242,1,82.5,2|2,0:0|0:3,0:0:0:0:
468,236,23580,5,0,0:0:0:0:
388,285,23780,1,0,0:0:0:0:
329,203,23980,2,0,P|288:198|240:192,1,82.5,8|4,0:1|0:3,0:0:0:0:
187,242,24580,1,0,3:0:0:0:
329,203,24780,2,0,P|363:145|330:44,1,165,2|0,3:0|0:0,0:0:0:0:
21,25,26380,6,0,P|28:66|33:119,1,82.5,2|0,0:3|0:0,0:0:0:0:
110,141,26980,1,0,0:0:0:0:
21,229,27180,1,8,0:1:0:0:
21,229,27580,5,4,0:1:0:0:
57,299,27780,1,0,3:0:0:0:
93,369,27980,2,0,B|287:337|187:400|388:372,1,296.99999093628,2|0,3:0|0:0,0:0:0:0:
256,192,30580,12,2,32780,3:0:0:0:
431,27,33380,5,10,0:1:0:0:
366,86,33580,2,0,P|373:146|381:227,1,123.750004720688,10|2,0:1|3:2,0:0:0:0:
434,299,34180,2,0,P|474:265|485:238,1,61.875002360344,2|2,3:2|0:3,0:0:0:0:
315,357,34780,1,2,0:0:0:0:
274,275,34980,2,0,P|225:257|196:261,1,61.875002360344,2|0,0:0|0:0,0:0:0:0:
61,384,35380,2,0,P|95:344|184:350,1,123.750004720688,2|8,0:0|0:1,0:0:0:0:
123,238,35980,5,2,3:0:0:0:
123,238,36580,1,10,0:1:0:0:
50,184,36780,2,0,P|41:123|31:40,1,123.750004720688,10|2,0:1|3:2,0:0:0:0:
33,61,37380,1,2,3:2:0:0:
132,127,37580,2,0,P|199:121|252:59,1,123.750004720688,2|2,0:3|0:0,0:0:0:0:
302,21,38180,2,0,P|270:3|231:0,1,61.875002360344,2|0,0:0|0:0,0:0:0:0:
375,110,38580,2,0,P|405:104|431:88,1,61.875002360344,2|0,0:0|0:0,0:0:0:0:
440,81,39180,6,0,P|432:135|423:218,1,123.750004720688,2|0,3:0|0:0,0:0:0:0:
376,328,39780,1,10,0:1:0:0:
339,246,39980,2,0,P|295:212|208:223,1,123.750004720688,10|2,0:1|3:2,0:0:0:0:
172,147,40580,1,2,3:2:0:0:
143,283,40780,2,0,P|75:295|3:310,1,123.750004720688,2|2,0:3|0:0,0:0:0:0:
21,306,41380,2,0,P|14:275|7:245,1,61.875002360344,2|0,0:0|0:0,0:0:0:0:
129,222,41780,2,0,P|135:252|142:282,1,61.875002360344,2|0,0:0|0:0,0:0:0:0:
51,173,42180,1,8,0:1:0:0:
172,147,42380,6,0,P|196:113|188:24,1,123.750004720688,2|0,0:3|0:0,0:0:0:0:
106,76,42980,1,10,0:1:0:0:
180,16,43180,2,0,P|247:9|317:-2,1,123.750004720688,10|2,0:1|3:2,0:0:0:0:
378,66,43780,2,0,P|408:69|439:74,1,61.875002360344,2|8,3:2|0:1,0:0:0:0:
512,34,44180,1,10,0:1:0:0:
403,152,44380,1,0,3:0:0:0:
403,152,44780,6,0,P|396:198|403:232,1,61.875002360344,8|0,0:1|0:0,0:0:0:0:
485,217,45180,2,0,P|492:171|485:137,1,61.875002360344,4|0,0:3|0:0,0:0:0:0:
327,245,45580,6,0,P|379:245|433:305,1,123.750004720688,2|0,3:0|0:0,0:0:0:0:
351,333,46180,1,8,0:1:0:0:
351,333,46380,1,10,0:1:0:0:
239,269,46580,2,0,P|241:238|250:209,1,61.875002360344,2|0,0:0|3:0,0:0:0:0:
184,384,46980,1,2,3:2:0:0:
154,303,47180,2,0,P|104:268|26:274,1,123.750004720688,2|2,0:3|0:0,0:0:0:0:
17,360,47780,2,0,P|47:351|87:344,1,61.875002360344,2|0,0:0|0:0,0:0:0:0:
109,247,48180,1,2,0:0:0:0:
37,186,48380,2,0,P|29:148|35:113,1,61.875002360344,2|8,0:0|0:1,0:0:0:0:
0,30,48780,6,0,P|61:43|128:55,1,123.750004720688,2|0,3:0|0:0,0:0:0:0:
121,53,49380,1,10,0:1:0:0:
120,147,49580,2,0,P|181:133|248:122,1,123.750004720688,10|2,0:1|3:2,0:0:0:0:
331,74,50180,2,0,P|339:39|337:7,1,61.875002360344,2|2,3:2|0:3,0:0:0:0:
493,160,50780,1,2,0:0:0:0:
417,198,50980,2,0,P|409:168|409:137,1,61.875002360344,2|0,0:0|0:0,0:0:0:0:
336,240,51380,2,0,P|331:298|327:381,1,123.750004720688,2|8,0:0|0:1,0:0:0:0:
327,363,51980,6,0,P|288:325|208:314,1,123.750004720688,2|0,3:0|0:0,0:0:0:0:
158,234,52580,1,10,0:1:0:0:
231,168,52780,2,0,P|235:110|240:27,1,123.750004720688,10|2,0:1|3:2,0:0:0:0:
142,8,53380,1,2,3:2:0:0:
142,8,53580,2,0,P|146:35|153:88,1,61.875002360344,2|0,0:3|0:0,0:0:0:0:
263,104,53980,2,0,P|318:69|400:82,1,123.750004720688,2|0,0:0|0:0,0:0:0:0:
512,202,54580,6,0,P|470:194|405:180,1,98.9999969787599,2|10,0:0|0:1,0:0:0:0:
354,276,55180,6,0,B|213:268|271:343|115:341,2,247.500009441376,2|10|2,3:0|0:1|0:3,0:0:0:0:
354,276,56980,5,8,0:1:0:0:
293,329,57180,2,0,P|231:312|159:294,1,123.750004720688,0|8,3:0|0:1,0:0:0:0:
31,94,57980,1,2,0:0:0:0:
31,94,58180,1,2,0:0:0:0:
13,183,58380,6,0,B|100:183|76:143|172:139,1,148.49999546814,2|2,3:0|0:0,0:0:0:0:
264,16,58980,2,0,P|257:46|248:92,1,74.2499977340699,2|8,0:0|0:1,0:0:0:0:
156,232,59380,1,2,0:0:0:0:
152,140,59580,2,0,P|144:103|136:67,1,74.2499977340699,2|8,3:2|0:1,0:0:0:0:
296,186,59980,6,0,P|367:171|431:221,1,148.49999546814,2|2,3:0|0:0,0:0:0:0:
476,123,60780,2,0,P|434:158|426:212,1,111.374996601105,10|2,0:1|0:0,0:0:0:0:
425,211,61180,5,0,3:0:0:0:
469,384,61380,1,2,3:1:0:0:
512,289,61580,2,0,P|439:303|341:322,1,148.49999546814,2|2,3:0|0:0,0:0:0:0:
246,384,62180,5,0,3:0:0:0:
214,279,62380,2,0,P|166:243|86:246,1,123.750004720688,8|2,0:1|3:0,0:0:0:0:
3,361,62980,2,0,P|64:349|147:333,1,123.750004720688,2|0,3:0|3:0,3:0:0:0:
327,193,63780,1,0,0:0:0:0:
327,193,63880,1,0,3:0:0:0:
327,193,63980,2,0,P|265:181|182:165,1,123.750004720688,8|2,3:1|3:2,3:0:0:0:
205,169,64580,1,2,3:2:0:0:
53,105,64780,6,0,B|137:108|116:64|219:65,1,148.49999546814,2|2,3:0|0:0,0:0:0:0:
260,0,65380,1,2,0:0:0:0:
351,103,65580,2,0,P|410:114|479:130,1,111.374996601105,8|0,0:1|0:0,0:0:0:0:
460,125,65980,1,2,3:2:0:0:
327,193,66180,1,10,0:1:0:0:
497,350,66380,6,0,P|440:296|362:302,1,148.49999546814,2|0,3:0|0:0,0:0:0:0:
237,252,67180,2,0,P|224:198|241:145,1,111.374996601105,10|2,0:1|0:0,0:0:0:0:
240,146,67580,5,0,3:2:0:0:
208,341,67780,1,2,3:2:0:0:
52,261,67980,2,0,P|91:255|139:244,1,74.2499977340699,2|2,3:0|0:0,0:0:0:0:
244,150,68380,2,0,P|204:144|157:133,1,74.2499977340699,2|0,0:0|3:0,0:0:0:0:
303,321,68780,6,0,P|369:329|450:349,1,123.750004720688,8|0,0:1|3:0,0:0:0:0:
496,281,69380,1,2,3:3:0:0:
425,220,69580,2,0,P|420:179|424:145,1,61.875002360344,2|0,0:3|3:0,0:0:0:0:
251,44,70180,1,2,0:3:0:0:
330,6,70380,2,0,P|334:67|325:128,1,123.750004720688,8|2,0:1|3:2,0:0:0:0:
324,128,70980,1,2,3:2:0:0:
222,242,71180,6,0,B|140:240|160:279|58:270,1,148.49999546814,2|2,3:0|0:0,0:0:0:0:
0,316,71780,1,2,0:0:0:0:
107,176,71980,1,10,0:1:0:0:
2,130,72180,2,0,P|7:165|15:212,1,74.2499977340699,2|0,0:0|3:0,0:0:0:0:
13,203,72580,1,10,0:1:0:0:
209,337,72780,6,0,P|285:343|379:367,1,148.49999546814,2|2,3:0|0:0,0:0:0:0:
454,307,73380,1,2,0:0:0:0:
296,203,73580,2,0,P|271:147|311:40,1,148.49999546814,2|0,3:0|3:0,0:0:0:0:
299,206,74180,1,2,3:2:0:0:
512,92,74380,6,0,B|427:92|448:132|350:127,1,148.49999546814,2|0,3:0|0:0,0:0:0:0:
277,31,74980,2,0,P|235:26|182:17,1,74.2499977340699,2|8,0:0|0:1,0:0:0:0:
133,121,75380,1,2,0:0:0:0:
133,121,75580,2,0,P|91:125|38:135,1,74.2499977340699,10|0,0:1|0:0,0:0:0:0:
0,73,75980,5,2,3:0:0:0:
185,193,76180,2,0,P|260:201|349:213,1,148.49999546814,8|8,0:1|0:1,0:0:0:0:
332,210,77180,5,2,3:2:0:0:
246,289,77380,1,0,3:0:0:0:
160,368,77580,2,0,P|91:357|26:348,1,123.750004720688,2|2,3:0|0:0,0:0:0:0:
37,349,78180,2,0,P|30:313|31:272,1,61.875002360344,2|8,0:0|0:1,0:0:0:0:
157,251,78580,2,0,P|164:214|163:173,1,61.875002360344,2|2,0:0|3:0,0:0:0:0:
59,130,78980,1,10,0:1:0:0:
114,59,79180,6,0,P|179:62|249:19,1,123.750004720688,2|2,0:3|0:3,0:3:0:0:
444,150,79980,2,0,P|388:124|327:128,1,123.750004720688,10|2,0:1|0:0,0:3:0:0:
323,378,80580,5,2,0:3:0:0:
338,376,80680,1,2,0:3:0:0:
353,374,80780,2,0,B|401:334|462:236|420:173|342:171|300:196|311:256|350:300|394:290,1,346.5,2|0,0:3|0:0,0:0:0:0:
426,273,82980,6,0,L|439:196,1,57.7499982376099,8|0,3:0|0:0,0:0:0:0:
313,105,83180,2,0,L|300:28,1,57.7499982376099,8|0,0:0|0:0,0:0:0:0:
385,0,83380,5,2,0:0:0:0:
249,178,83580,2,0,B|168:177|194:216|91:208,1,148.49999546814,2|2,0:0|0:0,0:0:0:0:
60,136,83980,6,0,P|80:236|92:335,1,197.99999395752,6|0,3:2|0:0,0:0:0:0:
141,64,84580,1,2,0:0:0:0:
141,64,84680,1,2,0:0:0:0:
141,64,84780,2,0,P|190:55|247:38,1,90.7500027694703,8|0,0:0|0:0,0:0:0:0:
413,72,85180,2,0,P|436:133|425:169,1,90.7500027694703,2|0,0:0|3:0,0:0:0:0:
431,156,85480,1,0,3:0:0:0:
431,156,85580,1,2,3:2:0:0:
254,269,85780,1,8,0:1:0:0:
327,350,85980,2,0,P|390:332|479:309,1,136.125004154205,2|0,0:0|0:0,0:0:0:0:
458,314,86380,5,10,0:0:0:0:
254,269,86580,1,8,3:0:0:0:
327,350,86780,1,2,3:2:0:0:
351,216,86980,1,0,3:0:0:0:
200,116,87180,6,0,B|78:85|78:85|40:119|50:167,1,197.99999395752,4|0,3:2|0:0,0:0:0:0:
292,64,87780,2,0,P|298:36|304:8,1,45.3750013847352,0|0,3:0|0:0,0:0:0:0:
200,116,87980,2,0,P|185:182|168:252,1,136.125004154205,8|0,0:0|0:0,0:0:0:0:
168,248,88380,1,2,0:3:0:0:
20,128,88580,1,2,3:2:0:0:
0,224,88780,2,0,P|56:216|100:184,1,90.7500027694703,2|0,3:2|0:0,0:0:0:0:
184,28,89180,5,2,3:2:0:0:
272,204,89380,1,2,0:0:0:0:
483,152,89580,2,0,P|416:138|327:120,1,136.125004154205,8|0,0:0|0:0,0:0:0:0:
350,124,89980,1,2,3:2:0:0:
444,48,90180,1,2,3:2:0:0:
272,204,90380,6,0,P|228:300|256:408,1,197.99999395752,6|0,3:2|0:0,0:0:0:0:
356,308,90980,1,0,0:0:0:0:
172,156,91180,2,0,B|64:160|108:104|-12:116,1,181.500005538941,8|0,0:0|0:0,0:0:0:0:
160,68,91780,1,2,3:2:0:0:
160,68,91880,1,0,3:2:0:0:
160,68,91980,1,2,3:0:0:0:
24,220,92180,1,8,0:0:0:0:
172,156,92380,1,2,0:0:0:0:
60,24,92580,1,2,0:0:0:0:
252,100,92780,5,8,0:0:0:0:
444,176,92980,1,8,3:0:0:0:
388,100,93180,1,0,3:0:0:0:
304,176,93380,1,2,3:2:0:0:
464,368,93580,6,0,B|480:352|509:347|509:347|432:340|456:380|340:372,1,197.99999395752,6|0,3:2|0:0,0:0:0:0:
365,373,94180,1,0,3:0:0:0:
232,252,94380,2,0,P|160:236|88:216,1,136.125004154205,8|0,0:0|0:0,0:0:0:0:
99,219,94780,1,0,3:0:0:0:
16,344,94980,6,0,P|55:329|120:316,1,90.7500027694703,0|2,3:0|0:3,0:0:0:0:
180,200,95380,1,0,3:0:0:0:
96,136,95580,2,0,P|84:88|92:40,1,90.7500027694703,0|0,3:0|0:0,0:0:0:0:
296,24,95980,2,0,P|248:76|176:80,1,136.125004154205,8|0,0:0|0:0,0:0:0:0:
185,82,96380,1,2,3:2:0:0:
384,136,96580,1,2,3:2:0:0:
292,356,96780,6,0,P|281:274|272:168,1,181.500005538941,6|2,3:1|0:0,0:0:0:0:
500,68,97380,2,0,P|496:104|480:184,1,90.7500027694703,2|8,0:0|0:0,0:0:0:0:
384,136,97780,2,0,P|388:100|404:20,1,90.7500027694703,2|0,0:0|0:0,0:0:0:0:
412,236,98180,1,2,3:2:0:0:
288,92,98380,2,0,B|184:92|212:140|108:132,2,181.500005538941,2|2|10,3:0|0:3|0:0,0:0:0:0:
132,220,99380,5,8,3:0:0:0:
114,132,99580,1,2,3:0:0:0:
96,44,99780,1,2,3:2:0:0:
150,308,99980,6,0,P|242:336|342:368,1,181.500005538941,6|2,3:1|0:0,0:0:0:0:
473,196,100580,1,2,3:2:0:0:
321,259,100780,1,8,0:0:0:0:
451,383,100980,2,0,P|464:335|468:276,1,90.7500027694703,2|0,0:0|0:0,0:0:0:0:
333,171,101380,2,0,P|321:128|316:83,1,90.7500027694703,2|2,3:2|0:3,0:2:0:0:
390,16,101780,1,0,3:0:0:0:
333,171,101980,2,0,P|270:123|164:141,1,181.500005538941,0|8,3:0|0:0,0:0:0:0:
32,247,102580,5,8,3:0:0:0:
234,222,102780,1,0,3:0:0:0:
74,161,102980,1,2,3:2:0:0:
302,321,103180,6,0,B|444:305|444:305|405:296|377:269,1,197.99999395752,6|0,3:2|0:0,0:0:0:0:
236,384,103780,1,0,3:0:0:0:
455,213,103980,2,0,P|466:108|474:21,1,181.500005538941,8|0,0:0|0:0,0:0:0:0:
455,213,104580,1,2,3:2:0:0:
368,65,104780,2,0,P|308:44|252:55,1,90.7500027694703,2|0,3:2|0:0,0:0:0:0:
174,286,105180,2,0,P|222:244|240:190,1,90.7500027694703,2|0,0:0|0:0,0:0:0:0:
79,7,105580,5,10,0:0:0:0:
138,194,105780,1,8,3:0:0:0:
198,106,105980,1,2,3:2:0:0:
44,182,106180,2,0,P|45:222|50:240,1,45.3750013847352,0|0,3:0|0:0,0:0:0:0:
251,350,106380,6,0,B|311:342|311:342|374:378|374:378|447:368,1,197.99999395752,6|0,3:2|0:0,0:0:0:0:
399,268,106980,1,0,3:0:0:0:
251,350,107180,2,0,P|177:358|101:368,1,136.125004154205,10|0,0:0|0:0,0:0:0:0:
115,366,107580,1,0,3:0:0:0:
226,262,107780,2,0,P|240:212|232:158,1,90.7500027694703,0|2,3:0|0:3,0:0:0:0:
0,207,108180,1,0,3:0:0:0:
108,49,108380,2,0,P|101:90|95:178,1,90.7500027694703,0|0,3:0|0:0,0:0:0:0:
1,0,108780,1,10,0:0:0:0:
191,88,108980,5,10,3:0:0:0:
202,94,109080,1,2,0:3:0:0:
212,100,109180,2,0,L|301:90,1,53.6249975452424,2|2,3:0|0:3,0:0:0:0:
284,0,109380,2,0,L|195:10,1,53.6249975452424,2|0,3:0|0:0,0:3:0:0:
348,258,109580,6,0,P|390:220|380:80,1,197.99999395752,6|0,3:2|0:0,0:0:0:0:
386,87,110180,1,0,3:0:0:0:
240,241,110380,2,0,P|195:235|130:228,1,90.7500027694703,8|0,0:0|0:0,0:0:0:0:
76,162,110780,1,2,0:0:0:0:
173,325,110980,1,0,3:0:0:0:
60,384,111180,6,0,P|42:330|59:275,1,90.7500027694703,2|0,3:2|0:0,0:0:0:0:
227,154,111580,2,0,P|245:208|228:263,1,90.7500027694703,2|0,0:0|0:0,0:0:0:0:
32,29,111980,2,0,P|100:42|173:54,1,136.125004154205,10|0,0:0|0:0,0:0:0:0:
165,52,112380,1,2,3:2:0:0:
239,240,112580,1,0,3:2:0:0:
501,40,112780,6,0,B|391:44|433:97|315:99,1,197.99999395752,6|0,3:2|0:0,0:0:0:0:
495,141,113380,1,0,0:0:0:0:
429,292,113580,2,0,P|426:242|421:193,1,90.7500027694703,8|0,0:0|0:0,0:0:0:0:
501,364,113980,1,2,0:0:0:0:
329,248,114180,1,2,3:2:0:0:
197,359,114380,2,0,P|105:371|17:385,1,181.500005538941,2|2,0:0|3:2,0:0:0:0:
17,384,114980,1,2,0:0:0:0:
180,166,115180,5,8,0:0:0:0:
35,288,115380,1,8,3:0:0:0:
166,264,115580,1,2,3:2:0:0:
42,190,115780,1,2,3:2:0:0:
234,35,115980,6,0,P|338:21|437:5,1,197.99999395752,6|0,3:2|0:0,0:0:0:0:
429,6,116580,1,0,0:0:0:0:
280,135,116780,2,0,P|247:76|134:55,1,181.500005538941,8|0,0:2|0:0,0:2:0:0:
1,240,117380,1,2,3:2:0:0:
1,240,117480,1,0,3:2:0:0:
1,240,117580,1,2,3:0:0:0:
167,146,117780,1,8,0:0:0:0:
0,98,117980,1,2,0:0:0:0:
87,195,118180,1,2,0:0:0:0:
174,289,118380,5,8,0:0:0:0:
390,260,118580,1,8,3:0:0:0:
273,231,118780,1,0,3:0:0:0:
287,328,118980,1,2,3:2:0:0:
502,193,119180,6,0,P|522:101|495:-26,1,197.99999395752,6|0,3:2|0:0,0:0:0:0:
505,0,119780,1,0,0:0:0:0:
347,143,119980,2,0,P|277:149|198:159,1,136.125004154205,8|0,0:0|0:0,0:0:0:0:
211,157,120380,1,0,3:0:0:0:
180,0,120580,2,0,P|237:28|252:61,1,90.7500027694703,0|2,3:0|0:3,0:0:0:0:
146,234,120980,1,2,3:0:0:0:
89,146,121180,2,0,P|35:137|-18:127,1,90.7500027694703,0|0,3:0|0:0,0:0:0:0:
161,89,121580,5,8,0:0:0:0:
26,235,121780,1,8,3:0:0:0:
236,271,121980,2,0,P|305:282|374:295,1,136.125004154205,2|0,3:2|0:0,0:0:0:0:
370,294,122380,6,0,B|269:298|315:345|162:352,1,181.500005538941,6|2,3:1|0:0,0:0:0:0:
472,256,122980,2,0,P|466:295|458:359,1,90.7500027694703,2|8,3:2|0:0,0:0:0:0:
329,204,123380,2,0,P|323:158|316:114,1,90.7500027694703,2|0,0:0|0:0,0:0:0:0:
329,204,123780,1,2,3:2:0:0:
489,58,123980,2,0,P|455:17|323:37,2,181.500005538941,2|2|10,3:0|0:3|0:0,0:0:0:0:
472,256,124980,5,8,3:0:0:0:
402,96,125180,1,0,3:0:0:0:
497,163,125380,1,0,3:0:0:0:
195,222,125580,6,0,B|121:206|121:206|69:233|69:233|-36:210,1,197.99999395752,6|2,3:2|0:0,0:0:0:0:
254,135,126180,1,2,3:2:0:0:
254,135,126280,1,0,3:0:0:0:
254,135,126380,1,8,0:0:0:0:
135,310,126580,1,2,0:0:0:0:
195,222,126780,1,0,0:0:0:0:
113,121,126980,5,2,3:2:0:0:
277,323,127180,2,0,P|329:333|389:351,1,90.7500027694703,2|0,3:2|0:0,0:0:0:0:
94,222,127580,2,0,P|59:262|13:304,1,90.7500027694703,0|0,3:0|0:0,0:0:0:0:
339,200,127980,2,0,P|361:143|328:48,1,136.125004154205,10|2,0:0|0:0,0:0:0:0:
345,71,128380,1,2,3:2:0:0:
210,122,128580,2,0,L|281:142,1,45.3750013847352,2|0,3:2|0:0,0:0:0:0:
512,277,128780,6,0,B|407:277|449:215|322:211,1,197.99999395752,6|2,3:2|0:0,0:0:0:0:
505,172,129380,1,2,3:2:0:0:
341,325,129580,2,0,P|248:347|129:377,1,181.500005538941,8|0,0:0|0:0,0:0:0:0:
341,325,130180,1,2,3:2:0:0:
174,254,130380,2,0,P|156:203|164:150,1,90.7500027694703,2|0,3:2|0:0,0:0:0:0:
158,167,130680,1,2,0:0:0:0:
158,167,130780,1,2,0:0:0:0:
280,20,130980,2,0,P|298:71|290:124,1,90.7500027694703,2|8,0:0|0:0,0:0:0:0:
36,142,131380,5,10,3:0:0:0:
202,76,131580,1,0,3:0:0:0:
52,252,131780,1,2,3:2:0:0:
15,29,131980,6,0,B|130:26|81:93|229:74,1,197.99999395752,6|0,3:2|0:0,0:0:0:0:
384,30,132580,1,0,3:0:0:0:
295,106,132780,2,0,P|305:152|312:202,1,90.7500027694703,8|0,0:0|0:0,0:0:0:0:
243,289,133180,1,0,3:2:0:0:
427,233,133380,1,2,3:2:0:0:
243,289,133580,2,0,P|173:275|100:261,1,136.125004154205,2|0,0:0|0:0,0:0:0:0:
109,262,133980,1,2,3:2:0:0:
370,320,134180,5,2,3:2:0:0:
370,320,134280,1,0,3:0:0:0:
370,320,134380,1,8,0:0:0:0:
195,188,134580,1,8,3:0:0:0:
162,358,134780,1,2,3:0:0:0:
283,213,134980,2,0,P|288:173|281:145,1,45.3750013847352,0|2,3:0|0:0,0:0:0:0:
111,0,135180,5,6,3:2:0:0:
256,192,135280,12,2,138380,3:0:0:0:
256,192,146380,12,2,147980,3:0:0:0:
474,315,148580,5,10,0:1:0:0:
404,252,148780,1,10,0:1:0:0:
330,311,148980,2,0,P|250:297|188:289,1,123.750004720688,2|2,0:0|3:2,0:0:0:0:
138,368,149580,2,0,P|111:331|123:240,1,123.750004720688,2|2,0:3|0:0,0:0:0:0:
196,203,150180,2,0,P|213:164|212:129,1,61.875002360344,2|0,0:0|0:0,0:0:0:0:
143,24,150580,1,2,0:0:0:0:
108,109,150780,2,0,P|74:111|29:115,1,61.875002360344,2|0,0:0|0:0,0:0:0:0:
236,56,151180,6,0,P|297:60|359:65,1,123.750004720688,2|0,3:0|0:0,0:0:0:0:
451,37,151780,1,10,0:1:0:0:
483,126,151980,1,10,0:1:0:0:
397,160,152180,2,0,P|379:210|378:241,1,61.875002360344,2|0,0:0|3:0,0:0:0:0:
433,315,152580,1,2,3:2:0:0:
235,340,152780,2,0,P|286:300|363:307,1,123.750004720688,2|2,0:3|0:0,0:0:0:0:
433,315,153380,2,0,P|421:342|409:378,1,61.875002360344,2|0,0:0|0:0,0:0:0:0:
280,274,153780,2,0,P|272:207|263:139,1,123.750004720688,2|0,0:0|0:0,0:0:0:0:
170,53,154380,5,2,3:0:0:0:
101,116,154580,1,2,0:0:0:0:
25,25,154780,2,0,P|57:32|96:41,1,61.875002360344,2|10,0:3|0:1,0:0:0:0:
185,135,155180,1,10,0:1:0:0:
90,193,155380,2,0,P|81:232|85:264,1,61.875002360344,2|0,0:0|3:0,0:0:0:0:
158,308,155780,1,2,3:2:0:0:
21,358,155980,2,0,P|79:345|157:333,1,123.750004720688,2|2,0:0|0:0,0:0:0:0:
255,217,156580,2,0,P|248:243|238:282,1,61.875002360344,2|0,0:0|0:0,0:0:0:0:
329,355,156980,2,0,P|335:329|346:290,1,61.875002360344,2|0,0:0|0:0,0:0:0:0:
352,282,157580,6,0,P|413:291|471:251,1,123.750004720688,2|0,3:0|0:0,0:0:0:0:
505,180,158180,1,10,0:1:0:0:
419,141,158380,1,10,0:1:0:0:
510,28,158580,2,0,P|503:55|498:91,1,61.875002360344,2|0,0:0|3:0,0:0:0:0:
419,141,158980,2,0,P|391:134|356:129,1,61.875002360344,2|2,3:2|0:3,0:0:0:0:
317,54,159380,1,10,0:1:0:0:
190,144,159580,1,0,3:0:0:0:
190,144,159980,6,0,P|179:185|185:220,1,61.875002360344,8|0,0:1|0:0,0:0:0:0:
263,216,160380,2,0,P|274:175|268:140,1,61.875002360344,4|0,0:3|0:0,0:0:0:0:
88,0,160780,6,0,P|93:50|100:132,1,123.750004720688,2|0,3:0|0:0,0:0:0:0:
24,184,161380,1,10,0:1:0:0:
106,234,161580,2,0,P|120:272|120:302,1,61.875002360344,10|2,0:1|0:0,0:0:0:0:
0,353,161980,2,0,P|2:322|14:293,1,61.875002360344,0|2,3:2|3:2,3:2:0:0:
179,358,162380,2,0,P|240:367|311:379,1,123.750004720688,2|2,0:3|0:0,0:0:0:0:
389,304,162980,1,2,0:0:0:0:
309,254,163180,2,0,P|288:202|319:116,1,123.750004720688,2|2,0:3|0:0,0:0:0:0:
302,118,163980,6,0,P|361:130|438:144,1,123.750004720688,2|0,3:0|0:0,0:0:0:0:
423,141,164580,1,10,0:1:0:0:
381,56,164780,1,10,0:1:0:0:
302,118,164980,2,0,P|250:134|220:129,1,61.875002360344,2|0,0:0|3:0,0:0:0:0:
163,178,165380,2,0,P|160:148|147:119,1,61.875002360344,2|2,3:2|0:3,0:0:0:0:
288,213,165780,2,0,P|291:243|304:272,1,61.875002360344,2|0,0:0|0:0,0:0:0:0:
149,274,166180,2,0,P|178:261|208:258,1,61.875002360344,2|0,0:0|0:0,0:0:0:0:
312,382,166580,2,0,P|264:344|188:359,1,123.750004720688,2|0,0:0|0:0,0:0:0:0:
44,271,167180,6,0,P|37:208|29:135,1,123.750004720688,2|0,3:0|0:0,0:0:0:0:
21,52,167780,1,10,0:1:0:0:
98,101,167980,1,10,0:1:0:0:
144,25,168180,2,0,P|172:13|206:8,1,61.875002360344,2|0,0:0|3:0,0:0:0:0:
282,58,168580,1,0,3:0:0:0:
198,100,168780,2,0,P|191:161|184:223,1,123.750004720688,2|2,0:3|0:0,0:0:0:0:
313,263,169380,2,0,P|290:221|262:206,1,61.875002360344,2|0,0:0|0:0,0:0:0:0:
291,356,169780,2,0,P|338:357|365:340,1,61.875002360344,2|2,0:0|0:0,0:0:0:0:
357,347,170380,6,0,P|283:354|210:362,1,123.750004720688,2|0,3:0|0:0,0:0:0:0:
145,289,170980,1,2,0:3:0:0:
8,317,171180,2,0,P|81:309|155:302,1,123.750004720688,8|2,0:1|0:3,0:0:0:0:
256,192,171680,12,0,172780,3:0:0:0:
462,63,173180,5,2,0:0:0:0:
419,154,173380,2,0,L|411:106,1,30.937501180172,2|2,0:0|0:0,0:0:0:0:
462,63,173580,6,0,P|454:123|442:228,1,148.49999546814,6|2,3:0|0:0,0:0:0:0:
357,300,174180,2,0,P|398:329|448:334,1,74.2499977340699,2|8,3:2|0:1,0:0:0:0:
326,202,174580,1,2,0:0:0:0:
260,325,174780,2,0,P|223:332|167:347,1,74.2499977340699,2|0,0:0|0:0,0:0:0:0:
60,304,175180,6,0,P|31:262|45:162,1,148.49999546814,2|2,3:0|0:0,0:0:0:0:
30,76,175980,2,0,P|50:126|35:177,1,98.9999969787599,10|2,0:1|0:0,0:0:0:0:
40,168,176380,5,2,3:0:0:0:
147,113,176580,1,2,3:0:0:0:
253,54,176780,2,0,P|331:48|422:39,1,148.49999546814,2|2,3:0|0:0,0:0:0:0:
243,148,177380,6,0,P|239:177|230:230,1,61.875002360344,2|8,0:0|0:1,0:0:0:0:
172,292,177780,1,2,0:3:0:0:
319,254,177980,1,2,3:3:0:0:
172,292,178180,1,2,3:3:0:0:
319,254,178380,2,0,P|383:247|458:237,1,123.750004720688,2|2,0:3|3:2,0:0:0:0:
449,365,178980,2,0,P|479:368|510:372,1,61.875002360344,2|8,0:0|0:1,0:0:0:0:
510,372,179580,5,2,0:0:0:0:
447,269,179780,2,0,L|438:218,1,30.937501180172,2|2,0:0|0:0,0:0:0:0:
496,147,179980,6,0,P|502:67|510:-6,1,148.49999546814,6|2,3:0|3:2,0:0:0:0:
399,128,180580,2,0,P|356:131|311:137,1,74.2499977340699,2|8,3:2|0:1,0:0:0:0:
357,51,180980,1,2,0:0:0:0:
289,217,181180,1,2,3:2:0:0:
177,82,181380,1,2,0:3:0:0:
177,82,181480,1,2,0:3:0:0:
177,82,181580,6,0,P|102:32|30:44,1,148.49999546814,2|2,3:0|0:0,0:0:0:0:
171,169,182380,2,0,P|234:150|262:108,1,98.9999969787599,10|2,0:1|0:0,0:0:0:0:
254,126,182780,5,0,3:0:0:0:
91,215,182980,1,2,3:0:0:0:
170,356,183180,2,0,P|174:316|180:282,1,74.2499977340699,2|2,3:0|0:0,0:0:0:0:
91,215,183580,2,0,P|86:254|80:288,1,74.2499977340699,2|0,0:0|0:0,0:0:0:0:
273,338,183980,6,0,P|329:305|412:321,1,123.750004720688,8|2,0:1|3:2,0:0:0:0:
478,293,184580,2,0,P|472:321|463:382,1,61.875002360344,0|0,3:2|0:0,0:0:0:0:
369,223,184980,1,2,3:3:0:0:
512,211,185180,1,2,3:0:0:0:
432,160,185380,1,2,0:3:0:0:
352,109,185580,2,0,P|303:103|240:91,1,92.812503540516,10|0,0:1|0:0,0:0:0:0:
260,95,185980,5,2,0:0:0:0:
186,183,186180,2,0,L|132:192,1,30.937501180172,2|2,0:0|0:0,0:0:0:0:
8,149,186380,6,0,B|92:143|67:106|165:92,1,148.49999546814,6|2,3:0|0:0,0:0:0:0:
186,183,186980,2,0,P|181:219|169:276,1,74.2499977340699,2|8,3:2|0:1,0:0:0:0:
264,98,187380,2,0,P|256:61|251:24,1,74.2499977340699,2|0,0:0|0:0,0:0:0:0:
354,187,187780,1,10,0:1:0:0:
354,187,187880,1,2,0:0:0:0:
354,187,187980,6,0,P|425:231|491:211,1,148.49999546814,2|2,3:0|0:0,0:0:0:0:
432,149,188580,1,2,0:0:0:0:
346,310,188780,2,0,P|273:322|176:341,1,148.49999546814,2|0,3:0|0:0,0:0:0:0:
346,310,189380,1,0,3:0:0:0:
90,300,189580,6,0,P|58:233|84:163,1,148.49999546814,2|2,3:0|0:0,0:0:0:0:
180,151,190180,2,0,P|172:181|161:234,1,74.2499977340699,2|8,3:2|0:1,0:0:0:0:
123,79,190580,1,2,0:3:0:0:
123,79,190780,2,0,P|86:71|50:61,1,74.2499977340699,2|0,3:2|3:2,3:2:0:0:
0,128,191180,5,2,3:0:0:0:
198,26,191380,2,8,P|276:16|357:5,1,148.49999546814,8|8,0:1|0:1,0:1:0:0:
345,6,192380,5,2,3:2:0:0:
419,80,192580,2,0,L|408:137,1,30.937501180172,2|2,3:2|0:0,0:0:0:0:
351,181,192780,2,0,P|301:147|215:156,1,123.750004720688,2|2,3:0|0:0,0:0:0:0:
358,275,193380,2,0,P|397:266|427:242,1,61.875002360344,2|0,3:2|0:0,0:0:0:0:
261,321,193780,2,0,P|257:350|253:396,1,61.875002360344,2|0,0:0|3:0,0:0:0:0:
198,240,194180,1,10,0:1:0:0:
15,341,194380,6,0,P|77:296|143:307,1,123.750004720688,4|2,3:0|0:3,0:0:0:0:
198,240,194980,2,0,P|202:208|209:171,1,61.875002360344,0|8,0:0|0:1,0:0:0:0:
114,134,195380,2,0,P|104:72|94:11,1,123.750004720688,2|2,0:3|0:3,0:0:0:0:
95,12,195880,1,2,0:3:0:0:
95,12,195980,6,0,B|267:2|180:84|347:72,1,264,2|4,3:0|0:3,0:0:0:0:
344,73,198180,6,0,L|326:155,1,57.7499982376099,8|0,3:0|0:0,0:0:0:0:
185,241,198380,2,0,L|203:323,1,57.7499982376099,8|0,0:0|0:0,0:0:0:0:
217,384,198580,1,2,0:3:0:0:
103,184,198780,6,0,L|21:202,1,57.7499982376099,2|2,0:0|0:3,0:0:0:0:
297,251,198980,1,2,0:3:0:0:
297,251,199080,1,2,0:3:0:0:
297,251,199180,6,0,B|444:225|444:225|412:214|402:197,1,197.99999395752,6|0,3:2|0:0,0:0:0:0:
304,344,199780,1,0,0:0:0:0:
245,158,199980,2,0,P|195:115|139:117,1,90.7500027694703,8|0,0:0|0:0,0:0:0:0:
5,304,200380,1,2,0:0:0:0:
158,219,200580,1,0,3:0:0:0:
29,91,200780,2,0,P|36:131|50:210,1,90.7500027694703,2|0,3:2|0:0,0:0:0:0:
133,352,201180,2,0,P|145:280|159:209,1,136.125004154205,2|0,0:0|0:0,0:0:0:0:
157,218,201580,5,10,0:0:0:0:
300,355,201780,1,8,3:0:0:0:
387,181,201980,1,2,3:2:0:0:
283,234,202180,1,0,3:0:0:0:
496,291,202380,6,0,P|530:200|485:77,1,197.99999395752,6|0,3:2|0:0,0:0:0:0:
506,105,202980,1,0,3:0:0:0:
342,5,203180,2,0,P|272:17|180:30,1,136.125004154205,8|0,0:0|0:0,0:0:0:0:
207,26,203580,1,0,0:0:0:0:
391,169,203780,1,2,3:2:0:0:
305,229,203980,2,0,P|288:179|295:135,1,90.7500027694703,2|0,3:2|0:0,0:0:0:0:
368,81,204380,5,2,3:2:0:0:
196,191,204580,1,2,0:0:0:0:
366,303,204780,2,0,P|433:312|500:323,1,136.125004154205,8|0,0:0|0:0,0:0:0:0:
500,323,205180,1,2,3:2:0:0:
391,169,205380,1,2,3:2:0:0:
203,335,205580,6,0,B|94:331|119:382|4:368,1,197.99999395752,6|0,3:2|0:0,0:0:0:0:
203,335,206180,1,0,3:0:0:0:
44,260,206380,2,0,P|28:165|17:68,1,181.500005538941,8|0,0:0|0:0,0:0:0:0:
248,7,206980,1,2,3:2:0:0:
248,7,207080,1,0,3:0:0:0:
248,7,207180,1,2,3:0:0:0:
120,158,207380,1,8,0:0:0:0:
18,0,207580,1,2,0:0:0:0:
181,83,207780,1,2,0:0:0:0:
344,166,207980,5,10,0:0:0:0:
512,61,208180,1,8,3:0:0:0:
376,81,208380,1,0,3:0:0:0:
474,146,208580,1,2,3:2:0:0:
249,245,208780,6,0,B|183:231|183:231|127:263|127:263|31:245,1,197.99999395752,6|0,3:2|0:0,0:0:0:0:
62,250,209380,1,0,3:0:0:0:
251,356,209580,2,0,P|317:343|393:331,1,136.125004154205,8|0,0:0|0:0,0:0:0:0:
384,332,209980,1,0,3:0:0:0:
474,233,210180,6,0,P|483:181|460:124,1,90.7500027694703,0|2,3:0|0:3,0:0:0:0:
384,64,210580,1,0,3:0:0:0:
307,143,210780,2,0,P|259:151|189:164,1,90.7500027694703,0|0,3:0|0:0,0:0:0:0:
97,135,211180,2,0,P|86:65|74:-8,1,136.125004154205,8|0,0:0|0:0,0:0:0:0:
75,0,211580,1,2,3:2:0:0:
181,67,211780,1,2,3:2:0:0:
28,209,211980,6,0,P|1:280|3:402,1,181.500005538941,6|2,3:0|0:0,0:0:0:0:
199,282,212580,2,0,P|154:266|100:275,1,90.7500027694703,2|8,3:2|0:0,0:0:0:0:
101,365,212980,2,0,P|146:381|200:372,1,90.7500027694703,2|0,0:0|0:0,0:0:0:0:
295,255,213380,1,2,3:2:0:0:
482,344,213580,2,0,B|435:310|384:314|384:314|358:355|306:355,2,181.500005538941,2|2|10,3:0|0:3|0:0,0:0:0:0:
446,232,214580,5,8,3:0:0:0:
321,354,214780,1,0,3:0:0:0:
482,344,214980,1,0,3:0:0:0:
237,188,215180,6,0,B|216:159|193:135|193:135|223:74|248:-1,1,197.99999395752,6|2,3:2|0:0,0:0:0:0:
130,226,215780,1,2,3:2:0:0:
130,226,215880,1,0,3:0:0:0:
130,226,215980,1,8,0:0:0:0:
347,147,216180,1,2,0:0:0:0:
237,188,216380,1,0,0:0:0:0:
113,98,216580,5,2,3:2:0:0:
361,278,216780,2,0,P|408:283|459:294,1,90.7500027694703,2|0,3:2|0:0,0:0:0:0:
276,67,217180,2,0,P|323:61|374:51,1,90.7500027694703,0|0,3:0|0:0,0:0:0:0:
144,250,217580,2,0,P|133:319|120:393,1,136.125004154205,10|0,0:0|0:0,0:0:0:0:
121,384,217980,1,2,3:2:0:0:
277,319,218180,2,0,P|251:310|210:296,1,45.3750013847352,0|0,3:0|0:0,0:0:0:0:
0,179,218380,6,0,B|119:193|80:120|217:155,1,197.99999395752,6|2,3:2|0:0,0:0:0:0:
283,238,218980,1,0,3:0:0:0:
414,9,219180,2,0,P|400:98|388:188,1,181.500005538941,8|0,0:0|0:0,0:0:0:0:
296,108,219780,1,2,3:2:0:0:
393,300,219980,2,0,P|447:284|487:236,1,90.7500027694703,2|0,3:2|0:0,0:0:0:0:
471,261,220280,1,2,0:0:0:0:
471,261,220380,1,2,0:0:0:0:
276,380,220580,2,0,P|224:366|167:355,1,90.7500027694703,2|8,0:0|0:0,0:0:0:0:
23,205,220980,5,8,3:0:0:0:
230,274,221180,1,0,3:0:0:0:
46,364,221380,2,0,P|40:332|33:287,1,45.3750013847352,2|0,3:2|0:0,0:0:0:0:
159,142,221580,6,0,B|191:0|191:0|163:23|114:37,1,197.99999395752,6|0,3:2|0:0,0:0:0:0:
145,26,222180,1,0,3:0:0:0:
265,180,222380,2,0,P|310:186|383:199,1,90.7500027694703,8|0,0:0|0:0,0:0:0:0:
112,218,222780,2,0,P|67:210|22:204,1,90.7500027694703,2|0,0:3|3:0,0:0:0:0:
22,204,223080,1,0,3:0:0:0:
22,204,223180,1,2,3:0:0:0:
265,180,223380,1,8,0:0:0:0:
180,384,223580,2,0,P|190:315|203:234,1,136.125004154205,0|0,3:0|0:0,0:0:0:0:
200,249,223980,5,10,0:0:0:0:
373,361,224180,1,8,3:0:0:0:
423,229,224380,5,2,3:0:0:0:
180,384,224580,1,2,3:2:0:0:
23,199,224780,6,0,P|1:127|1:-5,1,197.99999395752,6|2,3:2|0:0,0:0:0:0:
228,108,225380,1,2,3:2:0:0:
106,95,225580,1,10,0:0:0:0:
274,10,225780,2,0,P|318:33|344:77,1,90.7500027694703,2|0,0:0|0:0,0:0:0:0:
226,217,226180,1,2,3:2:0:0:
281,298,226380,6,0,P|347:284|432:270,1,136.125004154205,2|0,0:0|0:0,0:0:0:0:
414,272,226780,1,2,0:0:0:0:
500,184,226980,2,0,P|505:135|514:80,1,90.7500027694703,2|8,0:0|0:0,0:0:0:0:
339,254,227380,2,0,P|333:205|325:150,1,90.7500027694703,2|2,0:0|3:0,0:0:0:0:
64,306,227780,1,2,3:2:0:0:
64,306,227880,1,2,0:0:0:0:
64,306,227980,6,0,P|121:355|184:349,1,136.125004154205,6|0,3:0|0:0,0:0:0:0:
178,351,228380,1,2,0:0:0:0:
88,188,228580,2,0,P|41:199|-17:212,1,90.7500027694703,2|8,3:2|0:0,0:0:0:0:
219,96,228980,1,2,0:0:0:0:
149,264,229180,1,2,3:2:0:0:
115,89,229380,2,0,P|136:34|182:-1,1,90.7500027694703,0|2,3:2|0:3,0:0:0:0:
278,186,229780,1,0,3:2:0:0:
473,92,229980,2,0,P|408:83|334:70,1,136.125004154205,0|0,3:0|0:0,0:0:0:0:
338,70,230380,5,10,0:0:0:0:
443,181,230580,1,0,3:0:0:0:
443,181,230680,1,2,3:2:0:0:
443,181,230780,1,0,3:0:0:0:
505,14,230980,1,2,3:2:0:0:
381,348,231180,6,0,B|311:338|311:338|256:371|256:371|185:359,1,197.99999395752,6|2,3:2|0:0,0:0:0:0:
381,348,231780,1,2,3:2:0:0:
231,267,231980,2,0,P|215:221|218:157,1,90.7500027694703,8|0,0:0|0:0,0:0:0:0:
31,75,232380,1,2,0:0:0:0:
128,51,232580,2,0,P|126:96|110:138,1,90.7500027694703,2|2,3:2|0:3,0:0:0:0:
71,328,232980,5,0,3:0:0:0:
8,253,233180,2,0,P|53:245|114:233,1,90.7500027694703,2|2,3:2|0:0,0:0:0:0:
350,185,233580,2,0,P|285:174|200:156,1,136.125004154205,8|0,0:0|0:0,0:0:0:0:
216,159,233980,1,2,3:2:0:0:
327,301,234180,1,0,3:2:0:0:
462,180,234380,6,0,P|478:83|485:-6,1,181.500005538941,6|2,3:0|0:0,0:0:0:0:
233,43,234980,1,2,0:0:0:0:
360,88,235180,1,8,0:0:0:0:
220,165,235380,2,0,P|201:208|202:276,1,90.7500027694703,2|0,0:0|0:0,0:0:0:0:
279,378,235780,1,2,0:0:0:0:
386,256,235980,6,0,P|341:248|296:239,1,90.7500027694703,2|0,3:0|0:0,0:0:0:0:
95,359,236380,2,0,P|139:349|184:342,1,90.7500027694703,0|0,3:0|0:0,0:0:0:0:
26,226,236780,2,0,P|13:156|-1:87,1,136.125004154205,8|0,0:0|0:0,0:0:0:0:
0,92,237180,1,2,3:0:0:0:
122,209,237380,1,2,3:0:0:0:
306,44,237580,6,0,B|190:46|238:105|101:97,1,197.99999395752,6|2,3:2|0:0,0:0:0:0:
310,145,238180,2,0,P|357:152|436:162,1,90.7500027694703,2|8,3:2|0:0,0:0:0:0:
205,313,238580,2,0,P|212:266|222:187,1,90.7500027694703,2|0,0:0|0:0,0:0:0:0:
461,83,238980,1,2,3:2:0:0:
461,83,239080,1,2,0:0:0:0:
461,83,239180,6,0,P|490:151|477:225,1,136.125004154205,2|0,3:2|0:0,0:0:0:0:
482,211,239580,1,2,3:2:0:0:
328,327,239780,1,2,0:0:0:0:
508,384,239980,1,8,0:0:0:0:
398,261,240180,2,0,P|349:238|289:243,1,90.7500027694703,2|0,0:0|3:0,0:0:0:0:
24,303,240580,1,2,3:3:0:0:
24,303,240680,1,2,0:3:0:0:
24,303,240780,6,0,B|76:288|76:288|139:312|139:312|227:291,1,181.500005538941,6|0,3:2|0:0,0:0:0:0:
67,384,241380,1,0,0:0:0:0:
152,219,241580,2,0,P|159:159|170:72,1,123.75,8|0,0:0|0:0,0:0:0:0:
166,96,241980,1,2,3:0:0:0:
56,48,242180,2,0,P|63:89|70:147,1,82.5,2|0,3:0|0:0,0:0:0:0:
152,219,242580,1,0,3:0:0:0:
244,156,242780,2,0,P|296:135|350:140,1,82.5,2|0,3:0|0:0,0:0:0:0:
444,298,243180,2,0,P|372:300|313:213,1,165,8|2,0:0|0:3,0:0:0:0:
344,45,243780,5,2,0:3:0:0:
362,38,243880,1,2,0:3:0:0:
382,32,243980,1,6,3:3:0:0:
256,192,244080,12,8,246380,0:1:0:0:
74,332,246780,5,2,3:2:0:0:
74,332,246980,1,0,3:0:0:0:
47,245,247180,6,0,B|142:235|115:285|220:268,1,165,2|0,0:3|0:0,0:0:0:0:
330,234,248380,1,2,0:0:0:0:
330,234,248780,2,0,P|336:186|341:144,1,82.5,2|2,0:3|0:0,0:0:0:0:
217,351,249580,2,0,P|210:303|206:261,1,82.5,2|2,0:3|0:0,0:0:0:0:
363,376,250380,2,0,P|421:378|509:314,1,165,2|0,0:3|0:0,0:0:0:0:
506,319,251780,5,2,0:0:0:0:
442,259,251980,2,0,P|431:207|427:171,1,82.5,2|2,0:0|0:0,0:0:0:0:
497,95,252580,2,0,P|432:87|357:76,1,123.75,2|2,0:0|0:0,0:0:0:0:
312,149,253380,2,0,P|287:152|258:156,1,41.25,2|2,0:0|0:3,0:0:0:0:
27,32,254780,5,2,0:3:0:0:
27,32,254980,1,0,0:0:0:0:
87,93,255180,2,0,P|80:137|71:190,1,82.5,2|2,0:3|0:0,0:0:0:0:
47,260,255780,2,0,P|26:262|6:261,1,41.25,2|2,0:0|0:3,0:0:0:0:
119,321,256180,2,0,P|165:302|206:303,1,82.5,2|2,0:0|0:0,0:0:0:0:
282,191,256780,6,0,P|289:102|297:15,1,165,2|0,0:3|0:0,0:0:0:0:
295,26,257980,1,2,0:3:0:0:
472,152,258380,6,0,B|381:152|402:108|304:114,1,165,2|0,0:3|0:0,0:0:0:0:
198,240,259580,2,0,P|193:272|202:318,1,61.875,2|0,0:0|0:0,0:0:0:0:
196,301,259980,6,0,P|246:295|303:287,1,98.9999969787599,2|2,0:3|0:0,0:0:0:0:
368,351,260580,2,0,P|393:353|421:358,1,49.4999984893799,2|0,0:0|0:0,0:0:0:0:
494,302,260980,2,0,P|504:274|502:239,1,49.4999984893799,2|0,0:0|0:0,0:0:0:0:
468,156,261380,1,2,0:0:0:0:
391,202,261580,2,0,P|339:194|270:184,2,98.9999969787599,2|0|2,0:3|0:0|0:3,0:0:0:0:
235,127,262580,2,0,P|220:80|233:33,1,98.9999969787599,2|2,0:0|0:0,0:0:0:0:
232,33,263080,1,2,0:0:0:0:
232,33,263180,6,0,P|178:41|115:50,1,98.9999969787599,2|2,0:3|0:0,0:0:0:0:
7,98,263780,2,0,P|36:101|64:106,1,49.4999984893799,2|0,0:0|0:0,0:0:0:0:
128,163,264180,2,0,P|134:198|129:227,1,49.4999984893799,2|0,0:0|0:0,0:0:0:0:
61,274,264580,1,2,0:0:0:0:
126,336,264780,2,0,P|173:326|229:317,2,98.9999969787599,2|0|2,0:3|0:0|0:3,0:0:0:0:
311,364,265780,2,0,P|326:324|308:258,1,98.9999969787599,2|2,0:0|0:0,0:0:0:0:
256,192,266380,1,2,3:2:0:0:
256,192,266780,6,0,P|284:179|310:174,1,41.25,2|2,0:3|0:3,0:3:0:0:
442,102,266980,2,0,P|414:89|388:84,1,41.25,2|2,0:3|0:3,0:3:0:0:
274,0,267180,6,0,P|317:56|314:198,1,197.99999395752,6|0,3:2|0:0,0:0:0:0:
149,289,267780,1,2,3:2:0:0:
149,289,267880,1,0,3:0:0:0:
149,289,267980,2,0,B|93:283|56:239|56:239|13:258|-4:297,1,181.500005538941,6|2,3:2|0:0,0:0:0:0:
58,368,268580,1,0,3:0:0:0:
148,186,268780,2,0,P|157:107|169:24,1,136.125004154205,14|0,3:1|0:2,0:2:0:0:
164,50,269180,1,2,3:2:0:0:
60,106,269380,2,0,P|58:128|64:163,1,45.3750013847352,0|0,3:0|0:0,0:0:0:0:
276,260,269580,6,0,B|329:248|329:248|393:289|393:289|485:270,1,197.99999395752,6|0,3:2|3:0,0:0:0:0:
313,351,270180,1,0,3:0:0:0:
424,186,270380,2,0,P|431:133|443:74,1,90.7500027694703,10|0,0:1|0:0,0:0:0:0:
276,260,270780,2,0,P|231:251|186:246,1,90.7500027694703,2|0,3:0|0:0,0:0:0:0:
24,31,271180,2,0,P|111:43|153:132,1,181.500005538941,6|0,3:0|0:0,0:0:0:0:
81,263,271780,5,0,3:0:0:0:
81,263,271880,1,0,3:0:0:0:
81,263,271980,2,0,P|70:216|75:190,1,53.6249975452424,2|0,3:0|0:0,0:0:0:0:
175,194,272180,2,0,P|186:241|181:267,1,53.6249975452424,2|0,0:3|0:0,0:0:0:0:
4,134,272380,5,2,0:0:0:0:
4,134,272480,1,2,0:3:0:0:
4,134,272580,2,0,P|30:129|56:123,1,53.6249975452424,2|2,0:3|0:3,0:0:0:0:
209,336,272780,6,0,P|306:351|404:367,1,197.99999395752,6|0,3:2|0:0,0:0:0:0:
504,304,273380,1,0,3:0:0:0:
422,151,273580,2,0,P|412:195|420:242,1,90.7500027694703,8|0,0:0|0:0,0:0:0:0:
501,86,273980,1,2,0:0:0:0:
321,197,274180,1,0,3:2:0:0:
263,94,274380,2,0,P|217:86|160:72,1,90.7500027694703,2|0,3:2|0:0,0:0:0:0:
15,266,274780,2,0,P|81:250|148:238,1,136.125004154205,2|0,0:0|0:0,0:0:0:0:
148,237,275180,5,10,0:0:0:0:
329,362,275380,1,8,3:0:0:0:
180,333,275580,1,2,3:2:0:0:
286,270,275780,1,0,3:0:0:0:
473,156,275980,6,0,B|499:9|499:9|478:35|444:58,1,197.99999395752,6|0,3:2|0:0,0:0:0:0:
473,156,276580,1,0,3:0:0:0:
209,33,276780,2,0,P|276:43|344:53,1,136.125004154205,8|0,0:0|0:0,0:0:0:0:
343,52,277180,1,0,0:0:0:0:
215,178,277380,1,2,3:2:0:0:
295,237,277580,2,0,P|313:187|303:137,1,90.7500027694703,2|0,3:2|0:0,0:0:0:0:
50,73,277980,5,2,3:2:0:0:
215,178,278180,1,2,0:0:0:0:
68,334,278380,2,0,P|47:270|73:196,1,136.125004154205,8|0,0:0|0:0,0:0:0:0:
65,205,278780,1,2,3:2:0:0:
156,267,278980,1,2,3:2:0:0:
319,371,279180,6,0,B|427:333|412:405|529:360,1,197.99999395752,6|0,3:2|0:0,0:0:0:0:
319,371,279780,1,0,3:0:0:0:
461,269,279980,2,0,P|474:169|487:61,1,181.500005538941,8|0,0:0|0:0,0:0:0:0:
275,7,280580,1,2,3:2:0:0:
275,7,280680,1,0,3:2:0:0:
275,7,280780,1,2,3:0:0:0:
369,161,280980,1,8,0:0:0:0:
407,32,281180,1,2,0:0:0:0:
245,130,281380,1,2,0:0:0:0:
83,228,281580,5,8,0:0:0:0:
255,316,281780,1,8,3:0:0:0:
199,230,281980,1,0,3:0:0:0:
144,319,282180,1,2,3:2:0:0:
21,145,282380,6,0,B|-1:4|-1:4|36:44|79:63,1,197.99999395752,6|0,3:2|0:0,0:0:0:0:
135,122,282980,1,0,3:0:0:0:
83,228,283180,2,0,P|146:217|250:201,1,136.125004154205,8|0,0:0|0:0,0:0:0:0:
217,205,283580,1,0,3:0:0:0:
344,330,283780,6,0,P|303:323|237:312,1,90.7500027694703,0|2,3:0|0:3,0:0:0:0:
144,319,284180,1,2,3:0:0:0:
324,228,284380,2,0,P|324:172|300:121,1,90.7500027694703,0|2,3:0|0:3,0:0:0:0:
464,2,284780,2,0,P|435:77|430:145,1,136.125004154205,8|0,0:0|0:0,0:0:0:0:
429,131,285180,1,2,3:2:0:0:
512,216,285380,1,2,3:2:0:0:
334,55,285580,6,0,P|236:40|137:25,1,181.500005538941,6|2,3:0|0:0,0:0:0:0:
8,203,286180,2,0,P|78:192|112:164,1,90.7500027694703,2|8,3:2|0:0,0:0:0:0:
53,13,286580,2,0,P|27:79|34:122,1,90.7500027694703,2|0,0:0|0:0,0:0:0:0:
191,125,286980,1,2,3:2:0:0:
100,363,287180,2,0,P|103:293|93:180,2,181.500005538941,2|2|10,3:0|0:3|0:0,0:0:0:0:
205,260,288180,5,8,3:0:0:0:
11,297,288380,1,0,3:0:0:0:
205,260,288580,1,2,3:2:0:0:
399,223,288780,6,0,B|418:182|437:163|437:163|395:103|390:25,1,197.99999395752,6|2,3:2|0:0,0:0:0:0:
512,267,289380,1,2,3:2:0:0:
512,267,289480,1,0,3:0:0:0:
512,267,289580,1,8,0:0:0:0:
286,180,289780,1,2,0:0:0:0:
399,223,289980,1,0,0:0:0:0:
508,132,290180,5,2,3:2:0:0:
290,314,290380,2,0,P|240:322|178:336,1,90.7500027694703,2|0,3:2|0:0,0:0:0:0:
290,70,290780,2,0,P|245:62|200:53,1,90.7500027694703,0|0,3:0|0:0,0:0:0:0:
0,208,291180,2,0,P|64:203|142:199,1,136.125004154205,10|2,0:0|0:0,0:0:0:0:
135,199,291580,1,2,3:2:0:0:
296,320,291780,1,2,3:2:0:0:
296,320,291880,1,2,0:0:0:0:
296,320,291980,6,0,B|405:316|378:370|496:369,1,197.99999395752,4|2,3:2|0:0,0:0:0:0:
461,259,292580,1,2,3:2:0:0:
199,364,292780,2,0,P|99:370|1:380,1,181.500005538941,8|0,0:0|0:0,0:0:0:0:
199,364,293380,1,2,3:2:0:0:
64,256,293580,2,0,P|51:209|56:159,1,90.7500027694703,2|0,3:2|0:0,0:0:0:0:
53,167,293880,1,2,0:0:0:0:
53,167,293980,1,2,0:0:0:0:
203,32,294180,2,0,P|216:79|211:129,1,90.7500027694703,2|8,0:0|0:0,0:0:0:0:
47,76,294580,5,8,3:0:0:0:
143,204,294780,1,0,3:0:0:0:
213,120,294980,2,0,P|234:117|265:110,1,45.3750013847352,2|2,3:2|0:0,0:0:0:0:
477,231,295180,6,0,P|414:211|309:201,1,165,6|0,3:0|0:0,0:0:0:0:
316,201,296580,1,2,0:0:0:0:
411,168,296780,2,0,P|423:123|418:80,1,82.5,2|2,0:0|0:0,0:0:0:0:
346,25,297380,2,0,P|325:27|305:29,1,41.25,2|0,0:0|0:0,0:0:0:0:
107,98,297780,2,0,P|158:103|209:110,1,103.125,2|2,0:0|0:0,0:0:0:0:
256,192,298380,12,2,303180,3:0:0:0:
