osu file format v14

[General]
AudioFilename: audio.mp3
AudioLeadIn: 0
PreviewTime: 56430
Countdown: 0
SampleSet: Soft
StackLeniency: 0.7
Mode: 0
LetterboxInBreaks: 0
WidescreenStoryboard: 1

[Editor]
DistanceSpacing: 1.5
BeatDivisor: 8
GridSize: 4
TimelineZoom: 0.9000008

[Metadata]
Title:Freesia (TV Size)
TitleUnicode:フリージア (TV Size)
Artist:Uru
ArtistUnicode:Uru
Creator:Present
Version:Hatsune Miku's Easy
Source:機動戦士ガンダム 鉄血のオルフェンズ
Tags:Gundam iron blooded orphans Japanese Anime ED mobile suit 2nd season -Claris- _lai Yugu Pata-Mon Remapper AngelSnow Yorita Yoshino [Hatsune_Miku] 第2期 pop ending [Hatsune Miku]
BeatmapID:2151323
BeatmapSetID:915848

[Difficulty]
HPDrainRate:3
CircleSize:3
OverallDifficulty:3
ApproachRate:3
SliderMultiplier:1.2
SliderTickRate:2

[Events]
//Background and Video events
0,0,"2.jpg",0,0
//Break Periods
//Storyboard Layer 0 (Background)
//Storyboard Layer 1 (Fail)
//Storyboard Layer 2 (Pass)
//Storyboard Layer 3 (Foreground)
//Storyboard Layer 4 (Overlay)
//Storyboard Sound Samples

[TimingPoints]
1601,810.810810810811,4,2,1,35,1,0
16195,810.810810810811,4,2,1,35,1,0
56534,-100,4,2,2,35,0,0
58357,810.810810810811,4,2,2,50,1,0
58357,-100,4,2,2,50,0,1
77411,-100,4,2,2,50,0,0
77816,810.810810810811,4,2,2,50,1,0
77816,-100,4,2,2,50,0,1
107005,1250,4,2,1,30,1,0
108680,909.090909090909,4,2,1,30,1,0
109622,1200,4,2,1,30,1,0
110970,1153.84615384615,4,2,1,30,1,0
115585,-100,4,2,1,5,0,0

[Colours]
Combo1 : 202,202,202
Combo2 : 249,223,119
Combo3 : 131,82,61

[HitObjects]
85,71,1601,6,0,L|83:222,1,120,2|2,0:0|0:0,0:0:0:0:
188,249,3223,2,0,L|191:96,1,120,2|2,0:0|0:0,0:0:0:0:
304,91,4844,2,0,L|302:242,1,120,2|2,0:0|0:0,0:0:0:0:
407,269,6466,6,0,L|410:116,1,120,2|2,0:0|0:0,0:0:0:0:
333,55,8087,2,0,P|260:84|190:56,1,120,2|2,0:0|0:0,0:0:0:0:
114,131,9709,2,0,P|143:204|117:275,1,120,2|2,0:0|0:0,0:0:0:0:
119,361,11331,2,0,B|165:373|207:346|207:346|261:316|329:356,1,180,2|0,0:0|0:0,0:0:0:0:
350,327,12952,6,0,P|366:378|359:402,2,60,2|2|2,0:0|0:0|0:0,0:0:0:0:
315,277,14167,1,2,0:0:0:0:
287,225,14574,2,0,P|282:140|342:83,1,120,2|2,0:0|0:0,0:0:0:0:
414,80,16195,6,0,P|477:136|475:219,1,120,2|2,0:0|0:0,0:0:0:0:
472,287,17816,2,0,P|395:323|320:288,1,120,2|2,0:0|0:0,0:0:0:0:
256,263,19438,2,0,L|256:135,1,120,2|0,0:0|0:0,0:0:0:0:
256,22,21060,1,0,0:0:0:0:
256,192,22681,12,2,27546,0:0:0:0:
453,164,29168,6,0,P|371:155|317:189,1,120,2|0,0:0|0:0,0:0:0:0:
288,278,30789,2,0,P|370:287|429:248,1,120,2|0,0:0|0:0,0:0:0:0:
338,169,32411,1,2,0:0:0:0:
66,60,35654,6,0,L|74:231,1,120,2|0,0:0|0:0,0:0:0:0:
173,242,37276,2,0,L|166:70,1,120,2|2,0:0|0:0,0:0:0:0:
66,60,38897,1,2,0:0:0:0:
320,131,41330,1,4,0:1:0:0:
409,50,42141,6,0,P|440:118|429:186,1,120,2|0,0:0|0:0,0:0:0:0:
384,269,43762,2,0,P|316:300|248:289,1,120,2|2,0:0|0:0,0:0:0:0:
168,236,45384,2,0,P|137:168|148:100,1,120
255,153,47006,1,0,0:0:0:0:
349,79,47816,1,2,0:0:0:0:
443,153,48627,6,0,P|467:83|450:22,1,120,2|2,0:0|0:0,0:0:0:0:
341,86,50249,2,0,P|304:149|312:221,1,120
256,192,51870,12,2,55114,0:0:0:0:
94,94,58357,6,0,P|77:168|126:232,1,120,6|8,1:2|0:0,0:0:0:0:
214,204,59978,2,0,P|274:200|306:217,1,60,0|2,1:0|1:2,0:0:0:0:
325,227,60788,1,10,0:0:0:0:
423,295,61600,6,0,L|433:129,1,120,2|8,1:2|0:0,0:0:0:0:
378,67,63221,2,0,P|324:93|303:122,1,60,0|0,1:0|1:0,0:0:0:0:
294,145,64031,1,10,0:0:0:0:
258,193,64438,1,0,0:0:0:0:
212,233,64843,6,0,P|156:251|100:233,1,120,2|8,1:2|0:0,0:0:0:0:
71,116,66464,2,0,P|83:80|129:53,1,60,2|2,1:2|1:2,0:0:0:0:
149,33,67275,1,8,0:0:0:0:
199,141,68086,6,0,P|217:196|199:252,1,120,2|8,1:2|0:0,0:0:0:0:
155,295,69302,1,0,0:0:0:0:
96,307,69707,2,0,P|76:274|84:221,1,60,0|0,1:0|1:0,0:0:0:0:
103,200,70518,1,10,0:0:0:0:
217,155,71329,6,0,P|272:136|328:154,1,120,6|8,1:2|0:0,0:0:0:0:
404,247,72951,2,0,P|413:275|412:304,1,60,0|2,1:0|1:2,0:0:0:0:
386,359,73761,1,8,0:0:0:0:
269,331,74573,6,0,B|149:347,2,120,2|8|0,1:2|0:0|1:0,0:0:0:0:
387,310,77005,2,0,P|395:277|392:250,1,60,10|2,0:0|1:2,0:0:0:0:
342,217,77815,6,0,P|323:161|341:105,1,120,6|8,1:2|0:0,0:0:0:0:
413,8,79437,1,0,1:0:0:0:
453,52,79842,2,0,P|485:58|525:51,2,60,2|10|2,1:2|0:0|0:0,0:0:0:0:
413,8,81059,6,0,L|283:11,1,120,2|8,1:2|0:0,0:0:0:0:
196,81,82680,1,0,1:0:0:0:
148,117,83086,2,0,P|118:122|88:120,2,60,0|10|0,1:0|0:0|0:0,0:0:0:0:
196,81,84302,6,0,P|214:136|196:192,1,120,2|8,1:2|0:0,0:0:0:0:
213,311,85923,2,0,P|255:291|291:295,1,60,2|2,1:2|1:2,0:0:0:0:
326,301,86734,1,8,0:0:0:0:
439,262,87545,6,0,P|457:206|439:149,1,120,2|8,1:2|0:0,0:0:0:0:
375,47,89167,2,0,P|348:32|319:28,1,60,0|0,1:0|1:0,0:0:0:0:
274,65,89978,2,0,P|247:79|218:83,1,60,10|2,0:0|1:2,0:0:0:0:
162,59,90788,6,0,P|139:113|162:171,1,120,6|8,1:2|0:0,0:0:0:0:
264,226,92410,1,0,1:0:0:0:
321,241,92815,2,0,P|350:236|376:222,2,60,2|8|2,1:2|0:0|0:0,0:0:0:0:
264,226,94032,6,0,L|119:246,1,120,2|8,1:2|0:0,0:0:0:0:
37,189,95653,2,0,P|25:157|28:130,1,60,2|2,1:2|1:2,0:0:0:0:
51,76,96464,1,8,0:0:0:0:
168,50,97275,6,0,L|286:32,1,120,6|10,1:2|0:0,0:0:0:0:
399,74,98896,1,2,1:2:0:0:
441,116,99302,2,0,P|445:170|437:194,2,60,2|10|2,1:2|0:0|0:0,0:0:0:0:
399,74,100518,5,0,1:0:0:0:
336,176,101329,1,8,0:0:0:0:
221,139,102140,2,0,L|209:211,1,60,2|2,1:2|1:2,0:0:0:0:
162,233,102950,2,0,L|204:292,1,60,10|2,0:0|1:2,0:0:0:0:
234,328,103761,5,14,0:0:0:0:
256,192,107005,12,0,115585,0:0:0:0:
