osu file format v14

[General]
AudioFilename: audio.mp3
AudioLeadIn: 0
PreviewTime: 56329
Countdown: 0
SampleSet: Soft
StackLeniency: 0.7
Mode: 0
LetterboxInBreaks: 0
WidescreenStoryboard: 0

[Editor]
DistanceSpacing: 1.2
BeatDivisor: 8
GridSize: 4
TimelineZoom: 1

[Metadata]
Title:Freesia (TV Size)
TitleUnicode:フリージア (TV Size)
Artist:Uru
ArtistUnicode:Uru
Creator:Mafumafu
Version:Habi's Hard
Source:機動戦士ガンダム 鉄血のオルフェンズ
Tags:Regraz 岩見直明 トオミヨウ Mobile Suit Gundam: Iron-Blooded Orphans IBO G-Tekketsu Tekketsu no Orufenzu ending ed jpop j-pop japanese pop anime HabiHolic season 2 2nd phase
BeatmapID:1810766
BeatmapSetID:854928

[Difficulty]
HPDrainRate:4
CircleSize:4
OverallDifficulty:6
ApproachRate:6.5
SliderMultiplier:2
SliderTickRate:2

[Events]
//Background and Video events
0,0,"31e2eeb4a362a65fb10c5a8cab1cd784_waifu2x_art_noise1_scale_tta_1.png",0,0
//Break Periods
//Storyboard Layer 0 (Background)
//Storyboard Layer 1 (Fail)
//Storyboard Layer 2 (Pass)
//Storyboard Layer 3 (Foreground)
//Storyboard Layer 4 (Overlay)
//Storyboard Sound Samples

[TimingPoints]
6465,810.810810810811,4,2,1,35,1,0
6465,-111.111111111111,4,2,1,30,0,0
16195,-111.111111111111,4,2,1,35,0,0
22275,-111.111111111111,4,2,1,35,0,0
22681,-111.111111111111,4,2,1,35,0,0
29167,-142.857142857143,4,2,1,35,0,0
31194,-142.857142857143,4,2,1,35,0,0
31397,-142.857142857143,4,2,1,35,0,0
36059,-142.857142857143,4,2,1,35,0,0
36262,-142.857142857143,4,2,1,35,0,0
36870,-142.857142857143,4,2,1,35,0,0
37073,-142.857142857143,4,2,1,35,0,0
39302,-142.857142857143,4,2,1,35,0,0
39505,-142.857142857143,4,2,1,35,0,0
43357,-142.857142857143,4,2,1,35,0,0
43762,-142.857142857143,4,2,1,35,0,0
52275,-142.857142857143,4,2,1,35,0,0
52478,-142.857142857143,4,2,1,35,0,0
52883,-142.857142857143,4,2,1,35,0,0
53086,-142.857142857143,4,2,1,35,0,0
55113,-100,4,2,1,50,0,0
58356,-76.9230769230769,4,2,1,60,0,1
77005,-76.9230769230769,4,2,1,60,0,0
77816,-76.9230769230769,4,2,1,60,0,1
103762,-76.9230769230769,4,2,1,60,0,0
103961,-100,4,2,1,30,0,0
107005,1250,4,2,1,35,1,0
108680,909.090909090909,4,2,1,35,1,0
109622,1200,4,2,1,35,1,0
110970,1153.84615384615,4,2,1,35,1,0
111258,-100,4,2,1,35,0,0

[Colours]
Combo1 : 92,29,156
Combo2 : 107,183,38
Combo3 : 50,131,154
Combo4 : 60,135,92

[HitObjects]
36,280,6465,6,0,B|132:260|108:340|212:308,1,179.999994506836,2|0,0:0|0:0,0:0:0:0:
256,192,7682,1,0,0:0:0:0:
356,264,8087,2,0,P|368:306|354:348,2,89.9999972534181,2|0|0,0:0|0:0|0:0,0:0:0:0:
256,192,9303,1,0,0:0:0:0:
335,92,9709,6,0,P|423:98|483:162,2,179.999994506836,2|2|2,0:0|0:0|0:0,0:0:0:0:
168,208,12141,1,0,0:0:0:0:
84,252,12546,1,0,0:0:0:0:
92,156,12952,6,0,B|80:112|80:112|92:68,1,89.9999972534181,2|0,0:0|0:0,0:0:0:0:
212,16,13763,2,0,B|223:58|223:58|211:102,1,89.9999972534181,0|0,0:0|0:0,0:0:0:0:
264,212,14573,2,0,B|360:199|337:266|435:250,1,179.999994506836,2|0,0:0|0:0,0:0:0:0:
492,160,15790,1,0,0:0:0:0:
409,73,16195,6,0,B|350:41|312:79|312:79|299:121|257:129,2,179.999994506836,2|0|2,0:0|0:0|0:0,0:0:0:0:
495,193,18627,1,0,0:0:0:0:
363,285,19438,2,0,B|279:272|279:272|254:279|254:279|176:269,1,179.999994506836,2|0,0:0|0:0,0:0:0:0:
76,172,20654,2,0,L|64:126,1,44.999998626709,0|0,0:0|0:0,0:0:0:0:
38,39,21059,2,0,B|134:24|110:86|214:64,1,179.999994506836,2|0,0:0|0:0,0:0:0:0:
456,157,22681,6,0,B|476:225|476:225|452:301|452:301|440:269,2,179.999994506836,2|0|2,0:0|0:0|0:0,0:0:0:0:
346,98,24708,1,0,0:0:0:0:
271,188,25113,2,0,P|227:188|188:168,1,89.9999972534181,2|0,0:0|0:0,0:0:0:0:
64,104,25924,6,0,L|84:284,2,179.999994506836,2|0|2,0:0|0:0|0:0,0:0:0:0:
172,24,28154,1,0,0:0:0:0:
172,24,28357,2,0,L|248:36,2,67.4999979400635,2|0|0,0:0|0:0|0:0,0:0:0:0:
107,85,29167,6,0,P|124:114|128:149,1,69.9999978637696,2|0,0:0|0:0,0:0:0:0:
83,220,29776,1,2,0:0:0:0:
83,220,30586,5,0,0:0:0:0:
148,275,30789,2,0,P|199:274|243:245,2,104.999996795654,2|2|0,0:0|0:0|0:0,0:0:0:0:
186,153,32411,6,0,P|221:94|212:26,1,139.999995727539,2|0,0:0|0:0,0:0:0:0:
0,214,34032,2,0,P|29:275|95:293,1,139.999995727539,2|2,0:0|0:0,0:0:0:0:
209,163,35249,2,0,L|201:126,1,34.9999989318848,0|2,0:0|0:0,0:0:0:0:
252,58,35654,6,0,P|299:79|350:73,1,104.999996795654,2|2,0:0|0:0,0:0:0:0:
463,207,37073,1,0,0:0:0:0:
463,207,37276,2,0,P|432:223|418:254,1,69.9999978637696,2|2,0:0|0:0,0:0:0:0:
309,281,38086,2,0,P|308:315|328:343,1,69.9999978637696,2|2,0:0|0:0,0:0:0:0:
329,149,38897,6,0,P|280:197|212:199,1,139.999995727539,2|0,0:0|0:0,0:0:0:0:
86,132,40519,2,0,P|133:81|199:84,1,139.999995727539,0|2,0:0|0:0,0:0:0:0:
350,23,41735,2,0,P|363:34|370:50,1,34.9999989318848,0|2,0:0|0:0,0:0:0:0:
454,35,42140,6,0,P|453:69|441:102,1,69.9999978637696,2|2,0:0|0:0,0:0:0:0:
376,152,42749,1,2,0:0:0:0:
375,151,43762,6,0,P|353:125|323:106,1,69.9999978637696,2|2,0:0|0:0,0:0:0:0:
277,227,44573,2,0,P|242:233|211:249,1,69.9999978637696,2|2,0:0|0:0,0:0:0:0:
164,313,45181,1,2,0:0:0:0:
164,313,45384,6,0,P|173:245|141:185,2,139.999995727539,2|0|2,0:0|0:0|0:0,0:0:0:0:
93,358,47208,2,0,L|51:349,1,34.9999989318848,0|0,0:0|0:0,0:0:0:0:
20,213,47816,1,0,0:0:0:0:
20,213,48222,6,0,L|57:221,1,34.9999989318848,2|0,0:0|0:0,0:0:0:0:
137,242,48627,2,0,P|140:207|130:174,1,69.9999978637696,2|0,0:0|0:0,0:0:0:0:
157,339,49438,2,0,P|188:323|211:298,1,69.9999978637696,2|2,0:0|0:0,0:0:0:0:
227,220,50046,6,0,P|242:269|282:302,1,104.999996795654,2|0,0:0|0:0,0:0:0:0:
352,256,50857,2,0,P|336:206|296:173,1,104.999996795654,2|2,0:0|0:0,0:0:0:0:
224,136,51667,1,0,0:0:0:0:
224,136,51870,5,2,0:0:0:0:
256,192,52073,12,2,55114,0:0:0:0:
32,116,56532,6,0,L|40:168,1,50,8|8,0:0|0:0,0:0:0:0:
52,336,57140,1,8,0:0:0:0:
52,336,57343,2,0,L|101:329,1,50,4|8,0:3|0:0,0:0:0:0:
165,269,57748,1,4,0:3:0:0:
243,324,57951,1,4,0:3:0:0:
243,324,58357,6,0,L|266:180,1,129.999994049073,4|0,0:0|0:0,0:0:0:0:
287,81,58965,1,2,0:0:0:0:
220,132,59167,2,0,P|274:164|335:150,1,129.999994049073,8|0,0:0|0:0,0:0:0:0:
412,100,59775,1,0,0:0:0:0:
472,175,59978,2,0,P|475:208|464:241,1,64.9999970245363,4|0,0:3|0:0,0:0:0:0:
388,275,60384,2,0,L|260:255,2,129.999994049073,4|8|2,0:3|0:0|0:0,0:0:0:0:
306,132,61600,6,0,L|178:152,1,129.999994049073,4|0,0:3|0:0,0:0:0:0:
126,220,62208,1,2,0:0:0:0:
53,179,62411,2,0,B|33:147|33:147|53:51,1,129.999994049073,8|0,0:0|0:0,0:0:0:0:
130,16,63019,1,2,0:0:0:0:
203,64,63221,2,0,L|267:52,2,64.9999970245363,4|0|4,0:3|1:0|0:3,0:0:0:0:
115,216,64032,2,0,P|103:262|117:308,2,97.4999955368044,10|2|2,0:0|0:0|0:0,0:0:0:0:
190,262,64843,6,0,P|237:304|300:301,1,129.999994049073,4|0,0:3|0:0,0:0:0:0:
379,342,65451,1,2,0:0:0:0:
378,342,65654,2,0,P|405:324|419:295,1,64.9999970245363,8|0,0:0|0:0,0:0:0:0:
380,218,66059,1,0,0:0:0:0:
380,218,66262,1,2,0:0:0:0:
409,139,66465,6,0,P|366:184|303:183,1,129.999994049073,4|4,0:3|0:3,0:0:0:0:
228,134,67073,1,2,0:0:0:0:
162,196,67275,2,0,P|178:223|184:255,1,64.9999970245363,8|0,0:0|0:0,0:0:0:0:
138,326,67681,1,2,0:0:0:0:
138,326,67884,1,2,0:0:0:0:
214,362,68086,6,0,P|265:326|328:335,1,129.999994049073,4|0,0:3|0:0,0:0:0:0:
411,366,68694,1,2,0:0:0:0:
477,305,68897,2,0,P|477:266|464:239,1,64.9999970245363,8|0,0:0|0:0,0:0:0:0:
389,204,69302,1,0,0:0:0:0:
389,204,69505,1,2,0:0:0:0:
431,128,69708,6,0,L|496:141,2,64.9999970245363,4|0|4,0:3|1:0|0:3,0:0:0:0:
238,256,70519,2,0,L|90:228,1,129.999994049073,8|2,0:0|0:0,0:0:0:0:
300,183,71329,6,0,P|328:240|319:303,1,129.999994049073,4|0,0:3|0:0,0:0:0:0:
406,328,71938,1,2,0:0:0:0:
406,328,72140,2,0,P|419:265|465:221,1,129.999994049073,8|0,0:0|0:0,0:0:0:0:
405,139,72748,6,0,P|355:178|292:168,1,129.999994049073,4|0,2:3|0:0,0:0:0:0:
235,111,73357,2,0,L|255:247,2,129.999994049073,4|8|0,0:3|0:0|0:0,0:0:0:0:
162,262,74573,6,0,P|110:298|42:286,1,129.999994049073,4|0,0:3|0:0,0:0:0:0:
2,198,75181,1,2,0:0:0:0:
78,142,75384,2,0,P|88:172|91:204,1,64.9999970245363,8|0,0:0|0:0,0:0:0:0:
148,324,75789,2,0,P|150:291|161:261,1,64.9999970245363,2|2,0:0|0:0,0:0:0:0:
221,188,76194,2,0,L|289:204,1,64.9999970245363,4|8,0:3|0:0,0:0:0:0:
369,166,76600,1,4,0:3:0:0:
369,166,76802,1,4,0:3:0:0:
435,234,77005,2,0,P|423:265|417:297,1,64.9999970245363,8|4,0:0|0:3,0:0:0:0:
352,364,77411,1,4,0:3:0:0:
351,364,77816,6,0,P|296:330|232:337,1,129.999994049073,4|0,0:0|0:0,0:0:0:0:
146,359,78424,1,2,0:0:0:0:
85,302,78626,2,0,P|83:268|94:240,1,64.9999970245363,8|0,0:0|0:0,0:0:0:0:
179,249,79032,2,0,P|207:230|237:225,1,64.9999970245363,0|2,0:0|0:0,0:0:0:0:
272,151,79437,2,0,L|300:287,2,129.999994049073,4|4|8,0:3|0:3|0:0,0:0:0:0:
149,230,80653,1,2,0:0:0:0:
149,230,81059,6,0,P|82:231|42:181,1,129.999994049073,4|0,2:3|0:0,0:0:0:0:
92,104,81667,1,2,0:0:0:0:
172,148,81870,2,0,B|236:132|236:168|304:148,1,129.999994049073,8|0,0:0|0:0,0:0:0:0:
324,236,82478,1,2,0:0:0:0:
236,224,82680,2,0,P|216:160|232:100,1,129.999994049073,4|4,0:3|0:3,0:0:0:0:
300,40,83288,1,0,0:0:0:0:
300,40,83491,2,0,L|400:56,2,97.4999955368044,10|2|2,0:0|0:0|0:0,0:0:0:0:
218,18,84302,6,0,P|252:71|250:135,1,129.999994049073,4|0,0:3|0:0,0:0:0:0:
188,204,84910,1,2,0:0:0:0:
252,263,85113,2,0,P|281:247|314:247,1,64.9999970245363,8|0,0:0|0:0,0:0:0:0:
385,300,85518,1,2,0:0:0:0:
385,300,85721,1,2,0:0:0:0:
466,250,85924,6,0,L|485:114,1,129.999994049073,4|0,0:3|0:0,0:0:0:0:
435,48,86532,1,2,0:0:0:0:
435,48,86734,2,0,P|399:47|371:66,1,64.9999970245363,8|0,0:0|0:0,0:0:0:0:
318,124,87140,1,2,0:0:0:0:
318,124,87343,1,2,0:0:0:0:
240,76,87545,6,0,P|268:133|267:197,1,129.999994049073,4|0,0:3|0:0,0:0:0:0:
200,258,88153,1,2,0:0:0:0:
200,258,88356,2,0,L|134:246,1,64.9999970245363,8|0,0:0|0:0,0:0:0:0:
16,182,88761,2,0,L|86:169,1,64.9999970245363,0|2,0:0|0:0,0:0:0:0:
150,102,89167,2,0,L|287:122,2,129.999994049073,4|4|8,0:3|0:3|0:0,0:0:0:0:
77,261,90383,1,2,0:0:0:0:
77,261,90788,6,0,B|127:282|127:282|207:261,1,129.999994049073,4|0,0:0|0:0,0:0:0:0:
284,212,91397,1,2,0:0:0:0:
284,212,91599,2,0,B|315:277|284:344,1,129.999994049073,8|0,0:0|0:0,0:0:0:0:
211,364,92207,2,0,L|71:348,1,129.999994049073,2|0,0:0|0:0,0:0:0:0:
62,259,92816,2,0,L|202:274,2,129.999994049073,4|8|0,0:3|0:0|0:0,0:0:0:0:
19,182,93829,1,2,0:0:0:0:
85,123,94032,6,0,B|133:119|133:119|165:127|165:127|213:119,1,129.999994049073,4|0,0:3|0:0,0:0:0:0:
273,59,94640,1,2,0:0:0:0:
339,115,94843,2,0,P|343:147|339:179,2,64.9999970245363,8|0|0,0:0|0:0|0:0,0:0:0:0:
339,115,95451,1,2,0:0:0:0:
412,55,95653,2,0,L|476:63,1,64.9999970245363,4|2,0:3|0:0,0:0:0:0:
325,19,96059,2,0,P|269:49|205:44,1,129.999994049073,4|8,0:3|0:0,0:0:0:0:
115,24,96667,1,0,0:0:0:0:
115,24,96870,2,0,L|127:88,1,64.9999970245363,0|2,0:0|0:0,0:0:0:0:
82,164,97275,6,0,P|134:128|195:141,1,129.999994049073,4|0,0:3|0:0,0:0:0:0:
257,203,97883,1,2,0:0:0:0:
335,162,98086,2,0,P|335:127|324:98,1,64.9999970245363,8|0,0:0|0:0,0:0:0:0:
241,81,98491,2,0,P|210:63|180:58,1,64.9999970245363,0|2,0:0|0:0,0:0:0:0:
103,12,98897,6,0,P|131:71|128:135,1,129.999994049073,4|0,0:3|0:0,0:0:0:0:
60,200,99505,1,2,0:0:0:0:
121,267,99707,2,0,P|152:254|184:254,1,64.9999970245363,8|0,0:0|0:0,0:0:0:0:
222,170,100113,2,0,P|248:190|264:218,1,64.9999970245363,2|0,0:0|0:0,0:0:0:0:
258,306,100518,6,0,L|325:297,1,64.9999970245363,4|2,0:3|0:0,0:0:0:0:
405,350,100924,2,0,B|426:318|426:318|401:226,1,129.999994049073,0|8,0:0|0:0,0:0:0:0:
344,160,101532,1,2,0:0:0:0:
408,97,101734,2,0,P|445:103|480:110,1,64.9999970245363,0|2,0:0|0:0,0:0:0:0:
344,160,102140,6,0,L|276:148,1,64.9999970245363,4|0,0:3|0:0,0:0:0:0:
187,97,102545,2,0,L|211:233,1,129.999994049073,4|8,0:3|0:0,0:0:0:0:
155,300,103153,1,0,1:0:0:0:
233,340,103356,2,0,L|297:324,2,64.9999970245363,4|0|4,0:3|0:0|0:0,0:0:0:0:
256,192,107005,12,2,111258,0:0:0:0:
