osu file format v14

[General]
AudioFilename: audio.mp3
AudioLeadIn: 0
PreviewTime: -1
Countdown: 1
SampleSet: Soft
StackLeniency: 1
Mode: 0
LetterboxInBreaks: 1
WidescreenStoryboard: 1

[Editor]
DistanceSpacing: 0.9
BeatDivisor: 4
GridSize: 4
TimelineZoom: 1

[Metadata]
Title:Silvernoinen Kummelining
TitleUnicode:Silvernoinen Kummelining
Artist:Urpoliitikko
ArtistUnicode:Urpoliitikko
Creator:RamGuyy
Version:Insane
Source:
Tags:
BeatmapID:1620913
BeatmapSetID:770983

[Difficulty]
HPDrainRate:6
CircleSize:4
OverallDifficulty:5
ApproachRate:9
SliderMultiplier:1.4
SliderTickRate:1

[Events]
//Background and Video events
0,0,"gQBUZgN.jpg",0,0
//Break Periods
2,24679,27796
//Storyboard Layer 0 (Background)
//Storyboard Layer 1 (Fail)
//Storyboard Layer 2 (Pass)
//Storyboard Layer 3 (Foreground)
//Storyboard Sound Samples

[TimingPoints]
2646.5,333.333333333333,4,1,0,100,1,0
5259,-50,4,1,0,100,0,0
7896,-100,4,1,0,100,0,0
12646,-200,4,1,0,100,0,0
13813,-100,4,1,0,100,0,0
19146,-100,4,1,0,100,0,0
30001,-100,4,2,0,100,0,0
32646,-80,4,2,0,100,0,0
34063,-100,4,2,0,100,0,0
41813,-66.6666666666667,4,2,0,100,0,0
46210,-80,4,2,0,100,0,1
55896,-133.333333333333,4,2,0,100,0,1
56896,-80,4,2,0,100,0,1
61170,-133.333333333333,4,2,0,100,0,1
62394,-80,4,2,0,100,0,1

[HitObjects]
256,192,229,12,0,2479,0:0:0:0:
344,64,2813,6,0,L|284:184,1,105
240,200,3229,1,0,0:0:0:0:
160,132,3479,1,0,0:0:0:0:
108,68,4063,2,0,P|364:64|372:68,1,245
396,128,4896,1,0,0:0:0:0:
324,196,5063,1,0,0:0:0:0:
288,92,5229,1,0,0:0:0:0:
216,192,5479,2,0,L|288:192,13,70
388,300,6896,1,0,0:0:0:0:
108,212,7229,1,0,0:0:0:0:
400,136,7563,1,0,0:0:0:0:
128,60,7896,1,0,0:0:0:0:
204,280,8396,6,0,L|356:204,1,140
368,132,8979,1,0,0:0:0:0:
204,140,9146,1,0,0:0:0:0:
296,56,9396,1,0,0:0:0:0:
296,216,9646,1,0,0:0:0:0:
196,136,9896,1,0,0:0:0:0:
364,128,10146,1,0,0:0:0:0:
256,264,10396,2,0,L|316:264,3,35
344,172,10896,2,0,L|216:152,2,105
348,84,11646,1,0,0:0:0:0:
348,84,11813,2,0,P|236:72|236:68,2,140
348,84,12646,1,0,0:0:0:0:
256,248,13063,2,0,L|256:152,1,87.5
340,56,13813,1,0,0:0:0:0:
416,164,13979,1,0,0:0:0:0:
260,152,14146,1,0,0:0:0:0:
340,56,14313,1,0,0:0:0:0:
416,164,14479,1,0,0:0:0:0:
260,152,14646,1,0,0:0:0:0:
336,60,14813,1,0,0:0:0:0:
96,196,15063,2,0,L|196:196,2,87.5
272,108,15729,5,0,0:0:0:0:
300,160,15896,1,0,0:0:0:0:
324,204,16063,1,0,0:0:0:0:
256,192,16313,12,0,17396,0:0:0:0:
312,100,17813,5,0,0:0:0:0:
136,184,18063,1,0,0:0:0:0:
304,296,18396,1,0,0:0:0:0:
304,108,18563,1,0,0:0:0:0:
304,108,18729,2,0,L|224:124,1,70
120,148,19229,1,0,0:0:0:0:
80,248,19479,2,0,L|164:292,2,70
192,308,19979,1,0,0:0:0:0:
256,336,20146,1,0,0:0:0:0:
276,276,20313,2,0,L|276:156,2,105
376,344,21146,1,0,0:0:0:0:
240,344,21313,1,0,0:0:0:0:
308,252,21479,1,0,0:0:0:0:
376,344,21646,1,0,0:0:0:0:
308,252,21813,1,0,0:0:0:0:
248,172,22063,2,0,L|176:248,1,105
176,248,22479,1,0,0:0:0:0:
40,248,22646,1,0,0:0:0:0:
108,156,22813,1,0,0:0:0:0:
176,248,22979,1,0,0:0:0:0:
88,228,23146,2,0,P|412:232|436:248,1,350
256,296,24229,1,0,0:0:0:0:
252,84,24479,1,0,0:0:0:0:
256,192,28396,12,0,29813,0:0:0:0:
256,84,30146,5,0,0:0:0:0:
368,212,30479,1,0,0:0:0:0:
148,212,30729,1,0,0:0:0:0:
256,240,30896,2,0,L|256:144,1,70
256,84,31313,1,0,0:0:0:0:
372,200,31729,1,0,0:0:0:0:
256,308,32063,1,0,0:0:0:0:
156,180,32229,1,0,0:0:0:0:
156,180,32313,1,0,0:0:0:0:
280,316,32813,2,0,P|304:68|296:56,2,280
172,168,34146,1,0,0:0:0:0:
368,168,34563,1,0,0:0:0:0:
264,296,34813,1,0,0:0:0:0:
368,164,35063,1,0,0:0:0:0:
108,220,35313,1,0,0:0:0:0:
328,112,35563,2,0,L|304:284,1,140
164,288,36313,1,0,0:0:0:0:
128,136,36646,1,0,0:0:0:0:
212,84,36813,2,0,L|360:272,2,210
148,92,38063,2,0,L|76:172,1,105
368,248,38563,2,0,P|376:116|368:112,2,140
368,248,39396,1,0,0:0:0:0:
328,196,39563,2,0,L|264:96,2,105
328,200,40229,1,0,0:0:0:0:
312,328,40396,1,0,0:0:0:0:
216,248,40563,1,0,0:0:0:0:
168,192,40979,2,0,L|352:192,2,175
252,72,42063,1,0,0:0:0:0:
252,72,42229,1,0,0:0:0:0:
144,168,42729,1,0,0:0:0:0:
236,80,42979,1,0,0:0:0:0:
312,164,43396,1,0,0:0:0:0:
216,268,43729,1,0,0:0:0:0:
292,72,44063,1,0,0:0:0:0:
176,156,44313,1,0,0:0:0:0:
204,208,44396,1,0,0:0:0:0:
168,40,44646,1,0,0:0:0:0:
240,100,44896,2,0,P|232:144|228:184,12,52.5000020027161
124,68,46396,2,0,P|108:144|116:200,1,105.000004005432
188,196,46813,1,0,0:0:0:0:
268,220,47063,1,0,0:0:0:0:
360,244,47313,2,0,P|336:308|312:320,1,52.5000020027161
272,264,47646,1,0,0:0:0:0:
224,176,47813,1,0,0:0:0:0:
184,92,47979,1,0,0:0:0:0:
80,112,48146,1,0,0:0:0:0:
100,232,48396,5,0,0:0:0:0:
256,208,48646,1,0,0:0:0:0:
232,76,48813,1,0,0:0:0:0:
148,140,49063,1,0,0:0:0:0:
160,252,49313,1,0,0:0:0:0:
80,196,49563,2,0,L|328:192,1,245
192,236,50563,1,0,0:0:0:0:
356,148,50896,1,0,0:0:0:0:
188,100,51063,1,0,0:0:0:0:
256,232,51229,1,0,0:0:0:0:
400,264,51479,1,0,0:0:0:0:
224,128,51646,1,0,0:0:0:0:
288,260,51813,1,0,0:0:0:0:
352,124,51979,1,0,0:0:0:0:
148,60,52229,6,0,P|112:192|124:240,1,175
248,312,52979,1,0,0:0:0:0:
232,280,53063,1,0,0:0:0:0:
216,244,53146,1,0,0:0:0:0:
288,104,53396,1,0,0:0:0:0:
308,88,53479,1,0,0:0:0:0:
328,68,53563,1,0,0:0:0:0:
240,36,53896,1,0,0:0:0:0:
136,148,54063,1,0,0:0:0:0:
324,212,54313,1,0,0:0:0:0:
92,200,54563,2,0,P|256:204|360:180,2,262.5
248,64,55896,2,0,L|248:280,1,210.000008010865
200,272,56896,6,0,L|312:224,1,87.5
280,216,57229,2,0,L|180:164,1,87.5
212,148,57563,2,0,P|296:116|296:116,3,87.5
364,208,58313,1,0,0:0:0:0:
232,264,58729,1,0,0:0:0:0:
156,184,59063,1,0,0:0:0:0:
264,128,59313,1,0,0:0:0:0:
256,224,59479,2,0,L|256:160,3,43.75
376,304,60063,5,0,0:0:0:0:
104,220,60313,1,0,0:0:0:0:
396,156,60646,1,0,0:0:0:0:
96,56,60979,1,0,0:0:0:0:
260,76,61396,2,0,L|256:324,1,218.75
252,112,62896,5,0,0:0:0:0:
140,212,63146,1,0,0:0:0:0:
296,272,63396,1,0,0:0:0:0:
288,128,63813,1,0,0:0:0:0:
188,88,63979,1,0,0:0:0:0:
240,176,64146,1,0,0:0:0:0:
240,176,64229,1,0,0:0:0:0:
376,224,64479,1,0,0:0:0:0:
344,96,64729,1,0,0:0:0:0:
228,116,65146,1,0,0:0:0:0:
228,116,65229,1,0,0:0:0:0:
340,88,65479,2,0,L|196:272,1,218.75
156,104,66063,1,0,0:0:0:0:
368,112,66313,1,0,0:0:0:0:
244,256,66563,1,0,0:0:0:0:
244,88,66813,1,0,0:0:0:0:
248,92,66896,2,0,L|304:236,3,131.25
240,300,68146,1,0,0:0:0:0:
372,196,68396,1,0,0:0:0:0:
216,84,68729,1,0,0:0:0:0:
240,60,68813,1,0,0:0:0:0:
248,120,69146,2,0,L|248:236,1,87.5
240,300,69646,1,0,0:0:0:0:
372,196,69896,1,0,0:0:0:0:
216,84,70229,1,0,0:0:0:0:
240,60,70313,1,0,0:0:0:0:
360,312,71063,1,0,0:0:0:0:
92,236,71396,1,0,0:0:0:0:
336,124,71729,1,0,0:0:0:0:
124,48,72063,1,0,0:0:0:0:
248,56,72313,2,0,L|252:320,1,262.5
368,256,72979,1,0,0:0:0:0:
356,120,73313,1,0,0:0:0:0:
