osu file format v14

[General]
AudioFilename: audio.mp3
AudioLeadIn: 0
PreviewTime: -1
Countdown: 0
SampleSet: Normal
StackLeniency: 0.7
Mode: 3
LetterboxInBreaks: 0
SpecialStyle: 0
WidescreenStoryboard: 0

[Editor]
DistanceSpacing: 0.8
BeatDivisor: 4
GridSize: 32
TimelineZoom: 2

[Metadata]
Title:FNF vs Berzerk - Error
TitleUnicode:FNF vs Berzerk - Error
Artist:Urix
ArtistUnicode:Urix
Creator:Jugador 1
Version:%SYSTEM_ERROR% 4****
Source:Friday Night Funkin
Tags:Friday Night Funkin, FNF, Berzerker, FNF vs Berzerker, Error
BeatmapID:4561593
BeatmapSetID:2162977

[Difficulty]
HPDrainRate:7.5
CircleSize:4
OverallDifficulty:8
ApproachRate:5
SliderMultiplier:1.4
SliderTickRate:1

[Events]
//Background and Video events
0,0,"maxresdefault.jpg",0,0
//Break Periods
2,16054,29578
//Storyboard Layer 0 (Background)
//Storyboard Layer 1 (Fail)
//Storyboard Layer 2 (Pass)
//Storyboard Layer 3 (Foreground)
//Storyboard Layer 4 (Overlay)
//Storyboard Sound Samples

[TimingPoints]
4000,278.940027894003,4,1,0,100,1,0
4001,-100,4,1,0,100,0,1
4278,-100,4,1,0,100,0,0
5115,-100,4,1,0,100,0,1
5394,-100,4,1,0,100,0,0
8463,-100,4,1,0,100,0,1
8741,-100,4,1,0,100,0,0
10694,-100,4,1,0,100,0,1
10973,-100,4,1,0,100,0,0
12926,-100,4,1,0,100,0,1
13483,-117.647058823529,4,1,0,100,0,0
14041,-100,4,1,0,100,0,1
14599,-117.647058823529,4,1,0,100,0,0
15157,-100,4,1,0,100,0,1
15715,-117.647058823529,4,1,0,100,0,0
16273,-100,4,1,0,100,0,1
16831,-117.647058823529,4,1,0,100,0,0
17389,-100,4,1,0,100,0,1
17947,-117.647058823529,4,1,0,100,0,0
18504,-100,4,1,0,100,0,1
19062,-117.647058823529,4,1,0,100,0,0
19620,-100,4,1,0,100,0,1
20736,-100,4,1,0,100,0,0
24083,-100,4,1,0,100,0,1
25199,-100,4,1,0,100,0,0
26315,-100,4,1,0,100,0,1
26873,-100,4,1,0,100,0,0
27430,-100,4,1,0,100,0,1
27988,-100,4,1,0,100,0,0
30790,-60000.0000000002,4,1,0,100,1,0
30917,278.940027894003,4,1,0,100,1,0
31069,-15000,4,1,0,100,1,0
31196,278.940027894003,4,1,0,100,1,0
31348,-12000,4,1,0,100,1,0
31475,278.940027894003,4,1,0,100,1,0
31627,-12000,4,1,0,100,1,0
31754,278.940027894003,4,1,0,100,1,0
31893,278.940027894003,4,1,0,100,1,0
35310,-12244.8979591832,4,1,0,100,1,0
35379,278.940027894003,4,1,0,100,1,0
35449,-12000,4,1,0,100,1,0
35519,278.940027894003,4,1,0,100,1,0
35588,-12244.8979591837,4,1,0,100,1,0
35658,278.940027894003,4,1,0,100,1,0
35728,-12244.8979591837,4,1,0,100,1,0
35798,278.940027894003,4,1,0,100,1,0
35867,-12244.8979591837,4,1,0,100,1,0
35937,278.940027894003,4,1,0,100,1,0
36007,-12244.8979591837,4,1,0,100,1,0
36077,278.940027894003,4,1,0,100,1,0
36146,-12244.8979591837,4,1,0,100,1,0
36216,278.940027894003,4,1,0,100,1,0
36286,-12000,4,1,0,100,1,0
36356,278.940027894003,4,1,0,100,1,0
39703,-100,4,1,0,100,0,1
41865,-100,4,1,0,100,0,0
41934,-100,4,1,0,100,0,1
44096,-100,4,1,0,100,0,0
48629,-100,4,1,0,100,0,1
48768,-100,4,1,0,100,0,0
48908,-100,4,1,0,100,0,1
49047,-100,4,1,0,100,0,0
49187,-100,4,1,0,100,0,1
49315,-100,4,1,0,100,0,0
49466,-100,4,1,0,100,0,1
49605,-100,4,1,0,100,0,0
50860,-100,4,1,0,100,0,1
51000,-100,4,1,0,100,0,0
51139,-100,4,1,0,100,0,1
51279,-100,4,1,0,100,0,0
51418,-100,4,1,0,100,0,1
51558,-100,4,1,0,100,0,0
51697,-100,4,1,0,100,0,1
51837,-100,4,1,0,100,0,0
53092,-100,4,1,0,100,0,1
53231,-100,4,1,0,100,0,0
53371,-100,4,1,0,100,0,1
53510,-100,4,1,0,100,0,0
53650,-100,4,1,0,100,0,1
53789,-100,4,1,0,100,0,0
53929,-100,4,1,0,100,0,1
54068,-100,4,1,0,100,0,0
55323,-100,4,1,0,100,0,1
55463,-100,4,1,0,100,0,0
55602,-100,4,1,0,100,0,1
55742,-100,4,1,0,100,0,0
55881,-100,4,1,0,100,0,1
56021,-100,4,1,0,100,0,0
56160,-100,4,1,0,100,0,1
56300,-100,4,1,0,100,0,0
57555,-100,4,1,0,100,0,1
59717,-100,4,1,0,100,0,0
59786,-100,4,1,0,100,0,1
62018,-100,4,1,0,100,0,0
66481,-100,4,1,0,100,0,1
75337,-100,4,1,0,100,0,0
75407,-100,4,1,0,100,0,1
75547,-100,4,1,0,100,0,0
75686,-100,4,1,0,100,0,1
75826,-100,4,1,0,100,0,0
75965,-100,4,1,0,100,0,1
76104,-100,4,1,0,100,0,0
76244,-100,4,1,0,100,0,1
76383,-100,4,1,0,100,0,0
77639,-100,4,1,0,100,0,1
77778,-100,4,1,0,100,0,0
77918,-100,4,1,0,100,0,1
78057,-100,4,1,0,100,0,0
78197,-100,4,1,0,100,0,1
78336,-100,4,1,0,100,0,0
78475,-100,4,1,0,100,0,1
78615,-100,4,1,0,100,0,0
79870,-100,4,1,0,100,0,1
80010,-100,4,1,0,100,0,0
80149,-100,4,1,0,100,0,1
80289,-100,4,1,0,100,0,0
80428,-100,4,1,0,100,0,1
80567,-100,4,1,0,100,0,0
80707,-100,4,1,0,100,0,1
80846,-100,4,1,0,100,0,0
82102,-100,4,1,0,100,0,1
82241,-100,4,1,0,100,0,0
82381,-100,4,1,0,100,0,1
82520,-100,4,1,0,100,0,0
82660,-100,4,1,0,100,0,1
82799,-100,4,1,0,100,0,0
82938,-100,4,1,0,100,0,1
83078,-100,4,1,0,100,0,0
84333,-100,4,1,0,100,0,1
92980,-100,4,1,0,100,0,0
93259,-100,4,1,0,100,0,1
93817,-117.647058823529,4,1,0,100,0,0
94375,-100,4,1,0,100,0,1
94933,-117.647058823529,4,1,0,100,0,0
95491,-100,4,1,0,100,0,1
96049,-117.647058823529,4,1,0,100,0,0
96607,-100,4,1,0,100,0,1
97164,-117.647058823529,4,1,0,100,0,0
97722,-100,4,1,0,100,0,1
98280,-117.647058823529,4,1,0,100,0,0
98838,-100,4,1,0,100,0,1
99396,-117.647058823529,4,1,0,100,0,0
99954,-100,4,1,0,100,0,1
103859,-100,4,1,0,100,0,0

[HitObjects]
448,192,4000,128,0,4139:0:0:0:0:
64,192,4000,1,2,0:0:0:0:
192,192,4000,128,0,4069:0:0:0:0:
64,192,4139,1,0,0:0:0:0:
320,192,4209,1,0,0:0:0:0:
192,192,4278,128,0,4418:0:0:0:0:
64,192,4418,128,0,4697:0:0:0:0:
448,192,4557,1,0,0:0:0:0:
320,192,4697,128,0,4976:0:0:0:0:
192,192,4836,1,0,0:0:0:0:
448,192,4976,1,0,0:0:0:0:
64,192,4976,1,0,0:0:0:0:
192,192,5046,1,0,0:0:0:0:
64,192,5115,128,2,5255:0:0:0:0:
320,192,5115,128,0,5185:0:0:0:0:
192,192,5255,128,0,5394:0:0:0:0:
448,192,5394,128,0,5534:0:0:0:0:
320,192,5534,128,0,5673:0:0:0:0:
192,192,5673,128,0,5813:0:0:0:0:
448,192,5813,128,0,5952:0:0:0:0:
64,192,5882,1,0,0:0:0:0:
320,192,5952,1,0,0:0:0:0:
192,192,6022,1,0,0:0:0:0:
448,192,6092,1,0,0:0:0:0:
320,192,6161,1,0,0:0:0:0:
448,192,6231,128,8,6370:0:0:0:0:
64,192,6231,1,8,0:0:0:0:
192,192,6231,128,0,6301:0:0:0:0:
64,192,6370,1,0,0:0:0:0:
320,192,6440,1,0,0:0:0:0:
192,192,6510,128,0,6580:0:0:0:0:
448,192,6580,1,0,0:0:0:0:
64,192,6649,128,0,6928:0:0:0:0:
320,192,6649,1,0,0:0:0:0:
192,192,6719,1,0,0:0:0:0:
448,192,6789,1,0,0:0:0:0:
192,192,6859,1,0,0:0:0:0:
320,192,6928,128,0,7207:0:0:0:0:
64,192,7068,1,0,0:0:0:0:
192,192,7138,1,0,0:0:0:0:
448,192,7207,1,0,0:0:0:0:
192,192,7277,1,0,0:0:0:0:
64,192,7347,128,0,7486:0:0:0:0:
320,192,7347,128,8,7417:0:0:0:0:
192,192,7486,128,0,7626:0:0:0:0:
448,192,7626,128,0,7765:0:0:0:0:
320,192,7765,128,0,7905:0:0:0:0:
64,192,7835,1,0,0:0:0:0:
192,192,7905,128,0,8044:0:0:0:0:
448,192,8044,128,0,8184:0:0:0:0:
64,192,8114,1,0,0:0:0:0:
320,192,8184,1,0,0:0:0:0:
192,192,8253,1,0,0:0:0:0:
448,192,8323,1,0,0:0:0:0:
320,192,8393,1,0,0:0:0:0:
64,192,8463,128,0,8602:0:0:0:0:
448,192,8463,128,0,8741:0:0:0:0:
320,192,8602,1,0,0:0:0:0:
192,192,8672,1,0,0:0:0:0:
320,192,8741,128,0,8811:0:0:0:0:
448,192,8881,128,0,8951:0:0:0:0:
64,192,8881,1,0,0:0:0:0:
320,192,8951,1,0,0:0:0:0:
192,192,9020,1,0,0:0:0:0:
448,192,9090,1,0,0:0:0:0:
320,192,9160,128,0,9299:0:0:0:0:
448,192,9299,128,0,9439:0:0:0:0:
192,192,9439,1,0,0:0:0:0:
320,192,9509,1,0,0:0:0:0:
64,192,9578,128,0,9718:0:0:0:0:
448,192,9578,128,0,9857:0:0:0:0:
320,192,9718,1,0,0:0:0:0:
192,192,9788,1,0,0:0:0:0:
320,192,9857,128,0,9927:0:0:0:0:
64,192,9997,1,0,0:0:0:0:
448,192,9997,128,0,10066:0:0:0:0:
320,192,10066,1,0,0:0:0:0:
192,192,10136,1,0,0:0:0:0:
448,192,10206,1,0,0:0:0:0:
320,192,10276,128,0,10415:0:0:0:0:
448,192,10415,128,0,10555:0:0:0:0:
192,192,10555,1,0,0:0:0:0:
320,192,10624,1,0,0:0:0:0:
64,192,10694,128,0,10973:0:0:0:0:
448,192,10694,128,0,10834:0:0:0:0:
192,192,10834,1,0,0:0:0:0:
320,192,10903,1,0,0:0:0:0:
192,192,10973,1,0,0:0:0:0:
448,192,11112,1,0,0:0:0:0:
64,192,11112,128,0,11182:0:0:0:0:
192,192,11182,1,0,0:0:0:0:
320,192,11252,1,0,0:0:0:0:
64,192,11322,1,0,0:0:0:0:
192,192,11391,128,0,11531:0:0:0:0:
448,192,11531,128,0,11670:0:0:0:0:
320,192,11670,1,0,0:0:0:0:
192,192,11740,1,0,0:0:0:0:
448,192,11810,128,0,11949:0:0:0:0:
64,192,11810,128,0,12089:0:0:0:0:
192,192,11949,1,0,0:0:0:0:
320,192,12019,1,0,0:0:0:0:
192,192,12089,1,0,0:0:0:0:
448,192,12228,1,0,0:0:0:0:
64,192,12228,128,0,12298:0:0:0:0:
192,192,12298,1,0,0:0:0:0:
320,192,12368,1,0,0:0:0:0:
64,192,12437,1,0,0:0:0:0:
192,192,12507,128,0,12647:0:0:0:0:
448,192,12647,128,0,12786:0:0:0:0:
320,192,12786,1,0,0:0:0:0:
192,192,12856,1,0,0:0:0:0:
448,192,12926,128,0,12995:0:0:0:0:
320,192,12995,1,0,0:0:0:0:
64,192,13065,128,0,13135:0:0:0:0:
320,192,13205,128,0,13274:0:0:0:0:
192,192,13344,128,0,13483:0:0:0:0:
192,192,13623,128,0,13693:0:0:0:0:
320,192,13762,1,0,0:0:0:0:
64,192,13832,1,0,0:0:0:0:
192,192,13902,128,0,13972:0:0:0:0:
64,192,14041,128,0,14111:0:0:0:0:
320,192,14181,128,0,14320:0:0:0:0:
448,192,14320,128,0,14460:0:0:0:0:
192,192,14460,128,0,14599:0:0:0:0:
320,192,14599,128,0,14739:0:0:0:0:
64,192,14739,1,0,0:0:0:0:
64,192,14808,1,0,0:0:0:0:
448,192,14878,1,0,0:0:0:0:
192,192,14948,1,0,0:0:0:0:
320,192,15018,1,0,0:0:0:0:
448,192,15018,1,0,0:0:0:0:
192,192,15087,1,0,0:0:0:0:
448,192,15157,128,0,15436:0:0:0:0:
64,192,15157,1,0,0:0:0:0:
192,192,15297,1,0,0:0:0:0:
320,192,15366,1,0,0:0:0:0:
64,192,15436,1,0,0:0:0:0:
320,192,15576,128,0,15854:0:0:0:0:
192,192,15645,1,0,0:0:0:0:
448,192,15715,1,0,0:0:0:0:
64,192,15785,128,0,15789:0:0:0:0:
448,192,15854,128,0,15994:0:0:0:0:
192,192,15994,1,0,0:0:0:0:
320,192,16064,1,0,0:0:0:0:
192,192,16133,128,0,16273:0:0:0:0:
64,192,16133,1,0,0:0:0:0:
448,192,16203,1,0,0:0:0:0:
64,192,16273,128,0,16343:0:0:0:0:
320,192,16273,1,0,0:0:0:0:
320,192,16412,128,0,16552:0:0:0:0:
448,192,16552,128,0,16691:0:0:0:0:
192,192,16691,128,0,16831:0:0:0:0:
320,192,16831,128,0,16970:0:0:0:0:
64,192,16970,1,0,0:0:0:0:
64,192,17040,1,0,0:0:0:0:
448,192,17110,1,0,0:0:0:0:
192,192,17179,1,0,0:0:0:0:
320,192,17249,1,0,0:0:0:0:
448,192,17249,1,0,0:0:0:0:
192,192,17319,1,0,0:0:0:0:
448,192,17389,128,0,17528:0:0:0:0:
64,192,17528,128,0,17668:0:0:0:0:
448,192,17668,128,0,17807:0:0:0:0:
64,192,17807,128,0,17947:0:0:0:0:
448,192,17947,128,0,18086:0:0:0:0:
320,192,18086,128,0,18225:0:0:0:0:
64,192,18225,128,0,18365:0:0:0:0:
448,192,18504,128,0,18644:0:0:0:0:
64,192,18644,128,0,18783:0:0:0:0:
320,192,18783,128,0,18923:0:0:0:0:
192,192,18923,128,0,19062:0:0:0:0:
448,192,19062,128,0,19202:0:0:0:0:
320,192,19202,128,0,19341:0:0:0:0:
64,192,19341,128,0,19481:0:0:0:0:
64,192,19620,128,0,19760:0:0:0:0:
320,192,19620,1,4,0:0:0:0:
192,192,19760,128,0,19899:0:0:0:0:
448,192,19760,1,4,0:0:0:0:
320,192,19899,128,0,20039:0:0:0:0:
64,192,19899,1,4,0:0:0:0:
448,192,20039,128,0,20178:0:0:0:0:
192,192,20039,1,4,0:0:0:0:
320,192,20178,128,0,20317:0:0:0:0:
64,192,20178,1,4,0:0:0:0:
192,192,20317,128,0,20457:0:0:0:0:
448,192,20317,1,4,0:0:0:0:
64,192,20457,128,0,20596:0:0:0:0:
320,192,20457,1,4,0:0:0:0:
192,192,20596,128,0,20736:0:0:0:0:
320,192,20736,128,0,20875:0:0:0:0:
448,192,20736,1,4,0:0:0:0:
64,192,20875,128,0,21015:0:0:0:0:
192,192,20875,1,4,0:0:0:0:
448,192,21015,128,0,21154:0:0:0:0:
320,192,21015,1,4,0:0:0:0:
64,192,21154,128,0,21294:0:0:0:0:
192,192,21154,1,4,0:0:0:0:
448,192,21294,128,0,21433:0:0:0:0:
192,192,21294,1,4,0:0:0:0:
320,192,21433,128,0,21503:0:0:0:0:
64,192,21433,1,0,0:0:0:0:
448,192,21573,128,0,21642:0:0:0:0:
64,192,21642,128,0,21712:0:0:0:0:
320,192,21712,128,0,21782:0:0:0:0:
448,192,21712,1,0,0:0:0:0:
448,192,21852,128,0,21991:0:0:0:0:
64,192,21991,1,0,0:0:0:0:
320,192,22061,1,0,0:0:0:0:
64,192,22131,128,0,22270:0:0:0:0:
192,192,22131,128,0,22200:0:0:0:0:
448,192,22270,1,0,0:0:0:0:
320,192,22410,128,0,22479:0:0:0:0:
64,192,22549,128,0,22619:0:0:0:0:
320,192,22688,128,0,22758:0:0:0:0:
448,192,22688,128,0,22898:0:0:0:0:
448,192,22967,128,0,23107:0:0:0:0:
64,192,23107,1,0,0:0:0:0:
320,192,23177,128,0,23246:0:0:0:0:
192,192,23246,128,0,23316:0:0:0:0:
64,192,23246,1,0,0:0:0:0:
448,192,23386,128,0,23456:0:0:0:0:
320,192,23525,128,0,23595:0:0:0:0:
192,192,23665,128,0,23735:0:0:0:0:
448,192,23804,128,0,24013:0:0:0:0:
320,192,23804,128,0,23874:0:0:0:0:
64,192,23804,128,0,24013:0:0:0:0:
64,192,24083,128,0,24223:0:0:0:0:
320,192,24083,1,4,0:0:0:0:
192,192,24223,128,0,24362:0:0:0:0:
448,192,24223,1,4,0:0:0:0:
320,192,24362,128,0,24502:0:0:0:0:
64,192,24362,1,4,0:0:0:0:
448,192,24502,128,0,24641:0:0:0:0:
192,192,24502,1,4,0:0:0:0:
320,192,24641,128,0,24781:0:0:0:0:
64,192,24641,1,4,0:0:0:0:
192,192,24781,128,0,24920:0:0:0:0:
448,192,24781,1,4,0:0:0:0:
64,192,24920,128,0,25059:0:0:0:0:
320,192,24920,1,4,0:0:0:0:
192,192,25059,128,0,25199:0:0:0:0:
320,192,25199,128,0,25338:0:0:0:0:
448,192,25199,1,4,0:0:0:0:
64,192,25338,128,0,25478:0:0:0:0:
192,192,25338,1,4,0:0:0:0:
448,192,25478,128,0,25617:0:0:0:0:
320,192,25478,1,4,0:0:0:0:
64,192,25617,128,0,25757:0:0:0:0:
192,192,25617,1,4,0:0:0:0:
448,192,25757,128,0,25896:0:0:0:0:
192,192,25757,1,4,0:0:0:0:
320,192,25896,128,0,25966:0:0:0:0:
64,192,25896,1,0,0:0:0:0:
192,192,26036,128,0,26175:0:0:0:0:
448,192,26315,128,0,26384:0:0:0:0:
320,192,26454,128,0,26524:0:0:0:0:
64,192,26594,128,0,26663:0:0:0:0:
448,192,26733,128,0,26803:0:0:0:0:
192,192,26873,128,0,26942:0:0:0:0:
320,192,27012,128,0,27082:0:0:0:0:
64,192,27082,128,0,27152:0:0:0:0:
320,192,27152,128,0,27291:0:0:0:0:
64,192,27291,128,0,27361:0:0:0:0:
448,192,27430,128,0,27570:0:0:0:0:
192,192,27570,1,0,0:0:0:0:
320,192,27640,128,0,27709:0:0:0:0:
192,192,27709,128,0,27779:0:0:0:0:
64,192,27709,1,0,0:0:0:0:
448,192,27849,128,0,27919:0:0:0:0:
192,192,27988,128,0,28058:0:0:0:0:
64,192,28128,128,0,28198:0:0:0:0:
320,192,28267,128,0,28337:0:0:0:0:
448,192,28267,128,0,28407:0:0:0:0:
64,192,28407,128,0,28476:0:0:0:0:
192,192,28546,128,0,28686:0:0:0:0:
64,192,28686,1,0,0:0:0:0:
320,192,28755,1,0,0:0:0:0:
192,192,28825,128,0,28895:0:0:0:0:
448,192,28825,1,0,0:0:0:0:
448,192,28965,1,0,0:0:0:0:
320,192,29104,1,0,0:0:0:0:
320,192,29244,1,0,0:0:0:0:
64,192,29313,1,0,0:0:0:0:
448,192,29383,128,0,29592:0:0:0:0:
320,192,29383,128,0,29453:0:0:0:0:
320,192,29523,1,0,0:0:0:0:
192,192,29662,132,0,29801:0:0:0:0:
64,192,29801,1,0,0:0:0:0:
320,192,29871,1,0,0:0:0:0:
192,192,29941,128,0,30011:0:0:0:0:
448,192,29941,1,0,0:0:0:0:
448,192,30080,1,0,0:0:0:0:
192,192,30220,1,0,0:0:0:0:
320,192,30359,1,0,0:0:0:0:
64,192,30429,1,0,0:0:0:0:
320,192,30499,1,0,0:0:0:0:
320,192,30638,1,0,0:0:0:0:
64,192,30778,128,0,15789:0:0:0:0:
64,192,30778,128,0,15789:0:0:0:0:
64,192,30778,1,0,0:0:0:0:
448,192,31052,1,0,0:0:0:0:
64,192,31331,1,0,0:0:0:0:
448,192,31610,1,0,0:0:0:0:
448,192,31893,128,0,32032:0:0:0:0:
192,192,32032,128,0,32102:0:0:0:0:
320,192,32171,128,0,32241:0:0:0:0:
64,192,32311,128,0,32381:0:0:0:0:
192,192,32450,1,0,0:0:0:0:
320,192,32520,1,0,0:0:0:0:
192,192,32590,1,0,0:0:0:0:
448,192,32590,1,0,0:0:0:0:
64,192,32660,1,0,0:0:0:0:
320,192,32660,128,0,32666:0:0:0:0:
448,192,32729,1,0,0:0:0:0:
64,192,32799,1,0,0:0:0:0:
320,192,32799,1,0,0:0:0:0:
192,192,32869,1,0,0:0:0:0:
448,192,32945,1,0,0:0:0:0:
192,192,32945,1,0,0:0:0:0:
64,192,33008,128,0,33148:0:0:0:0:
448,192,33008,1,0,0:0:0:0:
192,192,33008,1,0,0:0:0:0:
320,192,33055,1,0,0:0:0:0:
320,192,33287,1,0,0:0:0:0:
64,192,33287,1,0,0:0:0:0:
192,192,33334,1,0,0:0:0:0:
448,192,33334,1,0,0:0:0:0:
448,192,33566,1,0,0:0:0:0:
192,192,33566,1,0,0:0:0:0:
320,192,33613,1,0,0:0:0:0:
64,192,33613,1,0,0:0:0:0:
448,192,33845,1,0,0:0:0:0:
192,192,33845,1,0,0:0:0:0:
320,192,33892,1,0,0:0:0:0:
64,192,33892,1,0,0:0:0:0:
64,192,34124,128,0,34263:0:0:0:0:
448,192,34263,128,0,34403:0:0:0:0:
192,192,34403,128,0,34542:0:0:0:0:
64,192,34542,128,0,34682:0:0:0:0:
448,192,34682,1,0,0:0:0:0:
192,192,34752,1,0,0:0:0:0:
448,192,34821,1,0,0:0:0:0:
320,192,34821,1,0,0:0:0:0:
192,192,34891,1,0,0:0:0:0:
64,192,34961,1,0,0:0:0:0:
320,192,34961,1,0,0:0:0:0:
448,192,35031,1,0,0:0:0:0:
192,192,35100,1,0,0:0:0:0:
320,192,35100,1,0,0:0:0:0:
64,192,35240,1,0,0:0:0:0:
64,192,35379,1,0,0:0:0:0:
448,192,35519,1,0,0:0:0:0:
448,192,35658,1,0,0:0:0:0:
64,192,35798,1,0,0:0:0:0:
64,192,35937,1,0,0:0:0:0:
448,192,36077,1,0,0:0:0:0:
448,192,36216,1,0,0:0:0:0:
448,192,36356,1,0,0:0:0:0:
320,192,36425,1,0,0:0:0:0:
192,192,36495,1,0,0:0:0:0:
64,192,36565,1,0,0:0:0:0:
320,192,36634,1,0,0:0:0:0:
448,192,36704,1,0,0:0:0:0:
192,192,36774,1,0,0:0:0:0:
64,192,36844,1,0,0:0:0:0:
448,192,36913,1,0,0:0:0:0:
320,192,36983,1,0,0:0:0:0:
192,192,37053,1,0,0:0:0:0:
448,192,37053,1,0,0:0:0:0:
64,192,37123,1,0,0:0:0:0:
320,192,37192,1,0,0:0:0:0:
192,192,37262,1,0,0:0:0:0:
320,192,37332,1,0,0:0:0:0:
192,192,37471,1,0,0:0:0:0:
448,192,37471,1,0,0:0:0:0:
64,192,37541,1,0,0:0:0:0:
320,192,37611,1,0,0:0:0:0:
64,192,37750,1,0,0:0:0:0:
448,192,37750,1,0,0:0:0:0:
192,192,37820,1,0,0:0:0:0:
320,192,37890,1,0,0:0:0:0:
192,192,38029,1,0,0:0:0:0:
64,192,38099,1,0,0:0:0:0:
320,192,38169,1,0,0:0:0:0:
192,192,38169,1,0,0:0:0:0:
64,192,38308,1,0,0:0:0:0:
192,192,38378,1,0,0:0:0:0:
448,192,38448,1,0,0:0:0:0:
64,192,38587,1,0,0:0:0:0:
192,192,38587,1,0,0:0:0:0:
320,192,38657,1,0,0:0:0:0:
448,192,38726,1,0,0:0:0:0:
64,192,38796,1,0,0:0:0:0:
320,192,38866,1,0,0:0:0:0:
192,192,38936,1,0,0:0:0:0:
448,192,39005,1,0,0:0:0:0:
64,192,39075,1,0,0:0:0:0:
320,192,39145,1,0,0:0:0:0:
192,192,39215,1,0,0:0:0:0:
64,192,39284,1,0,0:0:0:0:
448,192,39284,1,0,0:0:0:0:
320,192,39354,1,0,0:0:0:0:
64,192,39424,1,0,0:0:0:0:
320,192,39494,1,0,0:0:0:0:
448,192,39563,1,0,0:0:0:0:
192,192,39563,1,0,0:0:0:0:
192,192,39703,1,0,0:0:0:0:
64,192,39703,1,0,0:0:0:0:
448,192,39773,1,0,0:0:0:0:
64,192,39842,1,0,0:0:0:0:
192,192,39912,1,0,0:0:0:0:
448,192,39982,1,0,0:0:0:0:
320,192,39982,1,0,0:0:0:0:
64,192,40051,1,0,0:0:0:0:
320,192,40121,1,0,0:0:0:0:
192,192,40191,1,0,0:0:0:0:
64,192,40261,1,0,0:0:0:0:
448,192,40261,1,0,0:0:0:0:
192,192,40330,1,0,0:0:0:0:
320,192,40400,1,0,0:0:0:0:
448,192,40470,1,0,0:0:0:0:
192,192,40540,1,0,0:0:0:0:
64,192,40609,1,0,0:0:0:0:
320,192,40679,1,0,0:0:0:0:
448,192,40749,1,0,0:0:0:0:
64,192,40819,1,0,0:0:0:0:
192,192,40819,1,0,0:0:0:0:
448,192,40888,1,0,0:0:0:0:
320,192,40958,1,0,0:0:0:0:
64,192,41028,1,0,0:0:0:0:
448,192,41097,1,0,0:0:0:0:
192,192,41097,1,0,0:0:0:0:
320,192,41167,1,0,0:0:0:0:
192,192,41237,1,0,0:0:0:0:
448,192,41307,1,0,0:0:0:0:
320,192,41376,1,0,0:0:0:0:
64,192,41446,1,0,0:0:0:0:
192,192,41516,1,0,0:0:0:0:
448,192,41586,1,0,0:0:0:0:
320,192,41655,1,0,0:0:0:0:
192,192,41655,1,0,0:0:0:0:
64,192,41725,1,0,0:0:0:0:
192,192,41795,1,0,0:0:0:0:
448,192,41865,1,0,0:0:0:0:
64,192,41934,1,0,0:0:0:0:
320,192,42004,1,0,0:0:0:0:
448,192,42074,1,0,0:0:0:0:
192,192,42144,1,0,0:0:0:0:
64,192,42213,1,0,0:0:0:0:
448,192,42213,1,0,0:0:0:0:
320,192,42283,1,0,0:0:0:0:
192,192,42353,1,0,0:0:0:0:
64,192,42422,1,0,0:0:0:0:
320,192,42492,1,0,0:0:0:0:
448,192,42562,1,0,0:0:0:0:
64,192,42632,1,0,0:0:0:0:
192,192,42701,1,0,0:0:0:0:
320,192,42771,1,0,0:0:0:0:
64,192,42841,1,0,0:0:0:0:
448,192,42911,1,0,0:0:0:0:
320,192,42980,1,0,0:0:0:0:
192,192,43050,1,0,0:0:0:0:
64,192,43050,1,0,0:0:0:0:
320,192,43190,1,0,0:0:0:0:
192,192,43190,1,0,0:0:0:0:
64,192,43259,1,0,0:0:0:0:
320,192,43329,1,0,0:0:0:0:
192,192,43329,1,0,0:0:0:0:
192,192,43468,1,0,0:0:0:0:
64,192,43608,1,0,0:0:0:0:
320,192,43608,1,0,0:0:0:0:
448,192,43678,1,0,0:0:0:0:
192,192,43747,1,0,0:0:0:0:
320,192,43817,1,0,0:0:0:0:
192,192,43887,1,0,0:0:0:0:
64,192,43957,1,0,0:0:0:0:
448,192,44026,1,0,0:0:0:0:
320,192,44096,1,0,0:0:0:0:
192,192,44166,1,0,0:0:0:0:
64,192,44166,1,0,0:0:0:0:
448,192,44236,1,0,0:0:0:0:
192,192,44305,1,0,0:0:0:0:
64,192,44375,1,0,0:0:0:0:
448,192,44445,1,0,0:0:0:0:
320,192,44514,1,0,0:0:0:0:
64,192,44584,1,0,0:0:0:0:
192,192,44654,1,0,0:0:0:0:
320,192,44724,1,0,0:0:0:0:
64,192,44793,1,0,0:0:0:0:
192,192,44863,1,0,0:0:0:0:
448,192,44933,1,0,0:0:0:0:
320,192,45003,1,0,0:0:0:0:
64,192,45072,1,0,0:0:0:0:
448,192,45142,1,0,0:0:0:0:
192,192,45212,1,0,0:0:0:0:
320,192,45282,1,0,0:0:0:0:
448,192,45282,1,0,0:0:0:0:
64,192,45351,1,0,0:0:0:0:
448,192,45421,1,0,0:0:0:0:
320,192,45491,1,0,0:0:0:0:
64,192,45561,1,0,0:0:0:0:
320,192,45630,1,0,0:0:0:0:
192,192,45630,1,0,0:0:0:0:
448,192,45700,1,0,0:0:0:0:
192,192,45770,1,0,0:0:0:0:
64,192,45839,1,0,0:0:0:0:
320,192,45909,1,0,0:0:0:0:
448,192,45979,1,0,0:0:0:0:
64,192,46049,1,0,0:0:0:0:
192,192,46118,1,0,0:0:0:0:
320,192,46188,1,0,0:0:0:0:
64,192,46258,1,0,0:0:0:0:
192,192,46328,1,0,0:0:0:0:
448,192,46397,1,0,0:0:0:0:
64,192,46397,1,0,0:0:0:0:
320,192,46467,1,0,0:0:0:0:
64,192,46537,1,0,0:0:0:0:
448,192,46607,1,0,0:0:0:0:
192,192,46676,1,0,0:0:0:0:
320,192,46746,1,0,0:0:0:0:
448,192,46816,1,0,0:0:0:0:
64,192,46885,1,0,0:0:0:0:
192,192,46955,1,0,0:0:0:0:
448,192,47025,1,0,0:0:0:0:
320,192,47095,1,0,0:0:0:0:
64,192,47164,1,0,0:0:0:0:
192,192,47234,1,0,0:0:0:0:
448,192,47304,1,0,0:0:0:0:
192,192,47374,1,0,0:0:0:0:
64,192,47374,1,0,0:0:0:0:
320,192,47443,1,0,0:0:0:0:
448,192,47513,1,0,0:0:0:0:
192,192,47513,128,0,47653:0:0:0:0:
64,192,47653,128,0,47792:0:0:0:0:
448,192,47792,128,0,47932:0:0:0:0:
64,192,47932,128,0,48071:0:0:0:0:
192,192,48071,1,0,0:0:0:0:
320,192,48141,1,0,0:0:0:0:
448,192,48210,1,0,0:0:0:0:
192,192,48280,1,0,0:0:0:0:
64,192,48350,1,0,0:0:0:0:
448,192,48350,1,0,0:0:0:0:
320,192,48420,1,0,0:0:0:0:
64,192,48489,1,0,0:0:0:0:
320,192,48559,1,0,0:0:0:0:
448,192,48629,1,0,0:0:0:0:
192,192,48629,1,0,0:0:0:0:
64,192,48699,1,0,0:0:0:0:
320,192,48768,1,0,0:0:0:0:
192,192,48838,1,0,0:0:0:0:
448,192,48908,1,0,0:0:0:0:
320,192,48978,1,0,0:0:0:0:
64,192,49047,1,0,0:0:0:0:
192,192,49117,1,0,0:0:0:0:
448,192,49187,1,0,0:0:0:0:
64,192,49256,1,0,0:0:0:0:
320,192,49326,1,0,0:0:0:0:
192,192,49396,1,0,0:0:0:0:
64,192,49466,1,0,0:0:0:0:
448,192,49466,1,0,0:0:0:0:
320,192,49535,1,0,0:0:0:0:
64,192,49605,1,0,0:0:0:0:
192,192,49675,1,0,0:0:0:0:
448,192,49745,1,0,0:0:0:0:
320,192,49814,1,0,0:0:0:0:
192,192,49884,1,0,0:0:0:0:
448,192,49954,1,0,0:0:0:0:
64,192,50024,1,0,0:0:0:0:
320,192,50093,1,0,0:0:0:0:
192,192,50163,1,0,0:0:0:0:
448,192,50233,1,0,0:0:0:0:
64,192,50303,1,0,0:0:0:0:
320,192,50372,1,0,0:0:0:0:
192,192,50442,1,0,0:0:0:0:
64,192,50512,1,0,0:0:0:0:
448,192,50581,1,0,0:0:0:0:
320,192,50651,1,0,0:0:0:0:
192,192,50721,1,0,0:0:0:0:
64,192,50791,1,0,0:0:0:0:
448,192,50860,1,0,0:0:0:0:
320,192,50930,1,0,0:0:0:0:
448,192,51000,1,0,0:0:0:0:
64,192,51000,1,0,0:0:0:0:
192,192,51070,1,0,0:0:0:0:
320,192,51139,1,0,0:0:0:0:
64,192,51209,1,0,0:0:0:0:
192,192,51279,1,0,0:0:0:0:
448,192,51349,1,0,0:0:0:0:
320,192,51418,1,0,0:0:0:0:
64,192,51418,1,0,0:0:0:0:
192,192,51488,1,0,0:0:0:0:
320,192,51558,1,0,0:0:0:0:
448,192,51627,1,0,0:0:0:0:
64,192,51697,1,0,0:0:0:0:
192,192,51767,1,0,0:0:0:0:
448,192,51837,1,0,0:0:0:0:
320,192,51906,1,0,0:0:0:0:
64,192,51976,1,0,0:0:0:0:
448,192,52046,1,0,0:0:0:0:
192,192,52116,1,0,0:0:0:0:
64,192,52185,1,0,0:0:0:0:
448,192,52255,1,0,0:0:0:0:
64,192,52325,1,0,0:0:0:0:
320,192,52395,1,0,0:0:0:0:
192,192,52464,1,0,0:0:0:0:
448,192,52534,1,0,0:0:0:0:
64,192,52604,1,0,0:0:0:0:
192,192,52673,1,0,0:0:0:0:
320,192,52743,1,0,0:0:0:0:
448,192,52813,1,0,0:0:0:0:
64,192,52813,1,0,0:0:0:0:
320,192,52883,1,0,0:0:0:0:
192,192,52952,1,0,0:0:0:0:
448,192,53022,1,0,0:0:0:0:
64,192,53092,1,0,0:0:0:0:
192,192,53162,1,0,0:0:0:0:
320,192,53231,1,0,0:0:0:0:
448,192,53301,1,0,0:0:0:0:
192,192,53371,1,0,0:0:0:0:
320,192,53441,1,0,0:0:0:0:
448,192,53510,1,0,0:0:0:0:
64,192,53580,1,0,0:0:0:0:
192,192,53650,1,0,0:0:0:0:
448,192,53720,1,0,0:0:0:0:
320,192,53789,1,0,0:0:0:0:
64,192,53859,1,0,0:0:0:0:
192,192,53929,1,0,0:0:0:0:
448,192,53998,1,0,0:0:0:0:
192,192,54068,1,0,0:0:0:0:
64,192,54068,1,0,0:0:0:0:
320,192,54138,1,0,0:0:0:0:
448,192,54208,1,0,0:0:0:0:
64,192,54277,1,0,0:0:0:0:
192,192,54347,1,0,0:0:0:0:
448,192,54417,1,0,0:0:0:0:
320,192,54487,1,0,0:0:0:0:
192,192,54556,1,0,0:0:0:0:
320,192,54626,1,0,0:0:0:0:
448,192,54696,1,0,0:0:0:0:
192,192,54696,1,0,0:0:0:0:
64,192,54766,1,0,0:0:0:0:
320,192,54835,1,0,0:0:0:0:
448,192,54905,1,0,0:0:0:0:
192,192,54975,1,0,0:0:0:0:
64,192,55044,1,0,0:0:0:0:
448,192,55044,1,0,0:0:0:0:
320,192,55114,1,0,0:0:0:0:
192,192,55184,1,0,0:0:0:0:
64,192,55184,1,0,0:0:0:0:
320,192,55254,1,0,0:0:0:0:
448,192,55323,1,0,0:0:0:0:
192,192,55323,1,0,0:0:0:0:
64,192,55393,1,0,0:0:0:0:
320,192,55463,1,0,0:0:0:0:
192,192,55533,1,0,0:0:0:0:
448,192,55602,1,0,0:0:0:0:
320,192,55672,1,0,0:0:0:0:
192,192,55742,1,0,0:0:0:0:
64,192,55812,1,0,0:0:0:0:
320,192,55881,1,0,0:0:0:0:
448,192,55951,1,0,0:0:0:0:
64,192,56021,1,0,0:0:0:0:
192,192,56091,1,0,0:0:0:0:
320,192,56160,1,0,0:0:0:0:
448,192,56230,1,0,0:0:0:0:
192,192,56300,1,0,0:0:0:0:
64,192,56369,1,0,0:0:0:0:
448,192,56439,1,0,0:0:0:0:
320,192,56509,1,0,0:0:0:0:
192,192,56579,1,0,0:0:0:0:
64,192,56648,1,0,0:0:0:0:
320,192,56718,1,0,0:0:0:0:
448,192,56718,1,0,0:0:0:0:
192,192,56788,1,0,0:0:0:0:
448,192,56858,1,0,0:0:0:0:
64,192,56927,1,0,0:0:0:0:
192,192,56997,1,0,0:0:0:0:
448,192,57067,1,0,0:0:0:0:
320,192,57137,1,0,0:0:0:0:
64,192,57206,1,0,0:0:0:0:
448,192,57276,1,0,0:0:0:0:
192,192,57346,1,0,0:0:0:0:
320,192,57415,1,0,0:0:0:0:
64,192,57485,1,0,0:0:0:0:
320,192,57555,1,0,0:0:0:0:
448,192,57625,1,0,0:0:0:0:
192,192,57694,1,0,0:0:0:0:
64,192,57764,1,0,0:0:0:0:
448,192,57834,1,0,0:0:0:0:
320,192,57904,1,0,0:0:0:0:
192,192,57973,1,0,0:0:0:0:
64,192,58043,1,0,0:0:0:0:
320,192,58113,1,0,0:0:0:0:
448,192,58183,1,0,0:0:0:0:
192,192,58252,1,0,0:0:0:0:
64,192,58322,1,0,0:0:0:0:
448,192,58392,1,0,0:0:0:0:
320,192,58461,1,0,0:0:0:0:
192,192,58531,1,0,0:0:0:0:
64,192,58601,1,0,0:0:0:0:
320,192,58671,1,0,0:0:0:0:
448,192,58740,1,0,0:0:0:0:
192,192,58810,1,0,0:0:0:0:
320,192,58880,1,0,0:0:0:0:
64,192,58950,1,0,0:0:0:0:
192,192,59019,1,0,0:0:0:0:
448,192,59089,1,0,0:0:0:0:
320,192,59159,1,0,0:0:0:0:
64,192,59229,1,0,0:0:0:0:
192,192,59298,1,0,0:0:0:0:
320,192,59368,1,0,0:0:0:0:
64,192,59438,1,0,0:0:0:0:
192,192,59508,1,0,0:0:0:0:
448,192,59577,1,0,0:0:0:0:
320,192,59647,1,0,0:0:0:0:
192,192,59717,1,0,0:0:0:0:
64,192,59786,1,0,0:0:0:0:
448,192,59786,1,0,0:0:0:0:
192,192,59856,1,0,0:0:0:0:
320,192,59926,1,0,0:0:0:0:
192,192,59996,1,0,0:0:0:0:
448,192,59996,1,0,0:0:0:0:
64,192,60065,1,0,0:0:0:0:
448,192,60135,1,0,0:0:0:0:
320,192,60205,1,0,0:0:0:0:
64,192,60205,1,0,0:0:0:0:
192,192,60275,1,0,0:0:0:0:
320,192,60344,1,0,0:0:0:0:
448,192,60344,1,0,0:0:0:0:
192,192,60414,1,0,0:0:0:0:
64,192,60484,1,0,0:0:0:0:
448,192,60484,1,0,0:0:0:0:
320,192,60554,1,0,0:0:0:0:
192,192,60623,1,0,0:0:0:0:
64,192,60623,1,0,0:0:0:0:
320,192,60693,1,0,0:0:0:0:
448,192,60763,1,0,0:0:0:0:
64,192,60763,1,0,0:0:0:0:
192,192,60832,1,0,0:0:0:0:
320,192,60902,1,0,0:0:0:0:
448,192,60902,1,0,0:0:0:0:
192,192,60972,1,0,0:0:0:0:
64,192,61042,1,0,0:0:0:0:
448,192,61111,1,0,0:0:0:0:
320,192,61181,1,0,0:0:0:0:
64,192,61251,1,0,0:0:0:0:
192,192,61321,1,0,0:0:0:0:
448,192,61390,1,0,0:0:0:0:
320,192,61460,1,0,0:0:0:0:
192,192,61530,1,0,0:0:0:0:
448,192,61600,1,0,0:0:0:0:
320,192,61669,1,0,0:0:0:0:
64,192,61739,128,0,61879:0:0:0:0:
320,192,62018,1,0,0:0:0:0:
448,192,62088,1,0,0:0:0:0:
192,192,62157,1,0,0:0:0:0:
64,192,62227,1,0,0:0:0:0:
448,192,62297,1,0,0:0:0:0:
320,192,62367,1,0,0:0:0:0:
192,192,62436,1,0,0:0:0:0:
64,192,62506,1,0,0:0:0:0:
320,192,62576,1,0,0:0:0:0:
448,192,62646,1,0,0:0:0:0:
192,192,62715,1,0,0:0:0:0:
64,192,62785,1,0,0:0:0:0:
448,192,62855,1,0,0:0:0:0:
320,192,62925,1,0,0:0:0:0:
192,192,62994,1,0,0:0:0:0:
64,192,63064,1,0,0:0:0:0:
320,192,63134,1,0,0:0:0:0:
448,192,63203,1,0,0:0:0:0:
192,192,63273,1,0,0:0:0:0:
320,192,63343,1,0,0:0:0:0:
64,192,63413,1,0,0:0:0:0:
192,192,63482,1,0,0:0:0:0:
448,192,63552,1,0,0:0:0:0:
320,192,63622,1,0,0:0:0:0:
64,192,63692,1,0,0:0:0:0:
192,192,63761,1,0,0:0:0:0:
320,192,63831,1,0,0:0:0:0:
64,192,63901,1,0,0:0:0:0:
192,192,63971,1,0,0:0:0:0:
448,192,64040,1,0,0:0:0:0:
320,192,64110,1,0,0:0:0:0:
192,192,64180,1,0,0:0:0:0:
64,192,64250,1,0,0:0:0:0:
448,192,64250,1,0,0:0:0:0:
192,192,64319,1,0,0:0:0:0:
320,192,64389,1,0,0:0:0:0:
192,192,64459,1,0,0:0:0:0:
448,192,64459,1,0,0:0:0:0:
64,192,64528,1,0,0:0:0:0:
448,192,64598,1,0,0:0:0:0:
320,192,64668,1,0,0:0:0:0:
64,192,64668,1,0,0:0:0:0:
192,192,64738,1,0,0:0:0:0:
320,192,64807,1,0,0:0:0:0:
448,192,64807,1,0,0:0:0:0:
192,192,64877,1,0,0:0:0:0:
64,192,64947,1,0,0:0:0:0:
448,192,64947,1,0,0:0:0:0:
320,192,65017,1,0,0:0:0:0:
192,192,65086,1,0,0:0:0:0:
64,192,65086,1,0,0:0:0:0:
320,192,65156,1,0,0:0:0:0:
448,192,65226,1,0,0:0:0:0:
64,192,65226,1,0,0:0:0:0:
192,192,65296,1,0,0:0:0:0:
320,192,65365,1,0,0:0:0:0:
448,192,65365,1,0,0:0:0:0:
192,192,65435,1,0,0:0:0:0:
64,192,65505,1,0,0:0:0:0:
448,192,65574,1,0,0:0:0:0:
320,192,65644,1,0,0:0:0:0:
64,192,65714,1,0,0:0:0:0:
192,192,65784,1,0,0:0:0:0:
448,192,65853,1,0,0:0:0:0:
320,192,65923,1,0,0:0:0:0:
192,192,65993,1,0,0:0:0:0:
448,192,66063,1,0,0:0:0:0:
320,192,66132,1,0,0:0:0:0:
64,192,66202,1,0,0:0:0:0:
192,192,66272,1,0,0:0:0:0:
320,192,66342,1,0,0:0:0:0:
448,192,66411,1,0,0:0:0:0:
320,192,66481,1,0,0:0:0:0:
448,192,66551,1,0,0:0:0:0:
192,192,66620,1,0,0:0:0:0:
64,192,66690,1,0,0:0:0:0:
448,192,66760,1,0,0:0:0:0:
320,192,66830,1,0,0:0:0:0:
192,192,66899,1,0,0:0:0:0:
64,192,66969,1,0,0:0:0:0:
320,192,67039,1,0,0:0:0:0:
448,192,67109,1,0,0:0:0:0:
192,192,67178,1,0,0:0:0:0:
64,192,67248,1,0,0:0:0:0:
448,192,67318,1,0,0:0:0:0:
320,192,67388,1,0,0:0:0:0:
192,192,67457,1,0,0:0:0:0:
64,192,67527,1,0,0:0:0:0:
320,192,67597,1,0,0:0:0:0:
448,192,67667,1,0,0:0:0:0:
192,192,67736,1,0,0:0:0:0:
320,192,67806,1,0,0:0:0:0:
64,192,67876,1,0,0:0:0:0:
192,192,67945,1,0,0:0:0:0:
448,192,68015,1,0,0:0:0:0:
320,192,68085,1,0,0:0:0:0:
64,192,68155,1,0,0:0:0:0:
192,192,68224,1,0,0:0:0:0:
320,192,68294,1,0,0:0:0:0:
64,192,68364,1,0,0:0:0:0:
192,192,68434,1,0,0:0:0:0:
448,192,68503,1,0,0:0:0:0:
320,192,68573,1,0,0:0:0:0:
192,192,68643,1,0,0:0:0:0:
448,192,68713,1,0,0:0:0:0:
64,192,68782,1,0,0:0:0:0:
320,192,68852,1,0,0:0:0:0:
448,192,68922,1,0,0:0:0:0:
192,192,68922,1,0,0:0:0:0:
64,192,68991,1,0,0:0:0:0:
448,192,69061,1,0,0:0:0:0:
64,192,69131,1,0,0:0:0:0:
320,192,69131,1,0,0:0:0:0:
192,192,69201,1,0,0:0:0:0:
448,192,69270,1,0,0:0:0:0:
320,192,69270,1,0,0:0:0:0:
192,192,69340,1,0,0:0:0:0:
448,192,69410,1,0,0:0:0:0:
64,192,69410,1,0,0:0:0:0:
320,192,69480,1,0,0:0:0:0:
64,192,69549,1,0,0:0:0:0:
192,192,69549,1,0,0:0:0:0:
320,192,69619,1,0,0:0:0:0:
64,192,69689,1,0,0:0:0:0:
448,192,69689,1,0,0:0:0:0:
192,192,69759,1,0,0:0:0:0:
448,192,69828,1,0,0:0:0:0:
320,192,69828,1,0,0:0:0:0:
192,192,69898,1,0,0:0:0:0:
64,192,69968,1,0,0:0:0:0:
448,192,70038,1,0,0:0:0:0:
320,192,70107,1,0,0:0:0:0:
64,192,70177,1,0,0:0:0:0:
192,192,70247,1,0,0:0:0:0:
448,192,70316,1,0,0:0:0:0:
320,192,70386,1,0,0:0:0:0:
192,192,70456,1,0,0:0:0:0:
448,192,70526,1,0,0:0:0:0:
320,192,70595,1,0,0:0:0:0:
64,192,70665,1,0,0:0:0:0:
192,192,70735,1,0,0:0:0:0:
320,192,70805,1,0,0:0:0:0:
192,192,70874,1,0,0:0:0:0:
448,192,70944,1,0,0:0:0:0:
64,192,71014,1,0,0:0:0:0:
320,192,71084,1,0,0:0:0:0:
192,192,71153,1,0,0:0:0:0:
64,192,71223,1,0,0:0:0:0:
448,192,71223,1,0,0:0:0:0:
192,192,71293,1,0,0:0:0:0:
320,192,71362,1,0,0:0:0:0:
448,192,71432,1,0,0:0:0:0:
192,192,71502,1,0,0:0:0:0:
64,192,71572,1,0,0:0:0:0:
320,192,71641,1,0,0:0:0:0:
448,192,71711,1,0,0:0:0:0:
192,192,71781,1,0,0:0:0:0:
448,192,71851,1,0,0:0:0:0:
320,192,71920,1,0,0:0:0:0:
64,192,71990,1,0,0:0:0:0:
448,192,72060,1,0,0:0:0:0:
192,192,72130,1,0,0:0:0:0:
320,192,72199,1,0,0:0:0:0:
448,192,72269,1,0,0:0:0:0:
64,192,72339,1,0,0:0:0:0:
448,192,72408,1,0,0:0:0:0:
192,192,72478,1,0,0:0:0:0:
64,192,72548,1,0,0:0:0:0:
320,192,72618,1,0,0:0:0:0:
448,192,72618,1,0,0:0:0:0:
64,192,72687,1,0,0:0:0:0:
192,192,72757,1,0,0:0:0:0:
448,192,72827,1,0,0:0:0:0:
192,192,72897,1,0,0:0:0:0:
320,192,72966,1,0,0:0:0:0:
448,192,73036,1,0,0:0:0:0:
192,192,73106,1,0,0:0:0:0:
64,192,73176,1,0,0:0:0:0:
448,192,73176,1,0,0:0:0:0:
320,192,73245,1,0,0:0:0:0:
192,192,73315,1,0,0:0:0:0:
64,192,73385,1,0,0:0:0:0:
448,192,73455,1,0,0:0:0:0:
320,192,73524,1,0,0:0:0:0:
192,192,73594,1,0,0:0:0:0:
448,192,73664,1,0,0:0:0:0:
192,192,73733,1,0,0:0:0:0:
64,192,73803,1,0,0:0:0:0:
320,192,73803,1,0,0:0:0:0:
448,192,73873,1,0,0:0:0:0:
320,192,73943,1,0,0:0:0:0:
64,192,74012,1,0,0:0:0:0:
448,192,74082,1,0,0:0:0:0:
192,192,74152,1,0,0:0:0:0:
64,192,74222,1,0,0:0:0:0:
320,192,74291,1,0,0:0:0:0:
192,192,74291,1,0,0:0:0:0:
320,192,74431,1,0,0:0:0:0:
192,192,74431,1,0,0:0:0:0:
192,192,74570,1,0,0:0:0:0:
320,192,74570,1,0,0:0:0:0:
192,192,74710,1,0,0:0:0:0:
320,192,74710,1,0,0:0:0:0:
192,192,74849,1,0,0:0:0:0:
448,192,74919,1,0,0:0:0:0:
320,192,74989,1,0,0:0:0:0:
64,192,75058,1,0,0:0:0:0:
192,192,75128,1,0,0:0:0:0:
448,192,75198,1,0,0:0:0:0:
320,192,75198,1,0,0:0:0:0:
64,192,75268,1,0,0:0:0:0:
192,192,75337,1,0,0:0:0:0:
320,192,75407,1,0,0:0:0:0:
448,192,75477,1,0,0:0:0:0:
192,192,75547,1,0,0:0:0:0:
64,192,75616,1,0,0:0:0:0:
448,192,75686,1,0,0:0:0:0:
320,192,75756,1,0,0:0:0:0:
192,192,75826,1,0,0:0:0:0:
64,192,75895,1,0,0:0:0:0:
320,192,75965,1,0,0:0:0:0:
448,192,76035,1,0,0:0:0:0:
192,192,76104,1,0,0:0:0:0:
64,192,76174,1,0,0:0:0:0:
448,192,76244,1,0,0:0:0:0:
320,192,76314,1,0,0:0:0:0:
192,192,76383,1,0,0:0:0:0:
64,192,76453,1,0,0:0:0:0:
320,192,76523,1,0,0:0:0:0:
448,192,76593,1,0,0:0:0:0:
192,192,76662,1,0,0:0:0:0:
320,192,76732,1,0,0:0:0:0:
64,192,76802,1,0,0:0:0:0:
192,192,76872,1,0,0:0:0:0:
448,192,76941,1,0,0:0:0:0:
320,192,77011,1,0,0:0:0:0:
64,192,77081,1,0,0:0:0:0:
192,192,77150,1,0,0:0:0:0:
320,192,77220,1,0,0:0:0:0:
64,192,77290,1,0,0:0:0:0:
192,192,77360,1,0,0:0:0:0:
448,192,77429,1,0,0:0:0:0:
320,192,77499,1,0,0:0:0:0:
192,192,77569,1,0,0:0:0:0:
448,192,77639,1,0,0:0:0:0:
320,192,77639,1,0,0:0:0:0:
64,192,77708,1,0,0:0:0:0:
320,192,77778,1,0,0:0:0:0:
192,192,77848,1,0,0:0:0:0:
64,192,77918,1,0,0:0:0:0:
448,192,77987,1,0,0:0:0:0:
320,192,78057,1,0,0:0:0:0:
192,192,78127,1,0,0:0:0:0:
64,192,78197,1,0,0:0:0:0:
320,192,78197,1,0,0:0:0:0:
448,192,78266,1,0,0:0:0:0:
192,192,78336,1,0,0:0:0:0:
448,192,78406,1,0,0:0:0:0:
192,192,78475,1,0,0:0:0:0:
64,192,78475,1,0,0:0:0:0:
320,192,78545,1,0,0:0:0:0:
192,192,78615,1,0,0:0:0:0:
320,192,78685,1,0,0:0:0:0:
448,192,78754,1,0,0:0:0:0:
64,192,78754,1,0,0:0:0:0:
192,192,78824,1,0,0:0:0:0:
64,192,78894,1,0,0:0:0:0:
448,192,78964,1,0,0:0:0:0:
320,192,79033,1,0,0:0:0:0:
64,192,79103,1,0,0:0:0:0:
192,192,79173,1,0,0:0:0:0:
448,192,79243,1,0,0:0:0:0:
320,192,79312,1,0,0:0:0:0:
192,192,79382,1,0,0:0:0:0:
448,192,79452,1,0,0:0:0:0:
320,192,79521,1,0,0:0:0:0:
64,192,79591,1,0,0:0:0:0:
192,192,79661,1,0,0:0:0:0:
320,192,79731,1,0,0:0:0:0:
448,192,79800,1,0,0:0:0:0:
192,192,79870,1,0,0:0:0:0:
320,192,79870,1,0,0:0:0:0:
64,192,79940,1,0,0:0:0:0:
320,192,80010,1,0,0:0:0:0:
192,192,80079,1,0,0:0:0:0:
448,192,80149,1,0,0:0:0:0:
320,192,80219,1,0,0:0:0:0:
64,192,80289,1,0,0:0:0:0:
448,192,80358,1,0,0:0:0:0:
320,192,80428,1,0,0:0:0:0:
192,192,80428,1,0,0:0:0:0:
64,192,80498,1,0,0:0:0:0:
448,192,80567,1,0,0:0:0:0:
192,192,80637,1,0,0:0:0:0:
320,192,80707,1,0,0:0:0:0:
64,192,80777,1,0,0:0:0:0:
192,192,80846,1,0,0:0:0:0:
320,192,80916,1,0,0:0:0:0:
192,192,80986,1,0,0:0:0:0:
448,192,81056,1,0,0:0:0:0:
64,192,81125,1,0,0:0:0:0:
320,192,81195,1,0,0:0:0:0:
448,192,81265,1,0,0:0:0:0:
64,192,81265,1,0,0:0:0:0:
192,192,81335,1,0,0:0:0:0:
320,192,81404,1,0,0:0:0:0:
448,192,81474,1,0,0:0:0:0:
320,192,81544,1,0,0:0:0:0:
64,192,81544,1,0,0:0:0:0:
448,192,81614,1,0,0:0:0:0:
192,192,81683,1,0,0:0:0:0:
320,192,81753,1,0,0:0:0:0:
448,192,81823,1,0,0:0:0:0:
64,192,81823,1,0,0:0:0:0:
320,192,81892,1,0,0:0:0:0:
64,192,81962,1,0,0:0:0:0:
192,192,82032,1,0,0:0:0:0:
320,192,82102,1,0,0:0:0:0:
448,192,82102,1,0,0:0:0:0:
64,192,82171,1,0,0:0:0:0:
192,192,82241,1,0,0:0:0:0:
448,192,82311,1,0,0:0:0:0:
320,192,82381,1,0,0:0:0:0:
192,192,82381,1,0,0:0:0:0:
64,192,82450,1,0,0:0:0:0:
448,192,82520,1,0,0:0:0:0:
192,192,82590,1,0,0:0:0:0:
64,192,82660,1,0,0:0:0:0:
320,192,82729,1,0,0:0:0:0:
448,192,82799,1,0,0:0:0:0:
64,192,82799,1,0,0:0:0:0:
320,192,82869,1,0,0:0:0:0:
192,192,82938,1,0,0:0:0:0:
64,192,83008,1,0,0:0:0:0:
320,192,83078,1,0,0:0:0:0:
448,192,83148,1,0,0:0:0:0:
64,192,83217,1,0,0:0:0:0:
192,192,83217,1,0,0:0:0:0:
448,192,83287,1,0,0:0:0:0:
192,192,83357,1,0,0:0:0:0:
320,192,83427,1,0,0:0:0:0:
64,192,83496,1,0,0:0:0:0:
448,192,83496,1,0,0:0:0:0:
192,192,83566,1,0,0:0:0:0:
320,192,83636,1,0,0:0:0:0:
64,192,83636,1,0,0:0:0:0:
448,192,83706,1,0,0:0:0:0:
192,192,83775,1,0,0:0:0:0:
320,192,83775,1,0,0:0:0:0:
64,192,83845,1,0,0:0:0:0:
448,192,83915,1,0,0:0:0:0:
192,192,83985,1,0,0:0:0:0:
320,192,84054,1,0,0:0:0:0:
448,192,84054,1,0,0:0:0:0:
192,192,84124,1,0,0:0:0:0:
320,192,84194,1,0,0:0:0:0:
192,192,84263,1,0,0:0:0:0:
320,192,84333,128,0,84473:0:0:0:0:
64,192,84473,128,0,84612:0:0:0:0:
192,192,84612,128,0,84752:0:0:0:0:
448,192,84891,128,0,85170:0:0:0:0:
192,192,85170,128,0,85309:0:0:0:0:
64,192,85309,128,0,85449:0:0:0:0:
320,192,85449,128,0,85519:0:0:0:0:
192,192,85519,1,0,0:0:0:0:
448,192,85588,1,0,0:0:0:0:
192,192,85658,1,0,0:0:0:0:
320,192,85728,1,0,0:0:0:0:
448,192,85728,1,0,0:0:0:0:
64,192,85728,128,0,85867:0:0:0:0:
192,192,85867,128,0,86007:0:0:0:0:
320,192,86007,128,0,86146:0:0:0:0:
448,192,86146,128,0,86286:0:0:0:0:
320,192,86286,128,0,86425:0:0:0:0:
192,192,86425,128,0,86565:0:0:0:0:
448,192,86565,128,0,86844:0:0:0:0:
192,192,86844,128,0,86983:0:0:0:0:
320,192,86983,128,0,87123:0:0:0:0:
64,192,87123,128,0,87262:0:0:0:0:
448,192,87123,128,0,87262:0:0:0:0:
320,192,87402,128,0,87541:0:0:0:0:
64,192,87541,1,0,0:0:0:0:
192,192,87611,1,0,0:0:0:0:
320,192,87680,1,0,0:0:0:0:
448,192,87680,128,0,87820:0:0:0:0:
320,192,87820,128,0,87959:0:0:0:0:
64,192,87890,1,0,0:0:0:0:
192,192,87959,128,0,88099:0:0:0:0:
64,192,88099,128,0,88238:0:0:0:0:
192,192,88238,128,0,88378:0:0:0:0:
320,192,88378,128,0,88517:0:0:0:0:
64,192,88448,1,0,0:0:0:0:
448,192,88517,128,0,88657:0:0:0:0:
192,192,88657,128,0,88726:0:0:0:0:
320,192,88796,128,0,88936:0:0:0:0:
64,192,88936,128,0,89075:0:0:0:0:
192,192,89075,128,0,89215:0:0:0:0:
448,192,89354,128,0,89633:0:0:0:0:
192,192,89633,128,0,89773:0:0:0:0:
64,192,89773,128,0,89912:0:0:0:0:
320,192,89912,128,0,89982:0:0:0:0:
448,192,90051,1,0,0:0:0:0:
192,192,90121,1,0,0:0:0:0:
320,192,90191,1,0,0:0:0:0:
448,192,90191,1,0,0:0:0:0:
64,192,90191,128,0,90330:0:0:0:0:
192,192,90330,128,0,90470:0:0:0:0:
320,192,90470,128,0,90609:0:0:0:0:
448,192,90609,128,0,90749:0:0:0:0:
320,192,90749,128,0,90888:0:0:0:0:
192,192,90888,128,0,91028:0:0:0:0:
448,192,91028,128,0,91307:0:0:0:0:
192,192,91307,128,0,91446:0:0:0:0:
320,192,91446,128,0,91586:0:0:0:0:
64,192,91586,128,0,91725:0:0:0:0:
448,192,91586,128,0,91725:0:0:0:0:
320,192,91865,128,0,92004:0:0:0:0:
64,192,92004,1,0,0:0:0:0:
192,192,92074,1,0,0:0:0:0:
320,192,92144,1,0,0:0:0:0:
448,192,92144,128,0,92283:0:0:0:0:
320,192,92283,128,0,92422:0:0:0:0:
64,192,92353,1,0,0:0:0:0:
192,192,92422,128,0,92562:0:0:0:0:
64,192,92562,128,0,92701:0:0:0:0:
192,192,92701,128,0,92841:0:0:0:0:
320,192,92841,128,0,92980:0:0:0:0:
64,192,92911,1,0,0:0:0:0:
448,192,92980,128,0,93120:0:0:0:0:
192,192,93120,128,0,93259:0:0:0:0:
64,192,93259,128,0,93538:0:0:0:0:
320,192,93538,128,0,93678:0:0:0:0:
64,192,93678,128,0,93957:0:0:0:0:
448,192,93957,128,0,94096:0:0:0:0:
192,192,94236,128,0,94375:0:0:0:0:
320,192,94375,128,0,94514:0:0:0:0:
64,192,94514,128,0,94654:0:0:0:0:
192,192,94654,128,0,94793:0:0:0:0:
320,192,94793,128,0,94933:0:0:0:0:
448,192,94933,128,0,95072:0:0:0:0:
320,192,95072,128,0,95212:0:0:0:0:
192,192,95212,128,0,95351:0:0:0:0:
448,192,95282,1,0,0:0:0:0:
320,192,95351,1,0,0:0:0:0:
64,192,95351,128,0,95421:0:0:0:0:
448,192,95421,1,0,0:0:0:0:
64,192,95491,128,0,95770:0:0:0:0:
320,192,95770,128,0,95909:0:0:0:0:
64,192,95909,128,0,96188:0:0:0:0:
448,192,96188,128,0,96328:0:0:0:0:
192,192,96467,128,0,96607:0:0:0:0:
320,192,96607,128,0,96746:0:0:0:0:
64,192,96746,128,0,96885:0:0:0:0:
192,192,96885,128,0,97025:0:0:0:0:
320,192,97025,128,0,97164:0:0:0:0:
448,192,97164,128,0,97304:0:0:0:0:
320,192,97304,128,0,97443:0:0:0:0:
192,192,97443,128,0,97583:0:0:0:0:
448,192,97513,1,0,0:0:0:0:
320,192,97583,1,0,0:0:0:0:
64,192,97583,128,0,97653:0:0:0:0:
448,192,97653,1,0,0:0:0:0:
64,192,97722,128,0,98001:0:0:0:0:
320,192,98001,128,0,98141:0:0:0:0:
64,192,98141,128,0,98420:0:0:0:0:
448,192,98420,128,0,98559:0:0:0:0:
192,192,98699,128,0,98838:0:0:0:0:
320,192,98838,128,0,98978:0:0:0:0:
64,192,98978,128,0,99117:0:0:0:0:
192,192,99117,128,0,99256:0:0:0:0:
320,192,99256,128,0,99396:0:0:0:0:
448,192,99396,128,0,99535:0:0:0:0:
320,192,99535,128,0,99675:0:0:0:0:
192,192,99675,128,0,99814:0:0:0:0:
448,192,99745,1,0,0:0:0:0:
64,192,99814,128,0,99884:0:0:0:0:
320,192,99814,1,0,0:0:0:0:
448,192,99884,1,0,0:0:0:0:
64,192,99954,128,0,100233:0:0:0:0:
320,192,100233,128,0,100372:0:0:0:0:
64,192,100372,128,0,100651:0:0:0:0:
448,192,100651,128,0,100791:0:0:0:0:
192,192,100930,128,0,101070:0:0:0:0:
320,192,101070,128,0,101209:0:0:0:0:
64,192,101209,128,0,101349:0:0:0:0:
192,192,101349,128,0,101488:0:0:0:0:
320,192,101488,128,0,101627:0:0:0:0:
448,192,101627,128,0,101767:0:0:0:0:
320,192,101767,128,0,101906:0:0:0:0:
192,192,101906,128,0,102046:0:0:0:0:
448,192,101976,1,0,0:0:0:0:
320,192,102046,1,0,0:0:0:0:
64,192,102046,128,0,102185:0:0:0:0:
448,192,102116,1,0,0:0:0:0:
