osu file format v14

[General]
AudioFilename: audio.mp3
AudioLeadIn: 0
PreviewTime: 63128
Countdown: 0
SampleSet: Normal
StackLeniency: 0.7
Mode: 1
LetterboxInBreaks: 0
WidescreenStoryboard: 0

[Editor]
Bookmarks: 10533,38729,63413,117812
DistanceSpacing: 2.19
BeatDivisor: 4
GridSize: 8
TimelineZoom: 2.1

[Metadata]
Title:Ok Ma Di (Come on)
TitleUnicode:Ok Ma Di (Come on)
Artist:UrboyTJ
ArtistUnicode:UrboyTJ
Creator:zerth
Version:Oni
Source:
Tags:vocal male sing autotune pop rap hip-hop thai ไทย ทีเจ ออกมาดิ
BeatmapID:2197892
BeatmapSetID:1051711

[Difficulty]
HPDrainRate:6
CircleSize:2
OverallDifficulty:6
ApproachRate:10
SliderMultiplier:1.4
SliderTickRate:1

[Events]
//Background and Video events
0,0,"bg.jpg",0,0
//Break Periods
//Storyboard Layer 0 (Background)
//Storyboard Layer 1 (Fail)
//Storyboard Layer 2 (Pass)
//Storyboard Layer 3 (Foreground)
//Storyboard Layer 4 (Overlay)
//Storyboard Sound Samples

[TimingPoints]
3128.63210263199,379.746835443038,4,1,0,60,1,0
15660,-90.9090909090909,4,1,0,60,0,0
27432,-100,4,1,0,60,0,0
51356,-86.9565217391304,4,1,0,60,0,0
62369,-85.4700854700855,4,1,0,60,0,0
62748,-84.0336134453781,4,1,0,60,0,0
63128,-82.6446280991736,4,1,0,60,0,0
63888,-80,4,1,0,70,0,1
72242,-80,4,1,0,70,0,0
72622,-81.6326530612245,4,1,0,70,0,0
73002,-83.3333333333333,4,1,0,70,0,0
75660,-81.3008130081301,4,1,0,70,0,0
75850,-80.6451612903226,4,1,0,70,0,0
76040,-80,4,1,0,70,0,1
88191,-80,4,1,0,70,0,0
88571,-86.9565217391304,4,1,0,60,0,0
100723,-100,4,1,0,60,0,0
102812,-100,4,1,0,60,0,0
112495,-86.9565217391304,4,1,0,60,0,0
123128,-85.4700854700855,4,1,0,60,0,0
123507,-84.0336134453781,4,1,0,60,0,0
123887,-82.6446280991736,4,1,0,60,0,0
124647,-80,4,1,0,70,0,1
133002,-80,4,1,0,70,0,0
133381,-81.3008130081301,4,1,0,70,0,0
133761,-83.3333333333333,4,1,0,70,0,0
136419,-81.3008130081301,4,1,0,70,0,0
136799,-81.3008130081301,4,1,0,70,0,1
136989,-80,4,1,0,70,0,1
148951,-80,4,1,0,70,0,0
149331,-86.9565217391304,4,1,0,60,0,0

[HitObjects]
221,191,3128,5,4,0:0:0:0:
221,191,3508,1,4,0:0:0:0:
221,191,6166,1,4,0:0:0:0:
221,191,6546,1,4,0:0:0:0:
221,191,9204,1,4,0:0:0:0:
221,191,9584,1,4,0:0:0:0:
221,191,9964,1,8,0:0:0:0:
221,191,10090,1,0,0:0:0:0:
221,191,10217,1,0,0:0:0:0:
221,191,10343,1,8,0:0:0:0:
221,191,10723,1,8,0:0:0:0:
221,191,10850,1,0,0:0:0:0:
221,191,10976,1,0,0:0:0:0:
221,191,11103,1,8,0:0:0:0:
221,191,11483,1,8,0:0:0:0:
221,191,11609,1,0,0:0:0:0:
221,191,11736,1,0,0:0:0:0:
221,191,11862,1,8,0:0:0:0:
221,191,11989,1,0,0:0:0:0:
221,191,12115,1,0,0:0:0:0:
221,191,12242,1,8,0:0:0:0:
221,191,12622,1,4,0:0:0:0:
221,191,13002,1,8,0:0:0:0:
221,191,13128,1,0,0:0:0:0:
221,191,13255,1,0,0:0:0:0:
221,191,13381,1,8,0:0:0:0:
221,191,13761,1,8,0:0:0:0:
221,191,13888,1,0,0:0:0:0:
221,191,14014,1,0,0:0:0:0:
221,191,14141,1,8,0:0:0:0:
221,191,14521,1,0,0:0:0:0:
221,191,14647,1,0,0:0:0:0:
221,191,14774,1,0,0:0:0:0:
221,191,14900,1,8,0:0:0:0:
221,191,15027,1,0,0:0:0:0:
221,191,15153,1,0,0:0:0:0:
221,191,15280,1,8,0:0:0:0:
221,191,15660,1,4,0:0:0:0:
221,191,16040,1,8,0:0:0:0:
221,191,16166,1,0,0:0:0:0:
221,191,16293,1,0,0:0:0:0:
221,191,16419,1,8,0:0:0:0:
221,191,16609,1,0,0:0:0:0:
221,191,16799,1,8,0:0:0:0:
221,191,16989,1,0,0:0:0:0:
221,191,17179,1,0,0:0:0:0:
221,191,17274,1,0,0:0:0:0:
221,191,17369,1,8,0:0:0:0:
221,191,17559,1,8,0:0:0:0:
221,191,17748,1,0,0:0:0:0:
221,191,18318,1,4,0:0:0:0:
221,191,18698,1,4,0:0:0:0:
221,191,19078,1,8,0:0:0:0:
221,191,19204,1,0,0:0:0:0:
221,191,19331,1,0,0:0:0:0:
221,191,19457,1,8,0:0:0:0:
221,191,19647,1,0,0:0:0:0:
221,191,19837,1,8,0:0:0:0:
221,191,20027,1,0,0:0:0:0:
221,191,20122,1,0,0:0:0:0:
221,191,20217,1,8,0:0:0:0:
221,191,20407,1,0,0:0:0:0:
221,191,20502,1,0,0:0:0:0:
221,191,20597,1,8,0:0:0:0:
221,191,20786,1,0,0:0:0:0:
221,191,21356,1,4,0:0:0:0:
221,191,21736,1,4,0:0:0:0:
221,191,22116,1,8,0:0:0:0:
221,191,22242,1,0,0:0:0:0:
221,191,22369,1,0,0:0:0:0:
221,191,22495,1,8,0:0:0:0:
221,191,22685,1,0,0:0:0:0:
221,191,22875,1,8,0:0:0:0:
221,191,23065,1,0,0:0:0:0:
221,191,23255,1,8,0:0:0:0:
221,191,23350,1,8,0:0:0:0:
221,191,23445,1,0,0:0:0:0:
221,191,23540,1,0,0:0:0:0:
221,191,23635,1,8,0:0:0:0:
221,191,23824,1,0,0:0:0:0:
221,191,24204,1,8,0:0:0:0:
221,191,24394,1,0,0:0:0:0:
221,191,24584,1,8,0:0:0:0:
221,191,24679,1,0,0:0:0:0:
221,191,24774,1,8,0:0:0:0:
221,191,24964,1,8,0:0:0:0:
221,191,25059,1,0,0:0:0:0:
221,191,25153,1,8,0:0:0:0:
221,191,25343,1,0,0:0:0:0:
221,191,25533,1,0,0:0:0:0:
221,191,25723,1,0,0:0:0:0:
221,191,25818,1,0,0:0:0:0:
221,191,25913,1,8,0:0:0:0:
221,191,26103,1,0,0:0:0:0:
221,191,26293,1,0,0:0:0:0:
221,191,26388,1,0,0:0:0:0:
221,191,26483,1,8,0:0:0:0:
221,191,26577,1,0,0:0:0:0:
221,191,26672,1,8,0:0:0:0:
221,191,26862,1,0,0:0:0:0:
221,191,27432,1,0,0:0:0:0:
221,191,27622,1,0,0:0:0:0:
221,191,27717,1,0,0:0:0:0:
221,191,27812,1,8,0:0:0:0:
221,191,28002,1,0,0:0:0:0:
221,191,28191,1,8,0:0:0:0:
221,191,28571,1,0,0:0:0:0:
221,191,28761,1,0,0:0:0:0:
221,191,29141,1,0,0:0:0:0:
221,191,29236,1,8,0:0:0:0:
221,191,29331,1,0,0:0:0:0:
221,191,29521,1,0,0:0:0:0:
221,191,29710,1,8,0:0:0:0:
221,191,29900,1,0,0:0:0:0:
221,191,30470,1,0,0:0:0:0:
221,191,30660,1,0,0:0:0:0:
221,191,30755,1,0,0:0:0:0:
221,191,30850,1,8,0:0:0:0:
221,191,31040,1,0,0:0:0:0:
221,191,31229,1,8,0:0:0:0:
221,191,31419,1,0,0:0:0:0:
221,191,31514,1,8,0:0:0:0:
221,191,31609,1,0,0:0:0:0:
221,191,31799,1,0,0:0:0:0:
221,191,32369,1,0,0:0:0:0:
221,191,32464,1,0,0:0:0:0:
221,191,32559,1,0,0:0:0:0:
221,191,32653,1,0,0:0:0:0:
221,191,32748,1,8,0:0:0:0:
221,191,32938,1,0,0:0:0:0:
221,191,33128,1,8,0:0:0:0:
221,191,33223,1,8,0:0:0:0:
221,191,33318,1,8,0:0:0:0:
221,191,33508,1,0,0:0:0:0:
221,191,33698,1,0,0:0:0:0:
221,191,33793,1,8,0:0:0:0:
221,191,33888,1,0,0:0:0:0:
221,191,34078,1,0,0:0:0:0:
221,191,34267,1,8,0:0:0:0:
221,191,34647,1,0,0:0:0:0:
221,191,34837,1,0,0:0:0:0:
221,191,35217,1,0,0:0:0:0:
221,191,35312,1,8,0:0:0:0:
221,191,35407,1,0,0:0:0:0:
221,191,35597,1,0,0:0:0:0:
221,191,35786,1,8,0:0:0:0:
221,191,35976,1,0,0:0:0:0:
221,191,36546,1,0,0:0:0:0:
221,191,36736,1,8,0:0:0:0:
221,191,36831,1,0,0:0:0:0:
221,191,36926,1,8,0:0:0:0:
221,191,37116,1,0,0:0:0:0:
221,191,37305,1,8,0:0:0:0:
221,191,37495,1,0,0:0:0:0:
221,191,37590,1,8,0:0:0:0:
221,191,37685,1,0,0:0:0:0:
221,191,37875,1,0,0:0:0:0:
221,191,38065,1,8,0:0:0:0:
221,191,38255,1,8,0:0:0:0:
221,191,38445,1,8,0:0:0:0:
221,191,38540,1,0,0:0:0:0:
221,191,38634,1,0,0:0:0:0:
221,191,38824,1,8,0:0:0:0:
221,191,38951,1,0,0:0:0:0:
221,191,39077,1,8,0:0:0:0:
221,191,39204,1,0,0:0:0:0:
221,191,39331,1,8,0:0:0:0:
221,191,39584,1,0,0:0:0:0:
221,191,39774,1,0,0:0:0:0:
221,191,39964,1,8,0:0:0:0:
221,191,40153,1,0,0:0:0:0:
221,191,40343,1,8,0:0:0:0:
221,191,40470,1,8,0:0:0:0:
221,191,40596,1,8,0:0:0:0:
221,191,40723,1,0,0:0:0:0:
221,191,40913,1,0,0:0:0:0:
221,191,41103,1,8,0:0:0:0:
221,191,41293,1,0,0:0:0:0:
221,191,41483,1,0,0:0:0:0:
221,191,41577,1,0,0:0:0:0:
221,191,41672,1,0,0:0:0:0:
221,191,41767,1,0,0:0:0:0:
221,191,41862,1,8,0:0:0:0:
221,191,42052,1,0,0:0:0:0:
221,191,42622,1,0,0:0:0:0:
221,191,42812,1,0,0:0:0:0:
221,191,43002,1,8,0:0:0:0:
221,191,43191,1,0,0:0:0:0:
221,191,43286,1,0,0:0:0:0:
221,191,43381,1,8,0:0:0:0:
221,191,43571,1,0,0:0:0:0:
221,191,43666,1,8,0:0:0:0:
221,191,43761,1,0,0:0:0:0:
221,191,43951,1,0,0:0:0:0:
221,191,44331,1,0,0:0:0:0:
221,191,44521,1,0,0:0:0:0:
221,191,44615,1,0,0:0:0:0:
221,191,44710,1,8,0:0:0:0:
221,191,44805,1,0,0:0:0:0:
221,191,44900,1,8,0:0:0:0:
221,191,45090,1,0,0:0:0:0:
221,191,45280,1,8,0:0:0:0:
221,191,45375,1,8,0:0:0:0:
221,191,45470,1,8,0:0:0:0:
221,191,45565,1,8,0:0:0:0:
221,191,45660,1,0,0:0:0:0:
221,191,46040,1,8,0:0:0:0:
221,191,46229,1,0,0:0:0:0:
221,191,46419,1,8,0:0:0:0:
221,191,46546,1,0,0:0:0:0:
221,191,46672,1,0,0:0:0:0:
221,191,46799,1,0,0:0:0:0:
221,191,46989,1,0,0:0:0:0:
221,191,47369,1,0,0:0:0:0:
221,191,47559,1,0,0:0:0:0:
221,191,47653,1,0,0:0:0:0:
221,191,47748,1,0,0:0:0:0:
221,191,47843,1,0,0:0:0:0:
221,191,47938,1,8,0:0:0:0:
221,191,48128,1,0,0:0:0:0:
221,191,48318,1,8,0:0:0:0:
221,191,48413,1,0,0:0:0:0:
221,191,48508,1,8,0:0:0:0:
221,191,48698,1,0,0:0:0:0:
221,191,48888,1,0,0:0:0:0:
221,191,48983,1,0,0:0:0:0:
221,191,49077,1,8,0:0:0:0:
221,191,49267,1,0,0:0:0:0:
221,191,49837,1,0,0:0:0:0:
221,191,50027,1,0,0:0:0:0:
221,191,50407,1,0,0:0:0:0:
221,191,50502,1,8,0:0:0:0:
221,191,50596,1,0,0:0:0:0:
221,191,50786,1,0,0:0:0:0:
221,191,50976,1,8,0:0:0:0:
221,191,51356,1,0,0:0:0:0:
221,191,51546,1,8,0:0:0:0:
221,191,51736,1,0,0:0:0:0:
221,191,51926,1,0,0:0:0:0:
221,191,52021,1,8,0:0:0:0:
221,191,52210,1,0,0:0:0:0:
221,191,52305,1,8,0:0:0:0:
221,191,52495,1,8,0:0:0:0:
221,191,52685,1,0,0:0:0:0:
221,191,52875,1,0,0:0:0:0:
221,191,53065,1,0,0:0:0:0:
221,191,53255,1,8,0:0:0:0:
221,191,53445,1,0,0:0:0:0:
221,191,53634,1,0,0:0:0:0:
221,191,53729,1,0,0:0:0:0:
221,191,53824,1,8,0:0:0:0:
221,191,54014,1,8,0:0:0:0:
221,191,54394,1,0,0:0:0:0:
221,191,54584,1,0,0:0:0:0:
221,191,54774,1,8,0:0:0:0:
221,191,54964,1,0,0:0:0:0:
221,191,55153,1,0,0:0:0:0:
221,191,55248,1,0,0:0:0:0:
221,191,55343,1,8,0:0:0:0:
221,191,55533,1,8,0:0:0:0:
221,191,55723,1,0,0:0:0:0:
221,191,55913,1,0,0:0:0:0:
221,191,56103,1,0,0:0:0:0:
221,191,56293,1,8,0:0:0:0:
221,191,56483,1,0,0:0:0:0:
221,191,56577,1,8,0:0:0:0:
221,191,56767,1,8,0:0:0:0:
221,191,56862,1,0,0:0:0:0:
221,191,57052,1,8,0:0:0:0:
221,191,57432,1,0,0:0:0:0:
221,191,57622,1,8,0:0:0:0:
221,191,57812,1,8,0:0:0:0:
221,191,57938,1,0,0:0:0:0:
221,191,58065,1,0,0:0:0:0:
221,191,58191,1,8,0:0:0:0:
221,191,58318,1,0,0:0:0:0:
221,191,58445,1,0,0:0:0:0:
221,191,58571,1,8,0:0:0:0:
221,191,58951,1,8,0:0:0:0:
221,191,59331,1,8,0:0:0:0:
221,191,59457,1,0,0:0:0:0:
221,191,59584,1,0,0:0:0:0:
221,191,59710,1,8,0:0:0:0:
221,191,59837,1,0,0:0:0:0:
221,191,59964,1,0,0:0:0:0:
221,191,60090,1,8,0:0:0:0:
221,191,60470,1,8,0:0:0:0:
221,191,60850,1,0,0:0:0:0:
221,191,61040,1,8,0:0:0:0:
221,191,61229,1,0,0:0:0:0:
221,191,61419,1,8,0:0:0:0:
221,191,61514,1,0,0:0:0:0:
221,191,61609,1,0,0:0:0:0:
221,191,61799,1,8,0:0:0:0:
221,191,61988,1,0,0:0:0:0:
221,191,62178,1,8,0:0:0:0:
221,191,62369,1,8,0:0:0:0:
221,191,62432,1,8,0:0:0:0:
221,191,62495,1,0,0:0:0:0:
221,191,62748,1,8,0:0:0:0:
221,191,62812,1,8,0:0:0:0:
221,191,62875,1,0,0:0:0:0:
221,191,63128,1,8,0:0:0:0:
221,191,63191,1,8,0:0:0:0:
221,191,63255,1,0,0:0:0:0:
221,191,63508,1,12,0:0:0:0:
221,191,63888,1,4,0:0:0:0:
221,191,64077,1,0,0:0:0:0:
221,191,64172,1,8,0:0:0:0:
221,191,64267,1,0,0:0:0:0:
221,191,64457,1,0,0:0:0:0:
221,191,64647,1,8,0:0:0:0:
221,191,64837,1,0,0:0:0:0:
221,191,64932,1,0,0:0:0:0:
221,191,65027,1,8,0:0:0:0:
221,191,65122,1,8,0:0:0:0:
221,191,65217,1,0,0:0:0:0:
221,191,65407,1,0,0:0:0:0:
221,191,65596,1,0,0:0:0:0:
221,191,65691,1,8,0:0:0:0:
221,191,65786,1,0,0:0:0:0:
221,191,65976,1,0,0:0:0:0:
221,191,66166,1,8,0:0:0:0:
221,191,66546,1,8,0:0:0:0:
221,191,66736,1,8,0:0:0:0:
221,191,66926,1,0,0:0:0:0:
221,191,67115,1,0,0:0:0:0:
221,191,67210,1,8,0:0:0:0:
221,191,67305,1,0,0:0:0:0:
221,191,67495,1,0,0:0:0:0:
221,191,67590,1,0,0:0:0:0:
221,191,67685,1,8,0:0:0:0:
221,191,67875,1,0,0:0:0:0:
221,191,68065,1,8,0:0:0:0:
221,191,68255,1,8,0:0:0:0:
221,191,68445,1,8,0:0:0:0:
221,191,68540,1,0,0:0:0:0:
221,191,68634,1,0,0:0:0:0:
221,191,68729,1,8,0:0:0:0:
221,191,68824,1,0,0:0:0:0:
221,191,69014,1,0,0:0:0:0:
221,191,69204,1,8,0:0:0:0:
221,191,69394,1,0,0:0:0:0:
221,191,69584,1,8,0:0:0:0:
221,191,69679,1,8,0:0:0:0:
221,191,69774,1,0,0:0:0:0:
221,191,69869,1,8,0:0:0:0:
221,191,69964,1,0,0:0:0:0:
221,191,70153,1,0,0:0:0:0:
221,191,70248,1,0,0:0:0:0:
221,191,70343,1,0,0:0:0:0:
221,191,70533,1,0,0:0:0:0:
221,191,70723,1,8,0:0:0:0:
221,191,70913,1,0,0:0:0:0:
221,191,71008,1,0,0:0:0:0:
221,191,71103,1,8,0:0:0:0:
221,191,71198,1,8,0:0:0:0:
221,191,71293,1,0,0:0:0:0:
221,191,71483,1,0,0:0:0:0:
221,191,71672,1,0,0:0:0:0:
221,191,71767,1,8,0:0:0:0:
221,191,71862,1,0,0:0:0:0:
221,191,72052,1,0,0:0:0:0:
221,191,72242,1,8,0:0:0:0:
221,191,72622,1,8,0:0:0:0:
221,191,73002,1,0,0:0:0:0:
221,191,73191,1,0,0:0:0:0:
221,191,73381,1,8,0:0:0:0:
221,191,73571,1,0,0:0:0:0:
221,191,73761,1,8,0:0:0:0:
221,191,73888,1,8,0:0:0:0:
221,191,74014,1,8,0:0:0:0:
221,191,74141,1,0,0:0:0:0:
221,191,74331,1,0,0:0:0:0:
221,191,74521,1,8,0:0:0:0:
221,191,74710,1,0,0:0:0:0:
221,191,74805,1,0,0:0:0:0:
221,191,74900,1,8,0:0:0:0:
221,191,75090,1,0,0:0:0:0:
221,191,75280,1,8,0:0:0:0:
221,191,75660,1,0,0:0:0:0:
221,191,75850,1,0,0:0:0:0:
221,191,76040,1,8,0:0:0:0:
221,191,76229,1,0,0:0:0:0:
221,191,76324,1,0,0:0:0:0:
221,191,76419,1,0,0:0:0:0:
221,191,76609,1,0,0:0:0:0:
221,191,76799,1,8,0:0:0:0:
221,191,76989,1,0,0:0:0:0:
221,191,77084,1,8,0:0:0:0:
221,191,77179,1,0,0:0:0:0:
221,191,77369,1,8,0:0:0:0:
221,191,77559,1,8,0:0:0:0:
221,191,77748,1,0,0:0:0:0:
221,191,77938,1,0,0:0:0:0:
221,191,78033,1,0,0:0:0:0:
221,191,78128,1,0,0:0:0:0:
221,191,78223,1,0,0:0:0:0:
221,191,78318,1,8,0:0:0:0:
221,191,78508,1,0,0:0:0:0:
221,191,78698,1,8,0:0:0:0:
221,191,78888,1,8,0:0:0:0:
221,191,79077,1,0,0:0:0:0:
221,191,79267,1,0,0:0:0:0:
221,191,79362,1,0,0:0:0:0:
221,191,79457,1,8,0:0:0:0:
221,191,79647,1,0,0:0:0:0:
221,191,79837,1,8,0:0:0:0:
221,191,80027,1,0,0:0:0:0:
221,191,80122,1,8,0:0:0:0:
221,191,80217,1,0,0:0:0:0:
221,191,80407,1,0,0:0:0:0:
221,191,80596,1,8,0:0:0:0:
221,191,80691,1,8,0:0:0:0:
221,191,80786,1,0,0:0:0:0:
221,191,80881,1,0,0:0:0:0:
221,191,80976,1,8,0:0:0:0:
221,191,81166,1,0,0:0:0:0:
221,191,81261,1,0,0:0:0:0:
221,191,81356,1,8,0:0:0:0:
221,191,81736,1,8,0:0:0:0:
221,191,81926,1,0,0:0:0:0:
221,191,82115,1,8,0:0:0:0:
221,191,82305,1,0,0:0:0:0:
221,191,82400,1,0,0:0:0:0:
221,191,82495,1,0,0:0:0:0:
221,191,82685,1,0,0:0:0:0:
221,191,82780,1,8,0:0:0:0:
221,191,82875,1,0,0:0:0:0:
221,191,83065,1,0,0:0:0:0:
221,191,83255,1,8,0:0:0:0:
221,191,83445,1,0,0:0:0:0:
221,191,83634,1,0,0:0:0:0:
221,191,83729,1,8,0:0:0:0:
221,191,83824,1,0,0:0:0:0:
221,191,83919,1,0,0:0:0:0:
221,191,84014,1,8,0:0:0:0:
221,191,84204,1,8,0:0:0:0:
221,191,84394,1,0,0:0:0:0:
221,191,84584,1,0,0:0:0:0:
221,191,84774,1,8,0:0:0:0:
221,191,85153,1,0,0:0:0:0:
221,191,85343,1,8,0:0:0:0:
221,191,85533,1,8,0:0:0:0:
221,191,85723,1,0,0:0:0:0:
221,191,85913,1,0,0:0:0:0:
221,191,86040,1,0,0:0:0:0:
221,191,86166,1,0,0:0:0:0:
221,191,86293,1,8,0:0:0:0:
221,191,86483,1,0,0:0:0:0:
221,191,86672,1,8,0:0:0:0:
221,191,86862,1,8,0:0:0:0:
221,191,87052,1,8,0:0:0:0:
221,191,87242,1,0,0:0:0:0:
221,191,87432,1,8,0:0:0:0:
221,191,87559,1,0,0:0:0:0:
221,191,87685,1,0,0:0:0:0:
221,191,87812,1,8,0:0:0:0:
221,191,87938,1,0,0:0:0:0:
221,191,88065,1,0,0:0:0:0:
221,191,88191,1,8,0:0:0:0:
221,191,88571,1,4,0:0:0:0:
221,191,88951,1,8,0:0:0:0:
221,191,89077,1,0,0:0:0:0:
221,191,89204,1,0,0:0:0:0:
221,191,89330,1,8,0:0:0:0:
221,191,89710,1,8,0:0:0:0:
221,191,89837,1,0,0:0:0:0:
221,191,89963,1,0,0:0:0:0:
221,191,90090,1,8,0:0:0:0:
221,191,90470,1,8,0:0:0:0:
221,191,90596,1,0,0:0:0:0:
221,191,90723,1,0,0:0:0:0:
221,191,90849,1,8,0:0:0:0:
221,191,90976,1,0,0:0:0:0:
221,191,91102,1,0,0:0:0:0:
221,191,91229,1,8,0:0:0:0:
221,191,91609,1,4,0:0:0:0:
221,191,91989,1,8,0:0:0:0:
221,191,92115,1,0,0:0:0:0:
221,191,92242,1,0,0:0:0:0:
221,191,92368,1,8,0:0:0:0:
221,191,92748,1,8,0:0:0:0:
221,191,92875,1,0,0:0:0:0:
221,191,93001,1,0,0:0:0:0:
221,191,93128,1,8,0:0:0:0:
221,191,93508,1,8,0:0:0:0:
221,191,93634,1,0,0:0:0:0:
221,191,93761,1,0,0:0:0:0:
221,191,93887,1,8,0:0:0:0:
221,191,94014,1,0,0:0:0:0:
221,191,94140,1,0,0:0:0:0:
221,191,94267,1,8,0:0:0:0:
221,191,94647,1,4,0:0:0:0:
221,191,95027,1,8,0:0:0:0:
221,191,95153,1,0,0:0:0:0:
221,191,95280,1,0,0:0:0:0:
221,191,95406,1,8,0:0:0:0:
221,191,95786,1,8,0:0:0:0:
221,191,95913,1,0,0:0:0:0:
221,191,96039,1,0,0:0:0:0:
221,191,96166,1,8,0:0:0:0:
221,191,96546,1,8,0:0:0:0:
221,191,96672,1,0,0:0:0:0:
221,191,96799,1,0,0:0:0:0:
221,191,96925,1,8,0:0:0:0:
221,191,97052,1,0,0:0:0:0:
221,191,97178,1,0,0:0:0:0:
221,191,97305,1,8,0:0:0:0:
221,191,97685,1,0,0:0:0:0:
221,191,98065,1,8,0:0:0:0:
221,191,98255,1,0,0:0:0:0:
221,191,98350,1,8,0:0:0:0:
221,191,98445,1,0,0:0:0:0:
221,191,98634,1,0,0:0:0:0:
221,191,98824,1,8,0:0:0:0:
221,191,98888,1,8,0:0:0:0:
221,191,98951,1,0,0:0:0:0:
221,191,99204,1,8,0:0:0:0:
221,191,99268,1,8,0:0:0:0:
221,191,99331,1,0,0:0:0:0:
221,191,99584,1,8,0:0:0:0:
221,191,99648,1,8,0:0:0:0:
221,191,99711,1,0,0:0:0:0:
221,191,99964,1,12,0:0:0:0:
221,191,100343,1,4,0:0:0:0:
221,191,100723,1,0,0:0:0:0:
221,191,100913,1,0,0:0:0:0:
221,191,101008,1,0,0:0:0:0:
221,191,101103,1,8,0:0:0:0:
221,191,101293,1,8,0:0:0:0:
221,191,101483,1,8,0:0:0:0:
221,191,101672,1,0,0:0:0:0:
221,191,101862,1,8,0:0:0:0:
221,191,102052,1,0,0:0:0:0:
221,191,102242,1,0,0:0:0:0:
221,191,102432,1,8,0:0:0:0:
221,191,102812,1,0,0:0:0:0:
221,191,103002,1,8,0:0:0:0:
221,191,103191,1,8,0:0:0:0:
221,191,103381,1,8,0:0:0:0:
221,191,103571,1,0,0:0:0:0:
221,191,103761,1,8,0:0:0:0:
221,191,103951,1,8,0:0:0:0:
221,191,104141,1,0,0:0:0:0:
221,191,104521,1,8,0:0:0:0:
221,191,104710,1,0,0:0:0:0:
221,191,104900,1,8,0:0:0:0:
221,191,105090,1,0,0:0:0:0:
221,191,105280,1,8,0:0:0:0:
221,191,105470,1,8,0:0:0:0:
221,191,105660,1,8,0:0:0:0:
221,191,105755,1,8,0:0:0:0:
221,191,105850,1,0,0:0:0:0:
221,191,106040,1,8,0:0:0:0:
221,191,106134,1,8,0:0:0:0:
221,191,106229,1,8,0:0:0:0:
221,191,106324,1,8,0:0:0:0:
221,191,106419,1,0,0:0:0:0:
221,191,106609,1,0,0:0:0:0:
221,191,106799,1,8,0:0:0:0:
221,191,106989,1,0,0:0:0:0:
221,191,107084,1,0,0:0:0:0:
221,191,107179,1,8,0:0:0:0:
221,191,107369,1,0,0:0:0:0:
221,191,107464,1,8,0:0:0:0:
221,191,107559,1,0,0:0:0:0:
221,191,107748,1,0,0:0:0:0:
221,191,107938,1,0,0:0:0:0:
221,191,108033,1,0,0:0:0:0:
221,191,108128,1,8,0:0:0:0:
221,191,108223,1,8,0:0:0:0:
221,191,108318,1,0,0:0:0:0:
221,191,108508,1,0,0:0:0:0:
221,191,108698,1,8,0:0:0:0:
221,191,109077,1,8,0:0:0:0:
221,191,109267,1,0,0:0:0:0:
221,191,109362,1,8,0:0:0:0:
221,191,109457,1,0,0:0:0:0:
221,191,109647,1,0,0:0:0:0:
221,191,109837,1,8,0:0:0:0:
221,191,110027,1,0,0:0:0:0:
221,191,110122,1,0,0:0:0:0:
221,191,110217,1,8,0:0:0:0:
221,191,110407,1,8,0:0:0:0:
221,191,110502,1,8,0:0:0:0:
221,191,110596,1,0,0:0:0:0:
221,191,110691,1,8,0:0:0:0:
221,191,110786,1,0,0:0:0:0:
221,191,110976,1,0,0:0:0:0:
221,191,111166,1,0,0:0:0:0:
221,191,111356,1,0,0:0:0:0:
221,191,111451,1,8,0:0:0:0:
221,191,111546,1,0,0:0:0:0:
221,191,111736,1,8,0:0:0:0:
221,191,111862,1,0,0:0:0:0:
221,191,111989,1,8,0:0:0:0:
221,191,112115,1,0,0:0:0:0:
221,191,112242,1,8,0:0:0:0:
221,191,112495,1,0,0:0:0:0:
221,191,112685,1,8,0:0:0:0:
221,191,112780,1,0,0:0:0:0:
221,191,112875,1,8,0:0:0:0:
221,191,113065,1,8,0:0:0:0:
221,191,113160,1,0,0:0:0:0:
221,191,113255,1,8,0:0:0:0:
221,191,113634,1,8,0:0:0:0:
221,191,113824,1,0,0:0:0:0:
221,191,114014,1,8,0:0:0:0:
221,191,114204,1,0,0:0:0:0:
221,191,114299,1,8,0:0:0:0:
221,191,114394,1,0,0:0:0:0:
221,191,114584,1,0,0:0:0:0:
221,191,114774,1,8,0:0:0:0:
221,191,115153,1,8,0:0:0:0:
221,191,115343,1,0,0:0:0:0:
221,191,115533,1,8,0:0:0:0:
221,191,115660,1,0,0:0:0:0:
221,191,115786,1,8,0:0:0:0:
221,191,115913,1,0,0:0:0:0:
221,191,116103,1,0,0:0:0:0:
221,191,116198,1,0,0:0:0:0:
221,191,116293,1,8,0:0:0:0:
221,191,116483,1,0,0:0:0:0:
221,191,116672,1,8,0:0:0:0:
221,191,116862,1,0,0:0:0:0:
221,191,117052,1,8,0:0:0:0:
221,191,117242,1,0,0:0:0:0:
221,191,117337,1,8,0:0:0:0:
221,191,117432,1,0,0:0:0:0:
221,191,117622,1,8,0:0:0:0:
221,191,118002,1,8,0:0:0:0:
221,191,118191,1,8,0:0:0:0:
221,191,118381,1,0,0:0:0:0:
221,191,118571,1,8,0:0:0:0:
221,191,118697,1,0,0:0:0:0:
221,191,118824,1,0,0:0:0:0:
221,191,118950,1,8,0:0:0:0:
221,191,119077,1,0,0:0:0:0:
221,191,119204,1,0,0:0:0:0:
221,191,119330,1,8,0:0:0:0:
221,191,119710,1,8,0:0:0:0:
221,191,120090,1,8,0:0:0:0:
221,191,120216,1,0,0:0:0:0:
221,191,120343,1,0,0:0:0:0:
221,191,120469,1,8,0:0:0:0:
221,191,120596,1,0,0:0:0:0:
221,191,120723,1,0,0:0:0:0:
221,191,120849,1,8,0:0:0:0:
221,191,121229,1,8,0:0:0:0:
221,191,121609,1,0,0:0:0:0:
221,191,121799,1,8,0:0:0:0:
221,191,121988,1,0,0:0:0:0:
221,191,122178,1,8,0:0:0:0:
221,191,122273,1,0,0:0:0:0:
221,191,122368,1,0,0:0:0:0:
221,191,122558,1,8,0:0:0:0:
221,191,122747,1,0,0:0:0:0:
221,191,122937,1,8,0:0:0:0:
221,191,123128,1,8,0:0:0:0:
221,191,123191,1,8,0:0:0:0:
221,191,123254,1,0,0:0:0:0:
221,191,123507,1,8,0:0:0:0:
221,191,123571,1,8,0:0:0:0:
221,191,123634,1,0,0:0:0:0:
221,191,123887,1,8,0:0:0:0:
221,191,123950,1,8,0:0:0:0:
221,191,124014,1,0,0:0:0:0:
221,191,124267,1,12,0:0:0:0:
221,191,124647,1,4,0:0:0:0:
221,191,124836,1,0,0:0:0:0:
221,191,124931,1,8,0:0:0:0:
221,191,125026,1,0,0:0:0:0:
221,191,125216,1,0,0:0:0:0:
221,191,125406,1,8,0:0:0:0:
221,191,125596,1,0,0:0:0:0:
221,191,125691,1,0,0:0:0:0:
221,191,125786,1,8,0:0:0:0:
221,191,125881,1,8,0:0:0:0:
221,191,125976,1,0,0:0:0:0:
221,191,126166,1,0,0:0:0:0:
221,191,126355,1,0,0:0:0:0:
221,191,126450,1,8,0:0:0:0:
221,191,126545,1,0,0:0:0:0:
221,191,126735,1,0,0:0:0:0:
221,191,126925,1,8,0:0:0:0:
221,191,127305,1,8,0:0:0:0:
221,191,127495,1,8,0:0:0:0:
221,191,127685,1,0,0:0:0:0:
221,191,127874,1,0,0:0:0:0:
221,191,127969,1,8,0:0:0:0:
221,191,128064,1,0,0:0:0:0:
221,191,128254,1,0,0:0:0:0:
221,191,128349,1,0,0:0:0:0:
221,191,128444,1,8,0:0:0:0:
221,191,128634,1,0,0:0:0:0:
221,191,128824,1,8,0:0:0:0:
221,191,129014,1,8,0:0:0:0:
221,191,129204,1,8,0:0:0:0:
221,191,129299,1,0,0:0:0:0:
221,191,129393,1,0,0:0:0:0:
221,191,129488,1,8,0:0:0:0:
221,191,129583,1,0,0:0:0:0:
221,191,129773,1,0,0:0:0:0:
221,191,129963,1,8,0:0:0:0:
221,191,130153,1,0,0:0:0:0:
221,191,130343,1,8,0:0:0:0:
221,191,130438,1,8,0:0:0:0:
221,191,130533,1,0,0:0:0:0:
221,191,130628,1,8,0:0:0:0:
221,191,130723,1,0,0:0:0:0:
221,191,130912,1,0,0:0:0:0:
221,191,131007,1,0,0:0:0:0:
221,191,131102,1,0,0:0:0:0:
221,191,131292,1,0,0:0:0:0:
221,191,131482,1,8,0:0:0:0:
221,191,131672,1,0,0:0:0:0:
221,191,131767,1,0,0:0:0:0:
221,191,131862,1,8,0:0:0:0:
221,191,131957,1,8,0:0:0:0:
221,191,132052,1,0,0:0:0:0:
221,191,132242,1,0,0:0:0:0:
221,191,132431,1,0,0:0:0:0:
221,191,132527,1,8,0:0:0:0:
221,191,132621,1,0,0:0:0:0:
221,191,132811,1,0,0:0:0:0:
221,191,133001,1,8,0:0:0:0:
221,191,133381,1,8,0:0:0:0:
221,191,133761,1,0,0:0:0:0:
221,191,133950,1,0,0:0:0:0:
221,191,134140,1,8,0:0:0:0:
221,191,134330,1,0,0:0:0:0:
221,191,134520,1,8,0:0:0:0:
221,191,134647,1,8,0:0:0:0:
221,191,134773,1,8,0:0:0:0:
221,191,134900,1,0,0:0:0:0:
221,191,135090,1,0,0:0:0:0:
221,191,135280,1,8,0:0:0:0:
221,191,135469,1,0,0:0:0:0:
221,191,135564,1,0,0:0:0:0:
221,191,135659,1,8,0:0:0:0:
221,191,135849,1,0,0:0:0:0:
221,191,136039,1,8,0:0:0:0:
221,191,136419,1,0,0:0:0:0:
221,191,136514,1,0,0:0:0:0:
221,191,136609,1,0,0:0:0:0:
221,191,136704,1,0,0:0:0:0:
221,191,136799,1,8,0:0:0:0:
221,191,136989,1,0,0:0:0:0:
221,191,137083,1,8,0:0:0:0:
221,191,137178,1,0,0:0:0:0:
221,191,137368,1,0,0:0:0:0:
221,191,137558,1,8,0:0:0:0:
221,191,137748,1,0,0:0:0:0:
221,191,137843,1,8,0:0:0:0:
221,191,137938,1,0,0:0:0:0:
221,191,138033,1,0,0:0:0:0:
221,191,138128,1,8,0:0:0:0:
221,191,138318,1,8,0:0:0:0:
221,191,138507,1,0,0:0:0:0:
221,191,138697,1,0,0:0:0:0:
221,191,138792,1,0,0:0:0:0:
221,191,138887,1,8,0:0:0:0:
221,191,138982,1,0,0:0:0:0:
221,191,139077,1,8,0:0:0:0:
221,191,139267,1,0,0:0:0:0:
221,191,139457,1,8,0:0:0:0:
221,191,139647,1,8,0:0:0:0:
221,191,139836,1,0,0:0:0:0:
221,191,140026,1,0,0:0:0:0:
221,191,140121,1,0,0:0:0:0:
221,191,140216,1,8,0:0:0:0:
221,191,140406,1,0,0:0:0:0:
221,191,140596,1,8,0:0:0:0:
221,191,140786,1,0,0:0:0:0:
221,191,140881,1,8,0:0:0:0:
221,191,140976,1,0,0:0:0:0:
221,191,141166,1,0,0:0:0:0:
221,191,141355,1,8,0:0:0:0:
221,191,141450,1,8,0:0:0:0:
221,191,141545,1,0,0:0:0:0:
221,191,141640,1,0,0:0:0:0:
221,191,141735,1,8,0:0:0:0:
221,191,141925,1,0,0:0:0:0:
221,191,142020,1,0,0:0:0:0:
221,191,142115,1,8,0:0:0:0:
221,191,142495,1,8,0:0:0:0:
221,191,142685,1,0,0:0:0:0:
221,191,142874,1,8,0:0:0:0:
221,191,143064,1,0,0:0:0:0:
221,191,143159,1,8,0:0:0:0:
221,191,143254,1,0,0:0:0:0:
221,191,143444,1,0,0:0:0:0:
221,191,143539,1,0,0:0:0:0:
221,191,143634,1,8,0:0:0:0:
221,191,143824,1,0,0:0:0:0:
221,191,144014,1,8,0:0:0:0:
221,191,144204,1,0,0:0:0:0:
221,191,144393,1,0,0:0:0:0:
221,191,144488,1,0,0:0:0:0:
221,191,144583,1,8,0:0:0:0:
221,191,144678,1,0,0:0:0:0:
221,191,144773,1,8,0:0:0:0:
221,191,144963,1,8,0:0:0:0:
221,191,145153,1,0,0:0:0:0:
221,191,145343,1,0,0:0:0:0:
221,191,145533,1,8,0:0:0:0:
221,191,145912,1,0,0:0:0:0:
221,191,146102,1,8,0:0:0:0:
221,191,146292,1,8,0:0:0:0:
221,191,146482,1,0,0:0:0:0:
221,191,146672,1,0,0:0:0:0:
221,191,146799,1,0,0:0:0:0:
221,191,146925,1,0,0:0:0:0:
221,191,147052,1,8,0:0:0:0:
221,191,147242,1,0,0:0:0:0:
221,191,147431,1,8,0:0:0:0:
221,191,147621,1,8,0:0:0:0:
221,191,147811,1,8,0:0:0:0:
221,191,148001,1,0,0:0:0:0:
221,191,148191,1,8,0:0:0:0:
221,191,148318,1,0,0:0:0:0:
221,191,148444,1,0,0:0:0:0:
221,191,148571,1,8,0:0:0:0:
221,191,148697,1,0,0:0:0:0:
221,191,148824,1,0,0:0:0:0:
221,191,148950,1,8,0:0:0:0:
221,191,149331,1,4,0:0:0:0:
221,191,149711,1,8,0:0:0:0:
221,191,149837,1,0,0:0:0:0:
221,191,149964,1,0,0:0:0:0:
221,191,150090,1,8,0:0:0:0:
221,191,150280,1,0,0:0:0:0:
221,191,150470,1,8,0:0:0:0:
221,191,150597,1,0,0:0:0:0:
221,191,150723,1,0,0:0:0:0:
221,191,150850,1,8,0:0:0:0:
221,191,151229,1,8,0:0:0:0:
221,191,151356,1,0,0:0:0:0:
221,191,151483,1,0,0:0:0:0:
221,191,151609,1,8,0:0:0:0:
221,191,151736,1,0,0:0:0:0:
221,191,151862,1,0,0:0:0:0:
221,191,151989,1,8,0:0:0:0:
221,191,152369,1,4,0:0:0:0:
221,191,152749,1,8,0:0:0:0:
221,191,152875,1,0,0:0:0:0:
221,191,153002,1,0,0:0:0:0:
221,191,153128,1,8,0:0:0:0:
221,191,153318,1,0,0:0:0:0:
221,191,153508,1,8,0:0:0:0:
221,191,153635,1,0,0:0:0:0:
221,191,153761,1,0,0:0:0:0:
221,191,153888,1,8,0:0:0:0:
221,191,154268,1,8,0:0:0:0:
221,191,154394,1,0,0:0:0:0:
221,191,154521,1,0,0:0:0:0:
221,191,154647,1,8,0:0:0:0:
221,191,154774,1,0,0:0:0:0:
221,191,154900,1,0,0:0:0:0:
221,191,155027,1,8,0:0:0:0:
221,191,155407,1,4,0:0:0:0:
221,191,155787,1,8,0:0:0:0:
221,191,155913,1,0,0:0:0:0:
221,191,156040,1,0,0:0:0:0:
221,191,156166,1,8,0:0:0:0:
221,191,156356,1,0,0:0:0:0:
221,191,156546,1,8,0:0:0:0:
221,191,156673,1,0,0:0:0:0:
221,191,156799,1,0,0:0:0:0:
221,191,156926,1,8,0:0:0:0:
221,191,157306,1,8,0:0:0:0:
221,191,157432,1,0,0:0:0:0:
221,191,157559,1,0,0:0:0:0:
221,191,157685,1,8,0:0:0:0:
221,191,157812,1,0,0:0:0:0:
221,191,157938,1,0,0:0:0:0:
221,191,158065,1,8,0:0:0:0:
221,191,158445,1,0,0:0:0:0:
221,191,158824,1,8,0:0:0:0:
221,191,158951,1,0,0:0:0:0:
221,191,159077,1,0,0:0:0:0:
221,191,159204,1,8,0:0:0:0:
221,191,159394,1,0,0:0:0:0:
221,191,159584,1,8,0:0:0:0:
221,191,159647,1,8,0:0:0:0:
221,191,159710,1,0,0:0:0:0:
221,191,159964,1,8,0:0:0:0:
221,191,160027,1,8,0:0:0:0:
221,191,160090,1,0,0:0:0:0:
221,191,160343,1,8,0:0:0:0:
221,191,160407,1,8,0:0:0:0:
221,191,160470,1,0,0:0:0:0:
221,191,160723,1,12,0:0:0:0:
221,191,161103,1,4,0:0:0:0:
221,191,161483,1,4,0:0:0:0:
