osu file format v14

[General]
AudioFilename: audio.mp3
AudioLeadIn: 0
PreviewTime: 87921
Countdown: 0
SampleSet: Soft
StackLeniency: 0.2
Mode: 0
LetterboxInBreaks: 0
WidescreenStoryboard: 0

[Editor]
Bookmarks: 44035,65978,75925,85185,87921,97867,109870,119813,131806,141756,151699,153749,175699,197635,219585,230549,241521,244263,251470,263470,273413,285413,295356,305299,307349,318321,323806
DistanceSpacing: 0.2
BeatDivisor: 4
GridSize: 4
TimelineZoom: 1.6

[Metadata]
Title:Still Breathing
TitleUnicode:Still Breathing
Artist:Urbandawn & keeno
ArtistUnicode:Urbandawn & keeno
Creator:Echoy
Version:Hard
Source:
Tags:DnB zen
BeatmapID:1307112
BeatmapSetID:620187

[Difficulty]
HPDrainRate:6
CircleSize:4
OverallDifficulty:8
ApproachRate:9
SliderMultiplier:1.5
SliderTickRate:1

[Events]
//Background and Video events
0,0,"sky.jpg",0,0
//Break Periods
//Storyboard Layer 0 (Background)
//Storyboard Layer 1 (Fail)
//Storyboard Layer 2 (Pass)
//Storyboard Layer 3 (Foreground)
//Storyboard Sound Samples

[TimingPoints]
1528,342.857142857143,4,1,0,100,1,0
44042,-200,4,2,1,50,0,0
50985,-200,4,2,1,5,0,0
51070,-200,4,2,1,50,0,0
53728,-200,4,2,1,5,0,0
53813,-200,4,2,1,50,0,0
61956,-200,4,2,1,5,0,0
62042,-200,4,2,1,50,0,0
64699,-200,4,2,1,5,0,0
64785,-200,4,2,1,50,0,0
65985,-166.666666666667,4,2,1,70,0,0
68642,-166.666666666667,4,2,1,5,0,0
68728,-166.666666666667,4,2,1,70,0,0
71470,-133.333333333333,4,2,1,70,0,0
75928,-166.666666666667,4,2,1,70,0,0
76956,-83.3333333333333,4,2,1,70,0,0
77128,-125,4,2,1,70,0,0
78328,-83.3333333333333,4,2,1,70,0,0
79356,-125,4,2,1,70,0,0
79699,-100,4,2,1,70,0,0
83813,-100,4,2,1,40,0,0
84499,-100,4,2,1,55,0,0
85270,-100,4,2,1,70,0,0
86556,-100,4,2,1,20,0,0
86642,-100,4,2,1,40,0,0
86728,-100,4,2,1,60,0,0
86813,-100,4,2,1,70,0,0
86899,-100,4,2,1,70,0,0
86985,-100,4,2,1,5,0,0
87070,-100,4,2,1,70,0,0
87413,-100,4,2,1,40,0,0
87585,-100,4,2,1,45,0,0
87756,-100,4,2,1,55,0,0
87928,-83.3333333333333,4,2,2,70,0,1
92728,-83.3333333333333,4,2,2,5,0,1
92899,-83.3333333333333,4,2,2,70,0,1
97870,-125,4,2,2,70,0,1
98899,-83.3333333333333,4,2,2,70,0,1
104299,-83.3333333333333,4,2,1,80,0,1
104385,-83.3333333333333,4,2,2,70,0,1
108842,-83.3333333333333,4,2,2,70,0,0
109870,-83.3333333333333,4,2,2,70,0,1
119813,-125,4,2,2,70,0,1
120842,-83.3333333333333,4,2,2,70,0,1
130785,-83.3333333333333,4,2,2,70,0,0
131813,-83.3333333333333,4,2,2,70,0,1
153756,-83.3333333333333,4,2,2,70,0,0
244270,-83.3333333333333,4,2,2,70,0,1
262442,-83.3333333333333,4,2,2,70,0,0
263470,-83.3333333333333,4,2,2,70,0,1
284385,-83.3333333333333,4,2,2,70,0,0
285413,-83.3333333333333,4,2,2,70,0,1
307356,-83.3333333333333,4,2,2,70,0,0

[Colours]
Combo1 : 252,252,169
Combo2 : 122,226,196
Combo3 : 171,233,165

[HitObjects]
120,196,44042,6,0,P|155:213|203:209,1,75
290,199,44728,1,0,0:0:0:0:
366,141,45070,1,0,0:0:0:0:
366,141,45242,6,0,L|372:174,2,18.75
293,59,45756,1,0,0:0:0:0:
190,26,46099,1,0,0:0:0:0:
77,39,46442,1,0,0:0:0:0:
22,203,46785,6,0,P|17:161|30:123,1,75
70,284,47470,1,0,0:0:0:0:
174,317,47813,2,0,L|165:250,1,56.25
166,261,48156,2,0,P|176:216|166:174,1,75
130,80,48842,1,0,0:0:0:0:
267,136,49185,1,0,0:0:0:0:
400,123,49528,6,0,P|431:107|453:68,1,75
322,21,50213,1,0,0:0:0:0:
267,136,50556,1,0,0:0:0:0:
356,240,50899,6,0,L|378:243,1,18.75
502,260,51242,1,0,0:0:0:0:
350,329,51585,1,0,0:0:0:0:
260,314,51756,6,0,L|246:261,1,37.5
162,262,52099,2,0,L|171:298,1,37.5
1,325,52613,1,0,0:0:0:0:
70,210,52956,1,0,0:0:0:0:
24,84,53299,1,0,0:0:0:0:
190,105,53642,6,0,L|211:99,1,18.75
354,52,53985,2,0,P|357:78|355:98,1,37.5
448,121,54328,2,0,P|444:151|438:168,1,37.5
512,229,54670,2,0,P|506:254|494:270,1,37.5
339,341,55013,6,0,L|291:330,1,37.5
253,234,55356,2,0,L|289:242,1,37.5
205,355,55699,2,0,L|157:344,1,37.5
119,248,56042,2,0,L|155:256,1,37.5
165,262,56299,1,0,0:0:0:0:
174,268,56385,6,0,P|182:224|172:186,1,75
119,99,57070,1,0,0:0:0:0:
12,47,57413,1,0,0:0:0:0:
30,180,57756,6,0,L|71:175,1,37.5
119,99,58099,2,0,L|160:94,1,37.5
278,153,58442,1,0,0:0:0:0:
427,38,58785,2,0,P|395:38|367:51,1,56.25
361,58,59128,5,0,0:0:0:0:
481,157,59470,1,0,0:0:0:0:
375,242,59813,1,0,0:0:0:0:
446,328,60156,1,0,0:0:0:0:
253,330,60499,6,0,B|184:340|113:291|118:221|164:214|218:234|158:345,1,281.25
60,336,61870,2,0,L|49:308,1,18.75
165,171,63242,5,0,0:0:0:0:
60,336,64613,2,0,L|49:308,1,18.75
368,127,65985,6,0,B|312:180|334:256|334:256|305:228,1,179.999994506836,2|0,0:0|0:0,0:0:0:0:
284,325,67013,2,0,B|354:366|406:308|406:308|417:259,1,179.999994506836
421,156,68042,2,0,B|402:124|353:117|353:117|371:67|342:31,1,157.499995193482,2|0,0:0|0:0,0:0:0:0:
275,82,68728,6,0,B|203:106|142:42|142:42|161:90,1,179.999994506836,2|0,0:0|0:0,0:0:0:0:
97,200,69756,2,0,B|92:250|54:277|54:277|99:264|147:289,1,179.999994506836
277,362,70785,2,0,B|370:371|339:313|426:323,1,157.499995193482,2|0,0:0|0:0,0:0:0:0:
495,354,71470,6,0,B|508:273,1,56.2500021457673
433,239,71813,2,0,B|446:158|446:158,1,56.2500021457673
341,59,72156,2,0,P|381:39|437:43,2,84.3750032186509
167,124,72842,6,0,L|74:111,1,84.3750032186509
18,99,73185,2,0,L|110:112,1,84.3750032186509
81,186,73528,2,0,L|94:93,1,84.3750032186509
104,38,73870,2,0,L|91:131,1,84.3750032186509,4|0,0:0|0:0,0:0:0:0:
127,279,74213,6,0,P|155:305|209:311,1,84.3750032186509
253,346,74556,2,0,P|225:320|171:314,1,84.3750032186509
156,375,74899,2,0,P|182:347|188:293,1,84.3750032186509
223,249,75242,2,0,P|197:277|191:331,1,84.3750032186509
346,283,75585,6,0,P|390:288|429:319,1,84.3750032186509
489,369,75928,6,0,P|511:326|504:277,1,89.9999972534181
497,78,76442,1,4,0:3:0:0:
444,163,76613,2,0,P|433:190|435:219,1,44.999998626709,4|0,0:0|0:0,0:0:0:0:
497,78,76956,6,0,P|474:61|449:54,1,44.999998626709,2|0,0:0|0:0,0:0:0:0:
346,119,77128,1,0,0:0:0:0:
337,131,77213,1,0,0:0:0:0:
325,140,77299,1,0,0:0:0:0:
311,146,77385,1,0,0:0:0:0:
296,149,77470,1,0,0:0:0:0:
281,146,77556,1,0,0:0:0:0:
268,137,77642,6,0,L|358:146,2,90
158,17,78328,6,0,P|165:46|163:77,1,44.999998626709
142,155,78499,2,0,P|126:184|95:205,1,44.999998626709
9,125,78670,6,0,P|32:121|62:125,1,44.999998626709
142,155,78842,2,0,P|168:170|185:196,1,44.999998626709
271,274,79013,6,0,P|261:246|261:211,1,44.999998626709
268,137,79185,2,0,P|275:115|293:91,1,44.999998626709,2|0,0:0|0:0,0:0:0:0:
392,257,79356,6,0,P|427:274|471:270,1,60,4|0,0:0|0:0,0:0:0:0:
450,95,79699,6,0,L|459:22,1,75,2|0,0:0|0:0,0:0:0:0:
372,49,79956,1,0,0:0:0:0:
372,49,80042,2,0,L|363:122,1,75
210,183,80385,6,0,P|168:182|123:156,1,75,2|0,0:0|0:0,0:0:0:0:
116,80,80642,1,0,0:0:0:0:
116,80,80728,2,0,P|158:81|203:107,1,75
103,304,81070,6,0,B|92:359|92:359|68:369,1,75,2|0,0:0|0:0,0:0:0:0:
25,283,81328,1,0,0:0:0:0:
25,283,81413,2,0,B|36:228|36:228|60:218,1,75
279,280,81756,6,0,P|290:319|278:363,1,75,2|0,0:0|0:0,0:0:0:0:
366,291,82013,1,0,0:0:0:0:
366,291,82099,2,0,P|355:252|367:208,1,75,4|2,0:0|0:0,0:0:0:0:
397,137,82356,1,2,0:0:0:0:
397,137,82442,5,0,0:0:0:0:
430,44,82613,1,0,0:0:0:0:
295,122,82785,5,0,0:0:0:0:
312,18,82956,1,0,0:0:0:0:
188,148,83128,5,0,0:0:0:0:
178,22,83299,1,0,0:0:0:0:
107,226,83470,5,0,0:0:0:0:
53,74,83641,1,0,0:0:0:0:
90,339,83813,5,4,2:3:0:0:
126,328,83898,1,4,2:3:0:0:
163,322,83984,1,4,2:3:0:0:
200,321,84070,1,4,2:3:0:0:
237,326,84155,1,4,2:3:0:0:
274,336,84241,1,4,2:3:0:0:
309,349,84327,1,4,2:3:0:0:
345,349,84413,1,4,2:3:0:0:
379,338,84499,5,4,2:3:0:0:
404,375,84585,1,4,0:3:0:0:
448,383,84671,1,4,0:3:0:0:
485,357,84757,1,4,0:3:0:0:
494,313,84842,1,4,0:3:0:0:
468,276,84928,1,4,0:3:0:0:
424,268,85014,1,4,0:3:0:0:
387,293,85100,1,4,0:3:0:0:
379,338,85185,1,4,0:3:0:0:
24,251,85870,6,0,L|38:196,1,37.5,8|0,0:3|0:0,0:0:0:0:
52,24,86128,1,2,0:3:0:0:
52,24,86213,1,8,0:3:0:0:
152,157,86385,1,10,0:3:0:0:
224,69,86556,5,8,0:3:0:0:
247,53,86641,1,8,0:3:0:0:
274,45,86727,1,8,0:3:0:0:
302,46,86813,1,8,0:3:0:0:
326,56,86899,6,0,L|313:14,1,37.5,8|0,0:3|0:0,0:0:0:0:
398,111,87070,1,0,0:0:0:0:
512,40,87242,1,8,0:3:0:0:
420,313,87413,5,4,0:3:0:0:
399,321,87498,1,4,0:3:0:0:
376,322,87584,1,4,0:3:0:0:
343,313,87670,1,4,0:3:0:0:
320,288,87755,1,4,0:3:0:0:
310,254,87841,1,4,0:3:0:0:
315,215,87928,6,0,B|301:318,1,89.9999972534181,6|0,0:0|0:0,0:0:0:0:
116,302,88270,2,0,P|73:282|14:288,1,89.9999972534181,8|0,0:0|0:0,0:0:0:0:
201,377,88613,1,0,0:0:0:0:
135,164,88785,1,2,0:0:0:0:
220,72,88956,2,0,P|256:48|310:46,1,89.9999972534181,8|0,0:0|0:0,0:0:0:0:
487,136,89299,1,0,0:0:0:0:
318,220,89470,1,2,0:0:0:0:
438,342,89642,6,0,L|424:243,1,89.9999972534181,8|0,0:0|0:0,0:0:0:0:
294,134,89985,1,0,0:0:0:0:
484,50,90156,2,0,P|497:96|484:139,1,89.9999972534181,2|0,0:0|0:0,0:0:0:0:
425,253,90499,1,8,0:0:0:0:
294,134,90670,6,0,L|305:20,1,89.9999972534181,2|0,0:0|0:0,0:0:0:0:
106,71,91013,2,0,P|62:81|29:112,1,89.9999972534181,8|0,0:0|0:0,0:0:0:0:
102,273,91356,1,0,0:0:0:0:
190,128,91528,1,2,0:0:0:0:
246,306,91699,2,0,P|279:341|336:350,1,89.9999972534181,8|0,0:0|0:0,0:0:0:0:
480,298,92042,1,0,0:0:0:0:
274,213,92213,1,2,0:0:0:0:
401,170,92385,6,0,B|368:133|393:91|393:91|429:49|420:12|371:2|351:29|353:55,1,224.999993133545,8|0,0:0|0:0,0:0:0:0:
422,104,92899,2,0,P|470:116|520:94,1,89.9999972534181,2|0,0:0|0:0,0:0:0:0:
333,30,93242,1,8,0:0:0:0:
253,295,93413,6,0,P|223:320|155:323,1,89.9999972534181,2|0,0:0|0:0,0:0:0:0:
4,215,93756,2,0,P|33:189|101:186,1,89.9999972534181,8|0,0:0|0:0,0:0:0:0:
6,35,94099,1,0,0:0:0:0:
233,107,94270,1,2,0:0:0:0:
163,247,94442,2,0,P|157:291|173:332,1,89.9999972534181,8|0,0:0|0:0,0:0:0:0:
390,319,94785,1,0,0:0:0:0:
163,247,94956,1,0,0:0:0:0:
233,107,95128,2,0,P|239:63|223:22,1,89.9999972534181,8|0,0:0|0:0,0:0:0:0:
412,274,95470,5,0,0:0:0:0:
438,107,95642,2,0,P|458:67|494:42,1,89.9999972534181,2|0,0:0|0:0,0:0:0:0:
416,300,95985,1,8,0:0:0:0:
313,137,96156,6,0,P|275:111|232:106,1,89.9999972534181,2|0,0:0|0:0,0:0:0:0:
89,166,96499,2,0,L|-7:156,1,89.9999972534181,8|0,0:0|0:0,0:0:0:0:
101,17,96842,1,0,0:0:0:0:
169,175,97013,1,2,0:0:0:0:
157,324,97185,2,0,L|61:314,1,89.9999972534181,8|0,0:0|0:0,0:0:0:0:
169,175,97528,1,0,0:0:0:0:
237,333,97699,1,2,0:0:0:0:
405,119,97870,6,0,P|422:172|397:230,1,120,8|0,0:0|0:0,0:0:0:0:
329,171,98385,2,0,L|321:112,2,60,2|0|8,0:0|0:0|0:0,0:0:0:0:
296,271,98899,6,0,P|329:306|383:314,1,89.9999972534181,2|0,0:0|0:0,0:0:0:0:
329,171,99242,1,8,0:0:0:0:
506,260,99413,2,0,L|492:366,2,89.9999972534181,0|0|2,0:0|0:0|0:0,0:0:0:0:
405,119,99928,2,0,B|388:71|444:27|444:27|390:47|343:30,1,179.999994506836,8|0,0:0|0:0,0:0:0:0:
253,16,100442,1,2,0:0:0:0:
118,108,100613,2,0,P|74:123|19:106,1,89.9999972534181,8|0,0:0|0:0,0:0:0:0:
222,19,100956,1,0,0:0:0:0:
189,276,101128,6,0,L|200:173,1,89.9999972534181,2|0,0:0|0:0,0:0:0:0:
336,129,101470,1,8,0:0:0:0:
340,292,101642,6,0,P|306:345|260:356,1,89.9999972534181,2|0,0:0|0:0,0:0:0:0:
198,186,101985,1,8,0:0:0:0:
336,129,102156,1,0,0:0:0:0:
373,308,102328,6,0,P|327:351|280:352,1,89.9999972534181,0|2,0:0|0:0,0:0:0:0:
198,186,102670,1,8,0:0:0:0:
347,175,102841,1,0,0:0:0:0:
402,333,103013,6,0,P|345:360|300:346,1,89.9999972534181,0|2,0:0|0:0,0:0:0:0:
198,186,103356,1,8,0:0:0:0:
344,222,103527,1,0,0:0:0:0:
424,359,103699,6,0,P|361:367|322:339,1,89.9999972534181,0|2,0:0|0:0,0:0:0:0:
319,214,104042,1,0,0:0:0:0:
452,126,104213,5,8,0:0:0:0:
457,119,104299,1,2,0:0:0:0:
460,110,104385,2,0,P|466:67|440:17,1,89.9999972534181,2|0,0:0|0:0,0:0:0:0:
297,197,104728,1,8,0:0:0:0:
169,69,104899,2,0,L|272:86,2,89.9999972534181,0|0|2,0:0|0:0|0:0,0:0:0:0:
118,225,105413,6,0,B|128:125|51:163|59:58,1,179.999994506836,8|0,0:0|0:0,0:0:0:0:
5,219,105928,1,2,0:0:0:0:
122,358,106099,2,0,P|75:341|44:300,1,89.9999972534181,8|0,0:0|0:0,0:0:0:0:
90,144,106442,1,0,0:0:0:0:
276,247,106613,2,0,L|294:354,1,89.9999972534181,2|0,0:0|0:0,0:0:0:0:
447,246,106956,1,8,0:0:0:0:
472,26,107128,6,0,P|427:45|404:91,1,89.9999972534181,2|0,0:0|0:0,0:0:0:0:
367,294,107470,2,0,L|350:189,1,89.9999972534181,8|0,0:0|0:0,0:0:0:0:
464,159,107813,1,0,0:0:0:0:
216,81,107985,1,2,0:0:0:0:
194,281,108156,2,0,L|208:369,1,89.9999972534181,8|0,0:0|0:0,0:0:0:0:
75,286,108499,1,0,0:0:0:0:
239,90,108670,1,2,0:0:0:0:
487,263,108842,6,0,B|451:271|422:311|422:311|433:222|366:182,1,224.999993133545,8|0,0:0|0:0,0:0:0:0:
372,201,109356,2,0,P|399:230|411:279,1,89.9999972534181,2|0,0:0|0:0,0:0:0:0:
352,383,109699,1,8,0:0:0:0:
463,126,109870,6,0,B|468:76|448:35,1,89.9999972534181,6|0,0:0|0:0,0:0:0:0:
287,118,110213,2,0,P|241:121|187:96,1,89.9999972534181,8|0,0:0|0:0,0:0:0:0:
77,14,110556,1,0,0:0:0:0:
283,101,110728,1,2,0:0:0:0:
108,157,110899,2,0,P|63:189|45:235,1,89.9999972534181,8|0,0:0|0:0,0:0:0:0:
32,345,111242,1,0,0:0:0:0:
123,166,111413,1,2,0:0:0:0:
226,335,111585,6,0,P|250:365|314:379,1,89.9999972534181,8|0,0:0|0:0,0:0:0:0:
292,186,111928,1,0,0:0:0:0:
512,241,112099,2,0,L|484:129,1,89.9999972534181,2|0,0:0|0:0,0:0:0:0:
452,378,112442,1,8,0:0:0:0:
471,167,112613,6,0,L|479:57,1,89.9999972534181,6|0,0:0|0:0,0:0:0:0:
375,241,112956,2,0,P|401:277|471:289,1,89.9999972534181,8|0,0:0|0:0,0:0:0:0:
461,60,113299,1,0,0:0:0:0:
354,250,113470,1,2,0:0:0:0:
244,134,113642,2,0,P|198:117|134:131,1,89.9999972534181,8|0,0:0|0:0,0:0:0:0:
0,180,113985,1,0,0:0:0:0:
107,370,114156,1,2,0:0:0:0:
268,268,114328,6,0,B|303:192|244:134|244:134|269:173|244:226,1,224.999993133545,8|0,0:0|0:0,0:0:0:0:
206,317,114842,2,0,P|246:346|287:347,1,89.9999972534181,2|0,0:0|0:0,0:0:0:0:
414,291,115185,1,8,0:0:0:0:
347,19,115356,6,0,P|374:37|392:105,1,89.9999972534181,2|0,0:0|0:0,0:0:0:0:
367,221,115699,2,0,P|379:263|414:291,1,89.9999972534181,8|0,0:0|0:0,0:0:0:0:
466,208,116042,1,0,0:0:0:0:
294,101,116213,1,2,0:0:0:0:
164,265,116385,2,0,P|200:255|239:206,1,89.9999972534181,8|0,0:0|0:0,0:0:0:0:
286,79,116728,1,0,0:0:0:0:
458,186,116899,1,2,0:0:0:0:
244,243,117070,2,0,P|215:276|173:290,1,89.9999972534181,8|0,0:0|0:0,0:0:0:0:
6,217,117413,5,0,0:0:0:0:
106,110,117585,2,0,L|93:9,1,89.9999972534181,2|0,0:0|0:0,0:0:0:0:
0,194,117928,1,8,0:0:0:0:
66,348,118099,6,0,P|111:377|163:373,1,89.9999972534181,2|0,0:0|0:0,0:0:0:0:
234,217,118442,2,0,L|219:107,1,89.9999972534181,8|0,0:0|0:0,0:0:0:0:
145,378,118785,1,0,0:0:0:0:
329,256,118956,1,2,0:0:0:0:
418,102,119128,2,0,L|403:-8,1,89.9999972534181,8|0,0:0|0:0,0:0:0:0:
329,256,119471,1,0,0:0:0:0:
512,134,119642,1,2,0:0:0:0:
470,354,119813,6,0,B|432:335|432:335|410:304|424:251,1,120,8|0,0:0|0:0,0:0:0:0:
385,341,120328,2,0,P|356:362|316:367,2,60
435,272,120842,6,0,P|446:222|425:158,1,89.9999972534181
510,78,121185,1,0,0:0:0:0:
321,144,121356,2,0,L|333:52,2,89.9999972534181
223,260,121870,6,0,B|163:222|176:159|176:159|206:178|209:235,1,179.999994506836
157,76,122385,1,0,0:0:0:0:
113,268,122556,2,0,P|78:318|30:332,1,89.9999972534181
206,210,122899,1,0,0:0:0:0:
252,336,123070,6,0,L|361:349,1,89.9999972534181
454,310,123413,1,0,0:0:0:0:
406,133,123585,6,0,P|444:163|455:216,1,89.9999972534181
342,347,123928,1,0,0:0:0:0:
454,310,124099,1,0,0:0:0:0:
427,136,124270,6,0,P|459:173|461:227,1,89.9999972534181
327,336,124613,1,0,0:0:0:0:
443,319,124784,1,0,0:0:0:0:
443,140,124956,6,0,P|468:182|461:235,1,89.9999972534181
310,319,125299,1,0,0:0:0:0:
427,323,125470,1,0,0:0:0:0:
464,150,125642,6,0,P|481:195|464:247,1,89.9999972534181
412,325,125985,1,0,0:0:0:0:
314,138,126156,1,0,0:0:0:0:
310,129,126242,1,0,0:0:0:0:
309,119,126328,6,0,P|318:70|371:29,1,89.9999972534181
363,233,126670,1,0,0:0:0:0:
180,221,126842,2,0,L|199:331,2,89.9999972534181
2,76,127356,6,0,B|84:52|118:132|118:132|141:89,1,179.999994506836
190,1,127870,1,0,0:0:0:0:
35,154,128042,2,0,P|59:196|111:215,1,89.9999972534181
258,139,128385,5,0,0:0:0:0:
192,240,128556,2,0,L|179:332,1,89.9999972534181
323,39,128899,1,0,0:0:0:0:
332,347,129070,6,0,P|391:369|426:362,1,89.9999972534181
442,164,129413,2,0,L|461:252,1,89.9999972534181
