osu file format v14

[General]
AudioFilename: audio.mp3
AudioLeadIn: 0
PreviewTime: 42858
Countdown: 0
SampleSet: Soft
StackLeniency: 0.3
Mode: 0
LetterboxInBreaks: 0
WidescreenStoryboard: 1

[Editor]
Bookmarks: 37702
DistanceSpacing: 1.4
BeatDivisor: 4
GridSize: 4
TimelineZoom: 1.8

[Metadata]
Title:Pokopoko Tanuki to Pusu Usagi
TitleUnicode:ぽこぽこたぬき と ぷすうさぎ
Artist:Uratanuki x Pusu
ArtistUnicode:うらたぬき×ぷす
Creator:Nevo
Version:Smoke's Hard
Source:
Tags:zips amb1d3x Hishiro Chizuru frontier -_frontier_- srijanfromsd smoke glaceon cute anime boys in animal costumes じっぷす ハイエンドプリンス high end prince rabbit japanese rock pop
BeatmapID:2332778
BeatmapSetID:1103785

[Difficulty]
HPDrainRate:5.2
CircleSize:3.4
OverallDifficulty:6.5
ApproachRate:7.8
SliderMultiplier:1.3
SliderTickRate:1

[Events]
//Background and Video events
Video,-861,"PV.mp4"
0,0,"wob.jpg",0,0
//Break Periods
2,142864,147893
//Storyboard Layer 0 (Background)
//Storyboard Layer 1 (Fail)
//Storyboard Layer 2 (Pass)
//Storyboard Layer 3 (Foreground)
//Storyboard Layer 4 (Overlay)
//Storyboard Sound Samples

[TimingPoints]
-773,312.5,4,2,1,60,1,0
477,-125,4,2,1,60,0,0
2430,-100,4,2,1,5,0,0
2977,-100,4,2,1,75,0,0
12977,-125,4,2,1,75,0,0
15242,-125,4,2,1,5,0,0
15477,-111.111111111111,4,2,1,70,0,0
17977,-125,4,2,1,65,0,0
20242,-125,4,2,1,5,0,0
20477,-111.111111111111,4,2,1,70,0,0
22977,-125,4,2,1,65,0,0
27977,-142.857142857143,4,2,1,65,0,0
30477,-125,4,2,1,65,0,0
31727,-111.111111111111,4,2,1,65,0,0
42977,-90.9090909090909,4,2,1,90,0,1
57977,-100,4,2,1,65,0,0
62977,-100,4,2,1,75,0,0
72977,-125,4,2,1,75,0,0
75477,-100,4,2,1,65,0,0
77977,-125,4,2,1,65,0,0
80477,-100,4,2,1,65,0,0
82977,-111.111111111111,4,2,1,65,0,0
87977,-125,4,2,1,65,0,0
92977,-111.111111111111,4,2,1,65,0,0
102977,-90.9090909090909,4,2,1,90,0,1
117977,-100,4,2,1,65,0,0
122352,-117.647058823529,4,2,1,65,0,0
122664,-105.263157894737,4,2,1,65,0,0
122977,-100,4,2,1,65,0,0
132977,312.5,3,2,1,65,1,0
132977,-111.111111111111,4,2,1,65,0,0
135164,-111.111111111111,4,2,1,60,0,0
140477,312.5,4,2,1,60,1,0
140477,-125,4,2,1,60,0,0
148914,-100,4,2,1,75,0,0
151727,-105.263157894737,4,2,1,75,0,0
156727,-117.647058823529,4,2,1,65,0,0
161727,-100,4,2,1,75,0,0
162039,-66.6666666666667,4,2,1,75,0,0
162352,312.5,4,2,1,90,1,1
162352,-86.9565217391304,4,2,1,90,0,1
177352,-105.263157894737,4,2,1,65,0,0
184852,-100,4,2,1,75,0,0

[Colours]
Combo1 : 0,176,176
Combo2 : 116,4,240
Combo3 : 255,0,121
Combo4 : 255,223,204
Combo5 : 0,136,0

[HitObjects]
68,338,477,6,0,L|139:323,1,52,2|2,0:2|0:2,0:0:0:0:
190,284,789,2,0,L|261:299,1,52,2|2,0:2|0:2,0:0:0:0:
311,340,1102,2,0,P|322:317|324:273,1,52,2|2,0:2|0:2,0:0:0:0:
400,255,1414,2,0,P|389:232|387:188,1,52,2|2,0:2|0:2,0:0:0:0:
411,126,1727,1,2,0:2:0:0:
411,126,1883,1,2,0:2:0:0:
361,59,2039,2,0,L|306:68,1,52,0|2,0:2|0:2,0:0:0:0:
227,81,2352,1,2,3:2:0:0:
75,236,2977,5,6,3:2:0:0:
75,236,3133,2,0,L|56:160,1,65,10|0,0:2|3:2,0:0:0:0:
9,96,3445,2,0,P|43:90|85:77,1,65,10|0,0:2|3:2,0:2:0:0:
145,26,3758,2,0,P|179:32|221:45,1,65,10|2,0:2|3:2,0:0:0:0:
284,90,4070,2,0,P|318:84|360:71,1,65,10|0,0:2|3:2,0:0:0:0:
437,59,4383,2,0,P|424:99|413:147,1,65,10|0,0:2|3:2,0:0:0:0:
459,201,4695,2,0,B|422:206|402:241|418:240|401:276|344:280,1,130,10|10,0:2|0:2,0:2:0:0:
331,313,5086,1,10,0:2:0:0:
331,313,5164,2,0,P|299:300|254:292,1,65,10|2,0:2|3:0,0:0:0:0:
226,212,5477,5,2,3:2:0:0:
287,145,5633,2,0,P|282:111|267:55,1,65,8|0,0:2|3:2,0:0:0:0:
197,33,5945,2,0,P|201:16|208:-1,2,32.5,10|10|0,0:2|0:2|3:2,0:0:0:0:
143,107,6258,2,0,P|147:124|154:141,2,32.5,10|10|0,0:2|0:2|3:2,0:0:0:0:
60,68,6570,1,8,0:2:0:0:
21,153,6727,1,14,3:2:0:0:
21,153,6883,2,0,L|34:230,1,65,8|2,0:2|3:2,0:0:0:0:
11,305,7195,2,0,B|51:314|51:314|75:352|75:352|135:366,1,130,6|10,0:2|0:2,0:2:0:0:
197,316,7664,2,0,P|191:297|181:272,3,32.5,10|10|10|10,0:2|0:2|0:2|0:2,0:0:0:0:
198,243,7977,5,6,3:2:0:0:
198,243,8133,2,0,P|224:226|279:224,1,65,0|0,0:2|3:2,0:0:0:0:
333,268,8445,2,0,P|359:285|414:287,1,65,10|0,0:2|3:2,0:2:0:0:
471,335,8758,2,0,P|479:302|495:257,1,65,10|0,0:2|3:2,0:0:0:0:
442,194,9070,2,0,P|434:161|418:116,1,65,10|0,0:2|3:2,0:2:0:0:
436,40,9383,2,0,P|405:50|361:56,1,65,10|0,3:2|3:2,0:2:0:0:
296,103,9695,2,0,P|246:67|161:79,1,130,10|10,0:2|0:2,0:2:0:0:
147,101,10086,1,10,0:2:0:0:
147,101,10164,2,0,P|155:136|163:176,1,65,0|10,3:2|0:2,0:0:0:0:
105,237,10477,5,2,3:2:0:0:
22,198,10633,2,0,L|36:117,1,65,8|2,0:2|3:2,0:0:0:0:
50,44,10945,2,0,P|45:27|37:11,2,32.5,10|10|0,0:2|0:2|3:2,0:0:0:0:
133,82,11258,2,0,P|128:99|120:115,2,32.5,10|10|0,0:2|0:2|3:2,0:0:0:0:
202,23,11570,1,10,0:2:0:0:
274,79,11727,6,0,P|310:68|349:59,1,65,6|8,3:2|0:2,0:2:0:0:
405,121,12039,2,0,P|396:153|381:190,1,65,6|8,3:2|0:2,0:2:0:0:
293,172,12352,1,6,3:2:0:0:
332,264,12508,1,10,0:2:0:0:
332,264,12586,1,10,0:2:0:0:
332,264,12664,2,0,L|322:323,3,32.5,10|10|10|8,0:2|0:2|0:2|0:2,0:0:0:0:
317,337,12977,6,0,P|269:359|205:338,1,104,2|0,3:2|0:0,0:0:0:0:
173,287,13445,1,2,3:2:0:0:
173,287,13602,2,0,L|190:223,1,52,2|0,3:2|0:0,0:0:0:0:
208,156,13914,2,0,L|225:92,1,52,0|2,0:0|3:2,0:0:0:0:
186,29,14227,5,2,3:2:0:0:
186,29,14539,1,2,3:2:0:0:
186,29,14852,1,2,3:2:0:0:
58,136,15164,5,14,3:2:0:0:
58,136,15477,6,0,L|78:213,1,58.4999982147217,6|2,3:2|0:2,0:0:0:0:
65,285,15789,2,0,P|96:285|136:261,1,58.4999982147217,2|2,3:2|0:2,0:0:0:0:
203,229,16102,2,0,P|234:229|274:253,1,58.4999982147217,2|2,3:2|0:2,0:0:0:0:
322,307,16414,2,0,P|349:298|393:288,1,58.4999982147217,2|2,3:2|0:2,0:0:0:0:
462,324,16727,6,0,P|478:272|503:197,1,116.999996429443,2|2,3:2|3:2,0:0:0:0:
431,146,17195,2,0,P|369:148|324:100,1,116.999996429443,2|10,3:2|0:2,0:0:0:0:
314,74,17586,1,10,0:2:0:0:
314,74,17664,2,0,P|321:44|331:12,1,58.4999982147217,2|10,3:2|0:2,0:0:0:0:
200,0,17977,6,0,P|217:55|230:119,1,104,2|0,3:2|0:0,0:0:0:0:
244,186,18445,1,2,3:2:0:0:
244,186,18602,2,0,P|237:214|226:244,1,52,2|0,3:2|0:0,0:0:0:0:
187,307,18914,2,0,P|166:327|142:348,1,52,0|2,0:0|3:2,0:0:0:0:
72,375,19227,5,2,3:2:0:0:
72,375,19539,1,2,3:2:0:0:
72,375,19852,1,2,3:2:0:0:
2,224,20164,5,10,0:2:0:0:
2,224,20477,6,0,B|39:214|39:214|79:227|79:227|131:215,1,116.999996429443,6|2,3:2|3:2,0:2:0:0:
184,156,20945,1,2,3:2:0:0:
262,207,21102,2,0,P|242:266|222:339,1,116.999996429443,2|2,3:2|3:2,0:2:0:0:
300,376,21570,1,2,3:2:0:0:
380,327,21727,6,0,P|371:299|352:229,1,87.7499973220826,6|0,3:2|0:0,0:2:0:0:
361,196,22039,2,0,P|372:168|387:139,1,58.4999982147217,6|8,3:2|0:2,0:0:0:0:
409,52,22352,2,0,P|379:61|350:68,1,58.4999982147217,6|8,3:2|0:2,0:0:0:0:
265,100,22664,2,0,P|235:91|206:84,1,58.4999982147217,6|8,3:2|0:2,0:0:0:0:
130,54,22977,6,0,L|116:115,2,52,6|0|2,3:2|0:0|3:2,0:2:0:0:
2,161,23602,2,0,L|16:222,2,52,6|0|2,3:2|0:0|3:2,0:2:0:0:
137,257,24227,2,0,L|122:319,1,52,6|0,3:2|0:2,0:2:0:0:
54,351,24539,2,0,L|41:300,1,52,2|0,3:2|0:2,0:2:0:0:
20,219,24852,2,0,P|37:201|84:184,1,52,6|0,3:2|0:2,0:2:0:0:
139,161,25164,2,0,P|172:166|211:202,1,78,2|0,3:2|0:0,0:2:0:0:
231,226,25477,6,0,L|218:285,2,52,6|0|2,3:2|0:2|3:2,0:2:0:0:
345,105,26102,2,0,L|333:54,2,52,6|0|2,3:2|0:2|3:2,0:2:0:0:
467,217,26727,2,0,L|414:227,1,52,6|0,3:2|0:2,0:0:0:0:
343,266,27039,2,0,L|290:256,1,52,2|0,3:2|0:2,0:0:0:0:
219,213,27352,2,0,P|192:220|165:237,1,52,6|8,3:2|0:3,0:0:0:0:
97,194,27664,2,0,P|83:141|62:102,1,78,2|0,3:2|0:0,0:2:0:0:
58,86,27977,6,0,L|163:61,1,90.9999972229005,2|2,0:2|0:2,0:2:0:0:
270,35,28602,2,0,L|365:56,1,90.9999972229005,2|2,0:2|0:2,0:2:0:0:
486,65,29227,1,2,0:2:0:0:
486,65,29539,2,0,L|471:116,1,45.4999986114502,2|0,0:2|0:2,0:2:0:0:
452,188,29852,2,0,L|466:246,1,45.4999986114502,2|0,0:2|0:0,0:0:0:0:
481,342,30164,1,2,0:2:0:0:
318,377,30477,6,0,L|337:309,1,52,2|0,3:2|3:2,0:0:0:0:
356,247,30789,1,2,0:2:0:0:
203,179,31102,2,0,L|216:229,1,52,2|0,3:2|3:2,0:0:0:0:
237,309,31414,1,2,0:2:0:0:
58,367,31727,6,0,L|74:309,1,58.4999982147217,2|2,3:2|3:2,0:0:0:0:
94,219,32039,2,0,L|77:159,1,58.4999982147217,2|2,3:2|3:2,0:0:0:0:
49,73,32352,2,0,L|59:28,3,29.2499991073609,0|0|0|0,3:2|3:2|3:2|3:2,0:0:0:0:
87,10,32664,2,0,L|132:22,3,29.2499991073609,0|0|0|0,3:2|3:2|3:2|3:2,0:0:0:0:
153,45,32977,6,0,P|203:33|275:20,1,116.999996429443,6|8,3:2|0:2,0:2:0:0:
345,73,33445,1,0,1:2:0:0:
318,163,33602,2,0,B|304:208|304:208|274:223|274:223|260:270,1,116.999996429443,2|8,3:2|0:2,0:2:0:0:
242,348,34070,1,0,1:2:0:0:
332,374,34227,2,0,P|388:350|409:296,1,116.999996429443,2|8,3:2|0:2,0:2:0:0:
468,228,34695,1,0,1:2:0:0:
441,137,34852,2,0,L|458:54,1,58.4999982147217,2|2,3:2|3:2,0:0:0:0:
384,15,35164,2,0,L|326:27,1,58.4999982147217,2|2,3:2|3:2,0:0:0:0:
254,87,35477,6,0,P|198:74|132:62,1,116.999996429443,2|8,3:2|0:2,0:2:0:0:
57,108,35945,1,0,1:2:0:0:
130,166,36102,2,0,P|169:215|168:283,1,116.999996429443,2|8,3:2|0:2,0:2:0:0:
149,358,36570,1,0,1:2:0:0:
240,334,36727,2,0,B|286:322|286:322|322:343|322:343|366:332,1,116.999996429443,2|8,3:2|0:2,0:2:0:0:
439,312,37195,1,0,1:2:0:0:
374,243,37352,2,0,L|352:169,1,58.4999982147217,2|2,3:2|3:2,0:0:0:0:
381,96,37664,2,0,P|332:95|288:127,1,87.7499973220826,2|0,3:2|0:0,0:0:0:0:
271,151,37977,6,0,L|252:281,1,116.999996429443,2|8,3:2|0:2,0:2:0:0:
179,322,38445,1,0,1:2:0:0:
100,270,38602,2,0,P|80:212|116:148,1,116.999996429443,2|8,3:2|0:2,0:2:0:0:
170,101,39070,1,0,1:2:0:0:
113,25,39227,2,0,P|171:14|241:5,1,116.999996429443,2|8,3:2|0:2,0:2:0:0:
308,56,39695,1,0,1:2:0:0:
395,20,39852,2,0,P|427:23|456:37,1,58.4999982147217,2|2,3:2|3:2,0:0:0:0:
476,123,40164,2,0,P|457:149|430:167,1,58.4999982147217,2|2,3:2|3:2,0:0:0:0:
345,187,40477,6,0,L|228:156,1,116.999996429443,6|10,3:2|0:2,0:2:0:0:
81,268,41102,2,0,L|93:326,1,58.4999982147217,2|0,3:2|3:2,0:0:0:0:
169,369,41414,1,10,0:2:0:0:
255,353,41570,2,0,P|296:333|315:246,1,116.999996429443,6|2,3:2|3:2,0:2:0:0:
364,193,42039,1,10,0:2:0:0:
443,241,42195,2,0,L|452:280,2,29.2499991073609,0|0|10,3:2|3:2|0:2,0:0:0:0:
505,173,42508,1,10,0:2:0:0:
505,173,42586,1,10,0:2:0:0:
505,173,42664,2,0,L|516:122,3,29.2499991073609,10|10|10|10,0:2|0:2|0:2|0:2,0:0:0:0:
482,107,42977,6,0,L|468:26,1,71.5000021820069,6|0,3:2|3:2,0:2:0:0:
382,5,43289,2,0,L|370:83,1,71.5000021820069,2|10,3:2|0:2,0:2:0:0:
287,117,43602,2,0,P|254:118|212:98,1,71.5000021820069,2|10,0:2|0:2,0:0:0:0:
146,45,43914,2,0,L|121:131,1,71.5000021820069,2|10,3:2|0:2,0:0:0:0:
102,206,44227,5,2,3:2:0:0:
102,206,44383,1,10,0:2:0:0:
35,270,44539,1,2,3:2:0:0:
35,270,44695,1,10,0:2:0:0:
88,346,44852,2,0,P|153:328|259:305,1,143.000004364014,2|2,3:2|3:2,0:2:0:0:
310,350,45320,1,10,3:2:0:0:
402,315,45477,6,0,P|420:246|447:168,1,143.000004364014,6|2,3:2|3:2,0:2:0:0:
475,88,45945,1,8,0:2:0:0:
372,102,46102,2,0,B|328:90|328:90|298:51|298:51|240:33,1,143.000004364014,2|0,3:2|3:2,0:0:0:0:
167,74,46570,1,10,0:2:0:0:
218,151,46727,6,0,P|236:181|238:225,1,71.5000021820069,6|10,3:2|0:2,0:0:0:0:
216,258,46961,1,10,0:2:0:0:
216,258,47039,2,0,L|146:243,1,71.5000021820069,6|6,3:2|0:2,0:0:0:0:
54,226,47352,2,0,L|69:313,1,71.5000021820069,6|10,3:2|0:2,0:2:0:0:
123,369,47664,2,0,L|170:359,3,35.7500010910034,10|8|8|8,0:2|0:2|0:2|0:2,0:0:0:0:
212,354,47977,6,0,L|291:367,1,71.5000021820069,6|0,3:2|3:2,0:2:0:0:
374,379,48289,2,0,P|364:347|353:300,1,71.5000021820069,2|10,3:2|0:2,0:2:0:0:
302,232,48602,2,0,P|336:216|375:221,1,71.5000021820069,2|10,0:2|0:2,0:0:0:0:
440,160,48914,2,0,P|409:133|352:125,1,71.5000021820069,2|10,3:2|0:2,0:0:0:0:
309,71,49227,5,2,3:2:0:0:
309,71,49383,1,10,0:2:0:0:
224,103,49539,1,2,3:2:0:0:
224,103,49695,1,10,0:2:0:0:
217,196,49852,2,0,L|251:334,1,143.000004364014,2|2,3:2|3:2,0:2:0:0:
171,383,50320,1,10,3:2:0:0:
103,318,50477,6,0,L|128:217,1,71.5000021820069,6|8,3:2|0:2,0:2:0:0:
133,206,50711,1,2,0:0:0:0:
133,206,50789,1,2,3:2:0:0:
87,124,50945,2,0,P|133:73|217:73,1,143.000004364014,14|6,0:2|3:2,0:0:0:0:
281,119,51414,2,0,L|320:111,3,35.7500010910034,8|8|8|8,0:2|0:2|0:2|0:2,0:0:0:0:
362,103,51727,5,6,3:2:0:0:
497,229,52039,1,6,3:2:0:0:
373,368,52352,1,6,3:2:0:0:
398,284,52508,1,10,0:2:0:0:
398,284,52586,1,10,0:2:0:0:
398,284,52664,2,0,L|405:224,3,35.7500010910034,10|10|10|10,0:2|0:2|0:2|0:2,0:0:0:0:
411,202,52977,2,0,L|397:112,1,71.5000021820069,6|0,3:2|3:2,0:2:0:0:
321,81,53289,2,0,L|307:171,1,71.5000021820069,2|10,3:2|0:2,0:2:0:0:
221,180,53602,2,0,P|188:182|146:163,1,71.5000021820069,2|10,0:2|0:2,0:0:0:0:
62,147,53914,2,0,P|74:183|83:227,1,71.5000021820069,2|10,3:2|0:2,0:0:0:0:
52,307,54227,5,2,3:2:0:0:
52,307,54383,1,10,0:2:0:0:
127,369,54539,1,2,3:2:0:0:
127,369,54695,1,10,0:2:0:0:
203,314,54852,2,0,P|255:288|340:314,1,143.000004364014,2|2,3:2|3:2,0:2:0:0:
403,370,55320,1,2,3:2:0:0:
479,309,55477,6,0,P|463:243|445:157,1,143.000004364014,6|2,3:2|3:2,0:2:0:0:
487,86,55945,1,8,0:2:0:0:
399,33,56102,2,0,B|349:44|349:44|319:86|319:86|261:102,1,143.000004364014,2|0,3:2|3:2,0:0:0:0:
188,109,56570,1,10,0:2:0:0:
109,59,56727,6,0,P|96:133|78:209,1,143.000004364014,6|6,3:2|3:2,0:0:0:0:
55,293,57195,1,2,0:2:0:0:
55,293,57273,1,2,0:2:0:0:
55,293,57352,2,0,P|94:283|146:272,1,71.5000021820069,6|8,3:2|0:2,0:0:0:0:
221,250,57664,2,0,P|246:258|272:264,3,35.7500010910034,10|8|8|8,0:2|0:2|0:2|0:2,0:0:0:0:
298,274,57977,6,0,P|357:261|438:252,1,130,2|2,0:2|0:2,0:2:0:0:
335,380,58602,1,2,0:2:0:0:
243,280,58914,1,2,0:2:0:0:
243,280,59070,2,0,P|253:245|250:202,1,65,2|2,0:2|0:2,0:0:0:0:
158,234,59383,2,0,P|99:201|25:225,1,130,2|0,0:2|0:2,0:0:0:0:
21,121,59852,2,0,P|12:85|-1:42,1,65,2|0,0:2|0:0,0:0:0:0:
73,4,60164,1,6,3:2:0:0:
163,52,60320,1,2,3:2:0:0:
163,52,60398,1,0,3:0:0:0:
163,52,60477,6,0,L|241:37,1,65,6|2,3:2|0:2,0:0:0:0:
324,19,60789,1,0,3:2:0:0:
396,77,60945,2,0,B|383:126|383:126|399:172|399:172|385:227,1,130,6|2,3:2|3:2,0:0:0:0:
367,305,61414,2,0,L|356:345,3,32.5,8|8|8|8,0:2|0:2|0:2|0:2,0:0:0:0:
318,362,61727,5,6,3:2:0:0:
228,249,62039,1,6,3:2:0:0:
235,103,62352,2,0,L|226:62,7,32.5,0|0|0|0|0|0|0|0,0:2|0:2|0:2|0:2|0:2|0:2|0:2|0:2,0:0:0:0:
196,37,62977,5,6,3:2:0:0:
196,37,63133,2,0,P|160:35|121:57,1,65,10|0,0:2|3:2,0:0:0:0:
78,117,63445,2,0,L|97:184,1,65,10|0,0:2|3:2,0:2:0:0:
168,234,63758,2,0,L|150:296,1,65,10|2,0:2|3:2,0:0:0:0:
218,356,64070,2,0,P|249:358|296:335,1,65,10|0,0:2|3:2,0:0:0:0:
357,296,64383,2,0,P|388:294|435:317,1,65,10|0,0:2|3:2,0:0:0:0:
492,359,64695,2,0,P|471:291|457:227,1,130,10|10,0:2|0:2,0:2:0:0:
457,191,65086,1,10,0:2:0:0:
457,191,65164,2,0,P|463:156|476:108,1,65,10|2,0:2|3:0,0:0:0:0:
489,37,65477,5,2,3:2:0:0:
402,63,65633,2,0,P|372:63|324:40,1,65,8|0,0:2|3:2,0:0:0:0:
250,30,65945,2,0,P|246:16|238:0,2,32.5,10|10|0,0:2|0:2|3:2,0:0:0:0:
194,102,66258,2,0,P|190:116|182:132,2,32.5,10|10|0,0:2|0:2|3:2,0:0:0:0:
283,118,66570,1,8,0:2:0:0:
342,194,66727,1,14,3:2:0:0:
342,194,66883,2,0,P|352:227|358:259,1,65,8|2,0:2|3:2,0:0:0:0:
302,329,67195,2,0,B|260:327|235:356|254:359|231:390|170:379,1,130,6|10,0:2|0:2,0:2:0:0:
114,329,67664,2,0,P|92:336|64:349,3,32.5,10|10|10|10,0:2|0:2|0:2|0:2,0:0:0:0:
44,360,67977,5,6,3:2:0:0:
44,360,68133,2,0,P|34:322|17:277,1,65,0|0,0:2|3:2,0:0:0:0:
3,209,68445,2,0,P|13:171|30:126,1,65,10|0,0:2|3:2,0:2:0:0:
8,56,68758,2,0,P|40:56|85:32,1,65,10|0,0:2|3:2,0:0:0:0:
154,9,69070,2,0,P|186:9|231:33,1,65,10|0,0:2|3:2,0:2:0:0:
270,94,69383,2,0,P|258:126|250:164,1,65,10|0,3:2|3:2,0:2:0:0:
305,229,69695,2,0,P|367:238|438:190,1,130,10|10,0:2|0:2,0:2:0:0:
456,175,70086,1,10,0:2:0:0:
456,175,70164,2,0,P|448:145|434:108,1,65,0|10,3:2|0:2,0:0:0:0:
442,25,70477,5,2,3:2:0:0:
442,25,70633,2,0,L|363:49,1,65,8|2,0:2|3:2,0:0:0:0:
297,81,70945,2,0,P|288:99|283:118,2,32.5,10|10|0,0:2|0:2|3:2,0:0:0:0:
220,31,71258,2,0,P|211:12|206:-6,2,32.5,10|10|0,0:2|0:2|3:2,0:0:0:0:
153,93,71570,1,10,0:2:0:0:
69,56,71727,6,0,L|57:132,1,65,6|8,3:2|0:2,0:2:0:0:
44,209,72039,2,0,L|32:285,1,65,6|8,3:2|0:2,0:2:0:0:
19,363,72352,1,6,3:2:0:0:
19,363,72977,6,0,P|63:323|122:326,1,104,2|0,3:2|0:0,0:0:0:0:
196,335,73445,1,2,3:2:0:0:
196,335,73602,2,0,L|313:310,1,104,2|0,3:2|0:0,0:0:0:0:
384,295,74070,1,2,3:2:0:0:
357,379,74227,5,2,3:2:0:0:
357,379,74539,1,2,3:2:0:0:
357,379,74852,1,2,3:2:0:0:
323,226,75164,5,6,3:2:0:0:
323,226,75477,6,0,P|328:196|342:153,1,65,6|2,3:2|0:2,0:0:0:0:
412,109,75789,1,2,3:2:0:0:
412,109,75945,1,2,0:2:0:0:
363,31,76102,2,0,P|328:18|285:10,1,65,2|2,3:2|0:2,0:0:0:0:
216,46,76414,2,0,P|181:59|138:67,1,65,2|2,3:2|0:2,0:0:0:0:
64,45,76727,6,0,P|120:82|117:158,1,130,2|2,3:2|3:2,0:0:0:0:
91,224,77195,1,2,3:2:0:0:
61,310,77352,2,0,P|98:322|128:336,1,65,2|10,3:2|0:2,0:0:0:0:
166,355,77586,1,10,0:2:0:0:
166,355,77664,2,0,P|201:343|237:335,1,65,2|10,3:2|0:2,0:0:0:0:
308,358,77977,6,0,B|321:325|321:325|308:298|308:298|324:249,1,104,2|0,3:2|0:0,0:0:0:0:
361,191,78445,1,2,3:2:0:0:
361,191,78602,2,0,P|347:132|329:68,1,104,2|0,3:2|0:0,0:0:0:0:
312,10,79070,1,2,3:2:0:0:
256,72,79227,5,2,3:2:0:0:
256,72,79539,1,2,3:2:0:0:
256,72,79852,1,2,3:2:0:0:
415,25,80164,5,10,0:2:0:0:
415,25,80477,6,0,P|459:68|465:153,1,130,6|2,3:2|3:2,0:2:0:0:
403,195,80945,1,2,3:2:0:0:
314,171,81102,2,0,P|243:188|179:210,1,130,2|2,3:2|3:2,0:2:0:0:
119,166,81570,1,2,3:2:0:0:
119,166,81648,1,0,0:0:0:0:
119,166,81727,6,0,L|136:98,1,65,6|0,3:2|3:2,0:2:0:0:
53,62,82039,2,0,L|37:125,1,65,6|8,3:2|0:2,0:0:0:0:
19,217,82352,1,6,3:2:0:0:
19,217,82508,1,8,0:2:0:0:
69,298,82664,1,6,3:2:0:0:
69,298,82820,1,8,0:2:0:0:
148,319,82977,6,0,L|221:338,2,58.4999982147217,6|0|2,3:2|0:0|3:2,0:2:0:0:
261,200,83602,2,0,L|275:256,2,58.4999982147217,6|0|2,3:2|0:0|3:2,0:2:0:0:
232,38,84227,6,0,P|293:7|353:21,1,116.999996429443,6|2,3:2|3:2,0:2:0:0:
405,69,84695,1,0,0:2:0:0:
405,69,84852,2,0,L|387:144,1,58.4999982147217,6|0,3:2|0:2,0:2:0:0:
373,205,85164,1,2,3:2:0:0:
415,363,85477,6,0,L|488:382,2,58.4999982147217,6|0|2,3:2|0:2|3:2,0:2:0:0:
257,316,86102,2,0,L|201:302,2,58.4999982147217,6|0|2,3:2|0:2|3:2,0:2:0:0:
373,205,86727,6,0,L|304:190,1,58.4999982147217,6|0,3:2|0:2,0:0:0:0:
270,124,87039,2,0,L|201:139,1,58.4999982147217,2|0,3:2|0:2,0:0:0:0:
131,124,87352,2,0,P|131:156|148:192,1,58.4999982147217,6|8,3:2|0:3,0:0:0:0:
102,253,87664,2,0,P|90:309|78:353,1,87.7499973220826,2|0,3:2|0:0,0:2:0:0:
56,365,87977,6,0,L|2:348,2,52,2|0|2,0:2|0:0|0:2,0:2:0:0:
195,322,88602,2,0,L|249:305,2,52,2|0|2,0:2|0:0|0:2,0:2:0:0:
88,221,89227,6,0,P|76:169|113:114,1,104,2|2,0:2|0:2,0:2:0:0:
172,85,89695,1,0,0:2:0:0:
172,85,89852,2,0,L|236:96,1,52,2|2,0:2|0:2,0:0:0:0:
304,112,90164,1,2,0:2:0:0:
454,40,90477,6,0,L|441:103,1,52,2|0,3:2|3:2,0:0:0:0:
427,172,90789,1,2,0:2:0:0:
496,323,91102,2,0,L|433:310,1,52,2|0,3:2|3:2,0:0:0:0:
364,296,91414,1,2,0:2:0:0:
214,370,91727,6,0,P|204:341|188:307,1,52,2|2,3:2|3:2,0:0:0:0:
157,241,92039,2,0,P|167:212|183:178,1,52,2|2,3:2|3:2,0:0:0:0:
213,112,92352,2,0,P|207:93|195:72,7,26,0|0|0|0|0|0|0|0,3:2|3:2|3:2|3:2|3:2|3:2|3:2|3:2,0:0:0:0:
186,41,92977,6,0,B|147:40|119:70|145:73|118:103|71:105,1,116.999996429443,6|8,3:2|0:2,0:2:0:0:
0,118,93445,1,0,1:2:0:0:
55,194,93602,2,0,P|35:257|20:311,1,116.999996429443,2|8,3:2|0:2,0:2:0:0:
75,382,94070,1,0,1:2:0:0:
150,325,94227,2,0,P|200:301|276:320,1,116.999996429443,2|8,3:2|0:2,0:2:0:0:
344,348,94695,1,0,1:2:0:0:
400,272,94852,2,0,P|389:246|377:210,1,58.4999982147217,2|2,3:2|3:2,0:0:0:0:
391,124,95164,2,0,P|423:135|454:142,1,58.4999982147217,2|2,3:2|3:2,0:0:0:0:
497,61,95477,6,0,P|450:27|390:32,1,116.999996429443,2|8,3:2|0:2,0:2:0:0:
311,76,95945,1,0,1:2:0:0:
218,56,96102,2,0,P|236:114|253:177,1,116.999996429443,2|8,3:2|0:2,0:2:0:0:
280,256,96570,1,0,1:2:0:0:
211,320,96727,2,0,P|152:328|93:282,1,116.999996429443,2|8,3:2|0:2,0:2:0:0:
49,224,97195,1,0,1:2:0:0:
110,153,97352,2,0,L|98:89,1,58.4999982147217,2|2,3:2|3:2,0:0:0:0:
85,3,97664,2,0,L|149:15,1,58.4999982147217,2|2,3:2|3:2,0:0:0:0:
220,65,97977,6,0,L|338:37,1,116.999996429443,6|8,3:2|0:2,0:2:0:0:
425,18,98445,1,0,1:2:0:0:
491,84,98602,2,0,P|513:145|488:216,1,116.999996429443,2|8,3:2|0:2,0:2:0:0:
422,247,99070,1,0,1:2:0:0:
330,226,99227,2,0,L|209:200,1,116.999996429443,2|8,3:2|0:2,0:2:0:0:
124,180,99695,1,0,1:2:0:0:
155,268,99852,2,0,L|136:341,1,58.4999982147217,2|2,3:2|3:2,0:0:0:0:
47,336,100164,2,0,L|61:279,1,58.4999982147217,2|2,3:2|3:2,0:0:0:0:
23,193,100477,6,0,L|5:61,1,116.999996429443,6|10,3:2|0:2,0:2:0:0:
180,5,101102,2,0,L|167:84,1,58.4999982147217,2|0,3:2|3:2,0:0:0:0:
160,158,101414,1,10,0:2:0:0:
160,158,101570,1,6,3:2:0:0:
313,49,101883,1,2,3:2:0:0:
313,49,102039,2,0,L|392:33,1,58.4999982147217,10|0,0:2|3:2,0:0:0:0:
414,65,102273,1,0,3:2:0:0:
414,65,102352,2,0,L|423:103,7,29.2499991073609,10|0|10|10|10|10|10|10,0:2|3:2|0:2|0:2|0:2|0:2|0:2|0:2,0:0:0:0:
450,130,102977,6,0,L|427:222,1,71.5000021820069,6|0,3:2|3:2,0:2:0:0:
355,251,103289,2,0,L|332:159,1,71.5000021820069,2|10,3:2|0:2,0:2:0:0:
264,123,103602,2,0,P|229:123|178:148,1,71.5000021820069,2|10,0:2|0:2,0:0:0:0:
122,192,103914,2,0,P|87:192|36:167,1,71.5000021820069,2|10,3:2|0:2,0:0:0:0:
11,95,104227,5,2,3:2:0:0:
11,95,104383,1,10,0:2:0:0:
73,26,104539,1,2,3:2:0:0:
73,26,104695,1,10,0:2:0:0:
160,58,104852,2,0,B|206:45|206:45|252:68|252:68|314:51,1,143.000004364014,2|2,3:2|3:2,0:2:0:0:
382,29,105320,1,10,3:2:0:0:
453,100,105477,6,0,P|428:175|407:257,1,143.000004364014,6|2,3:2|3:2,0:2:0:0:
453,319,105945,1,8,0:2:0:0:
374,384,106102,2,0,P|314:340|232:353,1,143.000004364014,2|0,3:2|3:2,0:0:0:0:
158,365,106570,1,10,0:2:0:0:
184,275,106727,6,0,P|193:242|204:194,1,71.5000021820069,6|10,3:2|0:2,0:0:0:0:
192,164,106961,1,10,0:2:0:0:
192,164,107039,2,0,P|165:143|120:147,1,71.5000021820069,6|6,3:2|3:2,0:0:0:0:
46,187,107352,1,6,3:2:0:0:
18,108,107508,1,10,0:2:0:0:
18,108,107586,1,8,0:2:0:0:
18,108,107664,2,0,L|28:58,3,35.7500010910034,10|8|8|8,0:2|0:2|0:2|0:2,0:0:0:0:
61,43,107977,6,0,P|93:26|138:26,1,71.5000021820069,6|0,3:2|3:2,0:2:0:0:
206,72,108289,2,0,P|238:89|283:89,1,71.5000021820069,2|10,3:2|0:2,0:2:0:0:
350,39,108602,2,0,L|368:117,1,71.5000021820069,2|10,0:2|0:2,0:0:0:0:
412,188,108914,2,0,L|394:266,1,71.5000021820069,2|10,3:2|0:2,0:0:0:0:
379,352,109227,5,2,3:2:0:0:
379,352,109383,1,10,0:2:0:0:
292,377,109539,1,2,3:2:0:0:
292,377,109695,1,10,0:2:0:0:
234,303,109852,2,0,L|272:145,1,143.000004364014,2|2,3:2|3:2,0:2:0:0:
205,94,110320,1,2,3:2:0:0:
116,124,110477,6,0,L|97:199,1,71.5000021820069,6|8,3:2|0:2,0:2:0:0:
93,242,110711,1,2,0:0:0:0:
93,242,110789,1,2,3:2:0:0:
170,313,110945,2,0,B|214:306|214:306|263:335|263:335|329:326,1,143.000004364014,14|6,0:2|3:2,0:0:0:0:
398,362,111414,2,0,L|436:357,3,35.7500010910034,8|8|8|8,0:2|0:2|0:2|0:2,0:0:0:0:
475,328,111727,5,6,3:2:0:0:
403,204,112039,1,6,3:2:0:0:
486,87,112352,1,6,3:2:0:0:
443,8,112508,1,10,0:2:0:0:
443,8,112586,1,10,0:2:0:0:
443,8,112664,2,0,L|391:16,3,35.7500010910034,10|10|10|10,0:2|0:2|0:2|0:2,0:0:0:0:
373,46,112977,6,0,L|276:27,1,71.5000021820069,6|0,3:2|3:2,0:2:0:0:
212,10,113289,2,0,L|225:80,1,71.5000021820069,2|10,3:2|0:2,0:2:0:0:
278,157,113602,2,0,P|261:186|248:250,1,71.5000021820069,2|10,0:2|0:2,0:0:0:0:
178,281,113914,2,0,P|167:246|150:215,1,71.5000021820069,2|10,3:2|0:2,0:0:0:0:
108,137,114227,5,2,3:2:0:0:
108,137,114383,1,10,0:2:0:0:
137,51,114539,1,2,3:2:0:0:
137,51,114695,1,10,0:2:0:0:
52,0,114852,2,0,P|26:73|6:141,1,143.000004364014,2|2,3:2|3:2,0:2:0:0:
47,219,115320,1,2,3:2:0:0:
137,241,115477,6,0,P|140:187|100:137,2,107.25000327301,6|0|8,3:2|0:0|0:2,0:2:0:0:
200,309,116102,2,0,B|243:320|243:320|275:368|275:368|332:386,1,143.000004364014,2|0,3:2|3:2,0:0:0:0:
405,348,116570,1,10,0:2:0:0:
405,348,116648,1,0,0:0:0:0:
405,348,116727,6,0,P|422:291|437:243,1,107.25000327301,6|10,3:2|0:2,0:0:0:0:
426,200,117039,2,0,P|390:199|343:227,1,71.5000021820069,6|2,3:2|0:2,0:0:0:0:
275,256,117352,1,6,3:2:0:0:
225,190,117508,1,8,0:2:0:0:
225,190,117586,1,8,0:2:0:0:
225,190,117664,2,0,L|241:139,3,35.7500010910034,10|8|8|8,0:2|0:2|0:2|0:2,0:0:0:0:
245,114,117977,6,0,P|194:71|111:83,1,130,2|2,0:2|0:2,0:2:0:0:
15,167,118602,1,2,0:2:0:0:
131,261,118914,2,0,P|122:295|117:327,1,65,2|0,0:2|0:2,0:0:0:0:
183,378,119227,2,0,P|234:342|305:345,1,130,2|0,0:2|0:0,0:2:0:0:
383,374,119695,1,0,0:2:0:0:
383,374,119852,1,2,0:2:0:0:
503,256,120164,1,2,3:2:0:0:
446,199,120320,1,2,3:2:0:0:
446,199,120398,1,2,3:2:0:0:
446,199,120477,6,0,L|462:120,1,65,6|0,3:2|3:2,3:2:0:0:
496,43,120789,1,2,3:2:0:0:
385,15,120945,2,0,B|344:26|344:26|313:70|313:70|269:87,1,130,6|6,3:2|3:2,0:0:0:0:
233,159,121414,2,0,L|245:205,3,32.5,8|8|8|8,0:2|0:2|0:2|0:2,0:0:0:0:
253,234,121727,5,6,3:2:0:0:
101,268,122039,2,0,L|133:119,2,130,6|6|6,3:2|3:2|3:2,0:2:0:0:
226,361,122977,6,0,L|303:344,1,65,6|8,3:2|0:2,0:2:0:0:
345,275,123289,2,0,L|328:198,1,65,0|8,3:2|0:2,0:2:0:0:
273,140,123602,2,0,P|288:109|298:73,1,65,2|8,3:2|0:2,0:2:0:0:
248,2,123914,2,0,P|213:4|177:13,1,65,2|8,3:2|0:2,0:2:0:0:
124,81,124227,2,0,P|139:120|151:161,1,65,2|8,3:2|0:2,0:0:0:0:
132,232,124539,2,0,P|170:233|200:251,1,65,2|8,3:2|0:2,0:0:0:0:
271,292,124852,1,2,3:2:0:0:
351,245,125008,1,8,0:2:0:0:
351,245,125086,1,8,0:2:0:0:
351,245,125164,1,2,3:2:0:0:
504,303,125477,5,10,0:2:0:0:
504,303,125555,1,8,0:2:0:0:
504,303,125633,2,0,L|515:343,3,32.5,8|8|8|8,0:2|0:2|0:2|0:2,0:0:0:0:
471,353,125945,2,0,L|459:397,2,32.5,10|8|8,0:2|0:2|0:2,0:0:0:0:
413,282,126258,1,8,0:2:0:0:
434,193,126414,2,0,L|470:201,2,32.5,8|8|8,3:0|3:0|3:0,0:0:0:0:
451,103,126727,6,0,L|490:112,2,32.5,10|8|10,3:0|3:0|3:2,0:0:0:0:
382,42,127039,2,0,L|343:33,2,32.5,0|0|8,3:2|3:2|3:0,0:0:0:0:
361,135,127352,1,8,3:0:0:0:
361,135,127430,1,8,3:0:0:0:
361,135,127508,2,0,L|303:118,2,32.5,8|8|14,3:0|3:0|3:0,0:0:0:0:
333,221,127820,1,12,3:3:0:0:
246,187,127977,6,0,P|208:187|168:206,1,65,6|8,3:2|0:2,0:2:0:0:
115,257,128289,2,0,P|102:222|88:190,1,65,2|8,3:2|0:2,0:2:0:0:
31,127,128602,2,0,P|71:85|144:84,1,130,2|2,3:2|3:2,0:2:0:0:
217,129,129070,1,8,0:2:0:0:
298,88,129227,2,0,L|284:7,1,65,2|8,3:2|0:2,0:0:0:0:
374,0,129539,2,0,L|385:64,1,65,2|8,3:2|0:2,0:0:0:0:
396,154,129852,1,2,3:2:0:0:
477,108,130008,1,8,0:2:0:0:
477,108,130086,1,8,0:2:0:0:
477,108,130164,1,2,3:2:0:0:
480,265,130477,6,0,L|492:308,2,32.5,0|0|2,3:2|0:2|0:2,0:2:0:0:
397,302,130789,2,0,L|385:345,2,32.5,0|0|2,3:2|0:2|0:2,0:2:0:0:
320,251,131102,2,0,L|308:208,2,32.5,0|0|2,3:2|0:2|0:2,0:2:0:0:
230,264,131414,2,0,L|218:307,2,32.5,0|2|2,3:2|0:2|0:2,0:0:0:0:
188,182,131727,6,0,L|207:114,1,65,0|0,3:2|3:2,0:2:0:0:
152,45,132039,2,0,L|163:8,2,32.5,0|0|0,3:2|0:2|3:2,0:2:0:0:
67,79,132352,2,0,L|54:125,3,32.5,0|0|0|0,3:2|3:2|3:2|3:2,0:0:0:0:
46,154,132664,2,0,L|59:200,3,32.5,0|0|0|0,3:2|3:2|3:2|3:2,0:0:0:0:
68,229,132977,6,0,L|42:354,2,116.999996429443,6|2|2,3:2|0:2|0:2,0:0:0:0:
183,344,133914,2,0,P|241:312|305:326,1,116.999996429443,2|2,0:2|0:2,0:0:0:0:
371,348,134383,1,0,0:0:0:0:
371,348,134539,2,0,P|402:329|441:333,1,58.4999982147217,2|0,0:2|0:0,0:0:0:0:
502,349,134852,1,2,0:2:0:0:
484,186,135164,2,0,P|491:152|502:124,2,58.4999982147217,2|2|2,0:2|0:2|0:2,0:2:0:0:
338,261,135789,1,2,0:2:0:0:
382,103,136102,2,0,P|374:69|364:38,2,58.4999982147217,2|2|2,0:2|0:2|0:2,0:2:0:0:
232,171,136727,6,0,P|172:140|105:153,2,116.999996429443,6|2|2,3:2|0:2|0:2,0:2:0:0:
287,324,137664,2,0,B|253:332|253:332|218:374|218:374|169:387,1,116.999996429443,2|2,0:2|0:2,0:2:0:0:
120,350,138133,1,0,0:2:0:0:
120,350,138289,2,0,P|107:316|89:282,1,58.4999982147217,2|0,0:2|0:2,0:2:0:0:
53,226,138602,1,2,0:2:0:0:
97,68,138914,2,0,P|105:40|120:-4,2,58.4999982147217,2|2|2,0:2|0:2|0:2,0:0:0:0:
195,199,139539,1,2,0:2:0:0:
306,78,139852,2,0,P|298:50|284:7,2,58.4999982147217,2|2|2,0:2|0:2|0:2,0:0:0:0:
454,147,140477,6,2,B|424:124|392:117|337:128|339:185|307:240|257:247|193:236|161:195|141:166|127:114|142:70|191:59|242:61|277:84|286:133|225:266,1,624,2|0,0:2|0:0,0:2:0:0:
217,338,142508,1,0,3:2:0:0:
217,338,142586,1,0,3:2:0:0:
217,338,142664,1,0,3:2:0:0:
35,103,148758,5,0,3:2:0:0:
35,103,148836,1,0,3:2:0:0:
35,103,148914,1,12,0:2:0:0:
180,188,149227,6,0,L|271:170,1,65,6|0,3:2|3:2,0:0:0:0:
306,118,149539,1,2,3:2:0:0:
372,170,149695,2,0,B|408:180|408:180|435:222|435:222|483:235,1,130,2|0,3:2|3:2,0:2:0:0:
511,310,150164,2,0,P|512:341|489:382,2,65,2|0|0,3:2|3:2|0:0,0:0:0:0:
476,233,150633,1,2,3:2:0:0:
476,233,150789,2,0,L|491:163,1,65,2|0,3:2|0:0,0:0:0:0:
508,86,151102,1,2,3:2:0:0:
191,15,151727,5,6,3:2:0:0:
223,134,152352,1,6,3:2:0:0:
255,253,152977,1,6,3:2:0:0:
255,253,153289,1,6,3:2:0:0:
255,253,153602,2,0,L|173:236,1,61.7499983510972,14|8,0:2|0:2,0:2:0:0:
156,234,153836,1,8,0:2:0:0:
156,234,153914,2,0,P|146:271|117:293,1,61.7499983510972,2|2,3:2|3:2,0:0:0:0:
49,317,154227,6,0,P|36:257|15:183,1,123.499996702194,2|2,3:2|3:2,0:2:0:0:
75,131,154695,1,0,0:2:0:0:
39,51,154852,2,0,P|85:87|164:76,1,123.499996702194,2|2,3:2|3:2,0:2:0:0:
219,36,155320,1,0,0:2:0:0:
297,73,155477,1,2,0:2:0:0:
297,73,156727,6,0,L|272:187,2,110.50000210762,2|2|2,3:2|3:2|3:2,0:2:0:0:
442,21,157664,2,0,L|456:82,1,55.2500010538101,0|0,3:2|0:0,0:0:0:0:
497,139,157977,6,0,B|488:177|488:177|504:214|504:214|495:255,1,110.50000210762,2|0,3:2|3:2,0:0:0:0:
432,283,158445,1,0,0:0:0:0:
432,283,158602,2,0,P|391:248|320:253,1,110.50000210762,0|0,3:2|3:2,0:0:0:0:
211,337,159227,5,2,3:2:0:0:
1,237,159695,1,2,3:2:0:0:
70,381,160008,1,2,3:2:0:0:
70,381,160164,1,2,3:2:0:0:
130,238,160477,6,0,P|118:184|98:113,1,110.50000210762,2|2,3:2|3:2,0:0:0:0:
44,11,161102,2,0,L|81:5,3,27.6250005269051,2|2|2|2,3:2|3:2|3:2|3:2,0:0:0:0:
119,20,161414,2,0,L|156:14,3,27.6250005269051,2|0|2|0,3:2|3:2|3:2|3:2,3:2:0:0:
193,29,161727,1,2,0:2:0:0:
193,29,162039,1,2,0:2:0:0:
371,5,162352,6,0,P|357:40|346:79,1,74.7500014257431,6|0,3:2|3:2,0:2:0:0:
301,161,162664,2,0,P|315:196|326:235,1,74.7500014257431,2|10,3:2|0:2,0:2:0:0:
382,310,162977,2,0,P|344:312|294:353,1,74.7500014257431,2|10,0:2|0:2,0:0:0:0:
222,364,163289,2,0,P|184:362|134:321,1,74.7500014257431,2|10,3:2|0:2,0:0:0:0:
84,274,163602,5,2,3:2:0:0:
84,274,163758,1,10,0:2:0:0:
140,195,163914,1,2,3:2:0:0:
140,195,164070,1,10,0:2:0:0:
87,112,164227,6,0,P|117:40|210:27,1,149.500002851486,2|2,3:2|3:2,0:2:0:0:
269,59,164695,1,10,3:2:0:0:
227,147,164852,2,0,P|248:222|267:302,1,149.500002851486,6|2,3:2|3:2,0:2:0:0:
338,354,165320,1,8,0:2:0:0:
426,312,165477,2,0,P|444:244|470:154,1,149.500002851486,2|0,3:2|3:2,0:0:0:0:
493,75,165945,1,10,0:2:0:0:
396,91,166102,6,0,L|324:70,1,74.7500014257431,6|10,3:2|0:2,0:0:0:0:
281,61,166336,1,10,0:2:0:0:
281,61,166414,2,0,P|255:82|205:91,1,74.7500014257431,6|6,3:2|0:2,0:0:0:0:
134,36,166727,1,6,3:2:0:0:
71,110,166883,1,10,0:2:0:0:
71,110,166961,1,8,0:2:0:0:
71,110,167039,2,0,P|78:130|84:154,3,37.3750007128716,10|8|8|8,0:2|0:2|0:2|0:2,0:0:0:0:
118,178,167352,6,0,P|106:215|96:257,1,74.7500014257431,6|0,3:2|3:2,0:2:0:0:
39,327,167664,2,0,P|80:333|111:347,1,74.7500014257431,2|10,3:2|0:2,0:2:0:0:
201,380,167977,2,0,P|242:374|273:360,1,74.7500014257431,2|10,0:2|0:2,0:0:0:0:
319,275,168289,2,0,P|302:244|285:191,1,74.7500014257431,2|10,3:2|0:2,0:0:0:0:
338,123,168602,5,2,3:2:0:0:
338,123,168758,1,10,0:2:0:0:
432,161,168914,1,2,3:2:0:0:
432,161,169070,1,10,0:2:0:0:
506,97,169227,2,0,P|480:45|391:30,1,149.500002851486,2|2,3:2|3:2,0:2:0:0:
310,73,169695,1,10,3:2:0:0:
227,21,169852,6,0,L|143:42,1,74.7500014257431,6|8,3:2|0:2,0:2:0:0:
112,58,170086,1,2,0:0:0:0:
112,58,170164,1,2,3:2:0:0:
162,141,170320,2,0,B|149:189|149:189|164:243|164:243|149:295,1,149.500002851486,14|6,0:2|3:2,0:0:0:0:
85,356,170789,2,0,P|64:345|37:338,3,37.3750007128716,8|8|8|8,0:2|0:2|0:2|0:2,0:0:0:0:
4,324,171102,5,6,3:2:0:0:
81,196,171414,1,6,3:2:0:0:
20,59,171727,1,6,3:2:0:0:
97,10,171883,1,10,0:2:0:0:
97,10,171961,1,10,0:2:0:0:
97,10,172039,2,0,L|138:19,3,37.3750007128716,10|10|10|10,0:2|0:2|0:2|0:2,0:0:0:0:
173,46,172352,6,0,L|257:32,1,74.7500014257431,6|0,3:2|3:2,0:2:0:0:
331,80,172664,2,0,L|415:66,1,74.7500014257431,2|10,3:2|0:2,0:2:0:0:
474,135,172977,2,0,P|451:167|445:210,1,74.7500014257431,2|10,0:2|0:2,0:0:0:0:
353,234,173289,2,0,P|336:198|302:171,1,74.7500014257431,2|10,3:2|0:2,0:0:0:0:
222,144,173602,5,2,3:2:0:0:
222,144,173758,1,10,0:2:0:0:
149,207,173914,1,2,3:2:0:0:
149,207,174070,1,10,0:2:0:0:
67,153,174227,2,0,P|45:213|19:302,1,149.500002851486,2|2,3:2|3:2,0:2:0:0:
95,356,174695,1,10,3:2:0:0:
179,306,174852,6,0,B|230:307|255:354|232:346|255:391|318:384,1,149.500002851486,6|2,3:2|3:2,0:2:0:0:
374,325,175320,1,8,0:2:0:0:
465,358,175477,2,0,P|473:319|484:270,1,74.7500014257431,2|10,3:2|0:2,0:0:0:0:
494,241,175711,1,10,0:2:0:0:
494,241,175789,2,0,P|483:202|447:170,1,74.7500014257431,0|10,3:2|0:2,0:0:0:0:
367,146,176102,5,6,3:2:0:0:
458,28,176414,1,6,3:2:0:0:
309,6,176727,1,6,3:2:0:0:
237,55,176883,1,8,0:2:0:0:
237,55,176961,1,8,0:2:0:0:
237,55,177039,2,0,L|184:49,3,37.3750007128716,10|8|8|8,0:2|0:2|0:2|0:2,0:0:0:0:
166,79,177352,6,0,P|112:61|40:42,1,123.499996702194,2|2,0:2|0:2,0:2:0:0:
2,210,177977,1,2,0:2:0:0:
2,210,178289,2,0,P|36:202|87:192,1,61.7499983510972,2|0,0:2|0:2,0:2:0:0:
148,182,178602,2,0,P|138:211|141:254,1,61.7499983510972,2|0,0:2|0:2,0:0:0:0:
206,295,178914,2,0,P|236:289|271:264,1,61.7499983510972,2|0,0:2|0:2,0:0:0:0:
329,218,179227,1,2,0:2:0:0:
474,310,179539,1,2,3:2:0:0:
441,219,179695,1,0,3:2:0:0:
441,219,179773,1,0,3:2:0:0:
441,219,179852,6,0,L|458:144,1,61.7499983510972,6|0,3:2|0:2,0:2:0:0:
500,71,180164,1,2,0:2:0:0:
390,57,180320,2,0,B|351:67|351:67|321:105|321:105|271:120,1,123.499996702194,6|6,3:2|3:2,0:2:0:0:
197,74,180789,2,0,L|188:103,3,30.8749991755486,8|8|8|8,0:2|0:2|0:2|0:2,0:0:0:0:
175,151,181102,5,6,3:2:0:0:
229,288,181414,1,6,3:2:0:0:
114,382,181727,2,0,L|103:332,3,30.8749991755486,8|8|8|8,0:2|0:2|0:2|0:2,0:0:0:0:
96,306,182039,1,2,3:2:0:0:
41,245,182195,1,0,3:2:0:0:
41,245,182273,1,0,3:2:0:0:
41,245,182352,6,0,P|47:214|60:172,1,61.7499983510972,6|2,3:2|0:2,0:0:0:0:
70,144,182586,1,2,0:2:0:0:
70,144,182664,1,2,0:2:0:0:
30,60,182820,2,0,P|77:24|153:35,1,123.499996702194,6|6,3:2|3:2,0:0:0:0:
214,80,183289,2,0,P|221:100|226:119,3,30.8749991755486,8|8|8|8,0:2|0:2|0:2|0:2,0:0:0:0:
237,153,183602,5,6,3:2:0:0:
364,77,183914,1,6,3:2:0:0:
475,175,184227,2,0,L|464:215,3,30.8749991755486,8|8|8|8,0:2|0:2|0:2|0:2,0:0:0:0:
454,249,184539,2,2,L|465:289,3,30.8749991755486,10|10|10|10,0:2|0:2|0:2|0:2,0:2:0:0:
437,322,184852,5,6,3:2:0:0:
437,322,185008,2,0,P|404:324|362:299,1,65,10|0,0:2|3:2,0:0:0:0:
319,240,185320,2,0,P|328:205|344:157,1,65,10|0,0:2|3:2,0:2:0:0:
391,104,185633,2,0,P|384:73|372:37,1,65,10|2,0:2|3:2,0:0:0:0:
291,3,185945,2,0,P|261:15|229:23,1,65,10|0,0:2|3:2,0:0:0:0:
138,29,186258,2,0,P|150:59|158:91,1,65,10|0,0:2|3:2,0:0:0:0:
98,159,186570,2,0,B|135:164|155:199|139:198|156:234|213:238,1,130,10|10,0:2|0:2,0:2:0:0:
240,260,186961,1,10,0:2:0:0:
240,260,187039,2,0,L|256:330,1,65,10|2,0:2|3:0,0:0:0:0:
181,378,187352,5,2,3:2:0:0:
108,323,187508,2,0,L|30:340,1,65,8|0,0:2|3:2,0:0:0:0:
6,254,187820,2,0,L|-4:209,2,32.5,10|10|0,0:2|0:2|3:2,0:0:0:0:
89,216,188133,2,0,L|79:171,2,32.5,10|10|0,0:2|0:2|3:2,0:0:0:0:
172,250,188445,1,8,0:2:0:0:
243,192,188602,5,14,3:2:0:0:
243,192,188758,2,0,L|226:118,1,65,8|2,0:2|3:2,0:0:0:0:
181,50,189070,2,0,P|219:11|291:12,1,130,6|10,0:2|0:2,0:2:0:0:
336,34,189461,1,10,0:2:0:0:
336,34,189539,2,0,L|377:22,3,32.5,10|10|10|10,0:2|0:2|0:2|0:2,0:0:0:0:
411,51,189852,5,6,3:2:0:0:
411,51,190008,2,0,L|391:129,1,65,0|0,0:2|3:2,0:0:0:0:
451,185,190320,2,0,L|472:262,1,65,10|0,0:2|3:2,0:2:0:0:
427,329,190633,2,0,P|391:330|350:304,1,65,10|0,0:2|3:2,0:0:0:0:
288,269,190945,2,0,P|252:268|211:294,1,65,10|0,0:2|3:2,0:2:0:0:
152,333,191258,2,0,P|142:302|126:265,1,65,10|0,3:2|3:2,0:2:0:0:
39,285,191570,2,0,P|55:221|76:151,1,130,10|10,0:2|0:2,0:2:0:0:
86,118,191961,1,10,0:2:0:0:
86,118,192039,2,0,L|62:57,1,65,0|10,3:2|0:2,0:0:0:0:
134,1,192352,5,2,3:2:0:0:
210,50,192508,2,0,P|239:40|278:33,1,65,8|2,0:2|3:2,0:0:0:0:
344,88,192820,2,0,P|336:108|329:127,2,32.5,10|10|0,0:2|0:2|3:2,0:0:0:0:
425,41,193133,1,10,0:2:0:0:
425,41,193211,1,10,0:2:0:0:
425,41,193289,2,0,L|465:52,3,32.5,0|0|10|0,3:2|0:0|0:2|0:0,0:0:0:0:
500,62,193602,5,6,3:2:0:0:
440,177,193914,1,6,3:2:0:0:
486,298,194227,1,6,3:2:0:0:
426,366,194383,1,10,0:2:0:0:
426,366,194461,1,10,0:2:0:0:
426,366,194539,2,0,L|384:357,3,32.5,10|10|10|8,0:2|0:2|0:2|0:2,0:0:0:0:
354,348,194852,5,6,3:2:0:0:
354,348,195008,2,0,P|345:312|332:264,1,65,10|0,0:2|3:2,0:0:0:0:
288,208,195320,2,0,P|297:172|310:124,1,65,10|0,0:2|3:2,0:2:0:0:
367,78,195633,2,0,P|340:58|288:57,1,65,10|2,0:2|3:2,0:0:0:0:
224,20,195945,2,0,P|197:40|145:41,1,65,10|0,0:2|3:2,0:0:0:0:
76,30,196258,2,0,P|88:64|100:106,1,65,10|0,0:2|3:2,0:0:0:0:
123,178,196570,2,0,P|81:224|73:309,1,130,10|10,0:2|0:2,0:2:0:0:
97,331,196961,1,10,0:2:0:0:
97,331,197039,2,0,P|131:320|165:313,1,65,10|2,0:2|3:0,0:0:0:0:
249,296,197352,5,2,3:2:0:0:
323,348,197508,2,0,P|335:317|358:272,1,65,8|0,0:2|3:2,0:0:0:0:
401,214,197820,2,0,P|416:209|450:203,2,32.5,10|10|0,0:2|0:2|3:2,0:0:0:0:
324,164,198133,2,0,P|308:159|275:153,2,32.5,10|10|0,0:2|0:2|3:2,0:0:0:0:
387,98,198445,1,8,0:2:0:0:
324,38,198602,5,14,3:2:0:0:
324,38,198758,2,0,P|285:43|236:55,1,65,8|2,0:2|3:2,0:0:0:0:
171,26,199070,2,0,P|220:64|210:141,1,130,6|10,0:2|0:2,0:2:0:0:
207,174,199461,1,10,0:2:0:0:
207,174,199539,2,0,L|189:215,3,32.5,10|10|10|10,0:2|0:2|0:2|0:2,0:0:0:0:
177,249,199852,5,6,3:2:0:0:
177,249,200008,2,0,P|187:280|195:321,1,65,0|0,0:2|3:2,0:0:0:0:
129,375,200320,2,0,P|95:373|55:347,1,65,10|0,0:2|3:2,0:2:0:0:
25,278,200633,2,0,P|34:248|46:196,1,65,10|0,0:2|3:2,0:0:0:0:
84,134,200945,2,0,P|71:103|64:66,1,65,10|0,0:2|3:2,0:2:0:0:
130,8,201258,2,0,L|211:34,1,65,10|0,3:2|3:2,0:2:0:0:
270,72,201570,2,0,B|310:60|310:60|354:77|354:77|414:61,1,130,10|10,0:2|0:2,0:2:0:0:
442,60,201961,1,10,0:2:0:0:
442,60,202039,2,0,P|439:92|456:127,1,65,0|10,3:2|0:2,0:0:0:0:
501,197,202352,5,2,3:2:0:0:
440,264,202508,2,0,P|409:252|358:239,1,65,8|2,0:2|3:2,0:0:0:0:
290,220,202820,2,0,P|285:202|276:182,2,32.5,10|10|0,0:2|0:2|3:2,0:0:0:0:
235,294,203133,1,10,0:2:0:0:
235,294,203211,1,10,0:2:0:0:
235,294,203289,2,0,P|226:311|220:329,3,32.5,0|0|10|0,3:2|0:0|0:2|0:0,0:0:0:0:
203,365,203602,6,0,P|173:372|138:358,1,65,0|2,3:2|0:2,0:0:0:0:
97,281,203914,2,0,P|105:251|135:228,1,65,2|2,0:0|0:0,0:0:0:0:
218,203,204227,1,2,0:0:0:0:
