osu file format v14

[General]
AudioFilename: audio.mp3
AudioLeadIn: 0
PreviewTime: 42858
Countdown: 0
SampleSet: Soft
StackLeniency: 0.6
Mode: 0
LetterboxInBreaks: 0
WidescreenStoryboard: 1

[Editor]
Bookmarks: 37702
DistanceSpacing: 1
BeatDivisor: 4
GridSize: 32
TimelineZoom: 1.8

[Metadata]
Title:Pokopoko Tanuki to Pusu Usagi
TitleUnicode:ぽこぽこたぬき と ぷすうさぎ
Artist:Uratanuki x Pusu
ArtistUnicode:うらたぬき×ぷす
Creator:Nevo
Version:Glaceon's Normal
Source:
Tags:zips amb1d3x Hishiro Chizuru frontier -_frontier_- srijanfromsd smoke glaceon cute anime boys in animal costumes じっぷす ハイエンドプリンス high end prince rabbit japanese rock pop
BeatmapID:2324167
BeatmapSetID:1103785

[Difficulty]
HPDrainRate:3
CircleSize:3
OverallDifficulty:4
ApproachRate:5.5
SliderMultiplier:1.05
SliderTickRate:1

[Events]
//Background and Video events
0,0,"wob.jpg",0,0
Video,-861,"PV.mp4"
//Break Periods
2,28177,29352
2,58177,59039
2,88177,89352
2,118177,119039
2,143177,147633
2,177552,178414
//Storyboard Layer 0 (Background)
//Storyboard Layer 1 (Fail)
//Storyboard Layer 2 (Pass)
//Storyboard Layer 3 (Foreground)
//Storyboard Layer 4 (Overlay)
//Storyboard Sound Samples

[TimingPoints]
-773,312.5,4,2,1,60,1,0
477,-117.647058823529,4,2,1,60,0,0
2430,-100,4,2,1,5,0,0
2977,-100,4,2,1,75,0,0
12977,-111.111111111111,4,2,1,75,0,0
15242,-111.111111111111,4,2,1,5,0,0
15477,-100,4,2,1,70,0,0
17977,-111.111111111111,4,2,1,65,0,0
20242,-111.111111111111,4,2,1,5,0,0
20477,-100,4,2,1,70,0,0
22977,-111.111111111111,4,2,1,65,0,0
32977,-105.263157894737,4,2,1,65,0,0
40477,-111.111111111111,4,2,1,65,0,0
42977,-100,4,2,1,90,0,1
57977,-100,4,2,1,65,0,0
62977,-100,4,2,1,75,0,0
72977,-111.111111111111,4,2,1,75,0,0
75477,-100,4,2,1,65,0,0
77977,-111.111111111111,4,2,1,65,0,0
80477,-100,4,2,1,65,0,0
82977,-111.111111111111,4,2,1,65,0,0
92977,-105.263157894737,4,2,1,65,0,0
102977,-100,4,2,1,90,0,1
117977,-100,4,2,1,65,0,0
122352,-100,4,2,1,65,0,0
122664,-100,4,2,1,65,0,0
122977,-100,4,2,1,65,0,0
132977,312.5,3,2,1,65,1,0
132977,-117.647058823529,4,2,1,65,0,0
135164,-117.647058823529,4,2,1,60,0,0
140477,312.5,4,2,1,60,1,0
140477,-100,4,2,1,60,0,0
148914,-100,4,2,1,75,0,0
151727,-111.111111111111,4,2,1,75,0,0
156727,-100,4,2,1,65,0,0
161727,-100,4,2,1,75,0,0
162039,-100,4,2,1,75,0,0
162352,312.5,4,2,1,90,1,1
162352,-100,4,2,1,90,0,1
171102,-100,4,2,1,90,0,1
172352,-100,4,2,1,90,0,1
177352,-100,4,2,1,65,0,0
184852,-100,4,2,1,75,0,0

[Colours]
Combo1 : 0,176,176
Combo2 : 116,4,240
Combo3 : 255,0,121
Combo4 : 255,223,204
Combo5 : 0,136,0

[HitObjects]
61,349,477,6,0,L|61:240,1,89.2500017023087,2|2,0:2|0:2,0:0:0:0:
146,232,1102,2,0,L|146:321,1,89.2500017023087,2|2,0:2|0:2,0:0:0:0:
228,368,1727,1,2,0:2:0:0:
228,368,1883,2,0,P|277:382|318:362,1,89.2500017023087,2|2,0:2|0:2,0:2:0:0:
348,343,2352,1,2,3:2:0:0:
460,165,2977,6,0,L|525:165,2,52.5,6|10|0,3:2|0:2|3:2,0:2:0:0:
407,164,3445,1,10,0:2:0:0:
331,91,3758,1,10,0:2:0:0:
240,143,4070,1,10,0:2:0:0:
262,245,4383,1,10,0:2:0:0:
365,263,4695,2,0,P|381:311|363:360,1,105,10|10,0:2|0:2,0:2:0:0:
313,376,5164,2,0,L|257:376,1,52.5,10|2,0:2|3:0,0:0:0:0:
227,334,5477,6,0,L|171:334,1,52.5,2|8,3:2|0:2,0:0:0:0:
127,356,5789,1,0,3:2:0:0:
60,274,6102,2,0,P|43:225|61:176,1,105,0|0,3:2|3:2,0:0:0:0:
102,144,6570,1,8,0:2:0:0:
102,144,6727,6,8,L|102:80,2,52.5,14|8|2,3:2|0:2|3:2,0:2:0:0:
150,164,7195,2,0,L|275:164,1,105,6|10,0:2|0:2,0:2:0:0:
292,127,7664,2,0,L|358:127,1,52.5,10|10,0:2|0:2,0:0:0:0:
385,160,7977,6,0,L|448:160,2,52.5,6|0|0,3:2|0:2|3:2,0:2:0:0:
354,202,8445,1,10,0:2:0:0:
288,284,8758,1,10,0:2:0:0:
191,242,9070,1,10,0:2:0:0:
123,323,9383,1,10,3:2:0:0:
41,257,9695,2,0,P|58:208|42:159,1,105,10|10,0:2|0:2,0:2:0:0:
12,115,10164,2,0,L|75:115,1,52.5,0|10,3:2|0:2,0:0:0:0:
100,76,10477,6,0,L|163:76,1,52.5,2|8,3:2|0:2,0:2:0:0:
193,108,10789,1,2,3:2:0:0:
274,40,11102,2,0,P|322:23|371:41,1,105,0|0,3:2|3:2,0:0:0:0:
407,79,11570,1,10,0:2:0:0:
407,79,11727,2,0,L|407:188,1,105,6|6,3:2|3:2,0:2:0:0:
409,293,12352,1,6,3:2:0:0:
409,293,12508,2,0,L|463:293,2,52.5,10|10|10,0:2|0:2|0:2,0:0:0:0:
363,319,12977,6,0,P|294:291|230:334,1,141.749995674133,2|2,3:2|3:2,0:0:0:0:
205,354,13602,2,0,L|205:197,1,141.749995674133,2|2,3:2|3:2,0:0:0:0:
234,174,14227,2,0,L|234:71,2,94.499997116089,2|2|2,3:2|3:2|3:2,0:0:0:0:
304,236,15164,1,14,3:2:0:0:
380,180,15477,6,0,L|494:180,1,105,6|2,3:2|3:2,0:0:0:0:
449,80,16102,2,0,L|344:80,1,105,2|2,3:2|3:2,0:0:0:0:
270,154,16727,2,0,P|216:137|170:157,1,105,2|2,3:2|3:2,0:0:0:0:
145,200,17195,1,2,3:2:0:0:
145,200,17352,2,0,L|145:274,1,52.5,2|10,3:2|0:2,0:0:0:0:
143,304,17664,1,2,3:2:0:0:
226,347,17977,6,0,L|381:346,1,141.749995674133,2|2,3:2|3:2,0:0:0:0:
408,321,18602,2,0,P|436:252|393:188,1,141.749995674133,2|2,3:2|3:2,0:0:0:0:
364,174,19227,2,0,L|364:62,2,94.499997116089,2|2|2,3:2|3:2|3:2,0:0:0:0:
275,206,20164,1,10,0:2:0:0:
203,129,20477,6,0,P|185:80|202:32,1,105,6|2,3:2|3:2,0:2:0:0:
303,1,21102,2,0,L|411:1,1,105,2|2,3:2|3:2,0:2:0:0:
459,28,21570,1,2,3:2:0:0:
459,28,21727,2,0,P|476:76|459:124,1,105,6|6,3:2|3:2,0:2:0:0:
422,161,22195,1,8,0:2:0:0:
422,161,22352,2,0,L|317:161,1,105,6|6,3:2|3:2,0:0:0:0:
233,117,22977,6,0,P|216:156|237:211,1,94.499997116089,6|2,3:2|3:2,0:2:0:0:
292,275,23602,2,0,P|306:318|289:361,1,94.499997116089,6|2,3:2|3:2,0:2:0:0:
196,379,24227,2,0,L|99:379,1,94.499997116089,6|2,3:2|3:2,0:2:0:0:
87,285,24852,2,0,L|181:285,1,94.499997116089,6|2,3:2|3:2,0:2:0:0:
230,203,25477,6,0,L|324:203,1,94.499997116089,6|2,3:2|3:2,0:2:0:0:
387,274,26102,2,0,P|429:291|473:276,1,94.499997116089,6|2,3:2|3:2,0:2:0:0:
497,184,26727,2,0,L|497:83,1,94.499997116089,6|2,3:2|3:2,0:0:0:0:
430,22,27352,1,6,3:2:0:0:
349,71,27664,1,2,3:2:0:0:
277,9,27977,5,2,0:2:0:0:
277,9,30477,6,0,L|277:114,1,94.499997116089,2|2,3:2|0:2,0:0:0:0:
366,135,31102,2,0,L|366:240,1,94.499997116089,2|2,3:2|0:2,0:0:0:0:
313,308,31727,1,2,3:2:0:0:
231,260,32039,1,2,3:2:0:0:
167,330,32352,2,0,L|116:330,1,47.2499985580445,0|0,3:2|3:2,0:0:0:0:
98,287,32664,2,0,L|47:287,1,47.2499985580445,0|0,3:2|3:2,0:0:0:0:
3,305,32977,6,0,L|3:200,1,99.7499973363877,6|8,3:2|0:2,0:2:0:0:
63,125,33602,2,0,P|111:110|168:137,1,99.7499973363877,2|8,3:2|0:2,0:2:0:0:
234,188,34227,2,0,P|280:203|327:188,1,99.7499973363877,2|8,3:2|0:2,0:2:0:0:
401,122,34852,1,2,3:2:0:0:
488,170,35164,1,2,3:2:0:0:
470,268,35477,6,0,L|357:268,1,99.7499973363877,2|8,3:2|0:2,0:2:0:0:
335,303,35945,1,0,1:2:0:0:
335,303,36102,2,0,L|222:303,1,99.7499973363877,2|8,3:2|0:2,0:2:0:0:
153,245,36727,2,0,P|138:197|165:140,1,99.7499973363877,2|8,3:2|0:2,0:2:0:0:
197,125,37195,1,0,1:2:0:0:
197,125,37352,2,0,L|296:125,1,99.7499973363877,2|2,3:2|3:2,0:0:0:0:
396,123,37977,6,0,P|411:76|396:29,1,99.7499973363877,2|8,3:2|0:2,0:2:0:0:
298,11,38602,2,0,L|198:11,1,99.7499973363877,2|8,3:2|0:2,0:2:0:0:
126,80,39227,2,0,P|110:126|125:173,1,99.7499973363877,2|8,3:2|0:2,0:2:0:0:
187,250,39852,1,2,3:2:0:0:
121,325,40164,1,2,3:2:0:0:
32,291,40477,6,0,L|32:196,1,94.499997116089,6|10,3:2|0:2,0:2:0:0:
56,104,41102,2,0,L|-2:104,2,47.2499985580445,2|0|10,3:2|3:2|0:2,0:0:0:0:
100,88,41570,1,6,3:2:0:0:
168,153,41883,2,0,L|225:153,1,47.2499985580445,2|10,3:2|0:2,0:2:0:0:
281,85,42352,1,10,0:2:0:0:
281,85,42508,2,0,L|281:37,2,47.2499985580445,10|10|10,0:2|0:2|0:2,0:0:0:0:
318,122,42977,6,0,L|318:181,1,52.5,6|0,3:2|3:2,0:2:0:0:
282,213,43289,2,0,L|282:272,1,52.5,2|10,3:2|0:2,0:2:0:0:
316,305,43602,1,2,0:2:0:0:
231,367,43914,1,2,3:2:0:0:
150,298,44227,2,0,P|133:249|149:200,2,105,2|2|2,3:2|3:2|3:2,0:0:0:0:
231,367,45164,2,0,L|287:367,1,52.5,2|10,3:2|3:2,0:0:0:0:
329,340,45477,6,0,P|345:291|328:242,1,105,6|2,3:2|3:2,0:2:0:0:
240,184,46102,2,0,P|223:135|239:86,1,105,2|0,3:2|3:2,0:0:0:0:
318,17,46727,2,0,L|382:17,1,52.5,6|10,3:2|0:2,0:0:0:0:
398,61,47039,2,0,L|462:61,1,52.5,6|6,3:2|0:2,0:0:0:0:
494,32,47352,1,6,3:2:0:0:
509,135,47664,1,10,0:2:0:0:
405,154,47977,6,0,L|352:154,1,52.5,6|0,3:2|3:2,0:2:0:0:
315,116,48289,2,0,L|262:116,1,52.5,2|10,3:2|0:2,0:2:0:0:
220,148,48602,1,2,0:2:0:0:
132,90,48914,1,2,3:2:0:0:
63,169,49227,2,0,P|47:218|64:266,2,105,2|2|2,3:2|3:2|3:2,0:0:0:0:
132,90,50164,2,0,L|197:90,1,52.5,2|10,3:2|3:2,0:0:0:0:
224,124,50477,6,0,L|288:124,2,52.5,6|8|2,3:2|0:2|3:2,0:2:0:0:
201,171,50945,2,0,P|217:219|202:268,1,105,14|6,0:2|3:2,0:0:0:0:
164,306,51414,1,8,0:2:0:0:
243,375,51727,5,6,3:2:0:0:
332,320,52039,1,6,3:2:0:0:
312,216,52352,1,6,3:2:0:0:
312,216,52508,2,0,L|312:156,2,52.5,10|10|10,0:2|0:2|0:2,0:0:0:0:
265,241,52977,6,0,L|202:241,1,52.5,6|0,3:2|3:2,0:2:0:0:
175,204,53289,2,0,L|112:204,1,52.5,2|10,3:2|0:2,0:2:0:0:
81,237,53602,1,2,0:2:0:0:
24,148,53914,1,2,3:2:0:0:
96,71,54227,2,0,L|211:71,2,105,2|2|2,3:2|3:2|3:2,0:0:0:0:
24,148,55164,2,0,L|24:209,1,52.5,2|2,3:2|3:2,0:0:0:0:
58,240,55477,6,0,P|107:255|155:238,1,105,6|2,3:2|3:2,0:2:0:0:
202,212,55945,1,8,0:2:0:0:
202,212,56102,2,0,L|315:212,1,105,2|0,3:2|3:2,0:0:0:0:
380,137,56727,1,6,3:2:0:0:
476,181,57039,1,6,3:2:0:0:
452,286,57352,1,6,3:2:0:0:
452,286,57508,2,0,L|451:345,2,52.5,8|10|8,0:2|0:2|0:2,0:0:0:0:
420,243,57977,5,2,0:2:0:0:
420,243,60164,6,0,L|420:180,1,52.5,6|2,3:2|3:2,0:0:0:0:
402,140,60477,6,0,P|352:124|304:141,1,105,6|0,3:2|3:2,0:0:0:0:
265,176,60945,2,0,L|137:176,1,105,6|2,3:2|3:2,0:0:0:0:
126,135,61414,2,0,L|64:135,1,52.5,8|8,0:2|0:2,0:0:0:0:
29,163,61727,1,6,3:2:0:0:
32,267,62039,1,6,3:2:0:0:
135,282,62352,2,0,L|187:282,1,52.5,0|0,0:2|0:2,0:0:0:0:
219,240,62664,2,0,L|271:240,1,52.5,0|0,0:2|0:2,0:0:0:0:
313,272,62977,6,0,L|313:333,2,52.5,6|10|0,3:2|0:2|3:2,0:2:0:0:
358,245,63445,1,10,0:2:0:0:
411,154,63758,1,10,0:2:0:0:
347,70,64070,1,10,0:2:0:0:
249,110,64383,1,10,0:2:0:0:
244,214,64695,2,0,L|123:214,1,105,10|10,0:2|0:2,0:2:0:0:
86,211,65164,2,0,L|86:152,1,52.5,10|2,0:2|3:0,0:0:0:0:
123,121,65477,6,0,L|123:62,1,52.5,2|8,3:2|0:2,0:0:0:0:
95,24,65789,1,0,3:2:0:0:
5,80,66102,2,0,L|5:196,1,105,0|0,3:2|3:2,0:0:0:0:
44,228,66570,1,8,0:2:0:0:
44,228,66727,2,8,L|44:292,2,52.5,14|8|2,3:2|0:2|3:2,0:2:0:0:
88,201,67195,2,0,P|137:184|186:200,1,105,6|10,0:2|0:2,0:2:0:0:
227,232,67664,2,0,L|290:232,1,52.5,10|10,0:2|0:2,0:0:0:0:
316,194,67977,6,0,L|379:194,2,52.5,6|0|0,3:2|0:2|3:2,0:2:0:0:
276,159,68445,1,10,0:2:0:0:
281,53,68758,1,10,0:2:0:0:
382,26,69070,1,10,0:2:0:0:
445,109,69383,1,10,3:2:0:0:
382,192,69695,2,0,P|399:241|383:290,1,105,10|10,0:2|0:2,0:2:0:0:
337,315,70164,2,0,L|282:315,1,52.5,0|10,3:2|0:2,0:0:0:0:
248,276,70477,6,0,L|193:276,1,52.5,2|8,3:2|0:2,0:2:0:0:
152,305,70789,1,2,3:2:0:0:
83,225,71102,2,0,P|66:176|82:127,1,105,0|0,3:2|3:2,0:0:0:0:
126,99,71570,1,10,0:2:0:0:
126,99,71727,2,0,L|232:99,2,105,6|6|6,3:2|3:2|3:2,0:2:0:0:
62,276,72977,6,0,P|131:304|195:261,1,141.749995674133,2|2,3:2|3:2,0:0:0:0:
217,238,73602,2,0,P|186:176|215:113,1,141.749995674133,2|2,3:2|3:2,0:0:0:0:
259,95,74227,2,0,L|259:-8,2,94.499997116089,2|2|2,3:2|3:2|3:2,0:0:0:0:
304,177,75164,1,6,3:2:0:0:
232,239,75477,6,0,L|118:239,1,105,6|2,3:2|3:2,0:0:0:0:
72,149,76102,2,0,L|177:149,1,105,2|2,3:2|3:2,0:0:0:0:
260,88,76727,2,0,P|314:71|360:91,1,105,2|2,3:2|3:2,0:0:0:0:
385,134,77195,1,2,3:2:0:0:
385,134,77352,2,0,L|385:208,1,52.5,2|10,3:2|0:2,0:0:0:0:
385,238,77664,1,2,3:2:0:0:
317,303,77977,6,0,L|162:302,1,141.749995674133,2|2,3:2|3:2,0:0:0:0:
135,277,78602,2,0,P|107:208|150:144,1,141.749995674133,2|2,3:2|3:2,0:0:0:0:
179,130,79227,2,0,L|179:18,2,94.499997116089,2|2|2,3:2|3:2|3:2,0:0:0:0:
240,201,80164,1,10,0:2:0:0:
323,154,80477,6,0,P|341:105|324:57,1,105,6|2,3:2|3:2,0:2:0:0:
229,20,81102,2,0,L|121:20,1,105,2|2,3:2|3:2,0:2:0:0:
79,44,81570,1,2,3:2:0:0:
79,44,81727,2,0,P|62:92|79:140,1,105,6|6,3:2|3:2,0:2:0:0:
115,187,82195,1,8,0:2:0:0:
115,187,82352,2,0,L|220:187,1,105,6|6,3:2|3:2,0:0:0:0:
289,121,82977,6,0,P|332:106|375:123,1,94.499997116089,6|2,3:2|3:2,0:2:0:0:
425,204,83602,2,0,P|439:247|422:290,1,94.499997116089,6|2,3:2|3:2,0:2:0:0:
335,328,84227,2,0,L|237:328,1,94.499997116089,6|2,3:2|3:2,0:2:0:0:
194,245,84852,2,0,L|96:245,1,94.499997116089,6|2,3:2|3:2,0:2:0:0:
14,286,85477,6,0,P|0:242|16:199,1,94.499997116089,6|2,3:2|3:2,0:2:0:0:
98,151,86102,2,0,L|192:151,1,94.499997116089,6|2,3:2|3:2,0:2:0:0:
273,199,86727,2,0,P|316:215|360:201,1,94.499997116089,6|2,3:2|3:2,0:0:0:0:
424,131,87352,1,6,3:2:0:0:
386,44,87664,1,2,3:2:0:0:
292,59,87977,5,2,0:2:0:0:
292,59,90477,6,0,L|187:59,1,94.499997116089,2|2,3:2|0:2,0:0:0:0:
153,142,91102,2,0,L|247:142,1,94.499997116089,2|2,3:2|0:2,0:0:0:0:
334,179,91727,1,2,3:2:0:0:
320,272,92039,1,2,3:2:0:0:
228,297,92352,2,0,L|169:297,1,47.2499985580445,0|0,3:2|3:2,0:0:0:0:
150,261,92664,2,0,L|91:261,1,47.2499985580445,0|0,3:2|3:2,0:0:0:0:
62,291,92977,6,0,L|62:186,1,99.7499973363877,6|8,3:2|0:2,0:2:0:0:
86,94,93602,2,0,P|134:79|191:106,1,99.7499973363877,2|8,3:2|0:2,0:2:0:0:
255,159,94227,2,0,L|372:159,1,99.7499973363877,2|8,3:2|0:2,0:2:0:0:
430,94,94852,1,2,3:2:0:0:
512,144,95164,1,2,3:2:0:0:
488,241,95477,6,0,L|375:241,1,99.7499973363877,2|8,3:2|0:2,0:2:0:0:
358,281,95945,1,0,1:2:0:0:
358,281,96102,2,0,P|310:296|253:269,1,99.7499973363877,2|8,3:2|0:2,0:2:0:0:
179,227,96727,2,0,P|164:179|191:122,1,99.7499973363877,2|8,3:2|0:2,0:2:0:0:
220,104,97195,1,0,1:2:0:0:
220,104,97352,2,0,L|319:104,1,99.7499973363877,2|2,3:2|3:2,0:0:0:0:
405,154,97977,6,0,P|420:107|405:60,1,99.7499973363877,6|8,3:2|0:2,0:2:0:0:
316,14,98602,2,0,L|216:14,1,99.7499973363877,2|8,3:2|0:2,0:2:0:0:
130,65,99227,2,0,P|114:111|129:158,1,99.7499973363877,2|8,3:2|0:2,0:2:0:0:
182,242,99852,1,2,3:2:0:0:
122,322,100164,1,2,3:2:0:0:
26,293,100477,6,0,L|26:192,1,99.7499973363877,6|0,3:2|0:0,0:2:0:0:
57,98,101102,2,0,L|-2:98,2,49.8749986681939,2|0|0,3:2|0:0|0:0,0:0:0:0:
108,80,101570,1,6,3:2:0:0:
172,156,101883,2,0,L|233:154,1,49.8749986681939,2|0,3:2|0:0,0:2:0:0:
286,79,102352,1,10,0:2:0:0:
286,79,102508,2,0,L|288:29,2,49.8749986681939,10|0|0,0:2|0:0|0:0,0:0:0:0:
328,118,102977,6,0,L|328:174,1,52.5,6|0,3:2|3:2,0:2:0:0:
293,209,103289,2,0,L|293:265,1,52.5,2|10,3:2|0:2,0:2:0:0:
328,300,103602,1,2,0:2:0:0:
426,336,103914,1,2,3:2:0:0:
472,241,104227,2,0,P|489:192|473:143,2,105,2|2|2,3:2|3:2|3:2,0:0:0:0:
426,336,105164,2,0,L|373:336,1,52.5,2|10,3:2|3:2,0:0:0:0:
332,302,105477,6,0,P|283:285|234:301,1,105,6|2,3:2|3:2,0:2:0:0:
144,355,106102,2,0,P|94:370|46:353,1,105,2|0,3:2|3:2,0:0:0:0:
14,253,106727,2,0,L|14:190,1,52.5,6|10,3:2|0:2,0:0:0:0:
58,172,107039,2,0,L|58:109,1,52.5,6|6,3:2|3:2,0:0:0:0:
32,73,107352,1,6,3:2:0:0:
122,20,107664,2,0,L|179:20,1,52.5,10|8,0:2|0:2,0:0:0:0:
205,63,107977,6,0,L|262:63,1,52.5,6|0,3:2|3:2,0:2:0:0:
294,25,108289,2,0,L|351:25,1,52.5,2|10,3:2|0:2,0:2:0:0:
390,54,108602,1,2,0:2:0:0:
433,149,108914,1,2,3:2:0:0:
344,205,109227,2,0,L|233:205,2,105,2|2|2,3:2|3:2|3:2,0:0:0:0:
394,297,110164,2,0,L|329:297,1,52.5,2|2,3:2|3:2,0:0:0:0:
300,330,110477,6,0,L|235:330,2,52.5,6|8|2,3:2|0:2|3:2,0:2:0:0:
320,378,110945,2,0,L|425:378,1,105,14|6,0:2|3:2,0:0:0:0:
466,345,111414,1,8,0:2:0:0:
501,245,111727,1,6,3:2:0:0:
418,180,112039,1,6,3:2:0:0:
330,235,112352,1,6,3:2:0:0:
330,235,112508,2,0,L|330:298,2,52.5,10|10|10,0:2|0:2|0:2,0:0:0:0:
295,194,112977,6,0,L|295:141,1,52.5,6|0,3:2|3:2,0:2:0:0:
333,106,113289,2,0,L|333:53,1,52.5,2|10,3:2|0:2,0:2:0:0:
305,8,113602,1,2,0:2:0:0:
218,66,113914,1,2,3:2:0:0:
132,4,114227,2,0,L|15:4,2,105,2|2|2,3:2|3:2|3:2,0:0:0:0:
218,66,115164,2,0,L|218:124,1,52.5,2|2,3:2|3:2,0:0:0:0:
175,150,115477,6,0,L|175:233,2,78.75,6|0|8,3:2|0:0|0:2,0:2:0:0:
137,112,116102,2,0,P|86:98|29:119,1,105,2|0,3:2|3:2,0:0:0:0:
3,212,116727,1,6,3:2:0:0:
86,274,117039,1,6,3:2:0:0:
167,207,117352,1,6,3:2:0:0:
167,207,117508,2,0,L|231:207,2,52.5,8|10|8,0:2|0:2|0:2,0:0:0:0:
135,164,117977,5,2,0:2:0:0:
135,164,120164,6,0,L|135:96,1,52.5,2|2,3:2|3:2,0:0:0:0:
136,58,120477,6,0,P|186:42|234:59,1,105,6|2,3:2|3:2,3:2:0:0:
273,94,120945,2,0,L|401:94,1,105,6|6,3:2|3:2,0:0:0:0:
412,53,121414,2,0,L|474:53,1,52.5,8|8,0:2|0:2,0:0:0:0:
509,81,121727,1,6,3:2:0:0:
506,185,122039,1,6,3:2:0:0:
400,190,122352,1,6,3:2:0:0:
390,294,122664,1,6,3:2:0:0:
285,302,122977,6,0,P|269:252|286:204,1,105,6|0,3:2|3:2,0:2:0:0:
341,115,123602,2,0,P|357:66|341:17,1,105,2|2,3:2|3:2,0:2:0:0:
249,67,124227,1,2,3:2:0:0:
164,4,124539,1,2,3:2:0:0:
87,76,124852,1,2,3:2:0:0:
87,76,125008,2,0,L|87:146,1,52.5,8|2,0:2|3:2,0:0:0:0:
115,229,125477,6,0,B|165:255|165:255|264:234,1,157.5,10|10,0:2|0:2,0:0:0:0:
291,78,126414,2,0,B|341:52|341:52|440:73,1,157.5,8|10,3:0|3:2,0:0:0:0:
495,161,127195,1,8,3:0:0:0:
495,161,127352,2,0,L|495:273,1,105,8|14,3:0|3:0,0:0:0:0:
494,322,127820,1,12,3:3:0:0:
494,322,127977,6,0,P|444:338|396:321,1,105,6|2,3:2|3:2,0:2:0:0:
319,248,128602,2,0,P|270:231|221:247,1,105,2|2,3:2|3:2,0:2:0:0:
137,310,129227,1,2,3:2:0:0:
49,252,129539,1,2,3:2:0:0:
86,156,129852,1,2,3:2:0:0:
86,156,130008,2,0,L|86:88,1,52.5,8|2,0:2|3:2,0:0:0:0:
179,54,130477,6,0,L|179:176,1,105,0|0,3:2|3:2,0:2:0:0:
276,197,131102,2,0,L|276:92,1,105,0|0,3:2|3:2,0:2:0:0:
279,43,131570,1,2,0:2:0:0:
279,43,131727,1,0,3:2:0:0:
378,10,132039,1,0,3:2:0:0:
442,93,132352,2,0,L|442:161,1,52.5,0|0,3:2|3:2,0:0:0:0:
405,184,132664,2,0,L|405:252,1,52.5,0|0,3:2|3:2,0:0:0:0:
431,280,132977,6,0,P|356:242|272:297,1,178.500003404617,6|2,3:2|0:2,0:0:0:0:
207,338,133914,2,0,B|186:308|179:282|179:282|190:218|253:180,1,178.500003404617,2|2,0:2|0:2,0:0:0:0:
330,196,134852,1,2,0:2:0:0:
370,116,135164,2,0,L|370:62,2,44.6250008511543,2|2|2,0:2|0:2|0:2,0:2:0:0:
281,104,135789,1,2,0:2:0:0:
213,45,136102,2,0,L|213:-9,2,44.6250008511543,2|2|2,0:2|0:2|0:2,0:2:0:0:
134,86,136727,6,0,B|128:133|106:167|106:167|134:207|137:259,1,178.500003404617,6|2,3:2|0:2,0:2:0:0:
62,301,137664,2,0,P|100:335|216:295,1,178.500003404617,2|2,0:2|0:2,0:2:0:0:
271,236,138602,1,2,0:2:0:0:
353,269,138914,2,0,L|353:329,2,44.6250008511543,2|2|2,0:2|0:2|0:2,0:0:0:0:
416,205,139539,1,2,0:2:0:0:
388,119,139852,2,0,L|328:119,2,44.6250008511543,2|2|2,0:2|0:2|0:2,0:0:0:0:
256,192,140477,12,2,142977,0:2:0:0:
120,80,148758,5,0,3:2:0:0:
120,80,148914,1,12,0:2:0:0:
72,174,149227,6,0,P|110:192|177:166,1,105,6|2,3:2|3:2,0:0:0:0:
211,145,149695,1,2,3:2:0:0:
301,198,150008,1,0,3:2:0:0:
301,198,150164,2,0,L|353:198,1,52.5,2|0,3:2|3:2,0:0:0:0:
443,143,150633,1,2,3:2:0:0:
443,143,150789,1,2,3:2:0:0:
410,43,151102,1,2,3:2:0:0:
223,139,151727,5,6,3:2:0:0:
329,294,152352,1,6,3:2:0:0:
141,314,152977,1,6,3:2:0:0:
73,247,153289,1,6,3:2:0:0:
119,164,153602,1,14,0:2:0:0:
188,227,153914,2,0,L|256:227,1,47.2499985580445,2|2,3:2|3:2,0:0:0:0:
272,197,154227,6,0,L|379:197,1,94.499997116089,2|2,3:2|3:2,0:2:0:0:
410,113,154852,2,0,L|315:113,1,94.499997116089,2|2,3:2|3:2,0:2:0:0:
315,113,156727,6,0,P|268:96|206:120,1,105,2|2,3:2|3:2,0:2:0:0:
155,196,157352,2,0,P|105:211|56:193,1,105,2|0,3:2|3:2,0:2:0:0:
8,100,157977,2,0,P|57:84|106:102,1,105,2|0,3:2|3:2,0:0:0:0:
155,196,158602,1,0,3:2:0:0:
255,164,158914,1,0,3:2:0:0:
313,251,159227,5,2,3:2:0:0:
453,180,159695,2,0,L|453:61,1,105,2|2,3:2|3:2,0:0:0:0:
453,22,160164,1,2,3:2:0:0:
366,82,160477,1,2,3:2:0:0:
285,14,160789,1,2,3:2:0:0:
200,77,161102,2,0,L|200:136,1,52.5,2|2,3:2|3:2,0:0:0:0:
239,163,161414,2,0,L|239:222,2,52.5,2|2|2,3:2|3:2|0:2,3:2:0:0:
66,42,162352,6,0,L|66:100,1,52.5,6|0,3:2|3:2,0:2:0:0:
106,128,162664,2,0,L|106:186,1,52.5,2|10,3:2|0:2,0:2:0:0:
69,218,162977,1,2,0:2:0:0:
124,306,163289,1,2,3:2:0:0:
223,270,163602,2,0,L|286:270,1,52.5,2|10,3:2|0:2,0:0:0:0:
298,317,163914,2,0,L|361:317,1,52.5,2|10,3:2|0:2,0:0:0:0:
396,290,164227,1,2,3:2:0:0:
461,207,164539,1,2,3:2:0:0:
391,127,164852,6,0,L|274:127,1,105,6|2,3:2|3:2,0:2:0:0:
248,162,165320,1,8,0:2:0:0:
248,162,165477,2,0,L|131:162,1,105,2|0,3:2|3:2,0:0:0:0:
99,66,166102,2,0,L|151:66,1,52.5,6|10,3:2|0:2,0:0:0:0:
185,26,166414,2,0,L|237:26,1,52.5,6|6,3:2|0:2,0:0:0:0:
278,59,166727,1,6,3:2:0:0:
380,39,167039,2,0,L|380:101,1,52.5,10|8,0:2|0:2,0:0:0:0:
342,129,167352,6,0,L|342:191,1,52.5,6|0,3:2|3:2,0:2:0:0:
382,214,167664,2,0,L|382:276,1,52.5,2|10,3:2|0:2,0:2:0:0:
350,308,167977,1,2,0:2:0:0:
256,259,168289,1,2,3:2:0:0:
182,334,168602,2,0,L|120:334,1,52.5,2|10,3:2|0:2,0:0:0:0:
97,374,168914,2,0,L|35:374,1,52.5,2|10,3:2|0:2,0:0:0:0:
9,334,169227,1,2,3:2:0:0:
64,244,169539,2,0,L|64:170,1,52.5,2|10,3:2|3:2,0:0:0:0:
102,155,169852,6,0,L|102:81,2,52.5,6|8|2,3:2|0:2|3:2,0:2:0:0:
145,184,170320,2,0,P|191:202|251:175,1,105,14|6,0:2|3:2,0:0:0:0:
276,144,170789,2,0,L|276:70,1,52.5,8|8,0:2|0:2,0:0:0:0:
258,41,171102,1,6,3:2:0:0:
156,13,171414,1,6,3:2:0:0:
101,102,171727,2,0,L|101:154,1,52.5,6|10,3:2|0:2,0:2:0:0:
65,192,172039,1,10,0:2:0:0:
132,272,172352,6,0,L|188:272,1,52.5,6|0,3:2|3:2,0:2:0:0:
218,232,172664,2,0,L|274:232,1,52.5,2|10,3:2|0:2,0:2:0:0:
313,262,172977,1,2,0:2:0:0:
400,203,173289,1,2,3:2:0:0:
357,107,173602,2,0,L|304:107,1,52.5,2|10,3:2|0:2,0:0:0:0:
260,134,173914,2,0,L|207:134,1,52.5,2|10,3:2|0:2,0:0:0:0:
170,96,174227,1,2,3:2:0:0:
216,2,174539,2,0,L|268:2,1,52.5,2|10,3:2|3:2,0:0:0:0:
315,25,174852,6,0,L|436:25,1,105,6|2,3:2|3:2,0:2:0:0:
476,26,175320,1,8,0:2:0:0:
476,26,175477,2,0,P|493:74|475:122,1,105,2|0,3:2|3:2,0:0:0:0:
388,181,176102,2,0,L|323:181,1,52.5,6|10,3:2|0:2,0:0:0:0:
306,137,176414,2,0,L|241:137,1,52.5,6|2,3:2|0:2,0:0:0:0:
214,171,176727,1,6,3:2:0:0:
214,171,176883,2,0,L|214:229,2,52.5,8|10|8,0:2|0:2|0:2,0:0:0:0:
175,134,177352,5,2,0:2:0:0:
175,134,179539,6,0,L|175:202,1,52.5,2|0,3:2|3:2,0:2:0:0:
206,228,179852,6,0,L|206:296,2,52.5,6|0|2,3:2|0:2|0:2,0:2:0:0:
250,200,180320,2,0,P|298:183|346:201,1,105,6|6,3:2|3:2,0:2:0:0:
383,238,180789,2,0,L|383:306,1,52.5,8|8,0:2|0:2,0:0:0:0:
362,339,181102,1,6,3:2:0:0:
461,371,181414,1,6,3:2:0:0:
507,276,181727,2,0,L|507:223,1,52.5,8|8,0:2|0:2,0:0:0:0:
468,188,182039,2,0,L|468:135,1,52.5,2|0,3:2|3:2,0:0:0:0:
492,88,182352,6,0,L|370:88,1,105,6|2,3:2|0:2,0:0:0:0:
349,124,182820,2,0,L|227:124,1,105,6|6,3:2|3:2,0:0:0:0:
204,89,183289,2,0,L|144:89,1,52.5,8|8,0:2|0:2,0:0:0:0:
103,111,183602,1,6,3:2:0:0:
50,201,183914,1,6,3:2:0:0:
122,277,184227,2,0,L|174:277,1,52.5,8|8,0:2|0:2,0:0:0:0:
214,243,184539,2,2,L|266:243,1,52.5,10|10,0:2|0:2,0:2:0:0:
308,275,184852,6,0,L|308:344,2,52.5,6|10|0,3:2|0:2|3:2,0:2:0:0:
350,244,185320,1,10,0:2:0:0:
400,151,185633,1,10,0:2:0:0:
331,71,185945,1,10,0:2:0:0:
235,115,186258,1,10,0:2:0:0:
235,219,186570,2,0,L|118:219,1,105,10|10,0:2|0:2,0:2:0:0:
77,219,187039,2,0,L|77:164,1,52.5,10|2,0:2|3:0,0:0:0:0:
115,130,187352,6,0,L|115:75,1,52.5,2|8,3:2|0:2,0:0:0:0:
82,36,187664,1,0,3:2:0:0:
182,4,187977,2,0,L|291:4,1,105,0|0,3:2|3:2,0:0:0:0:
331,41,188445,1,8,0:2:0:0:
331,41,188602,2,8,L|393:41,2,52.5,14|8|2,3:2|0:2|3:2,0:2:0:0:
296,80,189070,2,0,P|277:128|294:176,1,105,6|10,0:2|0:2,0:2:0:0:
326,218,189539,2,0,L|326:283,1,52.5,10|10,0:2|0:2,0:0:0:0:
285,304,189852,6,0,L|285:369,2,52.5,6|0|0,3:2|0:2|3:2,0:2:0:0:
247,267,190320,1,10,0:2:0:0:
155,318,190633,1,10,0:2:0:0:
84,240,190945,1,10,0:2:0:0:
131,146,191258,1,10,3:2:0:0:
235,154,191570,2,0,L|349:154,1,105,10|10,0:2|0:2,0:2:0:0:
392,151,192039,2,0,L|392:225,1,52.5,0|10,3:2|0:2,0:0:0:0:
358,244,192352,6,0,L|358:318,1,52.5,2|8,3:2|0:2,0:2:0:0:
392,335,192664,1,2,3:2:0:0:
494,357,192977,2,0,L|494:232,1,105,0|0,3:2|3:2,0:0:0:0:
497,203,193445,1,10,0:2:0:0:
497,203,193602,1,6,3:2:0:0:
425,126,193914,1,6,3:2:0:0:
339,184,194227,1,6,3:2:0:0:
339,184,194383,2,0,L|339:244,2,52.5,10|10|10,0:2|0:2|0:2,0:0:0:0:
304,144,194852,6,0,L|304:91,2,52.5,6|10|0,3:2|0:2|3:2,0:2:0:0:
260,173,195320,1,10,0:2:0:0:
167,122,195633,1,10,0:2:0:0:
96,199,195945,1,10,0:2:0:0:
138,295,196258,1,10,0:2:0:0:
242,286,196570,2,0,P|290:305|338:288,1,105,10|10,0:2|0:2,0:2:0:0:
379,255,197039,2,0,L|379:187,1,52.5,10|2,0:2|3:0,0:0:0:0:
340,166,197352,6,0,L|340:98,1,52.5,2|8,3:2|0:2,0:0:0:0:
368,69,197664,1,0,3:2:0:0:
267,38,197977,2,0,P|219:19|171:36,1,105,0|0,3:2|3:2,0:0:0:0:
137,76,198445,1,8,0:2:0:0:
137,76,198602,2,8,L|66:76,2,52.5,14|8|2,3:2|0:2|3:2,0:2:0:0:
169,116,199070,2,0,P|186:164|167:212,1,105,6|10,0:2|0:2,0:2:0:0:
145,260,199539,2,0,L|209:260,1,52.5,10|10,0:2|0:2,0:0:0:0:
235,296,199852,6,0,L|299:296,2,52.5,6|0|0,3:2|0:2|3:2,0:2:0:0:
208,341,200320,1,10,0:2:0:0:
145,260,200633,1,10,0:2:0:0:
204,173,200945,1,10,0:2:0:0:
305,200,201258,1,10,3:2:0:0:
313,304,201570,2,0,L|425:304,1,105,10|10,0:2|0:2,0:2:0:0:
470,304,202039,2,0,L|470:232,1,52.5,0|10,3:2|0:2,0:0:0:0:
434,212,202352,6,0,L|434:140,1,52.5,2|8,3:2|0:2,0:2:0:0:
472,123,202664,1,2,3:2:0:0:
380,71,202977,2,0,P|332:88|284:69,1,105,0|0,3:2|3:2,0:0:0:0:
246,40,203445,1,10,0:2:0:0:
246,40,203602,6,0,L|130:40,2,105,0|2|2,3:2|0:0|0:0,0:0:0:0:
