osu file format v14

[General]
AudioFilename: audio.mp3
AudioLeadIn: 0
PreviewTime: 72141
Countdown: 0
SampleSet: Soft
StackLeniency: 0.6
Mode: 0
LetterboxInBreaks: 0
WidescreenStoryboard: 0

[Editor]
DistanceSpacing: 1.1
BeatDivisor: 4
GridSize: 32
TimelineZoom: 3.699999

[Metadata]
Title:Shinde Shimau to wa Nasakenai!
TitleUnicode:しんでしまうとはなさけない!
Artist:UraSaka
ArtistUnicode:うらさか
Creator:Glaceon
Version:blob
Source:
Tags:Death Should Not Have Taken Thee! urata uratanuki aho no sakata
BeatmapID:1975365
BeatmapSetID:946010

[Difficulty]
HPDrainRate:5
CircleSize:4
OverallDifficulty:8.8
ApproachRate:9.3
SliderMultiplier:2
SliderTickRate:1

[Events]
//Background and Video events
0,0,"40537422_p0.jpg",0,0
//Break Periods
//Storyboard Layer 0 (Background)
//Storyboard Layer 1 (Fail)
//Storyboard Layer 2 (Pass)
//Storyboard Layer 3 (Foreground)
//Storyboard Sound Samples

[TimingPoints]
-826,344.827586206897,4,2,0,70,1,0
553,-125,4,2,0,60,0,0
5984,-125,4,2,0,5,0,0
6070,-125,4,2,0,60,0,0
10122,-125,4,2,0,5,0,0
10208,-125,4,2,0,60,0,0
11242,-83.3333333333333,4,2,0,60,0,0
11501,-125,4,2,0,5,0,0
11587,-100,4,2,0,80,0,0
22622,-125,4,2,0,60,0,0
29432,-125,4,2,0,5,0,0
29518,-125,4,2,0,60,0,0
33570,-125,4,2,0,5,0,0
33656,-111.111111111111,4,2,0,60,0,0
37708,-111.111111111111,4,2,0,5,0,0
37794,-111.111111111111,4,2,0,60,0,0
55984,-111.111111111111,4,2,0,5,0,0
56070,-111.111111111111,4,2,0,60,0,0
56674,-111.111111111111,4,2,0,5,0,0
56760,-111.111111111111,4,2,0,60,0,0
57363,-111.111111111111,4,2,0,5,0,0
57449,-111.111111111111,4,2,0,60,0,0
63915,-111.111111111111,4,2,0,5,0,0
64001,-111.111111111111,4,2,0,60,0,0
71932,-200,4,2,0,60,0,0
72191,-200,4,2,0,5,0,0
72277,-200,4,2,0,80,0,0
73656,-133.333333333333,4,2,0,80,0,0
74949,-133.333333333333,4,2,0,5,0,0
75036,-100,4,2,0,80,0,1
82967,-100,4,2,0,80,0,0
83311,-100,4,2,0,80,0,1
92622,-100,4,2,0,80,0,0
92967,-100,4,2,0,80,0,1
93053,-100,4,2,0,80,0,0
93484,-100,4,2,0,80,0,1
93570,-100,4,2,0,80,0,0
94001,-100,4,2,0,80,0,1
94087,-100,4,2,0,80,0,0
94346,-100,4,2,0,80,0,1
115725,-133.333333333333,4,2,0,80,0,0

[Colours]
Combo1 : 128,0,64
Combo2 : 255,83,83
Combo3 : 0,128,255
Combo4 : 255,255,62

[HitObjects]
96,359,553,6,0,B|117:307|101:267|94:278|73:228|111:173,1,160
148,89,1070,1,0,0:0:0:0:
148,89,1156,1,0,0:0:0:0:
148,89,1242,6,0,P|182:59|308:89,1,160
398,179,1760,1,0,0:0:0:0:
398,179,1846,1,0,0:0:0:0:
398,179,1932,5,0,0:0:0:0:
226,133,2105,1,0,0:0:0:0:
379,81,2277,1,0,0:0:0:0:
309,237,2449,1,0,0:0:0:0:
290,70,2622,1,0,0:0:0:0:
393,263,2794,1,0,0:0:0:0:
226,133,2967,1,0,0:0:0:0:
251,295,3139,1,0,0:0:0:0:
413,154,3311,6,0,L|298:158,1,80
157,165,3656,1,0,0:0:0:0:
290,70,3829,1,0,0:0:0:0:
128,85,4001,2,0,P|83:120|65:162,1,80
142,321,4346,1,0,0:0:0:0:
157,165,4518,1,0,0:0:0:0:
24,247,4691,6,0,B|74:268|114:252|103:245|152:224|206:262,1,160
293,301,5208,1,0,0:0:0:0:
293,301,5294,1,0,0:0:0:0:
293,301,5380,2,0,P|296:253|285:195,1,80
187,128,5725,2,0,L|178:260,1,120
150,337,6070,6,0,L|138:155,1,160
135,46,6587,1,0,0:0:0:0:
135,46,6674,1,0,0:0:0:0:
135,46,6760,6,0,P|181:63|294:44,1,160
406,9,7277,2,0,L|398:74,1,40
376,171,7449,2,0,P|339:145|276:132,1,80
187,209,7794,1,0,0:0:0:0:
306,217,7967,1,0,0:0:0:0:
157,125,8139,1,0,0:0:0:0:
243,300,8311,1,0,0:0:0:0:
236,115,8484,1,0,0:0:0:0:
322,294,8656,1,0,0:0:0:0:
146,222,8829,6,0,L|325:216,1,160
483,298,9346,1,0,0:0:0:0:
483,298,9432,1,0,0:0:0:0:
483,298,9518,2,0,P|458:252|408:219,1,80
370,120,9863,2,0,P|320:169|305:234,1,120
302,297,10208,5,0,0:0:0:0:
302,297,10553,1,0,0:0:0:0:
302,297,10898,1,0,0:0:0:0:
302,297,11242,2,0,P|290:236|232:310,1,179.999994506836
262,378,11587,5,0,0:0:0:0:
272,189,11760,1,0,0:0:0:0:
145,362,11932,1,0,0:0:0:0:
156,177,12105,1,0,0:0:0:0:
156,177,12191,1,0,0:0:0:0:
156,177,12277,2,0,L|164:101,1,50
215,280,12449,1,0,0:0:0:0:
68,220,12622,1,0,0:0:0:0:
238,116,12794,1,0,0:0:0:0:
238,116,12880,1,0,0:0:0:0:
238,116,12967,6,0,L|350:121,1,100
172,13,13311,1,0,0:0:0:0:
112,195,13484,1,0,0:0:0:0:
110,170,13570,1,0,0:0:0:0:
108,145,13656,1,0,0:0:0:0:
106,120,13742,1,0,0:0:0:0:
104,95,13828,1,0,0:0:0:0:
217,225,14001,1,0,0:0:0:0:
42,290,14174,1,0,0:0:0:0:
42,290,14260,1,0,0:0:0:0:
42,290,14346,6,0,L|166:279,1,100
322,256,14691,1,0,0:0:0:0:
203,140,14863,1,0,0:0:0:0:
203,140,14949,1,0,0:0:0:0:
203,140,15036,2,0,L|213:210,1,50
226,361,15208,1,0,0:0:0:0:
298,164,15380,1,0,0:0:0:0:
411,342,15553,1,0,0:0:0:0:
411,342,15639,1,0,0:0:0:0:
411,342,15725,6,0,L|270:333,1,100
158,317,16070,1,0,0:0:0:0:
298,164,16242,1,0,0:0:0:0:
295,188,16328,1,0,0:0:0:0:
293,213,16414,1,0,0:0:0:0:
291,238,16500,1,0,0:0:0:0:
289,263,16586,1,0,0:0:0:0:
200,128,16760,1,0,0:0:0:0:
412,86,16932,1,0,0:0:0:0:
412,86,17018,1,0,0:0:0:0:
412,86,17105,6,0,L|277:75,1,100
115,169,17449,1,0,0:0:0:0:
246,8,17622,1,0,0:0:0:0:
246,8,17708,1,0,0:0:0:0:
246,8,17794,2,0,L|240:88,1,50
224,220,17967,1,0,0:0:0:0:
128,57,18139,1,0,0:0:0:0:
106,268,18311,1,0,0:0:0:0:
106,268,18398,1,0,0:0:0:0:
106,268,18484,6,0,L|116:144,1,100
242,57,18829,1,0,0:0:0:0:
324,229,19001,1,0,0:0:0:0:
299,226,19087,1,0,0:0:0:0:
274,224,19173,1,0,0:0:0:0:
249,222,19259,1,0,0:0:0:0:
224,220,19345,1,0,0:0:0:0:
389,145,19518,1,0,0:0:0:0:
330,328,19691,1,0,0:0:0:0:
330,328,19777,1,0,0:0:0:0:
330,328,19863,6,0,L|322:195,1,100
314,74,20208,1,0,0:0:0:0:
453,226,20380,1,0,0:0:0:0:
453,226,20467,1,0,0:0:0:0:
453,226,20553,2,0,L|375:221,1,50
238,216,20725,1,0,0:0:0:0:
447,93,20898,1,0,0:0:0:0:
222,106,21070,1,0,0:0:0:0:
222,106,21156,1,0,0:0:0:0:
222,106,21242,5,0,0:0:0:0:
337,284,21415,1,0,0:0:0:0:
335,259,21501,1,0,0:0:0:0:
334,234,21587,1,0,0:0:0:0:
333,209,21673,1,0,0:0:0:0:
330,182,21760,1,0,0:0:0:0:
300,205,21846,1,0,0:0:0:0:
265,218,21932,1,0,0:0:0:0:
228,220,22018,1,0,0:0:0:0:
192,210,22104,1,0,0:0:0:0:
155,200,22191,1,0,0:0:0:0:
118,202,22277,1,0,0:0:0:0:
83,215,22363,1,0,0:0:0:0:
54,238,22449,1,0,0:0:0:0:
39,274,22536,1,0,0:0:0:0:
35,313,22622,6,0,L|138:319,1,80
114,318,22880,1,0,0:0:0:0:
114,318,22967,1,0,0:0:0:0:
354,339,23139,1,0,0:0:0:0:
354,339,24001,6,0,L|362:223,1,80
359,259,24260,1,0,0:0:0:0:
359,259,24346,1,0,0:0:0:0:
376,87,24518,1,0,0:0:0:0:
212,287,24863,2,0,L|287:283,1,40
164,207,25036,2,0,L|239:203,1,40
116,127,25208,2,0,L|191:123,1,40
68,47,25380,6,0,L|180:40,1,80
147,42,25639,1,0,0:0:0:0:
147,42,25725,1,0,0:0:0:0:
342,39,25898,1,0,0:0:0:0:
245,123,26070,2,0,L|251:16,1,80
342,211,26415,2,0,L|336:104,1,80
274,289,26760,5,0,0:0:0:0:
435,174,26932,1,0,0:0:0:0:
371,345,27105,5,0,0:0:0:0:
245,123,27277,1,0,0:0:0:0:
450,272,27449,5,0,0:0:0:0:
214,208,27622,1,0,0:0:0:0:
442,94,27794,6,0,L|431:206,1,80
303,380,28139,6,0,L|294:292,1,80
295,300,28398,1,0,0:0:0:0:
295,300,28484,1,0,0:0:0:0:
268,68,28656,1,0,0:0:0:0:
275,75,29001,1,0,0:0:0:0:
275,75,29087,1,0,0:0:0:0:
275,75,29174,2,0,P|223:63|147:85,1,120
86,117,29518,6,0,L|97:229,1,80
93,196,29777,1,0,0:0:0:0:
93,196,29863,1,0,0:0:0:0:
120,373,30036,1,0,0:0:0:0:
120,373,30898,6,0,L|228:364,1,80
199,366,31156,1,0,0:0:0:0:
199,366,31242,1,0,0:0:0:0:
381,352,31415,1,0,0:0:0:0:
381,352,32277,5,0,0:0:0:0:
276,177,32449,1,0,0:0:0:0:
199,366,32622,5,0,0:0:0:0:
423,236,32794,1,0,0:0:0:0:
144,204,32967,5,0,0:0:0:0:
293,384,33139,1,0,0:0:0:0:
338,127,33311,6,0,L|196:121,1,120
137,116,33656,5,0,0:0:0:0:
350,10,33829,1,0,0:0:0:0:
350,10,33915,1,0,0:0:0:0:
350,10,34001,1,0,0:0:0:0:
347,39,34087,1,0,0:0:0:0:
345,69,34173,1,0,0:0:0:0:
343,99,34259,1,0,0:0:0:0:
338,127,34346,1,0,0:0:0:0:
371,105,34432,1,0,0:0:0:0:
409,94,34518,1,0,0:0:0:0:
449,95,34604,1,0,0:0:0:0:
486,109,34691,1,0,0:0:0:0:
483,138,34777,1,0,0:0:0:0:
481,168,34863,1,0,0:0:0:0:
479,198,34949,1,0,0:0:0:0:
461,223,35036,5,0,0:0:0:0:
463,252,35122,1,0,0:0:0:0:
465,282,35208,1,0,0:0:0:0:
467,312,35294,1,0,0:0:0:0:
448,335,35380,1,0,0:0:0:0:
413,315,35466,1,0,0:0:0:0:
374,306,35552,1,0,0:0:0:0:
334,309,35638,1,0,0:0:0:0:
298,325,35725,1,0,0:0:0:0:
258,328,35811,1,0,0:0:0:0:
219,319,35897,1,0,0:0:0:0:
184,299,35983,1,0,0:0:0:0:
162,265,36070,2,0,L|156:376,1,89.9999972534181
300,226,36415,5,0,0:0:0:0:
300,226,36501,1,0,0:0:0:0:
300,226,36587,2,0,L|235:232,1,44.999998626709
354,150,36760,2,0,P|395:211|399:250,1,89.9999972534181
265,142,37105,1,0,0:0:0:0:
265,142,37191,1,0,0:0:0:0:
265,142,37277,1,0,0:0:0:0:
365,49,37449,2,0,L|215:55,1,134.999995880127
139,58,37794,5,0,0:0:0:0:
221,208,37967,1,0,0:0:0:0:
43,138,38139,1,0,0:0:0:0:
230,54,38311,1,0,0:0:0:0:
139,253,38484,1,0,0:0:0:0:
94,54,38656,2,0,L|170:60,1,44.999998626709
265,204,38829,2,0,L|189:210,1,44.999998626709
347,104,39001,1,0,0:0:0:0:
267,292,39174,5,0,0:0:0:0:
213,100,39346,1,0,0:0:0:0:
246,101,39432,1,0,0:0:0:0:
280,102,39518,1,0,0:0:0:0:
314,103,39604,1,0,0:0:0:0:
347,104,39691,2,0,L|420:105,1,44.999998626709
494,226,39863,1,0,0:0:0:0:
461,227,39949,1,0,0:0:0:0:
427,228,40035,1,0,0:0:0:0:
393,229,40121,1,0,0:0:0:0:
360,230,40208,1,0,0:0:0:0:
327,231,40294,1,0,0:0:0:0:
293,232,40380,1,0,0:0:0:0:
259,233,40466,1,0,0:0:0:0:
225,234,40553,5,0,0:0:0:0:
237,202,40639,1,0,0:0:0:0:
245,170,40725,1,0,0:0:0:0:
247,136,40811,1,0,0:0:0:0:
243,102,40898,2,0,L|234:29,1,44.999998626709
143,159,41070,2,0,L|137:203,1,44.999998626709
52,62,41242,6,0,L|178:71,1,89.9999972534181
327,153,41587,1,0,0:0:0:0:
181,0,41760,1,0,0:0:0:0:
237,202,41932,5,0,0:0:0:0:
372,52,42105,1,0,0:0:0:0:
339,53,42191,1,0,0:0:0:0:
305,55,42277,1,0,0:0:0:0:
271,57,42363,1,0,0:0:0:0:
237,58,42449,1,0,0:0:0:0:
422,133,42622,2,0,P|450:91|463:36,1,89.9999972534181
312,133,42967,1,0,0:0:0:0:
460,266,43139,2,0,L|460:200,1,44.999998626709
460,266,43656,6,0,P|396:324|382:257,2,179.999994506836
90,49,44691,5,0,0:0:0:0:
173,180,44863,2,0,L|167:55,1,89.9999972534181
92,231,45208,5,0,0:0:0:0:
260,167,45380,1,0,0:0:0:0:
223,336,45553,2,0,L|230:214,1,89.9999972534181
241,83,45898,5,0,0:0:0:0:
315,251,46070,1,0,0:0:0:0:
401,114,46242,2,0,L|291:109,1,89.9999972534181
436,228,46587,1,0,0:0:0:0:
451,42,46760,2,0,P|409:87|399:134,1,89.9999972534181
486,299,47105,2,0,P|468:257|435:227,1,89.9999972534181
268,217,47449,5,0,0:0:0:0:
405,310,47622,1,0,0:0:0:0:
354,153,47794,1,0,0:0:0:0:
290,337,47967,1,0,0:0:0:0:
354,153,48139,2,0,L|502:157,2,134.999995880127
191,169,48829,5,0,0:0:0:0:
347,242,49001,2,0,L|354:138,1,89.9999972534181
365,29,49346,1,0,0:0:0:0:
211,92,49518,2,0,L|317:87,1,89.9999972534181
454,33,49863,2,0,L|364:28,1,89.9999972534181
151,33,50208,6,0,P|127:90|131:126,1,89.9999972534181
262,227,50553,1,0,0:0:0:0:
211,92,50725,1,0,0:0:0:0:
167,258,50898,1,0,0:0:0:0:
300,87,51070,1,0,0:0:0:0:
338,285,51242,1,0,0:0:0:0:
196,175,51415,1,0,0:0:0:0:
391,190,51587,6,0,L|285:185,1,89.9999972534181
469,145,51932,1,0,0:0:0:0:
422,275,52105,1,0,0:0:0:0:
396,106,52277,1,0,0:0:0:0:
511,269,52449,1,0,0:0:0:0:
301,185,52622,2,0,L|311:62,1,89.9999972534181
422,275,52967,5,0,0:0:0:0:
214,207,53139,1,0,0:0:0:0:
214,207,53225,1,0,0:0:0:0:
214,207,53311,1,0,0:0:0:0:
407,164,53484,1,0,0:0:0:0:
313,327,53656,1,0,0:0:0:0:
225,112,53829,1,0,0:0:0:0:
360,231,54001,1,0,0:0:0:0:
136,240,54174,6,0,P|135:191|154:136,1,89.9999972534181
213,23,54518,1,0,0:0:0:0:
225,247,54691,2,0,L|122:238,1,89.9999972534181
124,57,55036,1,0,0:0:0:0:
288,197,55208,1,0,0:0:0:0:
73,124,55380,1,0,0:0:0:0:
279,109,55553,1,0,0:0:0:0:
198,251,55725,6,0,L|205:116,1,134.999995880127
209,26,56070,2,0,L|319:36,1,89.9999972534181
353,214,56415,6,0,P|292:155|280:72,1,134.999995880127
368,0,56760,2,0,P|372:49|352:105,1,89.9999972534181
268,240,57105,6,0,B|274:188|274:188|359:216,1,134.999995880127
440,231,57449,2,0,B|444:183|444:183|418:149,1,89.9999972534181
271,82,57794,6,0,L|394:89,1,89.9999972534181
508,144,58139,2,0,L|385:151,1,89.9999972534181
195,158,58484,1,0,0:0:0:0:
395,13,58656,1,0,0:0:0:0:
356,201,58829,1,0,0:0:0:0:
240,0,59001,1,0,0:0:0:0:
277,177,59174,2,0,L|282:329,2,134.999995880127
163,29,59863,5,0,0:0:0:0:
366,186,60036,2,0,L|244:173,1,89.9999972534181
164,113,60380,1,0,0:0:0:0:
403,103,60553,2,0,P|441:137|459:208,1,89.9999972534181
302,84,60898,1,0,0:0:0:0:
459,22,61070,1,0,0:0:0:0:
459,22,61156,1,0,0:0:0:0:
459,22,61242,6,0,L|334:13,1,89.9999972534181
196,4,61587,1,0,0:0:0:0:
403,103,61760,1,0,0:0:0:0:
178,104,61932,1,0,0:0:0:0:
369,15,62105,1,0,0:0:0:0:
297,194,62277,1,0,0:0:0:0:
282,0,62449,1,0,0:0:0:0:
386,198,62622,6,0,L|274:192,1,89.9999972534181
178,104,62967,2,0,L|290:98,1,89.9999972534181
160,200,63311,1,0,0:0:0:0:
82,71,63484,1,0,0:0:0:0:
47,263,63656,2,0,P|79:228|199:204,1,134.999995880127
250,207,64001,5,0,0:0:0:0:
142,294,64174,1,0,0:0:0:0:
316,306,64346,2,0,L|204:299,1,89.9999972534181
343,155,64691,2,0,L|455:148,1,89.9999972534181
316,306,65036,1,0,0:0:0:0:
264,119,65208,1,0,0:0:0:0:
351,234,65380,5,0,0:0:0:0:
335,65,65553,2,0,L|346:197,1,89.9999972534181
413,74,65898,1,0,0:0:0:0:
255,34,66070,5,0,0:0:0:0:
386,0,66242,1,0,0:0:0:0:
261,163,66415,2,0,L|266:79,1,44.999998626709
351,234,66587,1,0,0:0:0:0:
169,276,66760,5,0,0:0:0:0:
171,242,66846,1,0,0:0:0:0:
174,208,66932,1,0,0:0:0:0:
177,175,67018,1,0,0:0:0:0:
180,141,67104,1,0,0:0:0:0:
261,381,67277,5,0,0:0:0:0:
263,347,67363,1,0,0:0:0:0:
266,313,67449,1,0,0:0:0:0:
269,280,67535,1,0,0:0:0:0:
272,246,67621,1,0,0:0:0:0:
285,96,67794,5,0,0:0:0:0:
367,314,67967,1,0,0:0:0:0:
420,85,68139,5,0,0:0:0:0:
386,87,68225,1,0,0:0:0:0:
352,90,68311,1,0,0:0:0:0:
319,93,68397,1,0,0:0:0:0:
285,96,68483,1,0,0:0:0:0:
512,180,68656,5,0,0:0:0:0:
478,182,68742,1,0,0:0:0:0:
444,185,68828,1,0,0:0:0:0:
411,188,68914,1,0,0:0:0:0:
377,191,69000,1,0,0:0:0:0:
218,201,69174,5,0,0:0:0:0:
386,87,69346,1,0,0:0:0:0:
207,66,69518,5,0,0:0:0:0:
209,100,69604,1,0,0:0:0:0:
212,134,69690,1,0,0:0:0:0:
215,167,69776,1,0,0:0:0:0:
218,201,69862,1,0,0:0:0:0:
311,0,70036,5,0,0:0:0:0:
313,34,70122,1,0,0:0:0:0:
316,68,70208,1,0,0:0:0:0:
319,101,70294,1,0,0:0:0:0:
322,135,70380,1,0,0:0:0:0:
339,285,70553,5,0,0:0:0:0:
209,100,70725,1,0,0:0:0:0:
204,296,70898,5,0,0:0:0:0:
238,294,70984,1,0,0:0:0:0:
272,291,71070,1,0,0:0:0:0:
305,288,71156,1,0,0:0:0:0:
339,285,71242,1,0,0:0:0:0:
80,178,71415,5,0,0:0:0:0:
114,176,71501,1,0,0:0:0:0:
148,173,71587,1,0,0:0:0:0:
181,170,71673,1,0,0:0:0:0:
215,167,71759,1,0,0:0:0:0:
440,148,71932,6,0,L|350:155,1,75
287,115,72277,6,0,P|327:152|301:270,1,175
234,306,72967,6,0,B|194:289|141:302|154:310|106:329|46:304,1,175
111,197,73656,6,0,L|103:267,3,37.5000014305115
31,140,74001,2,0,L|27:102,3,37.5000014305115
121,25,74346,2,0,L|117:62,3,37.5000014305115
197,124,74691,2,0,L|323:115,1,112.500004291535
367,182,75036,5,0,0:0:0:0:
498,42,75208,1,0,0:0:0:0:
498,42,75294,1,0,0:0:0:0:
498,42,75380,1,0,0:0:0:0:
503,274,75553,1,0,0:0:0:0:
465,271,75639,1,0,0:0:0:0:
428,269,75725,1,0,0:0:0:0:
390,266,75811,1,0,0:0:0:0:
353,264,75897,1,0,0:0:0:0:
185,245,76070,1,0,0:0:0:0:
389,118,76242,1,0,0:0:0:0:
389,118,76329,1,0,0:0:0:0:
389,118,76415,5,0,0:0:0:0:
256,306,76587,1,0,0:0:0:0:
143,69,76760,1,0,0:0:0:0:
126,339,76932,1,0,0:0:0:0:
126,339,77018,1,0,0:0:0:0:
126,339,77105,2,0,L|191:329,1,50
367,291,77277,1,0,0:0:0:0:
234,33,77449,2,0,L|251:167,1,100
281,237,77708,1,0,0:0:0:0:
281,237,77794,6,0,L|293:137,1,100
189,292,78139,1,0,0:0:0:0:
408,384,78311,1,0,0:0:0:0:
370,380,78397,1,0,0:0:0:0:
333,376,78483,1,0,0:0:0:0:
296,373,78569,1,0,0:0:0:0:
258,369,78655,1,0,0:0:0:0:
430,225,78829,1,0,0:0:0:0:
200,113,79001,1,0,0:0:0:0:
200,113,79087,1,0,0:0:0:0:
200,113,79174,6,0,L|209:206,1,50
344,284,79346,2,0,L|348:234,1,50
374,59,79518,1,0,0:0:0:0:
130,241,79691,1,0,0:0:0:0:
130,241,79777,1,0,0:0:0:0:
130,241,79863,1,0,0:0:0:0:
130,241,79949,1,0,0:0:0:0:
162,259,80035,1,0,0:0:0:0:
198,267,80121,1,0,0:0:0:0:
235,262,80208,1,0,0:0:0:0:
232,286,80294,1,0,0:0:0:0:
230,311,80380,1,0,0:0:0:0:
228,336,80466,1,0,0:0:0:0:
226,361,80552,5,0,0:0:0:0:
193,177,80725,1,0,0:0:0:0:
193,177,80811,1,0,0:0:0:0:
193,177,80898,1,0,0:0:0:0:
358,318,81070,1,0,0:0:0:0:
358,318,81156,1,0,0:0:0:0:
358,318,81242,2,0,L|278:304,1,50
110,286,81415,1,0,0:0:0:0:
348,204,81587,1,0,0:0:0:0:
100,105,81760,1,0,0:0:0:0:
100,105,81846,1,0,0:0:0:0:
100,105,81932,5,0,0:0:0:0:
271,230,82105,1,0,0:0:0:0:
268,192,82191,1,0,0:0:0:0:
266,155,82277,1,0,0:0:0:0:
263,117,82363,1,0,0:0:0:0:
261,80,82449,1,0,0:0:0:0:
303,106,82535,1,0,0:0:0:0:
351,116,82621,1,0,0:0:0:0:
400,108,82707,1,0,0:0:0:0:
443,83,82794,2,0,L|438:166,1,50
376,265,82967,1,0,0:0:0:0:
376,265,83053,1,0,0:0:0:0:
376,265,83139,2,0,L|365:182,1,50
486,342,83311,5,0,0:0:0:0:
271,273,83484,1,0,0:0:0:0:
505,198,83656,1,0,0:0:0:0:
321,361,83829,1,0,0:0:0:0:
283,358,83915,1,0,0:0:0:0:
246,356,84001,1,0,0:0:0:0:
208,353,84087,1,0,0:0:0:0:
171,351,84173,1,0,0:0:0:0:
0,253,84346,1,0,0:0:0:0:
221,191,84518,1,0,0:0:0:0:
221,191,84605,1,0,0:0:0:0:
221,191,84691,5,0,0:0:0:0:
40,368,84863,1,0,0:0:0:0:
246,356,85036,1,0,0:0:0:0:
63,121,85208,1,0,0:0:0:0:
63,121,85294,1,0,0:0:0:0:
63,121,85380,2,0,L|72:201,1,50
143,355,85553,1,0,0:0:0:0:
209,101,85725,1,0,0:0:0:0:
77,287,85898,1,0,0:0:0:0:
77,287,85984,1,0,0:0:0:0:
77,287,86070,5,0,0:0:0:0:
294,134,86242,1,0,0:0:0:0:
294,134,86329,1,0,0:0:0:0:
294,134,86415,1,0,0:0:0:0:
220,334,86587,1,0,0:0:0:0:
221,296,86673,1,0,0:0:0:0:
223,259,86759,1,0,0:0:0:0:
225,221,86845,1,0,0:0:0:0:
227,184,86931,1,0,0:0:0:0:
455,307,87105,1,0,0:0:0:0:
455,307,87191,1,0,0:0:0:0:
455,307,87277,2,0,L|364:298,1,50
138,282,87449,5,0,0:0:0:0:
423,195,87622,1,0,0:0:0:0:
136,81,87794,1,0,0:0:0:0:
313,337,87967,1,0,0:0:0:0:
314,299,88053,1,0,0:0:0:0:
316,262,88139,1,0,0:0:0:0:
318,224,88225,1,0,0:0:0:0:
320,187,88311,1,0,0:0:0:0:
136,81,88484,2,0,L|261:74,1,100
340,36,88742,1,0,0:0:0:0:
340,36,88829,6,0,L|215:29,1,100
406,122,89174,1,0,0:0:0:0:
187,233,89346,1,0,0:0:0:0:
187,233,89432,1,0,0:0:0:0:
187,233,89518,2,0,L|196:146,1,50
261,328,89691,2,0,P|203:352|138:344,1,100
68,324,89949,1,0,0:0:0:0:
68,324,90036,2,0,L|64:237,1,50
190,84,90208,5,0,0:0:0:0:
15,210,90380,1,0,0:0:0:0:
54,18,90553,1,0,0:0:0:0:
192,183,90725,1,0,0:0:0:0:
192,183,90811,1,0,0:0:0:0:
192,183,90898,2,0,L|117:178,1,50
361,117,91070,1,0,0:0:0:0:
229,278,91242,1,0,0:0:0:0:
272,29,91415,1,0,0:0:0:0:
272,29,91501,1,0,0:0:0:0:
272,29,91587,5,0,0:0:0:0:
361,244,91760,1,0,0:0:0:0:
121,100,91932,1,0,0:0:0:0:
158,102,92018,1,0,0:0:0:0:
195,105,92104,1,0,0:0:0:0:
233,108,92190,1,0,0:0:0:0:
270,111,92277,2,0,L|350:118,1,50
158,240,92449,1,0,0:0:0:0:
410,110,92622,1,0,0:0:0:0:
255,311,92794,1,0,0:0:0:0:
255,311,92880,1,0,0:0:0:0:
255,311,92967,5,0,0:0:0:0:
257,273,93053,1,0,0:0:0:0:
260,236,93139,1,0,0:0:0:0:
263,198,93225,1,0,0:0:0:0:
266,161,93311,2,0,L|272:93,1,50
96,42,93484,5,0,0:0:0:0:
98,80,93570,1,0,0:0:0:0:
101,117,93656,1,0,0:0:0:0:
104,155,93742,1,0,0:0:0:0:
107,192,93828,2,0,L|113:260,1,50
409,188,94001,5,0,0:0:0:0:
376,169,94087,1,0,0:0:0:0:
340,158,94173,1,0,0:0:0:0:
303,155,94259,1,0,0:0:0:0:
266,161,94345,5,0,0:0:0:0:
450,291,94518,1,0,0:0:0:0:
450,291,94605,1,0,0:0:0:0:
450,291,94691,5,0,0:0:0:0:
373,46,94863,1,0,0:0:0:0:
295,296,95036,5,0,0:0:0:0:
458,86,95208,1,0,0:0:0:0:
498,355,95380,5,0,0:0:0:0:
285,77,95553,1,0,0:0:0:0:
346,369,95725,5,0,0:0:0:0:
512,158,95898,1,0,0:0:0:0:
198,189,96070,5,0,0:0:0:0:
426,384,96242,1,0,0:0:0:0:
366,53,96415,5,0,0:0:0:0:
210,324,96587,1,0,0:0:0:0:
509,123,96760,2,0,L|502:8,1,100
502,23,97018,1,0,0:0:0:0:
502,23,97105,5,0,0:0:0:0:
330,205,97277,1,0,0:0:0:0:
404,20,97449,5,0,0:0:0:0:
463,276,97622,1,0,0:0:0:0:
313,38,97794,5,0,0:0:0:0:
236,293,97967,1,0,0:0:0:0:
444,108,98139,5,0,0:0:0:0:
185,91,98311,1,0,0:0:0:0:
382,268,98484,5,0,0:0:0:0:
313,38,98656,1,0,0:0:0:0:
145,212,98829,5,0,0:0:0:0:
404,20,99001,1,0,0:0:0:0:
91,35,99174,5,0,0:0:0:0:
369,165,99346,1,0,0:0:0:0:
369,165,99432,1,0,0:0:0:0:
369,165,99518,5,0,0:0:0:0:
56,236,99691,1,0,0:0:0:0:
56,236,99777,1,0,0:0:0:0:
56,236,99863,5,0,0:0:0:0:
234,63,100036,1,0,0:0:0:0:
230,303,100208,5,0,0:0:0:0:
135,66,100380,1,0,0:0:0:0:
74,328,100553,5,0,0:0:0:0:
239,137,100725,1,0,0:0:0:0:
289,365,100898,5,0,0:0:0:0:
154,146,101070,1,0,0:0:0:0:
134,384,101242,5,0,0:0:0:0:
326,124,101415,1,0,0:0:0:0:
372,374,101587,5,0,0:0:0:0:
236,91,101760,1,0,0:0:0:0:
217,384,101932,5,0,0:0:0:0:
389,88,102105,1,0,0:0:0:0:
174,250,102277,2,0,L|306:241,1,100
273,243,102536,1,0,0:0:0:0:
273,243,102622,5,0,0:0:0:0:
81,90,102794,1,0,0:0:0:0:
136,330,102967,5,0,0:0:0:0:
213,62,103139,1,0,0:0:0:0:
6,193,103311,5,0,0:0:0:0:
320,177,103484,1,0,0:0:0:0:
10,51,103656,5,0,0:0:0:0:
317,11,103829,1,0,0:0:0:0:
107,257,104001,5,0,0:0:0:0:
154,0,104174,1,0,0:0:0:0:
154,0,104260,1,0,0:0:0:0:
154,0,104346,6,0,L|164:83,1,50
254,253,104518,1,0,0:0:0:0:
254,253,104605,1,0,0:0:0:0:
254,253,104691,6,0,L|262:168,1,50
361,31,104863,1,0,0:0:0:0:
361,31,104949,1,0,0:0:0:0:
361,31,105036,5,0,0:0:0:0:
162,150,105208,1,0,0:0:0:0:
415,205,105380,5,0,0:0:0:0:
248,5,105553,1,0,0:0:0:0:
159,252,105725,5,0,0:0:0:0:
314,86,105898,1,0,0:0:0:0:
328,308,106070,5,0,0:0:0:0:
193,68,106242,1,0,0:0:0:0:
120,357,106415,2,0,L|241:348,1,100
219,349,106674,1,0,0:0:0:0:
219,349,106760,5,0,0:0:0:0:
113,113,106932,1,0,0:0:0:0:
44,312,107105,5,0,0:0:0:0:
193,68,107277,1,0,0:0:0:0:
281,257,107449,5,0,0:0:0:0:
15,116,107622,1,0,0:0:0:0:
286,85,107794,5,0,0:0:0:0:
117,276,107967,1,0,0:0:0:0:
116,15,108139,5,0,0:0:0:0:
341,199,108311,1,0,0:0:0:0:
341,199,108398,1,0,0:0:0:0:
341,199,108484,5,0,0:0:0:0:
26,222,108656,1,0,0:0:0:0:
241,0,108829,2,0,L|229:143,1,100
150,287,109174,1,0,0:0:0:0:
341,99,109346,1,0,0:0:0:0:
338,347,109518,5,0,0:0:0:0:
232,99,109691,1,0,0:0:0:0:
195,369,109863,5,0,0:0:0:0:
415,109,110036,1,0,0:0:0:0:
431,361,110208,6,0,L|422:278,1,50
185,170,110380,2,0,L|179:219,1,50
471,382,110553,6,0,L|462:299,1,50
158,152,110725,2,0,L|152:201,1,50
461,115,110898,5,0,0:0:0:0:
270,356,111070,1,0,0:0:0:0:
295,56,111242,5,0,0:0:0:0:
401,339,111415,1,0,0:0:0:0:
401,339,111501,1,0,0:0:0:0:
401,339,111587,5,0,0:0:0:0:
123,275,111760,1,0,0:0:0:0:
373,84,111932,5,0,0:0:0:0:
190,353,112105,1,0,0:0:0:0:
185,49,112277,5,0,0:0:0:0:
404,247,112449,1,0,0:0:0:0:
297,27,112622,5,0,0:0:0:0:
212,274,112794,1,0,0:0:0:0:
212,274,112880,1,0,0:0:0:0:
212,274,112967,5,0,0:0:0:0:
441,147,113139,1,0,0:0:0:0:
129,113,113311,5,0,0:0:0:0:
321,330,113484,1,0,0:0:0:0:
377,26,113656,5,0,0:0:0:0:
133,222,113829,1,0,0:0:0:0:
133,222,113915,1,0,0:0:0:0:
133,222,114001,5,0,0:0:0:0:
170,219,114087,1,0,0:0:0:0:
207,217,114173,1,0,0:0:0:0:
245,215,114259,1,0,0:0:0:0:
282,213,114345,5,0,0:0:0:0:
36,118,114518,1,0,0:0:0:0:
36,118,114605,1,0,0:0:0:0:
36,118,114691,5,0,0:0:0:0:
149,322,114863,1,0,0:0:0:0:
218,43,115036,6,0,P|162:10|56:19,2,150
407,197,115725,6,0,P|385:105|340:225,1,300.000011444092
