osu file format v14

[General]
AudioFilename: audio.mp3
AudioLeadIn: 0
PreviewTime: -1
Countdown: 1
SampleSet: Soft
StackLeniency: 0.7
Mode: 0
LetterboxInBreaks: 0
WidescreenStoryboard: 0

[Editor]
Bookmarks: 17845
DistanceSpacing: 0.2
BeatDivisor: 4
GridSize: 16
TimelineZoom: 2.3

[Metadata]
Title:U&I
TitleUnicode:U&I
Artist:Uplift Spice
ArtistUnicode:Uplift Spice
Creator:South
Version:"hard"
Source:
Tags:
BeatmapID:1757703
BeatmapSetID:839676

[Difficulty]
HPDrainRate:9
CircleSize:3.7
OverallDifficulty:9
ApproachRate:10
SliderMultiplier:1.4
SliderTickRate:1

[Events]
//Background and Video events
0,0,"ss+(2015-12-08+at+08.42.38).jpg",0,0
//Break Periods
2,22863,37291
//Storyboard Layer 0 (Background)
//Storyboard Layer 1 (Fail)
//Storyboard Layer 2 (Pass)
//Storyboard Layer 3 (Foreground)
//Storyboard Sound Samples

[TimingPoints]
436,310.880829015544,4,2,0,100,1,0
10072,-1000,4,2,0,100,0,0
10074,-100,4,2,0,20,0,0
10383,-100,4,2,0,100,0,0
15124,-1000,4,2,0,100,0,0
15126,-100,4,2,0,20,0,0
15224,-100,4,2,0,100,0,0
37741,-50,4,2,0,100,0,0

[HitObjects]
4,192,436,5,0,0:0:0:0:
102,91,591,1,0,0:0:0:0:
202,192,746,1,0,0:0:0:0:
102,91,902,2,0,L|193:90,2,70
4,192,1368,2,0,L|94:189,2,70
102,290,1834,2,0,L|193:289,2,70
198,192,2301,2,0,L|289:189,2,70
301,102,2767,1,0,0:0:0:0:
511,106,2923,5,0,0:0:0:0:
512,289,3078,1,0,0:0:0:0:
300,289,3233,1,0,0:0:0:0:
194,135,3389,1,0,0:0:0:0:
226,128,3467,1,0,0:0:0:0:
215,159,3544,1,0,0:0:0:0:
51,255,3700,1,0,0:0:0:0:
72,293,3777,1,0,0:0:0:0:
102,257,3855,1,0,0:0:0:0:
64,142,4011,5,0,0:0:0:0:
4,27,4166,2,0,L|86:16,2,70
216,46,4632,2,0,L|297:36,2,70
278,91,5099,1,0,0:0:0:0:
408,86,5254,1,0,0:0:0:0:
419,233,5410,1,0,0:0:0:0:
270,240,5565,1,0,0:0:0:0:
338,85,5720,1,0,0:0:0:0:
440,157,5876,5,0,0:0:0:0:
432,194,5954,1,0,0:0:0:0:
394,175,6031,1,0,0:0:0:0:
291,259,6187,1,0,0:0:0:0:
276,294,6265,1,0,0:0:0:0:
241,269,6342,1,0,0:0:0:0:
114,91,6498,5,0,0:0:0:0:
64,91,6575,1,0,0:0:0:0:
95,128,6653,1,0,0:0:0:0:
190,333,6809,1,0,0:0:0:0:
141,353,6886,1,0,0:0:0:0:
153,311,6964,1,0,0:0:0:0:
366,171,7119,5,0,0:0:0:0:
336,202,7197,1,0,0:0:0:0:
323,166,7275,1,0,0:0:0:0:
26,180,7430,1,0,0:0:0:0:
0,219,7508,1,0,0:0:0:0:
44,218,7586,1,0,0:0:0:0:
90,84,7741,1,0,0:0:0:0:
122,56,7819,1,0,0:0:0:0:
150,36,7897,1,0,0:0:0:0:
176,24,7974,1,0,0:0:0:0:
216,13,8052,1,0,0:0:0:0:
247,11,8130,1,0,0:0:0:0:
282,12,8208,1,0,0:0:0:0:
311,20,8285,1,0,0:0:0:0:
335,28,8363,1,0,0:0:0:0:
362,45,8441,1,0,0:0:0:0:
391,80,8518,1,0,0:0:0:0:
406,113,8596,1,0,0:0:0:0:
431,251,8674,5,0,0:0:0:0:
108,337,8829,1,0,0:0:0:0:
324,131,8985,1,0,0:0:0:0:
193,200,9062,1,0,0:0:0:0:
238,225,9140,1,0,0:0:0:0:
294,215,9218,1,0,0:0:0:0:
347,197,9296,1,0,0:0:0:0:
370,150,9373,1,0,0:0:0:0:
363,98,9451,1,0,0:0:0:0:
329,61,9529,1,0,0:0:0:0:
285,36,9606,1,0,0:0:0:0:
237,32,9684,1,0,0:0:0:0:
195,34,9762,1,0,0:0:0:0:
86,176,10073,6,0,L|96:183,1,10.5
146,218,10384,2,0,L|276:209,1,105
296,196,10695,1,0,0:0:0:0:
406,112,10850,5,0,0:0:0:0:
235,283,11005,1,0,0:0:0:0:
198,96,11161,1,0,0:0:0:0:
198,96,11239,1,0,0:0:0:0:
198,96,11316,1,0,0:0:0:0:
235,283,11472,5,0,0:0:0:0:
192,91,11628,1,0,0:0:0:0:
405,103,11783,1,0,0:0:0:0:
405,103,11861,1,0,0:0:0:0:
405,103,11939,1,0,0:0:0:0:
235,283,12094,5,0,0:0:0:0:
405,103,12250,1,0,0:0:0:0:
191,81,12405,1,0,0:0:0:0:
191,81,12483,1,0,0:0:0:0:
191,81,12561,1,0,0:0:0:0:
46,198,12715,5,0,0:0:0:0:
235,283,12871,1,0,0:0:0:0:
315,82,13026,1,0,0:0:0:0:
315,82,13104,1,0,0:0:0:0:
315,82,13182,1,0,0:0:0:0:
235,283,13337,5,0,0:0:0:0:
315,82,13493,1,0,0:0:0:0:
57,154,13648,1,0,0:0:0:0:
57,154,13726,1,0,0:0:0:0:
57,154,13804,1,0,0:0:0:0:
315,82,13959,5,0,0:0:0:0:
56,147,14115,1,0,0:0:0:0:
274,282,14270,1,0,0:0:0:0:
274,282,14348,1,0,0:0:0:0:
274,282,14426,1,0,0:0:0:0:
71,185,14581,5,0,0:0:0:0:
274,282,14737,1,0,0:0:0:0:
263,69,14892,1,0,0:0:0:0:
263,69,14970,1,0,0:0:0:0:
263,69,15048,1,0,0:0:0:0:
259,135,15125,2,0,L|266:133,1,7
260,178,15358,2,0,L|386:169,1,105
413,150,15669,1,0,0:0:0:0:
315,27,15824,5,0,0:0:0:0:
185,353,15980,1,0,0:0:0:0:
249,192,16135,1,0,0:0:0:0:
249,192,16213,1,0,0:0:0:0:
249,192,16291,1,0,0:0:0:0:
414,257,16446,5,0,0:0:0:0:
88,127,16602,1,0,0:0:0:0:
249,192,16757,1,0,0:0:0:0:
249,192,16835,1,0,0:0:0:0:
249,192,16913,1,0,0:0:0:0:
175,357,17068,5,0,0:0:0:0:
320,24,17224,1,0,0:0:0:0:
256,185,17379,1,0,0:0:0:0:
256,185,17457,1,0,0:0:0:0:
256,185,17534,1,0,0:0:0:0:
196,374,17844,1,0,0:0:0:0:
153,364,17922,1,0,0:0:0:0:
115,343,18000,1,0,0:0:0:0:
82,315,18077,1,0,0:0:0:0:
57,279,18155,1,0,0:0:0:0:
41,238,18233,1,0,0:0:0:0:
36,195,18311,1,0,0:0:0:0:
41,152,18388,1,0,0:0:0:0:
56,111,18466,1,0,0:0:0:0:
81,75,18544,1,0,0:0:0:0:
114,46,18621,1,0,0:0:0:0:
152,26,18699,1,0,0:0:0:0:
194,15,18777,1,0,0:0:0:0:
238,15,18855,1,0,0:0:0:0:
280,25,18932,1,0,0:0:0:0:
319,45,19010,1,0,0:0:0:0:
352,74,19088,1,0,0:0:0:0:
377,110,19165,1,0,0:0:0:0:
392,150,19243,1,0,0:0:0:0:
398,194,19321,1,0,0:0:0:0:
392,237,19399,1,0,0:0:0:0:
377,278,19476,1,0,0:0:0:0:
352,314,19554,1,0,0:0:0:0:
320,343,19632,1,0,0:0:0:0:
228,283,19710,2,0,L|97:315,1,105
315,193,20021,2,0,L|425:163,1,105
421,273,20332,5,0,0:0:0:0:
88,128,20488,1,0,0:0:0:0:
249,192,20643,1,0,0:0:0:0:
249,192,20721,1,0,0:0:0:0:
249,192,20798,1,0,0:0:0:0:
175,357,20954,5,0,0:0:0:0:
320,24,21110,1,0,0:0:0:0:
256,185,21265,1,0,0:0:0:0:
256,185,21343,1,0,0:0:0:0:
256,185,21420,1,0,0:0:0:0:
91,111,21575,5,0,0:0:0:0:
424,256,21731,1,0,0:0:0:0:
263,192,21886,1,0,0:0:0:0:
263,192,21964,1,0,0:0:0:0:
263,192,22041,1,0,0:0:0:0:
175,357,22197,5,0,0:0:0:0:
320,24,22353,1,0,0:0:0:0:
256,185,22508,1,0,0:0:0:0:
256,185,22586,1,0,0:0:0:0:
256,185,22663,1,0,0:0:0:0:
243,140,37741,6,0,P|312:140|265:233,1,210
259,245,38052,6,0,P|190:245|237:152,1,210
243,140,38363,6,0,P|312:140|265:233,1,210
259,245,38674,6,0,P|190:245|237:152,1,210
253,139,38985,6,0,P|322:139|275:232,1,210
259,245,39296,6,0,P|190:245|237:152,1,210
253,139,39606,6,0,P|322:139|511:240,1,280
296,383,40228,5,0,0:0:0:0:
64,232,40384,1,0,0:0:0:0:
215,0,40539,1,0,0:0:0:0:
447,151,40695,1,0,0:0:0:0:
149,356,40850,1,0,0:0:0:0:
91,85,41005,1,0,0:0:0:0:
362,27,41161,1,0,0:0:0:0:
420,298,41316,1,0,0:0:0:0:
296,383,41472,1,0,0:0:0:0:
64,232,41628,1,0,0:0:0:0:
215,0,41783,1,0,0:0:0:0:
447,151,41939,1,0,0:0:0:0:
149,356,42094,1,0,0:0:0:0:
91,85,42249,1,0,0:0:0:0:
362,27,42405,1,0,0:0:0:0:
420,298,42560,1,0,0:0:0:0:
149,356,42715,1,0,0:0:0:0:
91,85,42871,1,0,0:0:0:0:
362,27,43026,1,0,0:0:0:0:
420,298,43182,1,0,0:0:0:0:
64,232,43337,1,0,0:0:0:0:
215,0,43492,1,0,0:0:0:0:
447,151,43648,1,0,0:0:0:0:
296,383,43803,1,0,0:0:0:0:
88,292,43959,1,0,0:0:0:0:
155,23,44115,1,0,0:0:0:0:
424,90,44270,1,0,0:0:0:0:
356,359,44426,1,0,0:0:0:0:
66,144,44581,1,0,0:0:0:0:
303,1,44736,1,0,0:0:0:0:
446,238,44892,1,0,0:0:0:0:
209,381,45047,1,0,0:0:0:0:
66,144,45202,1,0,0:0:0:0:
303,1,45358,1,0,0:0:0:0:
446,238,45513,1,0,0:0:0:0:
209,381,45669,1,0,0:0:0:0:
155,23,45824,1,0,0:0:0:0:
424,90,45979,1,0,0:0:0:0:
356,359,46135,1,0,0:0:0:0:
88,292,46290,1,0,0:0:0:0:
147,29,46446,1,0,0:0:0:0:
419,82,46602,1,0,0:0:0:0:
365,354,46757,1,0,0:0:0:0:
94,301,46913,1,0,0:0:0:0:
293,0,47068,1,0,0:0:0:0:
449,229,47223,1,0,0:0:0:0:
219,384,47379,1,0,0:0:0:0:
64,155,47534,1,0,0:0:0:0:
296,383,47689,1,0,0:0:0:0:
64,232,47845,1,0,0:0:0:0:
215,0,48000,1,0,0:0:0:0:
447,151,48156,1,0,0:0:0:0:
149,356,48311,1,0,0:0:0:0:
91,85,48466,1,0,0:0:0:0:
362,27,48622,1,0,0:0:0:0:
420,298,48777,1,0,0:0:0:0:
296,383,48933,1,0,0:0:0:0:
64,232,49089,1,0,0:0:0:0:
215,0,49244,1,0,0:0:0:0:
447,151,49400,1,0,0:0:0:0:
149,356,49555,1,0,0:0:0:0:
91,85,49710,1,0,0:0:0:0:
362,27,49866,1,0,0:0:0:0:
420,298,50021,1,0,0:0:0:0:
149,356,50176,1,0,0:0:0:0:
91,85,50332,1,0,0:0:0:0:
362,27,50487,1,0,0:0:0:0:
420,298,50643,1,0,0:0:0:0:
64,232,50798,1,0,0:0:0:0:
215,0,50953,1,0,0:0:0:0:
447,151,51109,1,0,0:0:0:0:
296,383,51264,1,0,0:0:0:0:
88,292,51420,1,0,0:0:0:0:
155,23,51576,1,0,0:0:0:0:
424,90,51731,1,0,0:0:0:0:
356,359,51887,1,0,0:0:0:0:
66,144,52042,1,0,0:0:0:0:
303,1,52197,1,0,0:0:0:0:
446,238,52353,1,0,0:0:0:0:
209,381,52508,1,0,0:0:0:0:
66,144,52663,1,0,0:0:0:0:
303,1,52819,1,0,0:0:0:0:
446,238,52974,1,0,0:0:0:0:
209,381,53130,1,0,0:0:0:0:
155,23,53285,1,0,0:0:0:0:
424,90,53440,1,0,0:0:0:0:
356,359,53596,1,0,0:0:0:0:
88,292,53751,1,0,0:0:0:0:
147,29,53907,1,0,0:0:0:0:
419,82,54063,1,0,0:0:0:0:
365,354,54218,1,0,0:0:0:0:
94,301,54374,1,0,0:0:0:0:
293,0,54529,1,0,0:0:0:0:
449,229,54684,1,0,0:0:0:0:
219,384,54840,1,0,0:0:0:0:
64,155,54995,1,0,0:0:0:0:
296,383,55151,1,0,0:0:0:0:
64,232,55307,1,0,0:0:0:0:
215,0,55462,1,0,0:0:0:0:
447,151,55618,1,0,0:0:0:0:
149,356,55773,1,0,0:0:0:0:
91,85,55928,1,0,0:0:0:0:
362,27,56084,1,0,0:0:0:0:
420,298,56239,1,0,0:0:0:0:
296,383,56395,1,0,0:0:0:0:
64,232,56551,1,0,0:0:0:0:
215,0,56706,1,0,0:0:0:0:
447,151,56862,1,0,0:0:0:0:
149,356,57017,1,0,0:0:0:0:
91,85,57172,1,0,0:0:0:0:
362,27,57328,1,0,0:0:0:0:
420,298,57483,1,0,0:0:0:0:
149,356,57638,1,0,0:0:0:0:
91,85,57794,1,0,0:0:0:0:
362,27,57949,1,0,0:0:0:0:
420,298,58105,1,0,0:0:0:0:
64,232,58260,1,0,0:0:0:0:
215,0,58415,1,0,0:0:0:0:
447,151,58571,1,0,0:0:0:0:
296,383,58726,1,0,0:0:0:0:
88,292,58882,1,0,0:0:0:0:
155,23,59038,1,0,0:0:0:0:
424,90,59193,1,0,0:0:0:0:
356,359,59349,1,0,0:0:0:0:
66,144,59504,1,0,0:0:0:0:
303,1,59659,1,0,0:0:0:0:
446,238,59815,1,0,0:0:0:0:
209,381,59970,1,0,0:0:0:0:
66,144,60125,1,0,0:0:0:0:
303,1,60281,1,0,0:0:0:0:
446,238,60436,1,0,0:0:0:0:
209,381,60592,1,0,0:0:0:0:
155,23,60747,1,0,0:0:0:0:
424,90,60902,1,0,0:0:0:0:
356,359,61058,1,0,0:0:0:0:
88,292,61213,1,0,0:0:0:0:
147,29,61369,1,0,0:0:0:0:
419,82,61525,1,0,0:0:0:0:
365,354,61680,1,0,0:0:0:0:
94,301,61836,1,0,0:0:0:0:
293,0,61991,1,0,0:0:0:0:
449,229,62146,1,0,0:0:0:0:
219,384,62302,1,0,0:0:0:0:
64,155,62457,1,0,0:0:0:0:
