osu file format v14

[General]
AudioFilename: audio.mp3
AudioLeadIn: 0
PreviewTime: 49903
Countdown: 0
SampleSet: Normal
StackLeniency: 0.7
Mode: 1
LetterboxInBreaks: 0
WidescreenStoryboard: 1

[Editor]
Bookmarks: 189,4617,9189,18474,25189,32046,41331,50331,59474,68760,73189,82331,89189,96046,105331,107474,116617,125903,130331,150903,160189,169189,178331,196760,205760
DistanceSpacing: 0.9
BeatDivisor: 4
GridSize: 32
TimelineZoom: 1.8

[Metadata]
Title:U.F.O. - U Feel Overjoyed! -
TitleUnicode:U.F.O. – U Feel Overjoyed! –
Artist:Unlucky Morpheus
ArtistUnicode:Unlucky Morpheus
Creator:roxorotto
Version:iceOC's Muzukashii
Source:
Tags:日清焼そばU.F.O. nissin yakisoba ufo japanese rock jrock j-rock jmetal metal j-metal self cover ver. version iceoc gaston_2199 you 紫煉 shiren fuki
BeatmapID:4360327
BeatmapSetID:2047321

[Difficulty]
HPDrainRate:5
CircleSize:2
OverallDifficulty:5
ApproachRate:10
SliderMultiplier:1.2
SliderTickRate:1

[Events]
//Background and Video events
0,0,"angel.jpg",0,-140
//Break Periods
//Storyboard Layer 0 (Background)
//Storyboard Layer 1 (Fail)
//Storyboard Layer 2 (Pass)
//Storyboard Layer 3 (Foreground)
//Storyboard Layer 4 (Overlay)
//Storyboard Sound Samples

[TimingPoints]
189,285.714285714286,4,1,0,80,1,0
189,-100,4,1,0,80,0,0
4186,-100,4,1,0,80,0,0
4328,-100,4,1,0,80,0,0
4471,-100,4,1,0,80,0,0
4614,-100,4,1,0,80,0,0
4760,-100,4,1,0,50,0,0
8043,-100,4,1,0,65,0,0
8328,-100,4,1,0,65,0,0
8471,-100,4,1,0,65,0,0
8686,-100,4,1,0,65,0,0
8757,-100,4,1,0,65,0,0
8900,-100,4,1,0,65,0,0
9043,-100,4,1,0,65,0,0
9186,-100,4,1,0,80,0,0
18471,-100,4,1,0,70,0,0
31470,-100,4,1,0,70,0,0
31613,-100,4,1,0,70,0,0
31685,-100,4,1,0,70,0,0
31756,-100,4,1,0,70,0,0
31827,-100,4,1,0,70,0,0
31899,-100,4,1,0,70,0,0
32042,-100,4,1,0,60,0,0
34471,-100,4,1,0,60,0,0
34613,-100,4,1,0,60,0,0
34756,-100,4,1,0,60,0,0
34899,-100,4,1,0,60,0,0
34970,-100,4,1,0,60,0,0
35042,-100,4,1,0,60,0,0
35185,-100,4,1,0,60,0,0
35327,-100,4,1,0,60,0,0
35470,-100,4,1,0,60,0,0
35613,-100,4,1,0,60,0,0
35685,-100,4,1,0,60,0,0
35756,-100,4,1,0,60,0,0
35827,-100,4,1,0,60,0,0
35899,-100,4,1,0,60,0,0
36042,-100,4,1,0,60,0,0
36113,-100,4,1,0,60,0,0
36185,-100,4,1,0,60,0,0
36327,-100,4,1,0,60,0,0
36399,-100,4,1,0,60,0,0
36470,-100,4,1,0,60,0,0
36617,-100,4,1,0,60,0,0
36760,-100,4,1,0,60,0,0
39042,-100,4,1,0,60,0,0
39185,-100,4,1,0,60,0,0
39327,-100,4,1,0,60,0,0
39470,-100,4,1,0,60,0,0
39542,-100,4,1,0,60,0,0
39613,-100,4,1,0,60,0,0
39756,-100,4,1,0,60,0,0
39899,-100,4,1,0,60,0,0
40042,-100,4,1,0,60,0,0
40185,-100,4,1,0,60,0,0
40256,-100,4,1,0,60,0,0
40327,-100,4,1,0,60,0,0
40399,-100,4,1,0,60,0,0
40470,-100,4,1,0,60,0,0
40613,-100,4,1,0,60,0,0
40685,-100,4,1,0,60,0,0
40756,-100,4,1,0,60,0,0
40899,-100,4,1,0,60,0,0
40970,-100,4,1,0,60,0,0
41042,-100,4,1,0,60,0,0
41185,-100,4,1,0,60,0,0
41256,-100,4,1,0,60,0,0
41327,-100,4,1,0,65,0,0
41474,-100,4,1,0,65,0,0
46186,-100,4,1,0,70,0,0
46328,-100,4,1,0,70,0,0
46471,-100,4,1,0,70,0,0
46543,-100,4,1,0,70,0,0
46614,-100,4,1,0,70,0,0
46757,-100,4,1,0,70,0,0
46900,-100,4,1,0,70,0,0
46971,-100,4,1,0,70,0,0
47043,-100,4,1,0,70,0,0
47186,-100,4,1,0,70,0,0
47328,-100,4,1,0,70,0,0
47471,-100,4,1,0,70,0,0
47543,-100,4,1,0,70,0,0
47614,-100,4,1,0,70,0,0
47686,-100,4,1,0,70,0,0
47757,-100,4,1,0,70,0,0
47900,-100,4,1,0,70,0,0
48043,-100,4,1,0,70,0,0
48186,-100,4,1,0,70,0,0
48328,-100,4,1,0,70,0,0
48400,-100,4,1,0,70,0,0
48471,-100,4,1,0,70,0,0
48614,-100,4,1,0,70,0,0
48757,-100,4,1,0,70,0,0
48828,-100,4,1,0,70,0,0
48900,-100,4,1,0,70,0,0
48971,-100,4,1,0,70,0,0
49043,-100,4,1,0,70,0,0
49186,-100,4,1,0,85,0,0
50257,-100,4,1,0,85,0,0
50331,-100,4,1,0,85,0,1
68760,-100,4,1,0,80,0,0
72753,-100,4,1,0,80,0,0
72895,-100,4,1,0,80,0,0
73038,-100,4,1,0,80,0,0
73181,-100,4,1,0,80,0,0
82686,-100,4,1,0,60,0,0
87327,-100,4,1,0,60,0,0
87470,-100,4,1,0,60,0,0
87613,-100,4,1,0,60,0,0
87756,-100,4,1,0,60,0,0
87899,-100,4,1,0,60,0,0
88042,-100,4,1,0,60,0,0
88113,-100,4,1,0,60,0,0
88185,-100,4,1,0,60,0,0
89400,-100,4,1,0,70,0,0
95185,-100,4,1,0,70,0,0
95327,-100,4,1,0,70,0,0
95470,-100,4,1,0,70,0,0
95613,-100,4,1,0,70,0,0
95685,-100,4,1,0,70,0,0
95756,-100,4,1,0,70,0,0
95827,-100,4,1,0,70,0,0
95899,-100,4,1,0,70,0,0
95970,-100,4,1,0,70,0,0
96042,-100,4,1,0,60,0,0
98472,-100,4,1,0,60,0,0
98614,-100,4,1,0,60,0,0
98757,-100,4,1,0,60,0,0
98900,-100,4,1,0,60,0,0
98971,-100,4,1,0,60,0,0
99043,-100,4,1,0,60,0,0
99186,-100,4,1,0,60,0,0
99328,-100,4,1,0,60,0,0
99471,-100,4,1,0,60,0,0
99614,-100,4,1,0,60,0,0
99686,-100,4,1,0,60,0,0
99757,-100,4,1,0,60,0,0
99828,-100,4,1,0,60,0,0
99900,-100,4,1,0,60,0,0
100043,-100,4,1,0,60,0,0
100114,-100,4,1,0,60,0,0
100186,-100,4,1,0,60,0,0
100328,-100,4,1,0,60,0,0
100400,-100,4,1,0,60,0,0
100471,-100,4,1,0,60,0,0
100615,-100,4,1,0,60,0,0
102900,-100,4,1,0,60,0,0
103044,-100,4,1,0,60,0,0
103186,-100,4,1,0,60,0,0
103329,-100,4,1,0,60,0,0
103472,-100,4,1,0,60,0,0
103543,-100,4,1,0,60,0,0
103615,-100,4,1,0,60,0,0
103758,-100,4,1,0,60,0,0
103900,-100,4,1,0,60,0,0
104043,-100,4,1,0,60,0,0
104186,-100,4,1,0,60,0,0
104258,-100,4,1,0,60,0,0
104329,-100,4,1,0,60,0,0
104400,-100,4,1,0,60,0,0
104472,-100,4,1,0,60,0,0
104615,-100,4,1,0,60,0,0
104686,-100,4,1,0,60,0,0
104758,-100,4,1,0,60,0,0
104900,-100,4,1,0,60,0,0
104972,-100,4,1,0,60,0,0
105043,-100,4,1,0,60,0,0
105399,-100,4,1,0,60,0,0
105470,-100,4,1,0,60,0,0
105613,-100,4,1,0,60,0,0
105756,-100,4,1,0,60,0,0
105827,-100,4,1,0,60,0,0
105899,-100,4,1,0,60,0,0
106042,-100,4,1,0,60,0,0
106185,-100,4,1,0,60,0,0
106256,-100,4,1,0,60,0,0
106327,-100,4,1,0,60,0,0
106685,-100,4,1,0,60,0,0
106756,-100,4,1,0,60,0,0
106827,-100,4,1,0,60,0,0
106899,-100,4,1,0,60,0,0
106970,-100,4,1,0,60,0,0
107042,-100,4,1,0,60,0,0
107185,-100,4,1,0,60,0,0
107400,-100,4,1,0,85,0,0
107474,-100,4,1,0,85,0,1
125903,-100,4,1,0,80,0,0
129896,-100,4,1,0,80,0,0
130038,-100,4,1,0,80,0,0
130181,-100,4,1,0,80,0,0
130324,-100,4,1,0,80,0,0
130403,-100,4,1,0,70,0,0
137542,-100,4,1,0,70,0,0
137613,-100,4,1,0,70,0,0
137756,-100,4,1,0,70,0,0
137827,-100,4,1,0,70,0,0
137899,-100,4,1,0,70,0,0
138042,-100,4,1,0,70,0,0
138113,-100,4,1,0,70,0,0
138184,-100,4,1,0,70,0,0
138327,-100,4,1,0,70,0,0
138399,-100,4,1,0,70,0,0
138470,-100,4,1,0,70,0,0
138613,-100,4,1,0,70,0,0
138685,-100,4,1,0,70,0,0
138756,-100,4,1,0,70,0,0
138899,-100,4,1,0,70,0,0
138970,-100,4,1,0,70,0,0
139042,-100,4,1,0,70,0,0
139185,-100,4,1,0,70,0,0
139256,-100,4,1,0,70,0,0
139327,-100,4,1,0,70,0,0
139470,-100,4,1,0,80,0,0
144542,-100,4,1,0,80,0,0
144613,-100,4,1,0,80,0,0
144685,-100,4,1,0,80,0,0
144756,-100,4,1,0,80,0,0
144899,-100,4,1,0,80,0,0
144970,-100,4,1,0,80,0,0
145042,-100,4,1,0,80,0,0
145185,-100,4,1,0,80,0,0
145256,-100,4,1,0,80,0,0
145327,-100,4,1,0,80,0,0
145399,-100,4,1,0,80,0,0
145470,-100,4,1,0,80,0,0
145542,-100,4,1,0,80,0,0
145613,-100,4,1,0,80,0,0
145685,-100,4,1,0,80,0,0
145756,-100,4,1,0,80,0,0
145899,-100,4,1,0,80,0,0
145970,-100,4,1,0,80,0,0
146042,-100,4,1,0,80,0,0
146113,-100,4,1,0,80,0,0
146185,-100,4,1,0,80,0,0
146327,-100,4,1,0,80,0,0
146399,-100,4,1,0,80,0,0
146470,-100,4,1,0,80,0,0
148399,-100,4,1,0,80,0,0
148470,-100,4,1,0,80,0,0
148613,-100,4,1,0,80,0,0
148756,-100,4,1,0,80,0,0
150089,-100,4,1,0,80,0,0
150185,-100,4,1,0,80,0,0
150280,-100,4,1,0,80,0,0
150375,-100,4,1,0,80,0,0
150470,-100,4,1,0,80,0,0
150565,-100,4,1,0,80,0,0
150661,-100,4,1,0,80,0,0
150753,-100,4,1,0,80,0,0
150899,-100,4,1,0,60,0,0
153329,-100,4,1,0,60,0,0
153471,-100,4,1,0,60,0,0
153614,-100,4,1,0,60,0,0
153757,-100,4,1,0,60,0,0
153828,-100,4,1,0,60,0,0
153900,-100,4,1,0,60,0,0
154043,-100,4,1,0,60,0,0
154185,-100,4,1,0,60,0,0
154328,-100,4,1,0,60,0,0
154471,-100,4,1,0,60,0,0
154543,-100,4,1,0,60,0,0
154614,-100,4,1,0,60,0,0
154685,-100,4,1,0,60,0,0
154757,-100,4,1,0,60,0,0
154900,-100,4,1,0,60,0,0
154971,-100,4,1,0,60,0,0
155043,-100,4,1,0,60,0,0
155185,-100,4,1,0,60,0,0
155257,-100,4,1,0,60,0,0
155328,-100,4,1,0,60,0,0
155472,-100,4,1,0,60,0,0
157757,-100,4,1,0,60,0,0
157901,-100,4,1,0,60,0,0
158043,-100,4,1,0,60,0,0
158186,-100,4,1,0,60,0,0
158329,-100,4,1,0,60,0,0
158400,-100,4,1,0,60,0,0
158472,-100,4,1,0,60,0,0
158615,-100,4,1,0,60,0,0
158757,-100,4,1,0,60,0,0
158900,-100,4,1,0,60,0,0
159043,-100,4,1,0,60,0,0
159115,-100,4,1,0,60,0,0
159186,-100,4,1,0,60,0,0
159257,-100,4,1,0,60,0,0
159329,-100,4,1,0,60,0,0
159472,-100,4,1,0,60,0,0
159543,-100,4,1,0,60,0,0
159615,-100,4,1,0,60,0,0
159757,-100,4,1,0,60,0,0
159829,-100,4,1,0,60,0,0
159900,-100,4,1,0,60,0,0
160114,-100,4,1,0,70,0,0
160316,-100,4,1,0,65,0,0
165028,-100,4,1,0,70,0,0
165170,-100,4,1,0,70,0,0
165313,-100,4,1,0,70,0,0
165385,-100,4,1,0,70,0,0
165456,-100,4,1,0,70,0,0
165599,-100,4,1,0,70,0,0
165742,-100,4,1,0,70,0,0
165813,-100,4,1,0,70,0,0
165885,-100,4,1,0,70,0,0
166028,-100,4,1,0,70,0,0
166170,-100,4,1,0,70,0,0
166313,-100,4,1,0,70,0,0
166385,-100,4,1,0,70,0,0
166456,-100,4,1,0,70,0,0
166528,-100,4,1,0,70,0,0
166599,-100,4,1,0,70,0,0
166742,-100,4,1,0,70,0,0
166885,-100,4,1,0,70,0,0
167028,-100,4,1,0,70,0,0
167170,-100,4,1,0,70,0,0
167242,-100,4,1,0,70,0,0
167313,-100,4,1,0,70,0,0
167456,-100,4,1,0,70,0,0
167599,-100,4,1,0,70,0,0
167670,-100,4,1,0,70,0,0
167742,-100,4,1,0,70,0,0
167813,-100,4,1,0,70,0,0
167885,-100,4,1,0,70,0,0
168028,-100,4,1,0,85,0,0
169114,-100,4,1,0,80,0,0
169328,-100,4,1,0,80,0,0
171331,-100,4,1,0,80,0,0
171617,-100,4,1,0,80,0,0
173617,-100,4,1,0,80,0,0
173903,-100,4,1,0,80,0,0
175903,-100,4,1,0,80,0,0
176141,-100,4,1,0,80,0,0
177328,-100,4,1,0,80,0,0
177471,-100,4,1,0,80,0,0
177614,-100,4,1,0,80,0,0
177757,-100,4,1,0,80,0,0
177900,-100,4,1,0,80,0,0
177971,-100,4,1,0,80,0,0
178043,-100,4,1,0,80,0,0
178114,-100,4,1,0,80,0,0
178186,-100,4,1,0,80,0,0
178331,-100,4,1,0,85,0,1
196760,-100,4,1,0,80,0,0
201328,-100,4,1,0,80,0,0
201400,-100,4,1,0,80,0,0
201471,-100,4,1,0,80,0,0
201614,-100,4,1,0,80,0,0
201686,-100,4,1,0,80,0,0
201757,-100,4,1,0,80,0,0
201900,-100,4,1,0,80,0,0
202043,-100,4,1,0,80,0,0
202186,-100,4,1,0,80,0,0
202328,-100,4,1,0,80,0,0
202471,-100,4,1,0,80,0,0
202614,-100,4,1,0,80,0,0
202686,-100,4,1,0,80,0,0
202757,-100,4,1,0,80,0,0
202900,-100,4,1,0,80,0,0
202971,-100,4,1,0,80,0,0
203043,-100,4,1,0,80,0,0
203189,-100,4,1,0,80,0,0
205321,-100,4,1,0,80,0,0
205463,-100,4,1,0,80,0,0
205606,-100,4,1,0,80,0,0
205749,-100,4,1,0,80,0,0
210614,-100,4,1,0,80,0,0
210757,-100,4,1,0,80,0,0
210900,-100,4,1,0,80,0,0
211043,-100,4,1,0,80,0,0
211186,-100,4,1,0,80,0,0
211328,-100,4,1,0,80,0,0
211471,-100,4,1,0,80,0,0
211543,-100,4,1,0,80,0,0
211614,-100,4,1,0,80,0,0
211757,-100,4,1,0,80,0,0
211900,-100,4,1,0,80,0,0
212043,-100,4,1,0,80,0,0
212186,-100,4,1,0,80,0,0
212328,-100,4,1,0,80,0,0
212471,-100,4,1,0,80,0,0
212614,-100,4,1,0,80,0,0
212686,-100,4,1,0,80,0,0
212757,-100,4,1,0,80,0,0
212900,-100,4,1,0,80,0,0
213043,-100,4,1,0,80,0,0
213186,-100,4,1,0,80,0,0
213328,-100,4,1,0,80,0,0
213400,-100,4,1,0,80,0,0
213471,-100,4,1,0,80,0,0
213543,-100,4,1,0,80,0,0
213614,-100,4,1,0,80,0,0
213757,-100,4,1,0,80,0,0
214043,-100,4,1,0,80,0,0
214186,-100,4,1,0,80,0,0
214328,-100,4,1,0,80,0,0
214400,-100,4,1,0,80,0,0
214471,-100,4,1,0,80,0,0
214614,-100,4,1,0,80,0,0
214757,-100,4,1,0,80,0,0
214900,-100,4,1,0,80,0,0

[HitObjects]
256,192,189,5,4,0:0:0:0:
256,192,474,1,4,0:0:0:0:
256,192,760,1,12,0:0:0:0:
256,192,903,1,12,0:0:0:0:
256,192,1046,1,12,0:0:0:0:
256,192,1189,1,4,0:0:0:0:
256,192,1474,1,4,0:0:0:0:
256,192,1760,1,4,0:0:0:0:
256,192,2046,1,12,0:0:0:0:
256,192,2189,1,12,0:0:0:0:
256,192,2474,1,4,0:0:0:0:
256,192,2760,1,4,0:0:0:0:
256,192,3046,1,12,0:0:0:0:
256,192,3189,1,12,0:0:0:0:
256,192,3331,1,12,0:0:0:0:
256,192,3474,1,4,0:0:0:0:
256,192,3760,1,4,0:0:0:0:
256,192,4046,1,4,0:0:0:0:
256,192,4617,1,0,0:0:0:0:
256,192,5046,1,8,0:0:0:0:
256,192,5617,1,8,0:0:0:0:
256,192,6189,1,8,0:0:0:0:
256,192,6760,1,8,0:0:0:0:
256,192,6903,1,0,0:0:0:0:
256,192,7331,1,8,0:0:0:0:
256,192,7903,1,8,0:0:0:0:
256,192,8046,1,4,0:0:0:0:
256,192,8331,1,8,0:0:0:0:
256,192,8474,1,0,0:0:0:0:
256,192,8689,1,0,0:0:0:0:
256,192,8760,1,8,0:0:0:0:
256,192,8903,1,8,0:0:0:0:
256,192,9046,1,8,0:0:0:0:
256,192,9189,1,4,0:0:0:0:
256,192,9617,1,8,0:0:0:0:
256,192,9903,1,0,0:0:0:0:
256,192,10046,1,0,0:0:0:0:
256,192,10189,1,8,0:0:0:0:
256,192,10331,1,0,0:0:0:0:
256,192,10617,1,0,0:0:0:0:
256,192,10760,1,8,0:0:0:0:
256,192,11046,1,0,0:0:0:0:
256,192,11189,1,8,0:0:0:0:
256,192,11331,1,8,0:0:0:0:
256,192,11474,1,0,0:0:0:0:
256,192,11760,1,0,0:0:0:0:
256,192,11903,1,8,0:0:0:0:
256,192,12189,1,0,0:0:0:0:
256,192,12331,1,0,0:0:0:0:
256,192,12474,1,8,0:0:0:0:
256,192,12617,1,0,0:0:0:0:
256,192,12903,1,0,0:0:0:0:
256,192,13046,1,8,0:0:0:0:
256,192,13189,1,0,0:0:0:0:
256,192,13331,1,8,0:0:0:0:
256,192,13474,1,8,0:0:0:0:
256,192,13617,1,8,0:0:0:0:
256,192,13760,1,4,0:0:0:0:
256,192,14189,1,8,0:0:0:0:
256,192,14474,1,0,0:0:0:0:
256,192,14617,1,0,0:0:0:0:
256,192,14760,1,8,0:0:0:0:
256,192,14903,1,0,0:0:0:0:
256,192,15189,1,0,0:0:0:0:
256,192,15331,1,8,0:0:0:0:
256,192,15617,1,8,0:0:0:0:
256,192,15760,1,0,0:0:0:0:
256,192,15903,1,0,0:0:0:0:
256,192,16046,1,8,0:0:0:0:
256,192,16331,1,0,0:0:0:0:
256,192,16474,1,8,0:0:0:0:
256,192,16760,1,0,0:0:0:0:
256,192,16903,1,0,0:0:0:0:
256,192,17046,1,8,0:0:0:0:
256,192,17189,1,0,0:0:0:0:
256,192,17474,1,0,0:0:0:0:
256,192,17617,1,8,0:0:0:0:
256,192,17760,1,0,0:0:0:0:
256,192,17903,1,12,0:0:0:0:
256,192,18046,1,12,0:0:0:0:
256,192,18189,1,12,0:0:0:0:
256,192,18331,1,4,0:0:0:0:
256,192,18760,1,8,0:0:0:0:
256,192,19046,1,0,0:0:0:0:
256,192,19189,1,0,0:0:0:0:
256,192,19331,1,8,0:0:0:0:
256,192,19617,1,0,0:0:0:0:
256,192,19903,1,8,0:0:0:0:
256,192,20046,1,0,0:0:0:0:
256,192,20331,1,8,0:0:0:0:
256,192,20474,1,8,0:0:0:0:
256,192,20617,1,0,0:0:0:0:
256,192,21046,1,8,0:0:0:0:
256,192,21331,1,0,0:0:0:0:
256,192,21474,1,0,0:0:0:0:
256,192,21617,1,8,0:0:0:0:
256,192,21903,1,8,0:0:0:0:
256,192,22046,1,0,0:0:0:0:
256,192,22331,1,0,0:0:0:0:
256,192,22474,1,8,0:0:0:0:
256,192,22617,1,8,0:0:0:0:
256,192,22760,1,8,0:0:0:0:
256,192,22903,1,0,0:0:0:0:
256,192,23331,1,8,0:0:0:0:
256,192,23617,1,8,0:0:0:0:
256,192,23760,1,0,0:0:0:0:
256,192,23903,1,8,0:0:0:0:
256,192,24189,1,0,0:0:0:0:
256,192,24331,1,8,0:0:0:0:
256,192,24474,1,8,0:0:0:0:
256,192,24617,1,0,0:0:0:0:
256,192,24903,1,8,0:0:0:0:
256,192,25189,1,4,0:0:0:0:
256,192,25617,1,8,0:0:0:0:
256,192,25903,1,0,0:0:0:0:
256,192,26046,1,0,0:0:0:0:
256,192,26188,1,8,0:0:0:0:
256,192,26474,1,0,0:0:0:0:
256,192,26760,1,8,0:0:0:0:
256,192,26903,1,0,0:0:0:0:
256,192,27188,1,8,0:0:0:0:
256,192,27331,1,8,0:0:0:0:
256,192,27474,1,0,0:0:0:0:
256,192,27903,1,8,0:0:0:0:
256,192,28188,1,0,0:0:0:0:
256,192,28331,1,0,0:0:0:0:
256,192,28474,1,8,0:0:0:0:
256,192,28760,1,0,0:0:0:0:
256,192,28903,1,8,0:0:0:0:
256,192,29188,1,8,0:0:0:0:
256,192,29331,1,0,0:0:0:0:
256,192,29474,1,0,0:0:0:0:
256,192,29617,1,0,0:0:0:0:
256,192,29760,1,8,0:0:0:0:
256,192,30189,1,0,0:0:0:0:
256,192,30474,1,8,0:0:0:0:
256,192,30617,1,8,0:0:0:0:
256,192,30760,1,0,0:0:0:0:
256,192,31046,1,0,0:0:0:0:
256,192,31188,1,8,0:0:0:0:
256,192,31331,1,8,0:0:0:0:
256,192,31474,1,0,0:0:0:0:
256,192,31617,1,8,0:0:0:0:
256,192,31689,1,8,0:0:0:0:
256,192,31760,1,8,0:0:0:0:
256,192,31903,1,8,0:0:0:0:
256,192,32046,1,4,0:0:0:0:
256,192,32617,1,0,0:0:0:0:
256,192,32760,1,8,0:0:0:0:
256,192,32903,1,0,0:0:0:0:
256,192,33189,1,0,0:0:0:0:
256,192,33331,1,0,0:0:0:0:
256,192,33760,1,0,0:0:0:0:
256,192,33831,1,0,0:0:0:0:
256,192,33903,1,0,0:0:0:0:
256,192,34331,1,8,0:0:0:0:
256,192,34474,1,0,0:0:0:0:
256,192,34903,1,0,0:0:0:0:
256,192,34974,5,0,0:0:0:0:
256,192,35046,1,0,0:0:0:0:
256,192,35189,1,0,0:0:0:0:
256,192,35474,1,8,0:0:0:0:
256,192,35617,1,0,0:0:0:0:
256,192,35903,1,12,0:0:0:0:
256,192,36189,1,12,0:0:0:0:
256,192,36474,1,12,0:0:0:0:
256,192,36617,1,4,0:0:0:0:
256,192,37189,1,0,0:0:0:0:
256,192,37332,1,8,0:0:0:0:
256,192,37475,1,0,0:0:0:0:
256,192,37760,1,0,0:0:0:0:
256,192,37903,1,0,0:0:0:0:
256,192,38332,1,0,0:0:0:0:
256,192,38403,1,0,0:0:0:0:
256,192,38475,1,0,0:0:0:0:
256,192,38903,1,8,0:0:0:0:
256,192,39046,1,0,0:0:0:0:
256,192,39475,1,0,0:0:0:0:
256,192,39546,1,0,0:0:0:0:
256,192,39617,1,0,0:0:0:0:
256,192,39760,1,8,0:0:0:0:
256,192,40046,1,8,0:0:0:0:
256,192,40189,1,0,0:0:0:0:
256,192,40475,1,12,0:0:0:0:
256,192,40761,1,12,0:0:0:0:
256,192,41046,1,12,0:0:0:0:
256,192,41331,1,4,0:0:0:0:
256,192,41617,1,8,0:0:0:0:
256,192,41760,1,0,0:0:0:0:
256,192,42189,1,8,0:0:0:0:
256,192,42474,1,0,0:0:0:0:
256,192,42760,1,0,0:0:0:0:
256,192,42903,1,8,0:0:0:0:
256,192,43331,1,12,0:0:0:0:
256,192,43617,1,0,0:0:0:0:
256,192,43903,1,8,0:0:0:0:
256,192,44046,1,0,0:0:0:0:
256,192,44474,1,8,0:0:0:0:
256,192,44760,1,0,0:0:0:0:
256,192,45046,1,0,0:0:0:0:
256,192,45189,1,8,0:0:0:0:
256,192,45617,1,12,0:0:0:0:
256,192,45903,1,4,0:0:0:0:
256,192,46189,1,8,0:0:0:0:
256,192,46331,1,0,0:0:0:0:
256,192,46474,1,0,0:0:0:0:
256,192,46617,1,0,0:0:0:0:
256,192,46760,1,8,0:0:0:0:
256,192,47046,1,0,0:0:0:0:
256,192,47331,1,8,0:0:0:0:
256,192,47474,1,8,0:0:0:0:
256,192,47617,1,0,0:0:0:0:
256,192,47760,1,0,0:0:0:0:
256,192,47903,1,8,0:0:0:0:
256,192,48189,1,0,0:0:0:0:
256,192,48331,1,0,0:0:0:0:
256,192,48474,1,8,0:0:0:0:
256,192,48617,1,0,0:0:0:0:
256,192,48760,1,8,0:0:0:0:
256,192,48903,1,8,0:0:0:0:
256,192,49046,1,8,0:0:0:0:
256,192,49189,1,4,0:0:0:0:
256,192,49474,1,0,0:0:0:0:
256,192,49617,1,0,0:0:0:0:
256,192,50331,5,4,0:0:0:0:
256,192,50617,1,8,0:0:0:0:
256,192,50760,1,8,0:0:0:0:
256,192,51046,1,0,0:0:0:0:
256,192,51117,1,0,0:0:0:0:
256,192,51189,1,0,0:0:0:0:
256,192,51331,1,8,0:0:0:0:
256,192,51474,1,0,0:0:0:0:
256,192,51760,1,0,0:0:0:0:
256,192,51903,1,8,0:0:0:0:
256,192,52189,1,0,0:0:0:0:
256,192,52331,1,0,0:0:0:0:
256,192,52617,1,12,0:0:0:0:
256,192,52903,1,0,0:0:0:0:
256,192,53046,1,0,0:0:0:0:
256,192,53332,1,8,0:0:0:0:
256,192,53403,1,8,0:0:0:0:
256,192,53475,1,8,0:0:0:0:
256,192,53617,1,0,0:0:0:0:
256,192,53760,1,8,0:0:0:0:
256,192,54046,1,8,0:0:0:0:
256,192,54189,1,0,0:0:0:0:
256,192,54475,1,8,0:0:0:0:
256,192,54617,1,8,0:0:0:0:
256,192,54903,1,4,0:0:0:0:
256,192,55331,1,8,0:0:0:0:
256,192,55617,1,0,0:0:0:0:
256,192,55689,1,0,0:0:0:0:
256,192,55760,1,0,0:0:0:0:
256,192,55903,1,8,0:0:0:0:
256,192,56046,1,0,0:0:0:0:
256,192,56331,1,0,0:0:0:0:
256,192,56474,1,8,0:0:0:0:
256,192,56617,1,8,0:0:0:0:
256,192,56760,1,0,0:0:0:0:
256,192,57046,1,8,0:0:0:0:
256,192,57189,1,4,0:0:0:0:
256,192,57617,1,8,0:0:0:0:
256,192,57760,1,8,0:0:0:0:
256,192,57903,1,0,0:0:0:0:
256,192,57974,1,0,0:0:0:0:
256,192,58046,1,0,0:0:0:0:
256,192,58189,1,8,0:0:0:0:
256,192,58331,1,4,0:0:0:0:
256,192,58617,1,0,0:0:0:0:
256,192,58760,1,8,0:0:0:0:
256,192,58903,1,8,0:0:0:0:
256,192,59046,1,0,0:0:0:0:
256,192,59117,1,0,0:0:0:0:
256,192,59189,1,0,0:0:0:0:
256,192,59331,1,8,0:0:0:0:
256,192,59474,1,4,0:0:0:0:
256,192,59760,1,8,0:0:0:0:
256,192,59903,1,8,0:0:0:0:
256,192,60189,1,0,0:0:0:0:
256,192,60260,1,0,0:0:0:0:
256,192,60332,1,0,0:0:0:0:
256,192,60474,1,8,0:0:0:0:
256,192,60617,1,0,0:0:0:0:
256,192,60903,1,0,0:0:0:0:
256,192,61046,1,8,0:0:0:0:
256,192,61332,1,0,0:0:0:0:
256,192,61474,1,0,0:0:0:0:
256,192,61760,1,12,0:0:0:0:
256,192,62046,1,0,0:0:0:0:
256,192,62189,1,0,0:0:0:0:
256,192,62475,1,8,0:0:0:0:
256,192,62546,1,8,0:0:0:0:
256,192,62618,1,8,0:0:0:0:
256,192,62760,1,0,0:0:0:0:
256,192,62903,1,8,0:0:0:0:
256,192,63189,1,8,0:0:0:0:
256,192,63332,1,0,0:0:0:0:
256,192,63618,1,8,0:0:0:0:
256,192,63760,1,8,0:0:0:0:
256,192,64046,1,4,0:0:0:0:
256,192,64474,1,8,0:0:0:0:
256,192,64760,1,0,0:0:0:0:
256,192,64832,1,0,0:0:0:0:
256,192,64903,1,0,0:0:0:0:
256,192,65046,1,8,0:0:0:0:
256,192,65189,1,0,0:0:0:0:
256,192,65474,1,0,0:0:0:0:
256,192,65617,1,8,0:0:0:0:
256,192,65903,1,0,0:0:0:0:
256,192,66046,1,0,0:0:0:0:
256,192,66189,1,8,0:0:0:0:
256,192,66332,1,4,0:0:0:0:
256,192,66617,1,0,0:0:0:0:
256,192,66760,1,8,0:0:0:0:
256,192,66903,1,0,0:0:0:0:
256,192,67046,1,8,0:0:0:0:
256,192,67117,1,8,0:0:0:0:
256,192,67189,1,8,0:0:0:0:
256,192,67331,1,0,0:0:0:0:
256,192,67474,1,12,0:0:0:0:
256,192,67903,1,0,0:0:0:0:
256,192,68046,1,0,0:0:0:0:
256,192,68189,1,8,0:0:0:0:
256,192,68260,1,8,0:0:0:0:
256,192,68332,1,8,0:0:0:0:
256,192,68474,1,0,0:0:0:0:
256,192,68617,1,8,0:0:0:0:
256,192,68760,1,4,0:0:0:0:
256,192,69045,1,4,0:0:0:0:
256,192,69331,1,12,0:0:0:0:
256,192,69474,1,12,0:0:0:0:
256,192,69617,1,12,0:0:0:0:
256,192,69760,1,4,0:0:0:0:
256,192,70045,1,4,0:0:0:0:
256,192,70331,1,4,0:0:0:0:
256,192,70617,1,12,0:0:0:0:
256,192,70760,1,12,0:0:0:0:
256,192,71045,1,4,0:0:0:0:
256,192,71331,1,4,0:0:0:0:
256,192,71617,1,12,0:0:0:0:
256,192,71760,1,12,0:0:0:0:
256,192,71902,1,12,0:0:0:0:
256,192,72045,1,4,0:0:0:0:
256,192,72331,1,4,0:0:0:0:
256,192,72617,1,4,0:0:0:0:
256,192,72760,1,8,0:0:0:0:
256,192,72903,1,8,0:0:0:0:
256,192,73046,1,8,0:0:0:0:
256,192,73188,1,0,0:0:0:0:
256,192,73617,1,8,0:0:0:0:
256,192,73903,1,0,0:0:0:0:
256,192,74046,1,0,0:0:0:0:
256,192,74189,1,8,0:0:0:0:
256,192,74331,1,0,0:0:0:0:
256,192,74617,1,0,0:0:0:0:
256,192,74760,1,8,0:0:0:0:
256,192,75046,1,0,0:0:0:0:
256,192,75189,1,8,0:0:0:0:
256,192,75331,1,8,0:0:0:0:
256,192,75474,1,0,0:0:0:0:
256,192,75760,1,0,0:0:0:0:
256,192,75903,1,8,0:0:0:0:
256,192,76189,1,0,0:0:0:0:
256,192,76331,1,0,0:0:0:0:
256,192,76474,1,8,0:0:0:0:
256,192,76617,1,0,0:0:0:0:
256,192,76903,1,0,0:0:0:0:
256,192,77046,1,8,0:0:0:0:
256,192,77189,1,0,0:0:0:0:
256,192,77331,1,8,0:0:0:0:
256,192,77474,1,8,0:0:0:0:
256,192,77617,1,8,0:0:0:0:
256,192,77760,1,4,0:0:0:0:
256,192,78189,1,8,0:0:0:0:
256,192,78474,1,0,0:0:0:0:
256,192,78617,1,0,0:0:0:0:
256,192,78760,1,8,0:0:0:0:
256,192,78903,1,0,0:0:0:0:
256,192,79189,1,0,0:0:0:0:
256,192,79331,1,8,0:0:0:0:
256,192,79617,1,8,0:0:0:0:
256,192,79760,1,0,0:0:0:0:
256,192,79903,1,0,0:0:0:0:
256,192,80046,1,8,0:0:0:0:
256,192,80331,1,0,0:0:0:0:
256,192,80474,1,8,0:0:0:0:
256,192,80760,1,0,0:0:0:0:
256,192,80903,1,0,0:0:0:0:
256,192,81046,1,8,0:0:0:0:
256,192,81189,1,0,0:0:0:0:
256,192,81474,1,0,0:0:0:0:
256,192,81617,1,8,0:0:0:0:
256,192,81760,1,0,0:0:0:0:
256,192,81903,1,12,0:0:0:0:
256,192,82046,1,12,0:0:0:0:
256,192,82189,1,12,0:0:0:0:
256,192,82331,1,4,0:0:0:0:
256,192,82760,1,0,0:0:0:0:
256,192,83046,1,0,0:0:0:0:
256,192,83331,1,0,0:0:0:0:
256,192,83617,1,8,0:0:0:0:
256,192,83903,1,0,0:0:0:0:
256,192,84189,1,0,0:0:0:0:
256,192,84474,1,0,0:0:0:0:
256,192,84617,1,8,0:0:0:0:
256,192,84760,1,0,0:0:0:0:
256,192,85046,1,0,0:0:0:0:
256,192,85331,1,0,0:0:0:0:
256,192,85617,1,0,0:0:0:0:
256,192,85760,1,8,0:0:0:0:
256,192,85831,1,8,0:0:0:0:
256,192,85903,1,8,0:0:0:0:
256,192,86046,1,8,0:0:0:0:
256,192,86189,1,0,0:0:0:0:
256,192,86474,1,0,0:0:0:0:
256,192,86617,1,0,0:0:0:0:
256,192,86760,1,8,0:0:0:0:
256,192,86903,1,4,0:0:0:0:
256,192,87189,1,0,0:0:0:0:
256,192,87331,1,8,0:0:0:0:
256,192,87474,1,0,0:0:0:0:
256,192,87617,1,8,0:0:0:0:
256,192,87760,1,0,0:0:0:0:
256,192,87903,1,12,0:0:0:0:
256,192,88046,1,12,0:0:0:0:
256,192,88189,1,0,0:0:0:0:
256,192,88760,1,8,0:0:0:0:
256,192,89189,1,4,0:0:0:0:
256,192,89617,1,8,0:0:0:0:
256,192,89903,1,0,0:0:0:0:
256,192,90046,1,0,0:0:0:0:
256,192,90188,1,8,0:0:0:0:
256,192,90474,1,0,0:0:0:0:
256,192,90760,1,8,0:0:0:0:
256,192,90903,1,0,0:0:0:0:
256,192,91046,1,0,0:0:0:0:
256,192,91188,1,8,0:0:0:0:
256,192,91474,1,0,0:0:0:0:
256,192,91903,1,8,0:0:0:0:
256,192,92046,1,8,0:0:0:0:
256,192,92189,1,0,0:0:0:0:
256,192,92474,1,8,0:0:0:0:
256,192,92760,1,0,0:0:0:0:
256,192,92903,1,8,0:0:0:0:
256,192,93188,1,8,0:0:0:0:
256,192,93331,1,0,0:0:0:0:
256,192,93474,1,8,0:0:0:0:
256,192,93617,1,8,0:0:0:0:
256,192,93760,1,0,0:0:0:0:
256,192,94188,1,0,0:0:0:0:
256,192,94474,1,8,0:0:0:0:
256,192,94617,1,8,0:0:0:0:
256,192,94760,1,0,0:0:0:0:
256,192,95046,1,0,0:0:0:0:
256,192,95188,1,8,0:0:0:0:
256,192,95331,1,0,0:0:0:0:
256,192,95474,1,8,0:0:0:0:
256,192,95617,1,0,0:0:0:0:
256,192,95689,1,0,0:0:0:0:
256,192,95760,1,0,0:0:0:0:
256,192,95831,1,0,0:0:0:0:
256,192,95903,1,0,0:0:0:0:
256,192,96046,1,8,0:0:0:0:
256,192,96617,1,0,0:0:0:0:
256,192,96760,1,8,0:0:0:0:
256,192,96903,1,0,0:0:0:0:
256,192,97189,1,0,0:0:0:0:
256,192,97331,1,0,0:0:0:0:
256,192,97760,1,0,0:0:0:0:
256,192,97831,1,0,0:0:0:0:
256,192,97903,1,0,0:0:0:0:
256,192,98331,1,8,0:0:0:0:
256,192,98474,1,0,0:0:0:0:
256,192,98903,1,0,0:0:0:0:
256,192,98974,1,0,0:0:0:0:
256,192,99046,1,0,0:0:0:0:
256,192,99189,1,0,0:0:0:0:
256,192,99474,1,8,0:0:0:0:
256,192,99617,1,0,0:0:0:0:
256,192,99903,1,12,0:0:0:0:
256,192,100189,1,12,0:0:0:0:
256,192,100474,1,12,0:0:0:0:
256,192,100617,1,4,0:0:0:0:
256,192,101189,1,0,0:0:0:0:
256,192,101332,1,8,0:0:0:0:
256,192,101475,1,0,0:0:0:0:
256,192,101760,1,0,0:0:0:0:
256,192,101903,1,0,0:0:0:0:
256,192,102332,1,0,0:0:0:0:
256,192,102403,1,0,0:0:0:0:
256,192,102475,1,0,0:0:0:0:
256,192,102903,1,8,0:0:0:0:
256,192,103046,1,0,0:0:0:0:
256,192,103475,1,0,0:0:0:0:
256,192,103546,1,0,0:0:0:0:
256,192,103617,1,0,0:0:0:0:
256,192,103760,1,8,0:0:0:0:
256,192,104046,1,8,0:0:0:0:
256,192,104189,1,0,0:0:0:0:
256,192,104475,1,12,0:0:0:0:
256,192,104761,1,12,0:0:0:0:
256,192,105046,1,12,0:0:0:0:
256,192,105331,1,0,0:0:0:0:
256,192,105474,1,8,0:0:0:0:
256,192,105617,1,8,0:0:0:0:
256,192,105760,1,0,0:0:0:0:
256,192,105903,1,8,0:0:0:0:
256,192,106046,1,8,0:0:0:0:
256,192,106189,1,0,0:0:0:0:
256,192,106331,1,8,0:0:0:0:
256,192,106617,1,0,0:0:0:0:
256,192,106689,1,0,0:0:0:0:
256,192,106760,1,0,0:0:0:0:
256,192,106903,1,8,0:0:0:0:
256,192,107046,1,4,0:0:0:0:
256,192,107189,1,4,0:0:0:0:
256,192,107474,1,12,0:0:0:0:
256,192,107760,1,0,0:0:0:0:
256,192,107903,1,0,0:0:0:0:
256,192,108189,1,8,0:0:0:0:
256,192,108260,1,8,0:0:0:0:
256,192,108332,1,8,0:0:0:0:
256,192,108474,1,0,0:0:0:0:
256,192,108617,1,8,0:0:0:0:
256,192,108903,1,8,0:0:0:0:
256,192,109046,1,0,0:0:0:0:
256,192,109332,1,8,0:0:0:0:
256,192,109474,1,8,0:0:0:0:
256,192,109760,1,4,0:0:0:0:
256,192,110046,1,8,0:0:0:0:
256,192,110189,1,8,0:0:0:0:
256,192,110475,1,0,0:0:0:0:
256,192,110546,1,0,0:0:0:0:
256,192,110618,1,0,0:0:0:0:
256,192,110760,1,8,0:0:0:0:
256,192,110903,1,0,0:0:0:0:
256,192,111189,1,0,0:0:0:0:
256,192,111332,1,8,0:0:0:0:
256,192,111618,1,0,0:0:0:0:
256,192,111760,1,0,0:0:0:0:
256,192,112046,1,12,0:0:0:0:
256,192,112474,1,0,0:0:0:0:
256,192,112760,1,8,0:0:0:0:
256,192,112832,1,8,0:0:0:0:
256,192,112903,1,8,0:0:0:0:
256,192,113046,1,0,0:0:0:0:
256,192,113189,1,8,0:0:0:0:
256,192,113474,1,8,0:0:0:0:
256,192,113617,1,0,0:0:0:0:
256,192,113760,1,0,0:0:0:0:
256,192,113903,1,8,0:0:0:0:
256,192,114189,1,0,0:0:0:0:
256,192,114331,1,12,0:0:0:0:
256,192,114760,1,0,0:0:0:0:
256,192,114903,1,0,0:0:0:0:
256,192,115046,1,8,0:0:0:0:
256,192,115117,1,8,0:0:0:0:
256,192,115189,1,8,0:0:0:0:
256,192,115332,1,0,0:0:0:0:
256,192,115474,1,12,0:0:0:0:
256,192,115760,1,8,0:0:0:0:
256,192,115903,1,0,0:0:0:0:
256,192,116046,1,0,0:0:0:0:
256,192,116189,1,8,0:0:0:0:
256,192,116260,1,8,0:0:0:0:
256,192,116332,1,8,0:0:0:0:
256,192,116474,1,0,0:0:0:0:
256,192,116617,1,12,0:0:0:0:
256,192,116903,1,0,0:0:0:0:
256,192,117046,1,0,0:0:0:0:
256,192,117332,1,8,0:0:0:0:
256,192,117403,1,8,0:0:0:0:
256,192,117475,1,8,0:0:0:0:
256,192,117617,1,0,0:0:0:0:
256,192,117760,1,8,0:0:0:0:
256,192,118046,1,8,0:0:0:0:
256,192,118189,1,0,0:0:0:0:
256,192,118475,1,8,0:0:0:0:
256,192,118617,1,8,0:0:0:0:
256,192,118903,1,4,0:0:0:0:
256,192,119189,1,8,0:0:0:0:
256,192,119332,1,8,0:0:0:0:
256,192,119618,1,0,0:0:0:0:
256,192,119689,1,0,0:0:0:0:
256,192,119761,1,0,0:0:0:0:
256,192,119903,1,8,0:0:0:0:
256,192,120046,1,0,0:0:0:0:
256,192,120332,1,0,0:0:0:0:
256,192,120475,1,8,0:0:0:0:
256,192,120761,1,0,0:0:0:0:
256,192,121046,1,0,0:0:0:0:
256,192,121189,1,12,0:0:0:0:
256,192,121617,1,0,0:0:0:0:
256,192,121903,1,8,0:0:0:0:
256,192,121975,1,8,0:0:0:0:
256,192,122046,1,8,0:0:0:0:
256,192,122189,1,0,0:0:0:0:
256,192,122332,1,8,0:0:0:0:
256,192,122617,1,8,0:0:0:0:
256,192,122760,1,0,0:0:0:0:
256,192,123046,1,8,0:0:0:0:
256,192,123189,1,8,0:0:0:0:
256,192,123331,1,0,0:0:0:0:
256,192,123474,1,12,0:0:0:0:
256,192,123760,1,8,0:0:0:0:
256,192,123903,1,0,0:0:0:0:
256,192,124046,1,8,0:0:0:0:
256,192,124189,1,0,0:0:0:0:
256,192,124260,1,0,0:0:0:0:
256,192,124332,1,0,0:0:0:0:
256,192,124474,1,8,0:0:0:0:
256,192,124617,1,4,0:0:0:0:
256,192,125046,1,8,0:0:0:0:
256,192,125189,1,0,0:0:0:0:
256,192,125332,1,8,0:0:0:0:
256,192,125403,1,8,0:0:0:0:
256,192,125475,1,8,0:0:0:0:
256,192,125617,1,0,0:0:0:0:
256,192,125760,1,8,0:0:0:0:
256,192,125903,1,4,0:0:0:0:
256,192,126188,1,4,0:0:0:0:
256,192,126474,1,12,0:0:0:0:
256,192,126617,1,12,0:0:0:0:
256,192,126760,1,12,0:0:0:0:
256,192,126903,1,4,0:0:0:0:
256,192,127188,1,4,0:0:0:0:
256,192,127474,1,4,0:0:0:0:
256,192,127760,1,12,0:0:0:0:
256,192,127903,1,12,0:0:0:0:
256,192,128188,1,4,0:0:0:0:
256,192,128474,1,4,0:0:0:0:
256,192,128760,1,12,0:0:0:0:
256,192,128903,1,12,0:0:0:0:
256,192,129045,1,12,0:0:0:0:
256,192,129188,1,4,0:0:0:0:
256,192,129474,1,4,0:0:0:0:
256,192,129760,1,4,0:0:0:0:
256,192,129903,1,8,0:0:0:0:
256,192,130046,1,8,0:0:0:0:
256,192,130189,1,8,0:0:0:0:
256,192,130331,1,0,0:0:0:0:
256,192,130760,1,8,0:0:0:0:
256,192,131046,1,0,0:0:0:0:
256,192,131189,1,8,0:0:0:0:
256,192,131331,1,8,0:0:0:0:
256,192,131474,1,0,0:0:0:0:
256,192,131760,1,0,0:0:0:0:
256,192,131903,1,8,0:0:0:0:
256,192,132189,1,0,0:0:0:0:
256,192,132331,1,8,0:0:0:0:
256,192,132474,1,0,0:0:0:0:
256,192,132617,1,0,0:0:0:0:
256,192,132903,1,8,0:0:0:0:
256,192,133046,1,0,0:0:0:0:
256,192,133189,1,0,0:0:0:0:
256,192,133331,1,8,0:0:0:0:
256,192,133474,1,0,0:0:0:0:
256,192,133617,1,8,0:0:0:0:
256,192,133760,1,0,0:0:0:0:
256,192,134046,1,8,0:0:0:0:
256,192,134189,1,8,0:0:0:0:
256,192,134331,1,0,0:0:0:0:
256,192,134474,1,8,0:0:0:0:
256,192,134617,1,8,0:0:0:0:
256,192,134760,1,0,0:0:0:0:
256,192,134903,1,8,0:0:0:0:
256,192,135331,1,8,0:0:0:0:
256,192,135617,1,0,0:0:0:0:
256,192,135760,1,8,0:0:0:0:
256,192,135903,1,8,0:0:0:0:
256,192,136046,1,0,0:0:0:0:
256,192,136331,1,0,0:0:0:0:
256,192,136474,1,8,0:0:0:0:
256,192,136760,1,0,0:0:0:0:
256,192,136903,1,0,0:0:0:0:
256,192,137046,1,8,0:0:0:0:
256,192,137189,1,0,0:0:0:0:
256,192,137474,1,0,0:0:0:0:
256,192,137546,1,0,0:0:0:0:
256,192,137617,1,0,0:0:0:0:
256,192,137760,1,8,0:0:0:0:
256,192,137831,1,8,0:0:0:0:
256,192,137903,1,8,0:0:0:0:
256,192,138046,1,0,0:0:0:0:
256,192,138117,1,0,0:0:0:0:
256,192,138189,1,0,0:0:0:0:
256,192,138331,1,8,0:0:0:0:
256,192,138403,1,8,0:0:0:0:
256,192,138474,1,8,0:0:0:0:
256,192,138689,1,0,0:0:0:0:
256,192,138903,1,0,0:0:0:0:
256,192,139046,1,8,0:0:0:0:
256,192,139474,1,4,0:0:0:0:
256,192,139760,1,8,0:0:0:0:
256,192,139903,1,0,0:0:0:0:
256,192,140189,1,8,0:0:0:0:
256,192,140331,1,8,0:0:0:0:
256,192,140474,1,0,0:0:0:0:
256,192,140617,1,8,0:0:0:0:
256,192,140903,1,8,0:0:0:0:
256,192,141046,1,0,0:0:0:0:
256,192,141331,1,0,0:0:0:0:
256,192,141474,1,0,0:0:0:0:
256,192,141617,1,8,0:0:0:0:
256,192,141760,1,0,0:0:0:0:
256,192,142046,1,0,0:0:0:0:
256,192,142189,1,0,0:0:0:0:
256,192,142331,1,8,0:0:0:0:
256,192,142474,1,8,0:0:0:0:
256,192,142617,1,0,0:0:0:0:
256,192,142903,1,8,0:0:0:0:
256,192,143046,1,0,0:0:0:0:
256,192,143189,1,8,0:0:0:0:
256,192,143474,1,0,0:0:0:0:
256,192,143617,1,8,0:0:0:0:
256,192,143760,1,8,0:0:0:0:
256,192,143903,1,8,0:0:0:0:
256,192,144046,1,0,0:0:0:0:
256,192,144474,1,8,0:0:0:0:
256,192,144617,1,8,0:0:0:0:
256,192,144760,1,0,0:0:0:0:
256,192,144903,1,0,0:0:0:0:
256,192,145046,1,8,0:0:0:0:
256,192,145331,1,0,0:0:0:0:
256,192,145426,1,0,0:0:0:0:
256,192,145522,1,0,0:0:0:0:
256,192,145617,1,0,0:0:0:0:
256,192,145903,1,0,0:0:0:0:
256,192,145998,1,0,0:0:0:0:
256,192,146093,1,0,0:0:0:0:
256,192,146189,1,0,0:0:0:0:
256,192,146474,1,12,0:0:0:0:
256,192,146903,1,12,0:0:0:0:
256,192,147331,1,12,0:0:0:0:
256,192,147617,1,4,0:0:0:0:
256,192,148046,1,4,0:0:0:0:
256,192,148474,1,4,0:0:0:0:
256,192,148760,1,12,0:0:0:0:
256,192,148903,1,0,0:0:0:0:
256,192,149046,1,0,0:0:0:0:
256,192,149189,1,12,0:0:0:0:
256,192,149331,1,0,0:0:0:0:
256,192,149474,1,0,0:0:0:0:
256,192,149617,1,12,0:0:0:0:
256,192,149903,1,4,0:0:0:0:
256,192,150189,1,8,0:0:0:0:
256,192,150284,1,8,0:0:0:0:
256,192,150379,1,8,0:0:0:0:
256,192,150474,1,8,0:0:0:0:
256,192,150760,1,8,0:0:0:0:
256,192,150903,1,4,0:0:0:0:
256,192,151474,1,0,0:0:0:0:
256,192,151617,1,8,0:0:0:0:
256,192,151760,1,0,0:0:0:0:
256,192,152046,1,0,0:0:0:0:
256,192,152188,1,0,0:0:0:0:
256,192,152617,1,0,0:0:0:0:
256,192,152688,1,0,0:0:0:0:
256,192,152760,1,0,0:0:0:0:
256,192,153188,1,8,0:0:0:0:
256,192,153331,1,0,0:0:0:0:
256,192,153760,1,0,0:0:0:0:
256,192,153831,1,0,0:0:0:0:
256,192,153903,1,0,0:0:0:0:
256,192,154046,1,0,0:0:0:0:
256,192,154331,1,8,0:0:0:0:
256,192,154474,1,0,0:0:0:0:
256,192,154760,1,12,0:0:0:0:
256,192,155046,1,12,0:0:0:0:
256,192,155331,1,12,0:0:0:0:
256,192,155474,1,4,0:0:0:0:
256,192,156046,1,0,0:0:0:0:
256,192,156189,1,8,0:0:0:0:
256,192,156332,1,0,0:0:0:0:
256,192,156617,1,0,0:0:0:0:
256,192,156760,1,0,0:0:0:0:
256,192,157189,1,0,0:0:0:0:
256,192,157260,1,0,0:0:0:0:
256,192,157332,1,0,0:0:0:0:
256,192,157760,1,8,0:0:0:0:
256,192,157903,1,0,0:0:0:0:
256,192,158332,1,0,0:0:0:0:
256,192,158403,1,0,0:0:0:0:
256,192,158474,1,0,0:0:0:0:
256,192,158617,1,8,0:0:0:0:
256,192,158903,1,8,0:0:0:0:
256,192,159046,1,0,0:0:0:0:
256,192,159332,1,12,0:0:0:0:
256,192,159618,1,12,0:0:0:0:
256,192,159903,1,12,0:0:0:0:
256,192,160188,1,4,0:0:0:0:
256,192,160474,1,8,0:0:0:0:
256,192,160617,1,0,0:0:0:0:
256,192,160903,1,0,0:0:0:0:
256,192,161046,1,8,0:0:0:0:
256,192,161331,1,0,0:0:0:0:
256,192,161617,1,0,0:0:0:0:
256,192,161760,1,8,0:0:0:0:
256,192,162046,1,8,0:0:0:0:
256,192,162189,1,4,0:0:0:0:
256,192,162474,1,0,0:0:0:0:
256,192,162760,1,8,0:0:0:0:
256,192,162903,1,0,0:0:0:0:
256,192,163189,1,0,0:0:0:0:
256,192,163331,1,8,0:0:0:0:
256,192,163617,1,0,0:0:0:0:
256,192,163903,1,8,0:0:0:0:
256,192,164046,1,0,0:0:0:0:
256,192,164189,1,8,0:0:0:0:
256,192,164474,1,4,0:0:0:0:
256,192,164760,1,4,0:0:0:0:
256,192,165046,1,8,0:0:0:0:
256,192,165188,1,0,0:0:0:0:
256,192,165331,1,8,0:0:0:0:
256,192,165474,1,0,0:0:0:0:
256,192,165617,1,8,0:0:0:0:
256,192,165760,1,8,0:0:0:0:
256,192,165903,1,0,0:0:0:0:
256,192,166046,1,8,0:0:0:0:
256,192,166188,1,0,0:0:0:0:
256,192,166331,1,8,0:0:0:0:
256,192,166474,1,0,0:0:0:0:
256,192,166617,1,0,0:0:0:0:
256,192,166760,1,8,0:0:0:0:
256,192,167046,1,0,0:0:0:0:
256,192,167188,1,0,0:0:0:0:
256,192,167331,1,8,0:0:0:0:
256,192,167474,1,0,0:0:0:0:
256,192,167617,1,8,0:0:0:0:
256,192,167689,1,8,0:0:0:0:
256,192,167760,1,8,0:0:0:0:
256,192,167903,1,8,0:0:0:0:
256,192,168046,1,4,0:0:0:0:
256,192,168331,1,0,0:0:0:0:
256,192,168474,1,0,0:0:0:0:
256,192,169189,1,4,0:0:0:0:
256,192,171474,1,0,0:0:0:0:
256,192,173760,1,8,0:0:0:0:
256,192,176046,1,0,0:0:0:0:
256,192,177189,1,4,0:0:0:0:
256,192,177474,1,8,0:0:0:0:
256,192,177617,1,8,0:0:0:0:
256,192,177760,1,0,0:0:0:0:
256,192,177903,1,8,0:0:0:0:
256,192,177974,1,8,0:0:0:0:
256,192,178046,1,8,0:0:0:0:
256,192,178117,1,8,0:0:0:0:
256,192,178189,1,8,0:0:0:0:
256,192,178331,1,4,0:0:0:0:
256,192,178617,1,8,0:0:0:0:
256,192,178760,1,8,0:0:0:0:
256,192,179046,1,0,0:0:0:0:
256,192,179117,1,0,0:0:0:0:
256,192,179189,1,0,0:0:0:0:
256,192,179331,1,8,0:0:0:0:
256,192,179474,1,0,0:0:0:0:
256,192,179760,1,0,0:0:0:0:
256,192,179903,1,8,0:0:0:0:
256,192,180046,1,0,0:0:0:0:
256,192,180189,1,8,0:0:0:0:
256,192,180331,1,8,0:0:0:0:
256,192,180617,1,4,0:0:0:0:
256,192,180903,1,8,0:0:0:0:
256,192,181046,1,8,0:0:0:0:
256,192,181332,1,0,0:0:0:0:
256,192,181403,1,0,0:0:0:0:
256,192,181475,1,0,0:0:0:0:
256,192,181617,1,8,0:0:0:0:
256,192,181760,1,0,0:0:0:0:
256,192,182046,1,8,0:0:0:0:
256,192,182189,1,0,0:0:0:0:
256,192,182331,1,0,0:0:0:0:
256,192,182474,1,8,0:0:0:0:
256,192,182617,1,0,0:0:0:0:
256,192,182903,1,12,0:0:0:0:
256,192,183331,1,0,0:0:0:0:
256,192,183617,1,8,0:0:0:0:
256,192,183689,1,8,0:0:0:0:
256,192,183760,1,8,0:0:0:0:
256,192,183903,1,0,0:0:0:0:
256,192,184046,1,8,0:0:0:0:
256,192,184331,1,0,0:0:0:0:
256,192,184474,1,8,0:0:0:0:
256,192,184617,1,8,0:0:0:0:
256,192,184760,1,0,0:0:0:0:
256,192,184903,1,0,0:0:0:0:
256,192,185046,1,8,0:0:0:0:
256,192,185189,1,4,0:0:0:0:
256,192,185617,1,8,0:0:0:0:
256,192,185760,1,8,0:0:0:0:
256,192,185903,1,0,0:0:0:0:
256,192,185974,1,0,0:0:0:0:
256,192,186046,1,0,0:0:0:0:
256,192,186189,1,8,0:0:0:0:
256,192,186331,1,4,0:0:0:0:
256,192,186617,1,8,0:0:0:0:
256,192,186760,1,0,0:0:0:0:
256,192,186903,1,8,0:0:0:0:
256,192,187046,1,0,0:0:0:0:
256,192,187117,1,0,0:0:0:0:
256,192,187189,1,0,0:0:0:0:
256,192,187331,1,8,0:0:0:0:
256,192,187474,1,4,0:0:0:0:
256,192,187760,1,8,0:0:0:0:
256,192,187903,1,8,0:0:0:0:
256,192,188046,1,0,0:0:0:0:
256,192,188189,1,8,0:0:0:0:
256,192,188260,1,8,0:0:0:0:
256,192,188332,1,8,0:0:0:0:
256,192,188474,1,0,0:0:0:0:
256,192,188617,1,8,0:0:0:0:
256,192,188903,1,8,0:0:0:0:
256,192,189046,1,0,0:0:0:0:
256,192,189189,1,0,0:0:0:0:
256,192,189332,1,8,0:0:0:0:
256,192,189474,1,8,0:0:0:0:
256,192,189760,1,4,0:0:0:0:
256,192,190046,1,8,0:0:0:0:
256,192,190189,1,8,0:0:0:0:
256,192,190475,1,0,0:0:0:0:
256,192,190546,1,0,0:0:0:0:
256,192,190618,1,0,0:0:0:0:
256,192,190760,1,8,0:0:0:0:
256,192,190903,1,0,0:0:0:0:
256,192,191189,1,8,0:0:0:0:
256,192,191332,1,0,0:0:0:0:
256,192,191474,1,0,0:0:0:0:
256,192,191618,1,8,0:0:0:0:
256,192,191689,1,8,0:0:0:0:
256,192,191760,1,8,0:0:0:0:
256,192,191903,1,0,0:0:0:0:
256,192,192046,1,12,0:0:0:0:
256,192,192474,1,0,0:0:0:0:
256,192,192760,1,0,0:0:0:0:
256,192,192832,1,0,0:0:0:0:
256,192,192903,1,0,0:0:0:0:
256,192,193046,1,8,0:0:0:0:
256,192,193189,1,0,0:0:0:0:
256,192,193331,1,8,0:0:0:0:
256,192,193474,1,8,0:0:0:0:
256,192,193617,1,0,0:0:0:0:
256,192,193760,1,0,0:0:0:0:
256,192,193903,1,8,0:0:0:0:
256,192,194189,1,8,0:0:0:0:
256,192,194332,1,4,0:0:0:0:
256,192,194617,1,0,0:0:0:0:
256,192,194760,1,8,0:0:0:0:
256,192,194903,1,0,0:0:0:0:
256,192,195046,1,8,0:0:0:0:
256,192,195117,1,8,0:0:0:0:
256,192,195189,1,8,0:0:0:0:
256,192,195331,1,0,0:0:0:0:
256,192,195474,1,12,0:0:0:0:
256,192,195903,1,0,0:0:0:0:
256,192,196046,1,0,0:0:0:0:
256,192,196189,1,8,0:0:0:0:
256,192,196260,1,8,0:0:0:0:
256,192,196332,1,8,0:0:0:0:
256,192,196474,1,0,0:0:0:0:
256,192,196617,1,8,0:0:0:0:
256,192,196760,1,4,0:0:0:0:
256,192,197045,1,4,0:0:0:0:
256,192,197331,1,12,0:0:0:0:
256,192,197474,1,12,0:0:0:0:
256,192,197617,1,12,0:0:0:0:
256,192,197760,1,4,0:0:0:0:
256,192,198045,1,4,0:0:0:0:
256,192,198331,1,4,0:0:0:0:
256,192,198617,1,12,0:0:0:0:
256,192,198760,1,12,0:0:0:0:
256,192,199045,1,4,0:0:0:0:
256,192,199331,1,4,0:0:0:0:
256,192,199617,1,12,0:0:0:0:
256,192,199760,1,12,0:0:0:0:
256,192,199902,1,12,0:0:0:0:
256,192,200045,1,4,0:0:0:0:
256,192,200331,1,4,0:0:0:0:
256,192,200617,1,4,0:0:0:0:
264,192,200760,1,8,0:0:0:0:
264,192,200831,1,8,0:0:0:0:
264,192,200903,1,8,0:0:0:0:
264,192,201046,1,4,0:0:0:0:
256,192,201331,1,12,0:0:0:0:
256,192,201616,1,12,0:0:0:0:
256,192,201902,1,4,0:0:0:0:
256,192,202045,1,4,0:0:0:0:
256,192,202188,1,4,0:0:0:0:
256,192,202331,1,12,0:0:0:0:
256,192,202616,1,12,0:0:0:0:
256,192,202902,1,12,0:0:0:0:
256,192,203188,1,4,0:0:0:0:
256,192,203331,1,4,0:0:0:0:
256,192,203616,1,12,0:0:0:0:
256,192,203902,1,12,0:0:0:0:
256,192,204188,1,4,0:0:0:0:
256,192,204331,1,4,0:0:0:0:
256,192,204473,1,4,0:0:0:0:
256,192,204616,1,12,0:0:0:0:
256,192,204902,1,12,0:0:0:0:
256,192,205188,1,12,0:0:0:0:
264,192,205331,1,0,0:0:0:0:
264,192,205402,1,0,0:0:0:0:
264,192,205474,1,0,0:0:0:0:
264,192,205617,1,8,0:0:0:0:
256,192,205760,1,4,0:0:0:0:
256,192,206189,1,8,0:0:0:0:
256,192,206475,1,0,0:0:0:0:
256,192,206618,1,0,0:0:0:0:
256,192,206761,1,8,0:0:0:0:
256,192,206903,1,0,0:0:0:0:
256,192,207189,1,0,0:0:0:0:
256,192,207332,1,8,0:0:0:0:
256,192,207618,1,0,0:0:0:0:
256,192,207761,1,8,0:0:0:0:
256,192,207903,1,8,0:0:0:0:
256,192,208046,1,0,0:0:0:0:
256,192,208332,1,0,0:0:0:0:
256,192,208475,1,8,0:0:0:0:
256,192,208761,1,0,0:0:0:0:
256,192,208903,1,0,0:0:0:0:
256,192,209046,1,8,0:0:0:0:
256,192,209189,1,0,0:0:0:0:
256,192,209475,1,0,0:0:0:0:
256,192,209618,1,8,0:0:0:0:
256,192,209761,1,0,0:0:0:0:
256,192,209903,1,8,0:0:0:0:
256,192,210046,1,8,0:0:0:0:
256,192,210189,1,8,0:0:0:0:
256,192,210332,1,4,0:0:0:0:
256,192,210760,1,8,0:0:0:0:
256,192,210903,1,0,0:0:0:0:
256,192,211046,1,8,0:0:0:0:
256,192,211189,1,0,0:0:0:0:
256,192,211331,1,8,0:0:0:0:
256,192,211474,1,0,0:0:0:0:
256,192,211617,1,8,0:0:0:0:
256,192,211760,1,0,0:0:0:0:
256,192,211903,1,8,0:0:0:0:
256,192,212046,1,0,0:0:0:0:
256,192,212189,1,8,0:0:0:0:
256,192,212331,1,8,0:0:0:0:
256,192,212474,1,8,0:0:0:0:
256,192,212617,1,0,0:0:0:0:
256,192,212903,1,0,0:0:0:0:
256,192,213046,1,8,0:0:0:0:
256,192,213189,1,0,0:0:0:0:
256,192,213332,1,8,0:0:0:0:
256,192,213474,1,0,0:0:0:0:
256,192,213617,1,8,0:0:0:0:
256,192,213760,1,0,0:0:0:0:
256,192,214046,1,4,0:0:0:0:
256,192,214189,1,12,0:0:0:0:
256,192,214332,1,0,0:0:0:0:
256,192,214475,1,12,0:0:0:0:
256,192,214618,1,12,0:0:0:0:
256,192,214761,1,12,0:0:0:0:
256,192,214903,1,4,0:0:0:0:
