osu file format v14

[General]
AudioFilename: audio.mp3
AudioLeadIn: 0
PreviewTime: 49903
Countdown: 0
SampleSet: Normal
StackLeniency: 0.7
Mode: 1
LetterboxInBreaks: 0
WidescreenStoryboard: 0

[Editor]
Bookmarks: 189,4617,9189,18474,32046,41331,50331,68760,73189,82331,89189,96046,105331,107474,125903,130331,150903,160189,169189,178331,196760,205760
DistanceSpacing: 0.4
BeatDivisor: 4
GridSize: 32
TimelineZoom: 2.1

[Metadata]
Title:U.F.O. - U Feel Overjoyed! -
TitleUnicode:U.F.O. – U Feel Overjoyed! –
Artist:Unlucky Morpheus
ArtistUnicode:Unlucky Morpheus
Creator:roxorotto
Version:Inner Oni
Source:
Tags:日清焼そばU.F.O. nissin yakisoba ufo japanese rock jrock j-rock jmetal metal j-metal self cover ver. version iceoc gaston_2199 you 紫煉 shiren fuki
BeatmapID:4274269
BeatmapSetID:2047321

[Difficulty]
HPDrainRate:6
CircleSize:5
OverallDifficulty:7
ApproachRate:5
SliderMultiplier:1.4
SliderTickRate:1

[Events]
//Background and Video events
0,0,"angel.jpg",0,-140
//Break Periods
//Storyboard Layer 0 (Background)
//Storyboard Layer 1 (Fail)
//Storyboard Layer 2 (Pass)
//Storyboard Layer 3 (Foreground)
//Storyboard Layer 4 (Overlay)
//Storyboard Sound Samples

[TimingPoints]
189,285.714285714286,4,1,0,40,1,0
189,-76.9230769230769,4,1,0,80,0,0
4045,-77.0635,4,1,0,80,0,0
4188,-82.2559,4,1,0,80,0,0
4330,-87.758125,4,1,0,80,0,0
4473,-93.671104,4,1,0,80,0,0
4616,-99.98249,4,1,0,80,0,0
4760,-111.111115,4,1,0,50,0,0
7971,-100,4,1,0,65,0,0
18471,-100,4,1,0,55,0,0
31327,-100,4,1,0,55,0,0
31470,-102.04082,4,1,0,55,0,0
31613,-104.166664,4,1,0,55,0,0
31685,-105.270905,4,1,0,55,0,0
31756,-106.38298,4,1,0,55,0,0
31827,-107.5188,4,1,0,55,0,0
31899,-108.695656,4,1,0,55,0,0
31971,-100,4,1,0,60,0,0
32042,-111.111115,4,1,0,60,0,0
34327,-111.111115,4,1,0,60,0,0
34471,-110.327255,4,1,0,60,0,0
34613,-109.5597,4,1,0,60,0,0
34756,-108.79212,4,1,0,60,0,0
34899,-108.02993,4,1,0,60,0,0
34970,-107.65349,4,1,0,60,0,0
35042,-107.27308,4,1,0,60,0,0
35185,-106.52153,4,1,0,60,0,0
35327,-105.78046,4,1,0,60,0,0
35470,-105.03936,4,1,0,60,0,0
35613,-104.30345,4,1,0,60,0,0
35685,-103.9349,4,1,0,60,0,0
35756,-103.572716,4,1,0,60,0,0
35827,-103.21181,4,1,0,60,0,0
35899,-102.84709,4,1,0,60,0,0
36042,-102.12655,4,1,0,60,0,0
36113,-101.770676,4,1,0,60,0,0
36185,-101.411064,4,1,0,60,0,0
36327,-100.70553,4,1,0,60,0,0
36399,-100.34968,4,1,0,60,0,0
36470,-99.999985,4,1,0,60,0,0
36614,-111.111092592593,4,1,0,60,0,0
38899,-111.11109,4,1,0,60,0,0
39042,-110.42375,4,1,0,60,0,0
39185,-109.740654,4,1,0,60,0,0
39327,-109.06652,4,1,0,60,0,0
39470,-108.391815,4,1,0,60,0,0
39542,-108.053696,4,1,0,60,0,0
39613,-107.721306,4,1,0,60,0,0
39756,-107.05492,4,1,0,60,0,0
39899,-106.39266,4,1,0,60,0,0
40042,-105.73451,4,1,0,60,0,0
40185,-105.08043,4,1,0,60,0,0
40256,-104.75717,4,1,0,60,0,0
40327,-104.43491,4,1,0,60,0,0
40399,-104.10913,4,1,0,60,0,0
40470,-103.78886,4,1,0,60,0,0
40613,-103.14683,4,1,0,60,0,0
40685,-102.82506,4,1,0,60,0,0
40756,-102.50874,4,1,0,60,0,0
40899,-101.87461,4,1,0,60,0,0
40970,-101.561226,4,1,0,60,0,0
41042,-101.2444,4,1,0,60,0,0
41185,-100.6181,4,1,0,60,0,0
41256,-100.30857,4,1,0,60,0,0
41327,-100,4,1,0,60,0,0
41543,-100,4,1,0,70,0,0
41613,-99.77251,4,1,0,70,0,0
41756,-99.31589,4,1,0,70,0,0
41899,-98.86136,4,1,0,70,0,0
42042,-98.40891,4,1,0,70,0,0
42185,-97.95854,4,1,0,70,0,0
42327,-97.51334,4,1,0,70,0,0
42470,-97.06707,4,1,0,70,0,0
42613,-96.62283,4,1,0,70,0,0
42756,-96.18064,4,1,0,70,0,0
42899,-95.740456,4,1,0,70,0,0
43042,-95.30229,4,1,0,70,0,0
43185,-94.866135,4,1,0,70,0,0
43327,-94.435,4,1,0,70,0,0
43470,-94.0028,4,1,0,70,0,0
43613,-93.57259,4,1,0,70,0,0
43756,-93.14435,4,1,0,70,0,0
43899,-92.71807,4,1,0,70,0,0
44042,-92.29373,4,1,0,70,0,0
44185,-91.871346,4,1,0,70,0,0
44327,-91.45382,4,1,0,70,0,0
44470,-91.03528,4,1,0,70,0,0
44613,-90.618645,4,1,0,70,0,0
44756,-90.203926,4,1,0,70,0,0
44899,-89.79109,4,1,0,70,0,0
45042,-89.380165,4,1,0,70,0,0
45185,-88.97111,4,1,0,70,0,0
45327,-88.566765,4,1,0,70,0,0
45470,-88.16142,4,1,0,70,0,0
45613,-87.75795,4,1,0,70,0,0
45756,-87.356316,4,1,0,70,0,0
45899,-86.954216,4,1,0,70,0,0
46042,-86.62507,4,1,0,70,0,0
46113,-86.46211,4,1,0,70,0,0
46185,-86.29717,4,1,0,70,0,0
46327,-85.972786,4,1,0,70,0,0
46399,-85.80877,4,1,0,70,0,0
46470,-85.64735,4,1,0,70,0,0
46542,-85.48396,4,1,0,70,0,0
46613,-85.32315,4,1,0,70,0,0
46756,-85.000175,4,1,0,70,0,0
46899,-84.67842,4,1,0,70,0,0
46970,-84.51913,4,1,0,70,0,0
47042,-84.3579,4,1,0,70,0,0
47185,-84.038574,4,1,0,70,0,0
47327,-83.72269,4,1,0,70,0,0
47470,-83.40577,4,1,0,70,0,0
47542,-83.246666,4,1,0,70,0,0
47613,-83.09005,4,1,0,70,0,0
47685,-82.93154,4,1,0,70,0,0
47756,-82.77552,4,1,0,70,0,0
47899,-82.4622,4,1,0,70,0,0
48042,-82.150055,4,1,0,70,0,0
48113,-81.995514,4,1,0,70,0,0
48185,-81.83909,4,1,0,70,0,0
48327,-81.53147,4,1,0,70,0,0
48399,-81.37593,4,1,0,70,0,0
48470,-81.22285,4,1,0,70,0,0
48613,-80.9154,4,1,0,70,0,0
48756,-80.6091,4,1,0,70,0,0
48827,-80.457466,4,1,0,70,0,0
48899,-80.30398,4,1,0,70,0,0
48970,-80.1529,4,1,0,70,0,0
49042,-80,4,1,0,70,0,0
49186,-74.0740740740741,4,1,0,70,0,0
50257,-90.9090909090909,4,1,0,85,0,0
50331,-83.3333333333333,4,1,0,85,0,1
50471,-90.9090909090909,4,1,0,85,0,1
52614,-83.3333333333333,4,1,0,85,0,1
52757,-90.9090909090909,4,1,0,85,0,1
54900,-83.3333333333333,4,1,0,85,0,1
55043,-90.9090909090909,4,1,0,85,0,1
57186,-83.3333333333333,4,1,0,85,0,1
57329,-90.9090909090909,4,1,0,85,0,1
57470,-90.90909,4,1,0,85,0,1
57613,-92.366425,4,1,0,85,0,1
57756,-93.84713,4,1,0,85,0,1
57899,-95.35155,4,1,0,85,0,1
57970,-96.10745,4,1,0,85,0,1
58042,-96.88012,4,1,0,85,0,1
58113,-97.64812,4,1,0,85,0,1
58185,-98.43317,4,1,0,85,0,1
58327,-100,4,1,0,85,0,1
58613,-100,4,1,0,85,0,1
58756,-98.422226,4,1,0,85,0,1
58899,-96.86934,4,1,0,85,0,1
59042,-95.34095,4,1,0,85,0,1
59113,-94.591095,4,1,0,85,0,1
59185,-93.83669,4,1,0,85,0,1
59256,-93.098656,4,1,0,85,0,1
59327,-92.366425,4,1,0,85,0,1
59470,-83.3333325694445,4,1,0,85,0,1
59614,-90.90909,4,1,0,85,0,1
61757,-83.3333325694445,4,1,0,85,0,1
61901,-90.90909,4,1,0,85,0,1
64043,-83.3333325694445,4,1,0,85,0,1
64187,-90.90909,4,1,0,85,0,1
66328,-83.3333325694445,4,1,0,85,0,1
66472,-90.90909,4,1,0,85,0,1
66613,-90.90909,4,1,0,85,0,1
66756,-90.10334,4,1,0,85,0,1
66899,-89.304726,4,1,0,85,0,1
67042,-88.5132,4,1,0,85,0,1
67113,-88.1228,4,1,0,85,0,1
67185,-87.728676,4,1,0,85,0,1
67256,-87.34175,4,1,0,85,0,1
67327,-86.95652,4,1,0,85,0,1
67471,-79.999998528,4,1,0,85,0,1
67614,-90.9090909090909,4,1,0,85,0,1
67756,-90.90909,4,1,0,85,0,1
67899,-92.11146,4,1,0,85,0,1
68042,-93.329735,4,1,0,85,0,1
68113,-93.940575,4,1,0,85,0,1
68185,-94.56412,4,1,0,85,0,1
68256,-95.183044,4,1,0,85,0,1
68327,-95.80602,4,1,0,85,0,1
68399,-96.44194,4,1,0,85,0,1
68470,-97.07316,4,1,0,85,0,1
68613,-98.357056,4,1,0,85,0,1
68685,-99.0099,4,1,0,85,0,1
68721,-100,4,1,0,80,0,1
68760,-76.9230769230769,4,1,0,80,0,0
72613,-76.92308,4,1,0,80,0,0
72756,-81.63265,4,1,0,80,0,0
72898,-86.91688,4,1,0,80,0,0
73041,-92.9779,4,1,0,80,0,0
73185,-100,4,1,0,80,0,0
73400,-100,4,1,0,65,0,0
81471,-100,4,1,0,65,0,0
81613,-101.76109,4,1,0,65,0,0
81757,-103.57866,4,1,0,65,0,0
81828,-104.48673,4,1,0,65,0,0
81899,-105.40278,4,1,0,65,0,0
82042,-107.2722,4,1,0,65,0,0
82185,-109.1748,4,1,0,65,0,0
82328,-111.111115,4,1,0,65,0,0
82686,-111.111111111111,4,1,0,50,0,0
87185,-111.111115,4,1,0,50,0,0
87327,-109.46113,4,1,0,50,0,0
87470,-107.82429,4,1,0,50,0,0
87613,-106.21193,4,1,0,50,0,0
87756,-104.623665,4,1,0,50,0,0
87899,-103.05917,4,1,0,50,0,0
88042,-101.51806,4,1,0,50,0,0
88113,-100.761475,4,1,0,50,0,0
88185,-99.999985,4,1,0,50,0,0
89400,-100,4,1,0,60,0,0
95042,-100,4,1,0,60,0,0
95185,-101.51806,4,1,0,60,0,0
95327,-103.04832,4,1,0,60,0,0
95470,-104.61265,4,1,0,60,0,0
95613,-106.20074,4,1,0,60,0,0
95685,-107.00944,4,1,0,60,0,0
95756,-107.812935,4,1,0,60,0,0
95827,-108.62246,4,1,0,60,0,0
95899,-109.4496,4,1,0,60,0,0
95970,-110.271416,4,1,0,60,0,0
96007,-100,4,1,0,60,0,0
96042,-111.111115,4,1,0,60,0,0
98328,-111.111115,4,1,0,60,0,0
98472,-110.327255,4,1,0,60,0,0
98614,-109.5597,4,1,0,60,0,0
98757,-108.79212,4,1,0,60,0,0
98900,-108.02993,4,1,0,60,0,0
98971,-107.65349,4,1,0,60,0,0
99043,-107.27308,4,1,0,60,0,0
99186,-106.52153,4,1,0,60,0,0
99328,-105.78046,4,1,0,60,0,0
99471,-105.03936,4,1,0,60,0,0
99614,-104.30345,4,1,0,60,0,0
99686,-103.9349,4,1,0,60,0,0
99757,-103.572716,4,1,0,60,0,0
99828,-103.21181,4,1,0,60,0,0
99900,-102.84709,4,1,0,60,0,0
100043,-102.12655,4,1,0,60,0,0
100114,-101.770676,4,1,0,60,0,0
100186,-101.411064,4,1,0,60,0,0
100328,-100.70553,4,1,0,60,0,0
100400,-100.34968,4,1,0,60,0,0
100471,-99.999985,4,1,0,60,0,0
100615,-111.111092592593,4,1,0,60,0,0
102900,-111.111115,4,1,0,60,0,0
103044,-110.327255,4,1,0,60,0,0
103186,-109.5597,4,1,0,60,0,0
103329,-108.79212,4,1,0,60,0,0
103472,-108.02993,4,1,0,60,0,0
103543,-107.65349,4,1,0,60,0,0
103615,-107.27308,4,1,0,60,0,0
103758,-106.52153,4,1,0,60,0,0
103900,-105.78046,4,1,0,60,0,0
104043,-105.03936,4,1,0,60,0,0
104186,-104.30345,4,1,0,60,0,0
104258,-103.9349,4,1,0,60,0,0
104329,-103.572716,4,1,0,60,0,0
104400,-103.21181,4,1,0,60,0,0
104472,-102.84709,4,1,0,60,0,0
104615,-102.12655,4,1,0,60,0,0
104686,-101.770676,4,1,0,60,0,0
104758,-101.411064,4,1,0,60,0,0
104900,-100.70553,4,1,0,60,0,0
104972,-100.34968,4,1,0,60,0,0
105043,-99.999985,4,1,0,60,0,0
105187,-99.999985,4,1,0,60,0,0
105327,-99.999985,4,1,0,60,0,0
105399,-99.31611,4,1,0,60,0,0
105470,-98.6463,4,1,0,60,0,0
105613,-97.31093,4,1,0,60,0,0
105756,-95.993645,4,1,0,60,0,0
105827,-95.34625,4,1,0,60,0,0
105899,-94.69419,4,1,0,60,0,0
106042,-93.41232,4,1,0,60,0,0
106185,-92.14781,4,1,0,60,0,0
106256,-91.52635,4,1,0,60,0,0
106327,-90.90907,4,1,0,60,0,0
106613,-90.90907,4,1,0,60,0,0
106685,-92.00628,4,1,0,60,0,0
106756,-93.10122,4,1,0,60,0,0
106827,-94.20919,4,1,0,60,0,0
106899,-95.34624,4,1,0,60,0,0
106970,-96.48092,4,1,0,60,0,0
107042,-97.645386,4,1,0,60,0,0
107185,-99.99998,4,1,0,60,0,0
107400,-100,4,1,0,85,0,0
107474,-80,4,1,0,85,0,1
107614,-86.9565217391304,4,1,0,85,0,1
109757,-80,4,1,0,85,0,1
109900,-86.9565217391304,4,1,0,85,0,1
112043,-80,4,1,0,85,0,1
112186,-86.9565217391304,4,1,0,85,0,1
114329,-80,4,1,0,85,0,1
114472,-86.9565217391304,4,1,0,85,0,1
114613,-86.95652,4,1,0,85,0,1
114756,-89.008255,4,1,0,85,0,1
114899,-91.10839,4,1,0,85,0,1
115042,-93.25809,4,1,0,85,0,1
115113,-94.34419,4,1,0,85,0,1
115185,-95.458496,4,1,0,85,0,1
115256,-96.57022,4,1,0,85,0,1
115327,-97.6949,4,1,0,85,0,1
115470,-100,4,1,0,85,0,1
115756,-100,4,1,0,85,0,1
115899,-97.6949,4,1,0,85,0,1
116042,-95.44293,4,1,0,85,0,1
116184,-93.25809,4,1,0,85,0,1
116256,-92.16946,4,1,0,85,0,1
116328,-91.09354,4,1,0,85,0,1
116399,-90.04486,4,1,0,85,0,1
116470,-89.008255,4,1,0,85,0,1
116613,-79.999998528,4,1,0,85,0,1
116757,-86.95652,4,1,0,85,0,1
118900,-79.999998528,4,1,0,85,0,1
119044,-86.95652,4,1,0,85,0,1
121186,-79.999998528,4,1,0,85,0,1
121330,-86.95652,4,1,0,85,0,1
123471,-79.999998528,4,1,0,85,0,1
123615,-86.95652,4,1,0,85,0,1
123756,-86.95652,4,1,0,85,0,1
123899,-86.34119,4,1,0,85,0,1
124042,-85.7302,4,1,0,85,0,1
124184,-85.12776,4,1,0,85,0,1
124256,-84.82392,4,1,0,85,0,1
124328,-84.52117,4,1,0,85,0,1
124399,-84.22368,4,1,0,85,0,1
124470,-83.92724,4,1,0,85,0,1
124613,-76.9230740828403,4,1,0,85,0,1
124686,-86.9565217391304,4,1,0,85,0,1
124899,-86.95652,4,1,0,85,0,1
125042,-88.711914,4,1,0,85,0,1
125185,-90.50275,4,1,0,85,0,1
125256,-91.40528,4,1,0,85,0,1
125327,-92.31682,4,1,0,85,0,1
125399,-93.25048,4,1,0,85,0,1
125470,-94.18043,4,1,0,85,0,1
125542,-95.132935,4,1,0,85,0,1
125613,-96.08165,4,1,0,85,0,1
125756,-98.02124,4,1,0,85,0,1
125828,-99.0126,4,1,0,85,0,1
125864,-100,4,1,0,80,0,1
125903,-76.9230769230769,4,1,0,80,0,0
129756,-76.92308,4,1,0,80,0,0
129899,-82.13769,4,1,0,80,0,0
130041,-87.66558,4,1,0,80,0,0
130184,-93.60843,4,1,0,80,0,0
130257,-100,4,1,0,70,0,0
130328,-100,4,1,0,70,0,0
137473,-99.98094,4,1,0,70,0,0
137545,-99.63847,4,1,0,70,0,0
137616,-99.30192,4,1,0,70,0,0
137759,-98.62751,4,1,0,70,0,0
137830,-98.294365,4,1,0,70,0,0
137902,-97.95768,4,1,0,70,0,0
138045,-97.2924,4,1,0,70,0,0
138116,-96.96377,4,1,0,70,0,0
138188,-96.63164,4,1,0,70,0,0
138330,-95.979935,4,1,0,70,0,0
138402,-95.65118,4,1,0,70,0,0
138473,-95.32808,4,1,0,70,0,0
138545,-95.00156,4,1,0,70,0,0
138613,-94.698715,4,1,0,70,0,0
138688,-94.35635,4,1,0,70,0,0
138759,-94.03764,4,1,0,70,0,0
138902,-93.39898,4,1,0,70,0,0
138973,-93.083496,4,1,0,70,0,0
139045,-92.764656,4,1,0,70,0,0
139116,-92.45132,4,1,0,70,0,0
139188,-92.13464,4,1,0,70,0,0
139259,-91.82343,4,1,0,70,0,0
139330,-91.513275,4,1,0,70,0,0
139470,-90.90909,4,1,0,70,0,0
139757,-90.9090909090909,4,1,0,70,0,0
144470,-90.90909,4,1,0,70,0,0
144542,-91.22155,4,1,0,70,0,0
144613,-91.53072,4,1,0,70,0,0
144685,-91.84532,4,1,0,70,0,0
144756,-92.1566,4,1,0,70,0,0
144899,-92.78677,4,1,0,70,0,0
144970,-93.10124,4,1,0,70,0,0
145042,-93.42124,4,1,0,70,0,0
145185,-94.06005,4,1,0,70,0,0
145256,-94.378845,4,1,0,70,0,0
145327,-94.698715,4,1,0,70,0,0
145399,-95.0242,4,1,0,70,0,0
145470,-95.34626,4,1,0,70,0,0
145542,-95.673965,4,1,0,70,0,0
145613,-95.99824,4,1,0,70,0,0
145685,-96.32817,4,1,0,70,0,0
145756,-96.654655,4,1,0,70,0,0
145899,-97.31558,4,1,0,70,0,0
145970,-97.64541,4,1,0,70,0,0
146042,-97.981026,4,1,0,70,0,0
146113,-98.3131,4,1,0,70,0,0
146185,-98.65101,4,1,0,70,0,0
146327,-99.32085,4,1,0,70,0,0
146399,-99.662224,4,1,0,70,0,0
146470,-100,4,1,0,70,0,0
148327,-100,4,1,0,70,0,0
148399,-98.34938,4,1,0,70,0,0
148470,-96.77419,4,1,0,70,0,0
148613,-93.74999,4,1,0,70,0,0
148756,-90.90909,4,1,0,70,0,0
149899,-90.90909,4,1,0,70,0,0
150089,-94.51798,4,1,0,70,0,0
150185,-96.35647,4,1,0,70,0,0
150280,-98.211,4,1,0,70,0,0
150375,-100.10122,4,1,0,70,0,0
150470,-102.027824,4,1,0,70,0,0
150565,-103.991516,4,1,0,70,0,0
150661,-106.014275,4,1,0,70,0,0
150753,-107.96798,4,1,0,70,0,0
150828,-100,4,1,0,60,0,0
150899,-111.111115,4,1,0,60,0,0
153185,-111.111115,4,1,0,60,0,0
153329,-110.327255,4,1,0,60,0,0
153471,-109.5597,4,1,0,60,0,0
153614,-108.79212,4,1,0,60,0,0
153757,-108.02993,4,1,0,60,0,0
153828,-107.65349,4,1,0,60,0,0
153900,-107.27308,4,1,0,60,0,0
154043,-106.52153,4,1,0,60,0,0
154185,-105.78046,4,1,0,60,0,0
154328,-105.03936,4,1,0,60,0,0
154471,-104.30345,4,1,0,60,0,0
154543,-103.9349,4,1,0,60,0,0
154614,-103.572716,4,1,0,60,0,0
154685,-103.21181,4,1,0,60,0,0
154757,-102.84709,4,1,0,60,0,0
154900,-102.12655,4,1,0,60,0,0
154971,-101.770676,4,1,0,60,0,0
155043,-101.411064,4,1,0,60,0,0
155185,-100.70553,4,1,0,60,0,0
155257,-100.34968,4,1,0,60,0,0
155328,-99.999985,4,1,0,60,0,0
155472,-111.111092592593,4,1,0,60,0,0
157757,-111.111115,4,1,0,60,0,0
157901,-110.327255,4,1,0,60,0,0
158043,-109.5597,4,1,0,60,0,0
158186,-108.79212,4,1,0,60,0,0
158329,-108.02993,4,1,0,60,0,0
158400,-107.65349,4,1,0,60,0,0
158472,-107.27308,4,1,0,60,0,0
158615,-106.52153,4,1,0,60,0,0
158757,-105.78046,4,1,0,60,0,0
158900,-105.03936,4,1,0,60,0,0
159043,-104.30345,4,1,0,60,0,0
159115,-103.9349,4,1,0,60,0,0
159186,-103.572716,4,1,0,60,0,0
159257,-103.21181,4,1,0,60,0,0
159329,-102.84709,4,1,0,60,0,0
159472,-102.12655,4,1,0,60,0,0
159543,-101.770676,4,1,0,60,0,0
159615,-101.411064,4,1,0,60,0,0
159757,-100.70553,4,1,0,60,0,0
159829,-100.34968,4,1,0,60,0,0
159900,-99.999985,4,1,0,60,0,0
160044,-99.999985,4,1,0,60,0,0
160114,-100,4,1,0,70,0,0
160185,-100,4,1,0,70,0,0
160327,-99.56676,4,1,0,70,0,0
160470,-99.13237,4,1,0,70,0,0
160613,-98.69989,4,1,0,70,0,0
160756,-98.26927,4,1,0,70,0,0
160899,-97.840546,4,1,0,70,0,0
161042,-97.41368,4,1,0,70,0,0
161185,-96.988686,4,1,0,70,0,0
161327,-96.5685,4,1,0,70,0,0
161469,-96.15014,4,1,0,70,0,0
161612,-95.73065,4,1,0,70,0,0
161755,-95.313,4,1,0,70,0,0
161898,-94.89717,4,1,0,70,0,0
162041,-94.48315,4,1,0,70,0,0
162184,-94.070946,4,1,0,70,0,0
162327,-93.66053,4,1,0,70,0,0
162470,-93.25191,4,1,0,70,0,0
162612,-92.84791,4,1,0,70,0,0
162755,-92.442825,4,1,0,70,0,0
162898,-92.03952,4,1,0,70,0,0
163041,-91.63798,4,1,0,70,0,0
163184,-91.23817,4,1,0,70,0,0
163327,-90.84012,4,1,0,70,0,0
163470,-90.44381,4,1,0,70,0,0
163613,-90.04922,4,1,0,70,0,0
163755,-89.659096,4,1,0,70,0,0
163898,-89.26793,4,1,0,70,0,0
164041,-88.87847,4,1,0,70,0,0
164184,-88.490715,4,1,0,70,0,0
164327,-88.104645,4,1,0,70,0,0
164470,-87.72026,4,1,0,70,0,0
164613,-87.337555,4,1,0,70,0,0
164756,-86.954315,4,1,0,70,0,0
164899,-86.639465,4,1,0,70,0,0
164970,-86.48355,4,1,0,70,0,0
165042,-86.32575,4,1,0,70,0,0
165185,-86.01317,4,1,0,70,0,0
165327,-85.703896,4,1,0,70,0,0
165399,-85.54751,4,1,0,70,0,0
165470,-85.39358,4,1,0,70,0,0
165542,-85.23775,4,1,0,70,0,0
165613,-85.084366,4,1,0,70,0,0
165756,-84.77628,4,1,0,70,0,0
165827,-84.623726,4,1,0,70,0,0
165899,-84.46931,4,1,0,70,0,0
166042,-84.16346,4,1,0,70,0,0
166185,-83.8587,4,1,0,70,0,0
166327,-83.55718,4,1,0,70,0,0
166399,-83.40471,4,1,0,70,0,0
166470,-83.25464,4,1,0,70,0,0
166542,-83.102715,4,1,0,70,0,0
166613,-82.95316,4,1,0,70,0,0
166756,-82.6528,4,1,0,70,0,0
166899,-82.35352,4,1,0,70,0,0
166970,-82.20534,4,1,0,70,0,0
167042,-82.05532,4,1,0,70,0,0
167185,-81.75822,4,1,0,70,0,0
167256,-81.61109,4,1,0,70,0,0
167327,-81.46424,4,1,0,70,0,0
167399,-81.31558,4,1,0,70,0,0
167470,-81.169266,4,1,0,70,0,0
167613,-80.87535,4,1,0,70,0,0
167685,-80.727776,4,1,0,70,0,0
167756,-80.58251,4,1,0,70,0,0
167827,-80.43751,4,1,0,70,0,0
167899,-80.290726,4,1,0,70,0,0
167970,-80.14625,4,1,0,70,0,0
168042,-74.0740740740741,4,1,0,70,0,0
169114,-100,4,1,0,80,0,0
169186,-83.3333333333333,4,1,0,80,0,0
169328,-100,4,1,0,80,0,0
177470,-100,4,1,0,80,0,0
177613,-97.00357,4,1,0,80,0,0
177756,-94.09693,4,1,0,80,0,0
177827,-92.686295,4,1,0,80,0,0
177899,-91.27738,4,1,0,80,0,0
177970,-89.90902,4,1,0,80,0,0
178042,-88.54233,4,1,0,80,0,0
178113,-87.21496,4,1,0,80,0,0
178185,-85.88922,4,1,0,80,0,0
178256,-84.60162,4,1,0,80,0,0
178293,-100,4,1,0,85,0,0
178331,-76.9230791952663,4,1,0,85,0,1
178471,-83.3333360000001,4,1,0,85,0,1
180614,-76.9230791952663,4,1,0,85,0,1
180757,-83.3333360000001,4,1,0,85,0,1
182900,-76.9230791952663,4,1,0,85,0,1
183043,-83.3333360000001,4,1,0,85,0,1
185186,-76.9230791952663,4,1,0,85,0,1
185329,-83.3333360000001,4,1,0,85,0,1
185470,-83.333336,4,1,0,85,0,1
185613,-85.90749,4,1,0,85,0,1
185756,-88.561165,4,1,0,85,0,1
185899,-91.29681,4,1,0,85,0,1
185970,-92.6863,4,1,0,85,0,1
186042,-94.11695,4,1,0,85,0,1
186113,-95.54937,4,1,0,85,0,1
186185,-97.02421,4,1,0,85,0,1
186327,-100,4,1,0,85,0,1
186613,-100,4,1,0,85,0,1
186756,-97.00357,4,1,0,85,0,1
186899,-94.09693,4,1,0,85,0,1
187042,-91.27738,4,1,0,85,0,1
187113,-89.90902,4,1,0,85,0,1
187185,-88.54233,4,1,0,85,0,1
187256,-87.21496,4,1,0,85,0,1
187327,-85.90749,4,1,0,85,0,1
187470,-76.9230791952663,4,1,0,85,0,1
187614,-83.3333360000001,4,1,0,85,0,1
189757,-76.9230791952663,4,1,0,85,0,1
189900,-83.3333360000001,4,1,0,85,0,1
192043,-76.9230791952663,4,1,0,85,0,1
192186,-83.3333360000001,4,1,0,85,0,1
194328,-76.9230791952663,4,1,0,85,0,1
194471,-83.3333360000001,4,1,0,85,0,1
194613,-83.333336,4,1,0,85,0,1
194756,-82.76763,4,1,0,85,0,1
194899,-82.20577,4,1,0,85,0,1
195042,-81.64771,4,1,0,85,0,1
195113,-81.372055,4,1,0,85,0,1
195185,-81.09346,4,1,0,85,0,1
195256,-80.819664,4,1,0,85,0,1
195327,-80.5468,4,1,0,85,0,1
195470,-74.0740740740741,4,1,0,85,0,1
195614,-83.3333333333333,4,1,0,85,0,1
195756,-83.333336,4,1,0,85,0,1
195899,-85.53457,4,1,0,85,0,1
196042,-87.79395,4,1,0,85,0,1
196113,-88.93782,4,1,0,85,0,1
196185,-90.11301,4,1,0,85,0,1
196256,-91.2871,4,1,0,85,0,1
196327,-92.47648,4,1,0,85,0,1
196399,-93.69843,4,1,0,85,0,1
196470,-94.91923,4,1,0,85,0,1
196613,-97.426506,4,1,0,85,0,1
196685,-98.71386,4,1,0,85,0,1
196721,-100,4,1,0,80,0,1
196760,-76.9230769230769,4,1,0,80,0,0
201327,-76.92308,4,1,0,80,0,0
201399,-76.71822,4,1,0,80,0,0
201470,-76.51676,4,1,0,80,0,0
201542,-76.312996,4,1,0,80,0,0
201613,-76.112595,4,1,0,80,0,0
201685,-75.909904,4,1,0,80,0,0
201756,-75.71056,4,1,0,80,0,0
201827,-75.511734,4,1,0,80,0,0
201899,-75.31066,4,1,0,80,0,0
201970,-75.112885,4,1,0,80,0,0
202042,-74.91286,4,1,0,80,0,0
202113,-74.71614,4,1,0,80,0,0
202185,-74.51716,4,1,0,80,0,0
202256,-74.32147,4,1,0,80,0,0
202327,-74.1263,4,1,0,80,0,0
202399,-73.9289,4,1,0,80,0,0
202470,-73.734764,4,1,0,80,0,0
202542,-73.53841,4,1,0,80,0,0
202613,-73.34529,4,1,0,80,0,0
202685,-73.14997,4,1,0,80,0,0
202756,-72.95787,4,1,0,80,0,0
202828,-72.76358,4,1,0,80,0,0
202899,-72.5725,4,1,0,80,0,0
202970,-72.38192,4,1,0,80,0,0
203042,-72.18917,4,1,0,80,0,0
203113,-71.999596,4,1,0,80,0,0
203185,-71.80786,4,1,0,80,0,0
203328,-71.42857,4,1,0,80,0,0
205188,-71.54842,4,1,0,80,0,0
205330,-75.93606,4,1,0,80,0,0
205473,-80.62656,4,1,0,80,0,0
205616,-85.60677,4,1,0,80,0,0
205759,-90.894615,4,1,0,80,0,0
205903,-100,4,1,0,80,0,0
205971,-100,4,1,0,75,0,0
210613,-100,4,1,0,75,0,0
210756,-99.36613,4,1,0,75,0,0
210827,-99.0529,4,1,0,75,0,0
210899,-98.736275,4,1,0,75,0,0
210970,-98.42504,4,1,0,75,0,0
211042,-98.11041,4,1,0,75,0,0
211185,-97.488525,4,1,0,75,0,0
211256,-97.18122,4,1,0,75,0,0
211327,-96.87488,4,1,0,75,0,0
211470,-96.260826,4,1,0,75,0,0
211613,-95.65065,4,1,0,75,0,0
211685,-95.344894,4,1,0,75,0,0
211756,-95.04436,4,1,0,75,0,0
211827,-94.74474,4,1,0,75,0,0
211899,-94.44189,4,1,0,75,0,0
212042,-93.843254,4,1,0,75,0,0
212185,-93.248405,4,1,0,75,0,0
212256,-92.95447,4,1,0,75,0,0
212327,-92.66145,4,1,0,75,0,0
212399,-92.36526,4,1,0,75,0,0
212470,-92.074104,4,1,0,75,0,0
212542,-91.779785,4,1,0,75,0,0
212613,-91.49046,4,1,0,75,0,0
212685,-91.19802,4,1,0,75,0,0
212756,-90.91054,4,1,0,75,0,0
212827,-90.62397,4,1,0,75,0,0
212899,-90.33429,4,1,0,75,0,0
212970,-90.04953,4,1,0,75,0,0
213042,-89.76168,4,1,0,75,0,0
213113,-89.47874,4,1,0,75,0,0
213185,-89.19271,4,1,0,75,0,0
213256,-88.91156,4,1,0,75,0,0
213327,-88.63129,4,1,0,75,0,0
213399,-88.34797,4,1,0,75,0,0
213470,-88.06947,4,1,0,75,0,0
213542,-87.78796,4,1,0,75,0,0
213613,-87.51123,4,1,0,75,0,0
213756,-86.95652,4,1,0,75,0,0
214471,-76.9230769230769,4,1,0,75,0,0

[HitObjects]
197,236,189,5,4,0:0:0:0:
197,236,474,1,6,0:0:0:0:
197,236,760,1,6,0:0:0:0:
197,236,903,1,6,0:0:0:0:
197,236,1046,1,6,0:0:0:0:
197,236,1189,1,4,0:0:0:0:
193,162,1474,1,4,0:0:0:0:
193,162,1760,1,6,0:0:0:0:
193,162,2046,1,4,0:0:0:0:
193,162,2189,1,6,0:0:0:0:
193,162,2474,1,4,0:0:0:0:
193,162,2760,1,6,0:0:0:0:
193,162,3046,1,6,0:0:0:0:
193,162,3189,1,6,0:0:0:0:
193,162,3331,1,6,0:0:0:0:
193,162,3474,1,4,0:0:0:0:
193,162,3760,1,4,0:0:0:0:
306,171,4046,1,4,0:0:0:0:
203,264,4189,1,2,0:0:0:0:
203,264,4331,1,2,0:0:0:0:
203,264,4474,1,2,0:0:0:0:
203,264,4617,1,4,0:0:0:0:
203,240,5046,1,0,0:0:0:0:
235,243,5617,1,0,0:0:0:0:
235,243,6189,1,0,0:0:0:0:
235,243,6760,1,0,0:0:0:0:
235,243,7331,1,0,0:0:0:0:
235,243,7903,1,0,0:0:0:0:
235,243,8046,1,12,0:0:0:0:
235,243,8331,1,0,0:0:0:0:
235,243,8474,1,8,0:0:0:0:
235,243,8617,1,0,0:0:0:0:
235,243,8689,1,0,0:0:0:0:
235,243,8760,1,8,0:0:0:0:
235,243,8903,1,8,0:0:0:0:
235,243,9046,1,8,0:0:0:0:
235,243,9189,1,4,0:0:0:0:
234,231,9474,1,0,0:0:0:0:
234,231,9617,1,8,0:0:0:0:
234,231,9760,1,0,0:0:0:0:
51,125,9831,1,8,0:0:0:0:
234,231,9903,1,0,0:0:0:0:
276,232,10046,1,8,0:0:0:0:
329,266,10189,1,8,0:0:0:0:
329,266,10331,1,4,0:0:0:0:
340,268,10617,1,0,0:0:0:0:
340,268,10760,1,8,0:0:0:0:
340,268,10903,1,0,0:0:0:0:
340,268,11046,1,8,0:0:0:0:
340,268,11189,1,8,0:0:0:0:
340,268,11331,1,8,0:0:0:0:
94,196,11474,1,4,0:0:0:0:
195,196,11760,1,0,0:0:0:0:
195,196,11903,1,8,0:0:0:0:
195,196,12046,1,0,0:0:0:0:
227,37,12117,1,8,0:0:0:0:
195,196,12189,1,0,0:0:0:0:
195,196,12331,1,8,0:0:0:0:
195,196,12474,1,0,0:0:0:0:
195,196,12617,1,12,0:0:0:0:
308,259,12903,1,0,0:0:0:0:
308,259,13046,1,8,0:0:0:0:
152,226,13189,1,0,0:0:0:0:
201,187,13260,1,0,0:0:0:0:
156,230,13331,1,8,0:0:0:0:
156,230,13474,1,8,0:0:0:0:
156,230,13617,1,8,0:0:0:0:
156,230,13760,1,4,0:0:0:0:
234,231,14046,1,0,0:0:0:0:
234,231,14189,1,8,0:0:0:0:
234,231,14332,1,0,0:0:0:0:
51,125,14403,1,8,0:0:0:0:
234,231,14475,1,0,0:0:0:0:
276,232,14618,1,8,0:0:0:0:
329,266,14761,1,8,0:0:0:0:
329,266,14903,1,4,0:0:0:0:
340,268,15189,1,0,0:0:0:0:
340,268,15332,1,8,0:0:0:0:
340,268,15475,1,0,0:0:0:0:
340,268,15618,1,8,0:0:0:0:
340,268,15761,1,8,0:0:0:0:
340,268,15903,1,8,0:0:0:0:
94,196,16046,1,4,0:0:0:0:
195,196,16332,1,0,0:0:0:0:
195,196,16475,1,8,0:0:0:0:
195,196,16618,1,0,0:0:0:0:
227,37,16689,1,8,0:0:0:0:
195,196,16761,1,0,0:0:0:0:
195,196,16903,1,8,0:0:0:0:
195,196,17046,1,0,0:0:0:0:
195,196,17189,1,12,0:0:0:0:
308,259,17475,1,0,0:0:0:0:
308,259,17618,1,8,0:0:0:0:
152,226,17761,1,0,0:0:0:0:
201,187,17832,1,0,0:0:0:0:
156,230,17903,1,8,0:0:0:0:
156,230,18046,1,8,0:0:0:0:
156,230,18189,1,8,0:0:0:0:
156,230,18332,1,4,0:0:0:0:
188,204,18617,1,0,0:0:0:0:
188,204,18760,1,8,0:0:0:0:
215,233,19046,1,0,0:0:0:0:
215,233,19189,1,0,0:0:0:0:
215,233,19331,1,8,0:0:0:0:
241,230,19617,1,0,0:0:0:0:
241,186,19903,1,8,0:0:0:0:
254,204,20189,1,0,0:0:0:0:
253,202,20331,1,0,0:0:0:0:
251,196,20474,1,8,0:0:0:0:
251,196,20617,1,0,0:0:0:0:
252,196,20903,1,0,0:0:0:0:
252,196,21046,1,8,0:0:0:0:
254,195,21331,1,8,0:0:0:0:
251,196,21474,1,0,0:0:0:0:
251,196,21617,1,8,0:0:0:0:
252,196,21903,1,0,0:0:0:0:
248,195,22189,1,8,0:0:0:0:
251,196,22474,1,0,0:0:0:0:
251,196,22617,1,0,0:0:0:0:
252,196,22760,1,8,0:0:0:0:
252,196,22903,1,0,0:0:0:0:
250,202,23189,1,0,0:0:0:0:
250,202,23331,1,8,0:0:0:0:
251,196,23617,1,0,0:0:0:0:
252,196,23760,1,0,0:0:0:0:
252,196,23903,1,8,0:0:0:0:
245,193,24189,1,0,0:0:0:0:
245,193,24331,1,0,0:0:0:0:
251,196,24474,1,8,0:0:0:0:
251,196,24617,1,8,0:0:0:0:
248,191,24760,1,0,0:0:0:0:
248,191,24903,1,0,0:0:0:0:
245,193,25046,1,8,0:0:0:0:
245,193,25189,1,0,0:0:0:0:
246,199,25474,1,0,0:0:0:0:
246,199,25617,1,8,0:0:0:0:
255,198,25903,1,8,0:0:0:0:
255,198,26046,1,0,0:0:0:0:
255,198,26189,1,8,0:0:0:0:
261,194,26474,1,0,0:0:0:0:
261,194,26760,1,8,0:0:0:0:
259,194,27046,1,0,0:0:0:0:
259,194,27189,1,0,0:0:0:0:
261,194,27331,1,8,0:0:0:0:
261,194,27474,1,0,0:0:0:0:
255,190,27760,1,0,0:0:0:0:
255,190,27903,1,8,0:0:0:0:
255,190,28189,1,0,0:0:0:0:
256,189,28331,1,0,0:0:0:0:
256,189,28474,1,8,0:0:0:0:
255,190,28760,1,0,0:0:0:0:
255,190,29046,1,8,0:0:0:0:
256,189,29331,1,0,0:0:0:0:
256,189,29474,1,0,0:0:0:0:
138,97,29617,1,8,0:0:0:0:
138,97,29760,1,0,0:0:0:0:
184,162,30046,1,0,0:0:0:0:
184,162,30189,1,8,0:0:0:0:
188,156,30474,1,0,0:0:0:0:
188,156,30617,1,0,0:0:0:0:
188,155,30760,1,8,0:0:0:0:
233,147,31046,1,0,0:0:0:0:
233,147,31331,1,8,0:0:0:0:
233,147,31474,1,0,0:0:0:0:
233,147,31617,1,8,0:0:0:0:
233,147,31689,1,8,0:0:0:0:
233,147,31760,1,0,0:0:0:0:
233,147,31831,1,0,0:0:0:0:
233,147,31903,1,0,0:0:0:0:
233,147,32046,1,12,0:0:0:0:
271,158,32331,1,0,0:0:0:0:
280,159,32617,1,0,0:0:0:0:
280,159,32689,1,0,0:0:0:0:
280,159,32760,1,8,0:0:0:0:
280,159,32903,1,0,0:0:0:0:
284,158,33189,1,0,0:0:0:0:
284,158,33331,1,8,0:0:0:0:
280,159,33474,1,0,0:0:0:0:
280,159,33760,1,0,0:0:0:0:
280,159,33831,1,8,0:0:0:0:
280,159,33903,1,8,0:0:0:0:
284,158,34046,1,8,0:0:0:0:
284,158,34331,1,0,0:0:0:0:
113,151,34617,1,0,0:0:0:0:
113,151,34760,1,8,0:0:0:0:
226,197,34903,1,0,0:0:0:0:
226,197,34974,1,0,0:0:0:0:
226,197,35046,1,8,0:0:0:0:
230,187,35189,1,0,0:0:0:0:
227,185,35331,1,8,0:0:0:0:
227,185,35474,1,0,0:0:0:0:
227,185,35617,1,0,0:0:0:0:
227,185,35689,1,0,0:0:0:0:
227,185,35760,1,0,0:0:0:0:
227,185,35831,1,0,0:0:0:0:
228,175,35903,1,12,0:0:0:0:
223,172,36046,1,0,0:0:0:0:
223,172,36117,1,0,0:0:0:0:
223,172,36189,1,12,0:0:0:0:
222,169,36331,1,0,0:0:0:0:
222,169,36403,1,0,0:0:0:0:
222,169,36474,1,12,0:0:0:0:
224,172,36617,1,0,0:0:0:0:
200,178,36903,1,0,0:0:0:0:
244,188,37189,1,0,0:0:0:0:
244,188,37260,1,0,0:0:0:0:
244,188,37331,1,8,0:0:0:0:
244,188,37474,1,0,0:0:0:0:
269,217,37760,1,0,0:0:0:0:
269,217,37903,1,8,0:0:0:0:
269,217,38046,1,0,0:0:0:0:
196,154,38331,1,0,0:0:0:0:
196,154,38403,1,8,0:0:0:0:
196,154,38474,1,8,0:0:0:0:
217,158,38617,1,8,0:0:0:0:
215,158,38903,1,0,0:0:0:0:
111,188,39189,1,0,0:0:0:0:
269,178,39331,1,8,0:0:0:0:
293,177,39474,1,0,0:0:0:0:
293,177,39546,1,8,0:0:0:0:
293,177,39617,1,8,0:0:0:0:
294,177,39760,1,0,0:0:0:0:
294,177,39903,1,8,0:0:0:0:
294,177,40046,1,0,0:0:0:0:
292,173,40189,1,8,0:0:0:0:
292,173,40260,1,8,0:0:0:0:
292,173,40331,1,0,0:0:0:0:
293,177,40403,1,0,0:0:0:0:
293,177,40474,1,12,0:0:0:0:
248,261,40617,1,0,0:0:0:0:
248,261,40689,1,0,0:0:0:0:
248,261,40760,1,12,0:0:0:0:
248,261,40903,1,0,0:0:0:0:
248,261,40974,1,0,0:0:0:0:
248,261,41046,1,12,0:0:0:0:
252,263,41189,1,8,0:0:0:0:
253,263,41260,1,8,0:0:0:0:
253,263,41331,1,4,0:0:0:0:
226,154,41617,1,0,0:0:0:0:
277,187,41760,1,8,0:0:0:0:
277,187,41903,1,0,0:0:0:0:
277,187,42046,1,0,0:0:0:0:
277,187,42189,1,8,0:0:0:0:
277,187,42331,1,0,0:0:0:0:
168,116,42474,1,8,0:0:0:0:
226,154,42617,1,8,0:0:0:0:
277,187,42760,1,0,0:0:0:0:
277,187,42903,1,8,0:0:0:0:
277,187,43046,1,0,0:0:0:0:
277,187,43189,1,0,0:0:0:0:
277,187,43331,1,8,0:0:0:0:
168,116,43474,1,0,0:0:0:0:
226,154,43617,1,8,0:0:0:0:
277,187,43760,1,8,0:0:0:0:
277,187,43903,1,0,0:0:0:0:
277,187,44046,1,0,0:0:0:0:
277,187,44189,1,8,0:0:0:0:
277,187,44331,1,0,0:0:0:0:
168,116,44474,1,8,0:0:0:0:
226,154,44617,1,0,0:0:0:0:
277,187,44760,1,8,0:0:0:0:
277,187,44903,1,8,0:0:0:0:
277,187,45046,1,0,0:0:0:0:
277,187,45189,1,8,0:0:0:0:
277,187,45331,1,0,0:0:0:0:
168,116,45474,1,0,0:0:0:0:
30,88,45617,1,8,0:0:0:0:
221,248,45760,1,0,0:0:0:0:
160,226,45903,1,8,0:0:0:0:
226,219,46046,1,0,0:0:0:0:
226,219,46117,1,0,0:0:0:0:
226,219,46189,1,8,0:0:0:0:
226,219,46331,1,0,0:0:0:0:
226,219,46403,1,0,0:0:0:0:
226,219,46474,1,8,0:0:0:0:
226,219,46546,1,8,0:0:0:0:
226,219,46617,1,0,0:0:0:0:
226,219,46760,1,8,0:0:0:0:
226,219,46903,1,0,0:0:0:0:
226,219,46974,1,0,0:0:0:0:
226,219,47046,1,8,0:0:0:0:
226,219,47189,1,0,0:0:0:0:
226,219,47331,1,8,0:0:0:0:
226,219,47474,1,8,0:0:0:0:
226,219,47546,1,0,0:0:0:0:
226,219,47617,1,8,0:0:0:0:
226,219,47689,1,8,0:0:0:0:
226,219,47760,1,0,0:0:0:0:
226,219,47903,1,8,0:0:0:0:
226,219,48046,1,0,0:0:0:0:
239,183,48117,1,0,0:0:0:0:
239,183,48189,1,8,0:0:0:0:
244,197,48331,1,0,0:0:0:0:
244,197,48403,1,0,0:0:0:0:
244,197,48474,1,8,0:0:0:0:
240,194,48617,1,0,0:0:0:0:
240,194,48760,1,8,0:0:0:0:
240,194,48831,1,8,0:0:0:0:
240,194,48903,1,0,0:0:0:0:
240,194,48974,1,0,0:0:0:0:
240,194,49046,1,0,0:0:0:0:
257,205,49189,1,12,0:0:0:0:
257,204,49474,1,12,0:0:0:0:
257,204,49617,1,12,0:0:0:0:
241,177,50331,1,12,0:0:0:0:
241,177,50617,1,0,0:0:0:0:
346,127,50760,1,8,0:0:0:0:
346,127,50903,1,0,0:0:0:0:
346,127,51046,1,8,0:0:0:0:
346,127,51117,1,8,0:0:0:0:
346,127,51189,1,0,0:0:0:0:
346,127,51260,1,0,0:0:0:0:
346,127,51331,1,8,0:0:0:0:
281,134,51474,1,8,0:0:0:0:
281,134,51546,1,0,0:0:0:0:
281,134,51617,1,8,0:0:0:0:
281,134,51689,1,8,0:0:0:0:
281,134,51760,1,0,0:0:0:0:
281,134,51903,1,8,0:0:0:0:
281,134,52046,1,0,0:0:0:0:
281,134,52189,1,0,0:0:0:0:
281,134,52260,1,0,0:0:0:0:
281,134,52331,1,8,0:0:0:0:
281,134,52474,1,0,0:0:0:0:
243,163,52617,1,12,0:0:0:0:
243,163,52903,1,0,0:0:0:0:
243,163,53046,1,8,0:0:0:0:
243,163,53189,1,0,0:0:0:0:
243,163,53331,1,0,0:0:0:0:
243,163,53403,1,0,0:0:0:0:
243,163,53474,1,8,0:0:0:0:
243,163,53546,1,8,0:0:0:0:
243,163,53617,1,0,0:0:0:0:
243,163,53760,1,8,0:0:0:0:
243,163,53831,1,8,0:0:0:0:
243,163,53903,1,8,0:0:0:0:
243,163,53974,1,8,0:0:0:0:
243,163,54046,1,0,0:0:0:0:
243,163,54189,1,8,0:0:0:0:
243,163,54331,1,0,0:0:0:0:
243,163,54474,1,8,0:0:0:0:
243,163,54546,1,8,0:0:0:0:
243,163,54617,1,0,0:0:0:0:
243,163,54760,1,0,0:0:0:0:
243,163,54903,1,12,0:0:0:0:
243,163,55189,1,0,0:0:0:0:
243,163,55331,1,8,0:0:0:0:
243,163,55403,1,8,0:0:0:0:
243,163,55474,1,0,0:0:0:0:
243,163,55617,1,8,0:0:0:0:
230,137,55689,1,0,0:0:0:0:
230,137,55760,1,8,0:0:0:0:
230,137,55903,1,0,0:0:0:0:
282,110,55974,1,0,0:0:0:0:
230,137,56046,1,8,0:0:0:0:
230,137,56117,1,8,0:0:0:0:
230,137,56189,1,0,0:0:0:0:
230,137,56331,1,0,0:0:0:0:
230,137,56474,1,8,0:0:0:0:
230,137,56617,1,0,0:0:0:0:
230,137,56760,1,8,0:0:0:0:
230,137,56831,1,0,0:0:0:0:
230,137,56903,1,8,0:0:0:0:
230,137,57046,1,0,0:0:0:0:
230,137,57189,1,12,0:0:0:0:
230,137,57474,1,0,0:0:0:0:
230,137,57617,1,8,0:0:0:0:
230,137,57760,1,8,0:0:0:0:
230,137,57903,1,0,0:0:0:0:
230,137,57974,1,8,0:0:0:0:
230,137,58046,1,0,0:0:0:0:
230,137,58189,1,8,0:0:0:0:
230,137,58331,1,4,0:0:0:0:
230,137,58617,1,0,0:0:0:0:
230,137,58760,1,8,0:0:0:0:
230,137,58903,1,0,0:0:0:0:
230,137,59046,1,8,0:0:0:0:
230,137,59117,1,0,0:0:0:0:
230,137,59189,1,8,0:0:0:0:
230,137,59331,1,0,0:0:0:0:
230,137,59474,1,12,0:0:0:0:
316,139,59760,1,0,0:0:0:0:
316,139,59903,1,8,0:0:0:0:
316,139,60046,1,0,0:0:0:0:
316,139,60189,1,8,0:0:0:0:
316,139,60260,1,8,0:0:0:0:
316,139,60331,1,0,0:0:0:0:
316,139,60403,1,0,0:0:0:0:
316,139,60474,1,8,0:0:0:0:
316,139,60617,1,0,0:0:0:0:
316,139,60689,1,8,0:0:0:0:
316,139,60760,1,0,0:0:0:0:
316,139,60831,1,0,0:0:0:0:
316,139,60903,1,8,0:0:0:0:
316,139,61046,1,8,0:0:0:0:
322,141,61189,1,0,0:0:0:0:
322,141,61331,1,8,0:0:0:0:
322,141,61403,1,0,0:0:0:0:
322,141,61474,1,8,0:0:0:0:
322,141,61617,1,0,0:0:0:0:
322,141,61760,1,12,0:0:0:0:
322,141,62046,1,0,0:0:0:0:
322,141,62189,1,8,0:0:0:0:
322,141,62331,1,0,0:0:0:0:
280,132,62474,1,0,0:0:0:0:
280,132,62546,1,8,0:0:0:0:
280,132,62617,1,0,0:0:0:0:
280,132,62760,1,8,0:0:0:0:
197,17,62831,1,0,0:0:0:0:
280,132,62903,1,8,0:0:0:0:
280,132,62974,1,8,0:0:0:0:
280,132,63046,1,0,0:0:0:0:
280,132,63189,1,0,0:0:0:0:
280,132,63331,1,8,0:0:0:0:
280,132,63474,1,0,0:0:0:0:
280,132,63617,1,8,0:0:0:0:
280,132,63689,1,8,0:0:0:0:
280,132,63760,1,8,0:0:0:0:
280,132,63903,1,0,0:0:0:0:
280,132,64046,1,12,0:0:0:0:
280,132,64331,1,0,0:0:0:0:
280,132,64474,1,8,0:0:0:0:
280,132,64546,1,8,0:0:0:0:
280,132,64617,1,0,0:0:0:0:
280,132,64760,1,8,0:0:0:0:
205,101,64831,1,0,0:0:0:0:
280,132,64903,1,8,0:0:0:0:
280,132,65046,1,0,0:0:0:0:
280,132,65189,1,8,0:0:0:0:
280,132,65260,1,8,0:0:0:0:
280,132,65331,1,0,0:0:0:0:
131,138,65403,1,0,0:0:0:0:
239,113,65474,1,0,0:0:0:0:
239,113,65617,1,8,0:0:0:0:
239,113,65760,1,0,0:0:0:0:
239,113,65903,1,0,0:0:0:0:
239,113,65974,1,0,0:0:0:0:
239,113,66046,1,8,0:0:0:0:
239,113,66189,1,0,0:0:0:0:
239,113,66331,1,12,0:0:0:0:
208,105,66617,1,0,0:0:0:0:
208,105,66760,1,8,0:0:0:0:
208,105,66903,1,8,0:0:0:0:
208,105,67046,1,8,0:0:0:0:
208,105,67117,1,0,0:0:0:0:
208,105,67189,1,8,0:0:0:0:
208,105,67331,1,0,0:0:0:0:
208,105,67474,1,12,0:0:0:0:
208,105,67760,1,0,0:0:0:0:
208,105,67903,1,8,0:0:0:0:
242,144,68046,1,0,0:0:0:0:
242,144,68117,1,0,0:0:0:0:
242,144,68189,1,8,0:0:0:0:
242,144,68260,1,0,0:0:0:0:
242,144,68331,1,8,0:0:0:0:
242,144,68403,1,0,0:0:0:0:
242,144,68474,1,8,0:0:0:0:
242,144,68617,1,8,0:0:0:0:
242,144,68689,1,8,0:0:0:0:
197,236,68760,5,4,0:0:0:0:
197,236,69045,1,6,0:0:0:0:
197,236,69331,1,6,0:0:0:0:
197,236,69474,1,6,0:0:0:0:
197,236,69617,1,6,0:0:0:0:
197,236,69760,1,4,0:0:0:0:
193,162,70045,1,4,0:0:0:0:
193,162,70331,1,6,0:0:0:0:
193,162,70617,1,4,0:0:0:0:
193,162,70760,1,6,0:0:0:0:
193,162,71045,1,4,0:0:0:0:
193,162,71331,1,6,0:0:0:0:
193,162,71617,1,6,0:0:0:0:
193,162,71760,1,6,0:0:0:0:
193,162,71902,1,6,0:0:0:0:
193,162,72045,1,4,0:0:0:0:
193,162,72331,1,4,0:0:0:0:
306,171,72617,1,4,0:0:0:0:
203,264,72760,1,2,0:0:0:0:
203,264,72902,1,2,0:0:0:0:
203,264,73045,1,2,0:0:0:0:
235,243,73189,1,4,0:0:0:0:
234,231,73474,1,0,0:0:0:0:
234,231,73617,1,8,0:0:0:0:
234,231,73760,1,0,0:0:0:0:
51,125,73831,1,8,0:0:0:0:
234,231,73903,1,0,0:0:0:0:
276,232,74046,1,8,0:0:0:0:
329,266,74189,1,8,0:0:0:0:
329,266,74331,1,4,0:0:0:0:
340,268,74617,1,0,0:0:0:0:
340,268,74760,1,8,0:0:0:0:
340,268,74903,1,0,0:0:0:0:
340,268,75046,1,8,0:0:0:0:
340,268,75189,1,8,0:0:0:0:
340,268,75331,1,8,0:0:0:0:
94,196,75474,1,4,0:0:0:0:
195,196,75760,1,0,0:0:0:0:
195,196,75903,1,8,0:0:0:0:
195,196,76046,1,0,0:0:0:0:
227,37,76117,1,8,0:0:0:0:
195,196,76189,1,0,0:0:0:0:
195,196,76331,1,8,0:0:0:0:
195,196,76474,1,0,0:0:0:0:
195,196,76617,1,12,0:0:0:0:
308,259,76903,1,0,0:0:0:0:
308,259,77046,1,8,0:0:0:0:
152,226,77189,1,0,0:0:0:0:
201,187,77260,1,0,0:0:0:0:
156,230,77331,1,8,0:0:0:0:
156,230,77474,1,8,0:0:0:0:
156,230,77617,1,8,0:0:0:0:
156,230,77760,1,4,0:0:0:0:
234,231,78046,1,0,0:0:0:0:
234,231,78189,1,8,0:0:0:0:
234,231,78332,1,0,0:0:0:0:
51,125,78403,1,8,0:0:0:0:
234,231,78475,1,0,0:0:0:0:
276,232,78618,1,8,0:0:0:0:
329,266,78761,1,8,0:0:0:0:
329,266,78903,1,4,0:0:0:0:
340,268,79189,1,0,0:0:0:0:
340,268,79332,1,8,0:0:0:0:
340,268,79475,1,0,0:0:0:0:
340,268,79618,1,8,0:0:0:0:
340,268,79761,1,8,0:0:0:0:
340,268,79903,1,8,0:0:0:0:
94,196,80046,1,4,0:0:0:0:
195,196,80332,1,0,0:0:0:0:
195,196,80475,1,8,0:0:0:0:
195,196,80618,1,0,0:0:0:0:
227,37,80689,1,8,0:0:0:0:
195,196,80761,1,0,0:0:0:0:
195,196,80903,1,8,0:0:0:0:
195,196,81046,1,0,0:0:0:0:
195,196,81189,1,12,0:0:0:0:
308,259,81475,1,0,0:0:0:0:
308,259,81618,1,8,0:0:0:0:
152,226,81761,1,0,0:0:0:0:
201,187,81832,1,0,0:0:0:0:
156,230,81903,1,8,0:0:0:0:
156,230,82046,1,8,0:0:0:0:
156,230,82189,1,8,0:0:0:0:
156,230,82332,1,4,0:0:0:0:
318,163,82760,1,0,0:0:0:0:
318,163,83046,1,0,0:0:0:0:
318,163,83331,1,0,0:0:0:0:
318,163,83617,1,0,0:0:0:0:
318,163,83903,1,0,0:0:0:0:
318,163,84189,1,0,0:0:0:0:
318,163,84474,1,0,0:0:0:0:
318,163,84617,1,8,0:0:0:0:
179,149,84760,1,0,0:0:0:0:
320,121,85046,1,0,0:0:0:0:
320,121,85331,1,0,0:0:0:0:
320,121,85617,1,0,0:0:0:0:
320,121,85760,1,8,0:0:0:0:
320,121,85831,1,8,0:0:0:0:
320,121,85903,1,8,0:0:0:0:
320,121,86046,1,8,0:0:0:0:
320,121,86189,1,0,0:0:0:0:
383,115,86474,1,0,0:0:0:0:
383,115,86617,1,0,0:0:0:0:
383,115,86760,1,0,0:0:0:0:
383,115,86903,1,8,0:0:0:0:
366,129,87189,1,0,0:0:0:0:
314,146,87331,1,8,0:0:0:0:
314,146,87474,1,0,0:0:0:0:
314,146,87617,1,8,0:0:0:0:
314,146,87760,1,8,0:0:0:0:
314,146,87903,1,0,0:0:0:0:
314,146,88046,1,0,0:0:0:0:
314,146,88117,1,0,0:0:0:0:
314,146,88189,1,12,0:0:0:0:
257,121,88760,1,8,0:0:0:0:
257,121,88903,1,8,0:0:0:0:
257,121,89046,1,0,0:0:0:0:
257,121,89189,1,8,0:0:0:0:
361,142,89474,1,0,0:0:0:0:
361,142,89617,1,8,0:0:0:0:
361,142,89903,1,0,0:0:0:0:
361,142,90046,1,0,0:0:0:0:
361,142,90189,1,8,0:0:0:0:
303,133,90474,1,0,0:0:0:0:
303,133,90760,1,8,0:0:0:0:
303,133,91046,1,0,0:0:0:0:
303,133,91189,1,0,0:0:0:0:
303,133,91331,1,8,0:0:0:0:
303,133,91474,1,0,0:0:0:0:
303,133,91760,1,0,0:0:0:0:
303,133,91903,1,8,0:0:0:0:
303,133,92189,1,0,0:0:0:0:
303,133,92331,1,0,0:0:0:0:
303,133,92474,1,8,0:0:0:0:
342,176,92760,1,0,0:0:0:0:
342,176,93046,1,8,0:0:0:0:
342,176,93331,1,8,0:0:0:0:
342,176,93474,1,8,0:0:0:0:
342,176,93617,1,8,0:0:0:0:
342,176,93760,1,4,0:0:0:0:
312,121,94046,1,0,0:0:0:0:
312,121,94189,1,8,0:0:0:0:
305,177,94474,1,0,0:0:0:0:
305,177,94617,1,0,0:0:0:0:
116,100,94689,1,0,0:0:0:0:
305,177,94760,1,8,0:0:0:0:
305,177,94903,1,0,0:0:0:0:
305,177,95046,1,8,0:0:0:0:
305,177,95189,1,0,0:0:0:0:
305,177,95331,1,8,0:0:0:0:
305,177,95474,1,0,0:0:0:0:
214,101,95617,1,8,0:0:0:0:
214,101,95689,1,8,0:0:0:0:
214,101,95760,1,8,0:0:0:0:
214,101,95831,1,8,0:0:0:0:
214,101,95903,1,8,0:0:0:0:
214,101,95974,1,8,0:0:0:0:
214,101,96046,1,0,0:0:0:0:
214,101,96331,1,0,0:0:0:0:
220,106,96617,1,0,0:0:0:0:
246,153,96689,1,0,0:0:0:0:
220,106,96760,1,8,0:0:0:0:
220,106,96903,1,0,0:0:0:0:
296,162,97189,1,0,0:0:0:0:
296,162,97331,1,0,0:0:0:0:
296,162,97474,1,0,0:0:0:0:
332,68,97760,1,0,0:0:0:0:
332,68,97831,1,0,0:0:0:0:
332,68,97903,1,8,0:0:0:0:
332,68,98046,1,0,0:0:0:0:
332,68,98331,1,0,0:0:0:0:
206,165,98617,1,0,0:0:0:0:
206,165,98760,1,8,0:0:0:0:
206,165,98903,1,0,0:0:0:0:
206,165,99046,1,8,0:0:0:0:
206,165,99189,1,8,0:0:0:0:
206,165,99331,1,0,0:0:0:0:
206,165,99474,1,8,0:0:0:0:
212,162,99617,1,0,0:0:0:0:
212,162,99689,1,0,0:0:0:0:
212,162,99760,1,0,0:0:0:0:
212,162,99831,1,0,0:0:0:0:
212,162,99903,1,12,0:0:0:0:
212,162,100046,1,0,0:0:0:0:
212,162,100117,1,0,0:0:0:0:
212,162,100189,1,12,0:0:0:0:
212,162,100331,1,0,0:0:0:0:
212,162,100403,1,0,0:0:0:0:
212,162,100474,1,12,0:0:0:0:
212,162,100617,1,0,0:0:0:0:
212,162,100903,1,0,0:0:0:0:
212,162,101189,1,0,0:0:0:0:
212,162,101260,1,0,0:0:0:0:
212,162,101331,1,8,0:0:0:0:
212,162,101474,1,0,0:0:0:0:
212,162,101760,1,0,0:0:0:0:
212,162,101903,1,0,0:0:0:0:
212,162,102046,1,0,0:0:0:0:
250,186,102331,1,0,0:0:0:0:
250,186,102403,1,0,0:0:0:0:
250,186,102474,1,8,0:0:0:0:
250,186,102617,1,0,0:0:0:0:
250,186,102903,1,0,0:0:0:0:
284,205,103189,1,8,0:0:0:0:
284,205,103331,1,8,0:0:0:0:
284,205,103474,1,0,0:0:0:0:
369,151,103546,1,0,0:0:0:0:
284,205,103617,1,8,0:0:0:0:
284,205,103760,1,0,0:0:0:0:
284,205,103903,1,0,0:0:0:0:
284,205,104046,1,8,0:0:0:0:
261,147,104117,1,0,0:0:0:0:
284,205,104189,1,8,0:0:0:0:
284,205,104260,1,8,0:0:0:0:
284,205,104331,1,0,0:0:0:0:
284,205,104403,1,0,0:0:0:0:
284,205,104474,1,12,0:0:0:0:
284,205,104617,1,0,0:0:0:0:
284,205,104689,1,0,0:0:0:0:
284,205,104760,1,12,0:0:0:0:
284,205,104903,1,0,0:0:0:0:
284,205,104974,1,0,0:0:0:0:
284,205,105046,1,12,0:0:0:0:
284,205,105189,1,0,0:0:0:0:
284,205,105331,1,0,0:0:0:0:
284,205,105403,1,0,0:0:0:0:
284,205,105474,1,8,0:0:0:0:
284,205,105617,1,8,0:0:0:0:
211,121,105760,1,0,0:0:0:0:
211,121,105831,1,0,0:0:0:0:
211,121,105903,1,8,0:0:0:0:
211,121,106046,1,8,0:0:0:0:
211,121,106189,1,8,0:0:0:0:
211,121,106260,1,0,0:0:0:0:
211,121,106331,1,8,0:0:0:0:
261,136,106617,1,8,0:0:0:0:
261,136,106689,1,8,0:0:0:0:
261,136,106760,1,8,0:0:0:0:
261,136,106831,1,8,0:0:0:0:
261,136,106903,1,0,0:0:0:0:
261,136,106974,1,0,0:0:0:0:
261,136,107046,1,8,0:0:0:0:
261,136,107189,1,0,0:0:0:0:
245,179,107474,1,12,0:0:0:0:
245,179,107760,1,0,0:0:0:0:
350,129,107903,1,8,0:0:0:0:
350,129,107974,1,8,0:0:0:0:
350,129,108046,1,0,0:0:0:0:
350,129,108189,1,8,0:0:0:0:
350,129,108260,1,8,0:0:0:0:
350,129,108332,1,0,0:0:0:0:
350,129,108403,1,0,0:0:0:0:
350,129,108474,1,8,0:0:0:0:
194,113,108617,1,8,0:0:0:0:
194,113,108689,1,8,0:0:0:0:
194,113,108760,1,8,0:0:0:0:
285,136,108832,1,8,0:0:0:0:
285,136,108903,1,0,0:0:0:0:
285,136,108974,1,0,0:0:0:0:
285,136,109046,1,8,0:0:0:0:
285,136,109189,1,0,0:0:0:0:
285,136,109332,1,0,0:0:0:0:
285,136,109403,1,8,0:0:0:0:
285,136,109474,1,8,0:0:0:0:
285,136,109546,1,8,0:0:0:0:
285,136,109617,1,0,0:0:0:0:
247,165,109760,1,12,0:0:0:0:
247,165,110046,1,0,0:0:0:0:
247,165,110189,1,8,0:0:0:0:
247,165,110260,1,0,0:0:0:0:
247,165,110332,1,0,0:0:0:0:
247,165,110474,1,0,0:0:0:0:
247,165,110546,1,8,0:0:0:0:
247,165,110617,1,0,0:0:0:0:
247,165,110689,1,0,0:0:0:0:
247,165,110760,1,8,0:0:0:0:
247,165,110903,1,8,0:0:0:0:
247,165,110974,1,8,0:0:0:0:
247,165,111046,1,8,0:0:0:0:
247,165,111117,1,8,0:0:0:0:
247,165,111189,1,0,0:0:0:0:
247,165,111260,1,0,0:0:0:0:
247,165,111331,1,8,0:0:0:0:
247,165,111474,1,0,0:0:0:0:
247,165,111617,1,8,0:0:0:0:
247,165,111689,1,8,0:0:0:0:
247,165,111760,1,8,0:0:0:0:
247,165,111832,1,8,0:0:0:0:
247,165,111903,1,0,0:0:0:0:
247,165,112046,1,12,0:0:0:0:
247,165,112332,1,0,0:0:0:0:
247,165,112474,1,8,0:0:0:0:
247,165,112546,1,8,0:0:0:0:
247,165,112617,1,0,0:0:0:0:
255,108,112689,1,0,0:0:0:0:
247,165,112760,1,8,0:0:0:0:
234,139,112832,1,0,0:0:0:0:
234,139,112903,1,8,0:0:0:0:
234,139,113046,1,0,0:0:0:0:
234,139,113189,1,8,0:0:0:0:
234,139,113260,1,8,0:0:0:0:
234,139,113332,1,0,0:0:0:0:
234,139,113474,1,0,0:0:0:0:
234,139,113617,1,8,0:0:0:0:
234,139,113689,1,8,0:0:0:0:
234,139,113760,1,0,0:0:0:0:
235,77,113832,1,0,0:0:0:0:
234,139,113903,1,8,0:0:0:0:
234,139,114046,1,8,0:0:0:0:
234,139,114117,1,8,0:0:0:0:
234,139,114189,1,0,0:0:0:0:
234,139,114332,1,12,0:0:0:0:
234,139,114617,1,0,0:0:0:0:
234,139,114760,1,8,0:0:0:0:
234,139,114903,1,8,0:0:0:0:
234,139,115046,1,0,0:0:0:0:
234,139,115117,1,0,0:0:0:0:
234,139,115189,1,8,0:0:0:0:
234,139,115260,1,8,0:0:0:0:
234,139,115332,1,0,0:0:0:0:
234,139,115474,1,4,0:0:0:0:
234,139,115760,1,8,0:0:0:0:
234,139,115903,1,0,0:0:0:0:
234,139,116046,1,0,0:0:0:0:
234,139,116189,1,8,0:0:0:0:
234,139,116260,1,0,0:0:0:0:
234,139,116332,1,8,0:0:0:0:
234,139,116403,1,8,0:0:0:0:
234,139,116474,1,0,0:0:0:0:
234,139,116617,1,12,0:0:0:0:
320,141,116903,1,0,0:0:0:0:
320,141,117046,1,8,0:0:0:0:
320,141,117117,1,8,0:0:0:0:
320,141,117189,1,0,0:0:0:0:
320,141,117332,1,8,0:0:0:0:
320,141,117403,1,8,0:0:0:0:
320,141,117474,1,0,0:0:0:0:
320,141,117546,1,0,0:0:0:0:
320,141,117617,1,8,0:0:0:0:
320,141,117760,1,8,0:0:0:0:
320,141,117832,1,8,0:0:0:0:
320,141,117903,1,8,0:0:0:0:
320,141,117974,1,8,0:0:0:0:
320,141,118046,1,0,0:0:0:0:
320,141,118117,1,8,0:0:0:0:
320,141,118189,1,0,0:0:0:0:
326,143,118332,1,0,0:0:0:0:
326,143,118474,1,8,0:0:0:0:
326,143,118546,1,0,0:0:0:0:
326,143,118617,1,8,0:0:0:0:
326,143,118689,1,8,0:0:0:0:
326,143,118760,1,0,0:0:0:0:
326,143,118903,1,12,0:0:0:0:
326,143,119189,1,0,0:0:0:0:
326,143,119260,1,0,0:0:0:0:
326,143,119332,1,8,0:0:0:0:
326,143,119474,1,0,0:0:0:0:
284,134,119617,1,0,0:0:0:0:
284,134,119689,1,8,0:0:0:0:
284,134,119760,1,0,0:0:0:0:
284,134,119903,1,8,0:0:0:0:
201,19,119974,1,0,0:0:0:0:
284,134,120046,1,8,0:0:0:0:
284,134,120117,1,8,0:0:0:0:
284,134,120189,1,8,0:0:0:0:
226,95,120260,1,8,0:0:0:0:
284,134,120332,1,0,0:0:0:0:
284,134,120403,1,0,0:0:0:0:
284,134,120474,1,8,0:0:0:0:
284,134,120617,1,0,0:0:0:0:
284,134,120760,1,8,0:0:0:0:
284,134,120832,1,8,0:0:0:0:
284,134,120903,1,8,0:0:0:0:
284,134,120974,1,8,0:0:0:0:
284,134,121046,1,0,0:0:0:0:
284,134,121189,1,12,0:0:0:0:
284,134,121474,1,0,0:0:0:0:
284,134,121617,1,8,0:0:0:0:
284,134,121689,1,8,0:0:0:0:
284,134,121760,1,0,0:0:0:0:
231,152,121831,1,0,0:0:0:0:
284,134,121903,1,8,0:0:0:0:
284,134,122046,1,0,0:0:0:0:
284,134,122189,1,8,0:0:0:0:
315,142,122260,1,0,0:0:0:0:
284,134,122332,1,8,0:0:0:0:
284,134,122403,1,8,0:0:0:0:
284,134,122474,1,0,0:0:0:0:
209,103,122546,1,0,0:0:0:0:
243,115,122617,1,0,0:0:0:0:
243,115,122760,1,8,0:0:0:0:
243,115,122903,1,0,0:0:0:0:
243,115,123046,1,0,0:0:0:0:
243,115,123117,1,0,0:0:0:0:
243,115,123189,1,8,0:0:0:0:
243,115,123332,1,0,0:0:0:0:
243,115,123474,1,12,0:0:0:0:
212,107,123760,1,0,0:0:0:0:
212,107,123903,1,8,0:0:0:0:
212,107,124046,1,8,0:0:0:0:
212,107,124189,1,8,0:0:0:0:
212,107,124260,1,0,0:0:0:0:
212,107,124332,1,8,0:0:0:0:
212,107,124403,1,8,0:0:0:0:
212,107,124474,1,0,0:0:0:0:
212,107,124617,1,12,0:0:0:0:
212,107,124903,1,0,0:0:0:0:
212,107,125046,1,8,0:0:0:0:
246,146,125189,1,0,0:0:0:0:
246,146,125260,1,0,0:0:0:0:
246,146,125332,1,8,0:0:0:0:
246,146,125403,1,0,0:0:0:0:
246,146,125474,1,8,0:0:0:0:
246,146,125546,1,0,0:0:0:0:
246,146,125617,1,8,0:0:0:0:
246,146,125760,1,8,0:0:0:0:
246,146,125832,1,8,0:0:0:0:
201,238,125903,5,4,0:0:0:0:
201,238,126188,1,6,0:0:0:0:
201,238,126474,1,6,0:0:0:0:
201,238,126617,1,6,0:0:0:0:
201,238,126760,1,6,0:0:0:0:
201,238,126903,1,4,0:0:0:0:
197,164,127188,1,4,0:0:0:0:
197,164,127474,1,6,0:0:0:0:
197,164,127760,1,4,0:0:0:0:
197,164,127903,1,6,0:0:0:0:
197,164,128188,1,4,0:0:0:0:
197,164,128474,1,6,0:0:0:0:
197,164,128760,1,6,0:0:0:0:
197,164,128903,1,6,0:0:0:0:
197,164,129045,1,6,0:0:0:0:
197,164,129188,1,4,0:0:0:0:
197,164,129474,1,4,0:0:0:0:
310,173,129760,1,4,0:0:0:0:
207,266,129903,1,2,0:0:0:0:
207,266,130045,1,2,0:0:0:0:
207,266,130188,1,2,0:0:0:0:
239,245,130332,1,4,0:0:0:0:
408,177,130617,1,0,0:0:0:0:
408,177,130760,1,8,0:0:0:0:
408,177,131046,1,8,0:0:0:0:
408,177,131189,1,8,0:0:0:0:
408,177,131331,1,8,0:0:0:0:
408,177,131474,1,4,0:0:0:0:
408,177,131760,1,0,0:0:0:0:
408,177,131903,1,8,0:0:0:0:
408,177,132189,1,0,0:0:0:0:
408,177,132331,1,0,0:0:0:0:
408,177,132474,1,8,0:0:0:0:
408,177,132617,1,4,0:0:0:0:
408,177,132903,1,0,0:0:0:0:
408,177,133046,1,8,0:0:0:0:
408,177,133189,1,0,0:0:0:0:
408,177,133331,1,8,0:0:0:0:
408,177,133474,1,8,0:0:0:0:
408,177,133617,1,8,0:0:0:0:
405,195,133760,1,0,0:0:0:0:
405,195,134046,1,0,0:0:0:0:
405,195,134189,1,8,0:0:0:0:
405,195,134331,1,0,0:0:0:0:
405,195,134474,1,8,0:0:0:0:
405,195,134617,1,8,0:0:0:0:
405,195,134760,1,0,0:0:0:0:
405,195,134903,1,12,0:0:0:0:
414,197,135189,1,0,0:0:0:0:
414,197,135331,1,8,0:0:0:0:
414,197,135617,1,0,0:0:0:0:
414,197,135760,1,0,0:0:0:0:
414,197,135903,1,8,0:0:0:0:
414,197,136046,1,4,0:0:0:0:
414,197,136331,1,0,0:0:0:0:
414,197,136474,1,8,0:0:0:0:
223,167,136760,1,8,0:0:0:0:
223,167,136903,1,0,0:0:0:0:
223,167,137046,1,8,0:0:0:0:
223,167,137189,1,4,0:0:0:0:
223,167,137474,1,0,0:0:0:0:
223,167,137546,1,0,0:0:0:0:
223,167,137617,1,0,0:0:0:0:
223,167,137760,1,0,0:0:0:0:
223,167,137831,1,0,0:0:0:0:
223,167,137903,1,8,0:0:0:0:
223,167,138046,1,8,0:0:0:0:
223,167,138117,1,0,0:0:0:0:
223,167,138189,1,8,0:0:0:0:
223,167,138331,1,8,0:0:0:0:
223,167,138403,1,8,0:0:0:0:
223,167,138474,1,8,0:0:0:0:
137,150,138546,1,0,0:0:0:0:
223,167,138689,1,0,0:0:0:0:
223,167,138760,1,8,0:0:0:0:
223,167,138903,1,8,0:0:0:0:
205,163,138974,1,8,0:0:0:0:
223,167,139046,1,8,0:0:0:0:
205,164,139117,1,8,0:0:0:0:
398,261,139189,1,0,0:0:0:0:
398,261,139260,1,0,0:0:0:0:
398,261,139331,1,8,0:0:0:0:
398,261,139474,1,4,0:0:0:0:
254,223,139760,1,0,0:0:0:0:
254,223,139903,1,0,0:0:0:0:
254,223,140046,1,0,0:0:0:0:
254,223,140189,1,8,0:0:0:0:
254,223,140331,1,0,0:0:0:0:
254,223,140474,1,0,0:0:0:0:
254,223,140617,1,12,0:0:0:0:
285,250,140903,1,8,0:0:0:0:
285,250,141046,1,0,0:0:0:0:
285,250,141189,1,0,0:0:0:0:
285,250,141331,1,8,0:0:0:0:
285,250,141474,1,8,0:0:0:0:
285,250,141617,1,8,0:0:0:0:
285,250,141760,1,4,0:0:0:0:
301,247,142046,1,0,0:0:0:0:
301,247,142189,1,8,0:0:0:0:
301,247,142331,1,0,0:0:0:0:
301,247,142403,1,0,0:0:0:0:
301,247,142474,1,8,0:0:0:0:
301,247,142617,1,8,0:0:0:0:
301,247,142760,1,0,0:0:0:0:
301,247,142903,1,8,0:0:0:0:
301,247,143046,1,0,0:0:0:0:
301,247,143189,1,8,0:0:0:0:
301,247,143331,1,0,0:0:0:0:
301,247,143474,1,0,0:0:0:0:
301,247,143617,1,0,0:0:0:0:
301,247,143760,1,0,0:0:0:0:
301,247,143903,1,8,0:0:0:0:
301,247,144046,1,4,0:0:0:0:
268,133,144331,1,0,0:0:0:0:
268,133,144474,1,8,0:0:0:0:
268,133,144546,1,0,0:0:0:0:
268,133,144617,1,8,0:0:0:0:
268,133,144689,1,8,0:0:0:0:
268,133,144760,1,0,0:0:0:0:
268,133,144903,1,0,0:0:0:0:
268,133,144974,1,0,0:0:0:0:
268,133,145046,1,8,0:0:0:0:
229,173,145189,1,0,0:0:0:0:
229,173,145260,1,0,0:0:0:0:
229,173,145331,1,8,0:0:0:0:
229,173,145403,1,0,0:0:0:0:
229,173,145474,1,8,0:0:0:0:
229,173,145546,1,0,0:0:0:0:
229,173,145617,1,8,0:0:0:0:
229,173,145689,1,8,0:0:0:0:
229,173,145760,1,0,0:0:0:0:
229,173,145903,1,8,0:0:0:0:
231,243,145974,1,8,0:0:0:0:
231,243,146046,1,0,0:0:0:0:
231,243,146117,1,0,0:0:0:0:
231,243,146189,1,8,0:0:0:0:
231,243,146331,1,8,0:0:0:0:
231,243,146403,1,8,0:0:0:0:
231,243,146474,1,4,0:0:0:0:
281,197,146760,1,8,0:0:0:0:
281,197,146903,1,4,0:0:0:0:
281,197,147189,1,0,0:0:0:0:
281,197,147331,1,12,0:0:0:0:
281,197,147617,1,0,0:0:0:0:
281,197,147760,1,0,0:0:0:0:
281,197,147903,1,8,0:0:0:0:
281,197,148046,1,4,0:0:0:0:
144,137,148331,1,0,0:0:0:0:
144,137,148403,1,0,0:0:0:0:
144,137,148474,1,8,0:0:0:0:
144,137,148617,1,0,0:0:0:0:
144,137,148760,1,12,0:0:0:0:
144,137,149046,1,8,0:0:0:0:
144,137,149189,1,4,0:0:0:0:
144,137,149474,1,0,0:0:0:0:
144,137,149617,1,12,0:0:0:0:
144,137,149903,1,0,0:0:0:0:
393,51,150093,1,0,0:0:0:0:
393,51,150189,1,8,0:0:0:0:
393,51,150284,1,8,0:0:0:0:
178,143,150379,1,0,0:0:0:0:
393,51,150474,1,8,0:0:0:0:
393,51,150569,1,8,0:0:0:0:
393,51,150665,1,0,0:0:0:0:
393,51,150760,1,8,0:0:0:0:
214,101,150903,1,12,0:0:0:0:
214,101,151188,1,0,0:0:0:0:
220,106,151474,1,0,0:0:0:0:
246,153,151546,1,0,0:0:0:0:
220,106,151617,1,8,0:0:0:0:
220,106,151760,1,0,0:0:0:0:
296,162,152046,1,0,0:0:0:0:
296,162,152188,1,0,0:0:0:0:
296,162,152331,1,0,0:0:0:0:
332,68,152617,1,0,0:0:0:0:
332,68,152688,1,0,0:0:0:0:
332,68,152760,1,8,0:0:0:0:
332,68,152903,1,0,0:0:0:0:
332,68,153189,1,0,0:0:0:0:
206,165,153474,1,0,0:0:0:0:
206,165,153617,1,8,0:0:0:0:
206,165,153760,1,0,0:0:0:0:
206,165,153903,1,8,0:0:0:0:
206,165,154046,1,8,0:0:0:0:
206,165,154188,1,0,0:0:0:0:
206,165,154331,1,8,0:0:0:0:
212,162,154474,1,0,0:0:0:0:
212,162,154546,1,0,0:0:0:0:
212,162,154617,1,0,0:0:0:0:
212,162,154688,1,0,0:0:0:0:
212,162,154760,1,12,0:0:0:0:
212,162,154903,1,0,0:0:0:0:
212,162,154974,1,0,0:0:0:0:
212,162,155046,1,12,0:0:0:0:
212,162,155188,1,0,0:0:0:0:
212,162,155260,1,0,0:0:0:0:
212,162,155331,1,12,0:0:0:0:
212,162,155474,1,0,0:0:0:0:
212,162,155760,1,0,0:0:0:0:
212,162,156046,1,0,0:0:0:0:
212,162,156117,1,0,0:0:0:0:
212,162,156188,1,8,0:0:0:0:
212,162,156331,1,0,0:0:0:0:
212,162,156617,1,0,0:0:0:0:
212,162,156760,1,0,0:0:0:0:
212,162,156903,1,0,0:0:0:0:
250,186,157188,1,0,0:0:0:0:
250,186,157260,1,0,0:0:0:0:
250,186,157331,1,8,0:0:0:0:
250,186,157474,1,0,0:0:0:0:
250,186,157760,1,0,0:0:0:0:
284,205,158046,1,8,0:0:0:0:
284,205,158188,1,8,0:0:0:0:
284,205,158331,1,0,0:0:0:0:
284,205,158474,1,8,0:0:0:0:
284,205,158617,1,0,0:0:0:0:
284,205,158760,1,0,0:0:0:0:
284,205,158903,1,8,0:0:0:0:
284,205,159046,1,8,0:0:0:0:
284,205,159117,1,8,0:0:0:0:
284,205,159188,1,0,0:0:0:0:
284,205,159260,1,0,0:0:0:0:
284,205,159331,1,12,0:0:0:0:
284,205,159474,1,0,0:0:0:0:
284,205,159546,1,0,0:0:0:0:
284,205,159617,1,12,0:0:0:0:
284,205,159760,1,0,0:0:0:0:
284,205,159831,1,0,0:0:0:0:
284,205,159903,1,12,0:0:0:0:
212,162,160046,1,8,0:0:0:0:
212,162,160117,1,8,0:0:0:0:
212,162,160189,1,4,0:0:0:0:
178,158,160474,1,8,0:0:0:0:
178,158,160617,1,8,0:0:0:0:
178,158,160760,1,0,0:0:0:0:
178,158,160903,1,0,0:0:0:0:
178,158,161046,1,8,0:0:0:0:
173,23,161189,1,0,0:0:0:0:
178,158,161331,1,8,0:0:0:0:
178,158,161473,1,8,0:0:0:0:
178,158,161616,1,0,0:0:0:0:
178,158,161759,1,8,0:0:0:0:
178,158,161902,1,0,0:0:0:0:
178,158,162045,1,0,0:0:0:0:
178,158,162188,1,8,0:0:0:0:
173,23,162331,1,0,0:0:0:0:
178,158,162474,1,8,0:0:0:0:
178,158,162616,1,0,0:0:0:0:
178,158,162759,1,8,0:0:0:0:
178,158,162902,1,0,0:0:0:0:
178,158,163045,1,8,0:0:0:0:
178,158,163188,1,8,0:0:0:0:
178,158,163331,1,0,0:0:0:0:
173,23,163474,1,0,0:0:0:0:
178,158,163617,1,8,0:0:0:0:
178,158,163759,1,0,0:0:0:0:
178,158,163902,1,0,0:0:0:0:
178,158,164045,1,8,0:0:0:0:
178,158,164188,1,0,0:0:0:0:
178,158,164331,1,0,0:0:0:0:
178,158,164474,1,8,0:0:0:0:
173,23,164617,1,0,0:0:0:0:
268,151,164760,1,8,0:0:0:0:
268,151,164903,1,0,0:0:0:0:
268,151,164974,1,0,0:0:0:0:
268,151,165046,1,8,0:0:0:0:
268,151,165189,1,0,0:0:0:0:
268,151,165331,1,8,0:0:0:0:
268,151,165403,1,8,0:0:0:0:
268,151,165474,1,0,0:0:0:0:
268,151,165546,1,0,0:0:0:0:
268,151,165617,1,8,0:0:0:0:
239,109,165760,1,0,0:0:0:0:
239,109,165831,1,0,0:0:0:0:
239,109,165903,1,8,0:0:0:0:
239,109,166046,1,0,0:0:0:0:
239,109,166189,1,8,0:0:0:0:
239,109,166331,1,8,0:0:0:0:
239,109,166403,1,0,0:0:0:0:
239,109,166474,1,8,0:0:0:0:
239,109,166546,1,0,0:0:0:0:
157,27,166617,1,8,0:0:0:0:
239,109,166760,1,0,0:0:0:0:
239,109,166903,1,8,0:0:0:0:
239,109,166974,1,8,0:0:0:0:
239,109,167046,1,0,0:0:0:0:
239,109,167189,1,0,0:0:0:0:
195,29,167260,1,0,0:0:0:0:
239,109,167331,1,8,0:0:0:0:
225,117,167403,1,8,0:0:0:0:
239,109,167474,1,0,0:0:0:0:
239,109,167617,1,0,0:0:0:0:
239,109,167689,1,0,0:0:0:0:
239,109,167760,1,0,0:0:0:0:
195,29,167831,1,0,0:0:0:0:
195,29,167903,1,0,0:0:0:0:
195,29,167974,1,0,0:0:0:0:
195,29,168046,1,12,0:0:0:0:
195,29,168331,1,12,0:0:0:0:
195,29,168474,1,12,0:0:0:0:
175,166,169189,1,12,0:0:0:0:
268,137,171474,1,0,0:0:0:0:
308,157,173760,1,0,0:0:0:0:
309,157,176046,1,8,0:0:0:0:
305,165,176331,1,0,0:0:0:0:
305,165,176474,1,8,0:0:0:0:
207,166,176760,1,8,0:0:0:0:
207,166,176903,1,0,0:0:0:0:
207,166,177046,1,0,0:0:0:0:
207,166,177189,1,8,0:0:0:0:
178,81,177474,1,8,0:0:0:0:
178,81,177617,1,8,0:0:0:0:
178,81,177760,1,0,0:0:0:0:
178,81,177831,1,0,0:0:0:0:
178,81,177903,1,0,0:0:0:0:
178,81,177974,1,0,0:0:0:0:
178,81,178046,1,0,0:0:0:0:
178,81,178117,1,0,0:0:0:0:
178,81,178189,1,0,0:0:0:0:
178,81,178260,1,0,0:0:0:0:
245,179,178331,1,12,0:0:0:0:
245,179,178617,1,0,0:0:0:0:
350,129,178760,1,8,0:0:0:0:
350,129,178831,1,8,0:0:0:0:
350,129,178903,1,0,0:0:0:0:
350,129,179046,1,8,0:0:0:0:
350,129,179117,1,0,0:0:0:0:
350,129,179189,1,0,0:0:0:0:
350,129,179260,1,0,0:0:0:0:
350,129,179331,1,8,0:0:0:0:
194,113,179403,1,0,0:0:0:0:
194,113,179474,1,8,0:0:0:0:
194,113,179546,1,8,0:0:0:0:
194,113,179617,1,8,0:0:0:0:
285,136,179689,1,8,0:0:0:0:
285,136,179760,1,0,0:0:0:0:
285,136,179831,1,0,0:0:0:0:
285,136,179903,1,8,0:0:0:0:
285,136,180046,1,0,0:0:0:0:
285,136,180189,1,0,0:0:0:0:
285,136,180260,1,8,0:0:0:0:
285,136,180331,1,8,0:0:0:0:
285,136,180403,1,8,0:0:0:0:
285,136,180474,1,0,0:0:0:0:
247,165,180617,1,12,0:0:0:0:
247,165,180903,1,0,0:0:0:0:
247,165,181046,1,8,0:0:0:0:
247,165,181117,1,8,0:0:0:0:
247,165,181189,1,0,0:0:0:0:
237,70,181331,1,8,0:0:0:0:
247,165,181403,1,0,0:0:0:0:
247,165,181474,1,8,0:0:0:0:
247,165,181546,1,8,0:0:0:0:
247,165,181617,1,0,0:0:0:0:
151,95,181688,1,8,0:0:0:0:
247,165,181760,1,8,0:0:0:0:
247,165,181831,1,8,0:0:0:0:
247,165,181903,1,0,0:0:0:0:
247,165,181974,1,8,0:0:0:0:
247,165,182046,1,0,0:0:0:0:
247,165,182117,1,0,0:0:0:0:
247,165,182188,1,8,0:0:0:0:
247,165,182331,1,0,0:0:0:0:
247,165,182474,1,8,0:0:0:0:
247,165,182546,1,8,0:0:0:0:
247,165,182617,1,8,0:0:0:0:
247,165,182689,1,8,0:0:0:0:
247,165,182760,1,0,0:0:0:0:
247,165,182903,1,12,0:0:0:0:
247,165,183189,1,0,0:0:0:0:
247,165,183331,1,8,0:0:0:0:
247,165,183403,1,8,0:0:0:0:
247,165,183474,1,0,0:0:0:0:
255,108,183546,1,0,0:0:0:0:
247,165,183617,1,8,0:0:0:0:
234,139,183689,1,0,0:0:0:0:
234,139,183760,1,8,0:0:0:0:
234,139,183903,1,0,0:0:0:0:
104,123,183974,1,0,0:0:0:0:
234,139,184046,1,8,0:0:0:0:
234,139,184117,1,8,0:0:0:0:
234,139,184189,1,0,0:0:0:0:
234,139,184331,1,0,0:0:0:0:
234,139,184474,1,8,0:0:0:0:
234,139,184546,1,8,0:0:0:0:
234,139,184617,1,0,0:0:0:0:
235,77,184689,1,0,0:0:0:0:
234,139,184760,1,8,0:0:0:0:
234,139,184831,1,0,0:0:0:0:
234,139,184903,1,8,0:0:0:0:
234,139,184974,1,8,0:0:0:0:
234,139,185046,1,0,0:0:0:0:
234,139,185189,1,12,0:0:0:0:
234,139,185474,1,0,0:0:0:0:
234,139,185617,1,8,0:0:0:0:
234,139,185760,1,8,0:0:0:0:
234,139,185903,1,0,0:0:0:0:
234,139,185974,1,0,0:0:0:0:
234,139,186046,1,8,0:0:0:0:
234,139,186117,1,8,0:0:0:0:
234,139,186189,1,0,0:0:0:0:
234,139,186331,1,4,0:0:0:0:
234,139,186617,1,8,0:0:0:0:
234,139,186760,1,0,0:0:0:0:
234,139,186903,1,0,0:0:0:0:
234,139,187046,1,8,0:0:0:0:
234,139,187117,1,0,0:0:0:0:
234,139,187189,1,8,0:0:0:0:
234,139,187260,1,8,0:0:0:0:
234,139,187331,1,0,0:0:0:0:
234,139,187474,1,12,0:0:0:0:
320,141,187760,1,0,0:0:0:0:
320,141,187903,1,8,0:0:0:0:
320,141,187974,1,8,0:0:0:0:
320,141,188046,1,0,0:0:0:0:
320,141,188189,1,8,0:0:0:0:
320,141,188260,1,0,0:0:0:0:
320,141,188331,1,8,0:0:0:0:
320,141,188403,1,8,0:0:0:0:
320,141,188474,1,0,0:0:0:0:
203,107,188546,1,0,0:0:0:0:
320,141,188617,1,8,0:0:0:0:
320,141,188689,1,8,0:0:0:0:
320,141,188760,1,8,0:0:0:0:
320,141,188831,1,8,0:0:0:0:
320,141,188903,1,0,0:0:0:0:
320,141,188974,1,8,0:0:0:0:
320,141,189046,1,0,0:0:0:0:
326,143,189189,1,0,0:0:0:0:
326,143,189331,1,8,0:0:0:0:
326,143,189403,1,0,0:0:0:0:
326,143,189474,1,8,0:0:0:0:
326,143,189546,1,8,0:0:0:0:
326,143,189617,1,0,0:0:0:0:
326,143,189760,1,12,0:0:0:0:
326,143,190046,1,0,0:0:0:0:
326,143,190117,1,0,0:0:0:0:
326,143,190189,1,8,0:0:0:0:
172,116,190260,1,8,0:0:0:0:
326,143,190331,1,0,0:0:0:0:
284,134,190474,1,0,0:0:0:0:
284,134,190546,1,8,0:0:0:0:
284,134,190617,1,0,0:0:0:0:
172,107,190689,1,0,0:0:0:0:
284,134,190760,1,8,0:0:0:0:
201,19,190831,1,0,0:0:0:0:
284,134,190903,1,8,0:0:0:0:
284,134,190974,1,8,0:0:0:0:
284,134,191046,1,8,0:0:0:0:
226,95,191117,1,8,0:0:0:0:
284,134,191189,1,0,0:0:0:0:
284,134,191331,1,8,0:0:0:0:
284,134,191474,1,0,0:0:0:0:
284,134,191617,1,8,0:0:0:0:
284,134,191689,1,8,0:0:0:0:
284,134,191760,1,8,0:0:0:0:
284,134,191831,1,8,0:0:0:0:
284,134,191903,1,0,0:0:0:0:
284,134,192046,1,12,0:0:0:0:
284,134,192331,1,0,0:0:0:0:
284,134,192474,1,8,0:0:0:0:
284,134,192546,1,8,0:0:0:0:
284,134,192617,1,0,0:0:0:0:
231,152,192688,1,0,0:0:0:0:
284,134,192760,1,8,0:0:0:0:
209,103,192831,1,0,0:0:0:0:
284,134,192903,1,8,0:0:0:0:
284,134,193046,1,0,0:0:0:0:
284,134,193189,1,8,0:0:0:0:
284,134,193260,1,8,0:0:0:0:
284,134,193331,1,0,0:0:0:0:
209,103,193403,1,0,0:0:0:0:
243,115,193474,1,0,0:0:0:0:
243,115,193617,1,8,0:0:0:0:
243,115,193760,1,0,0:0:0:0:
244,227,193831,1,0,0:0:0:0:
244,227,193903,1,8,0:0:0:0:
243,115,193974,1,0,0:0:0:0:
243,115,194046,1,8,0:0:0:0:
243,115,194117,1,8,0:0:0:0:
243,115,194189,1,0,0:0:0:0:
243,115,194331,1,12,0:0:0:0:
212,107,194617,1,0,0:0:0:0:
212,107,194760,1,8,0:0:0:0:
212,107,194903,1,8,0:0:0:0:
212,107,195046,1,8,0:0:0:0:
212,107,195117,1,0,0:0:0:0:
212,107,195189,1,8,0:0:0:0:
212,107,195260,1,8,0:0:0:0:
212,107,195331,1,0,0:0:0:0:
212,107,195474,1,12,0:0:0:0:
212,107,195760,1,0,0:0:0:0:
212,107,195903,1,8,0:0:0:0:
246,146,196046,1,0,0:0:0:0:
246,146,196117,1,0,0:0:0:0:
246,146,196189,1,8,0:0:0:0:
246,146,196260,1,0,0:0:0:0:
246,146,196331,1,8,0:0:0:0:
246,146,196403,1,0,0:0:0:0:
246,146,196474,1,8,0:0:0:0:
246,146,196617,1,8,0:0:0:0:
246,146,196689,1,8,0:0:0:0:
201,238,196760,1,4,0:0:0:0:
201,238,197045,1,6,0:0:0:0:
201,238,197331,1,6,0:0:0:0:
201,238,197474,1,6,0:0:0:0:
201,238,197617,1,6,0:0:0:0:
201,238,197760,1,4,0:0:0:0:
197,164,198045,1,4,0:0:0:0:
197,164,198331,1,6,0:0:0:0:
197,164,198617,1,4,0:0:0:0:
197,164,198760,1,6,0:0:0:0:
197,164,199045,1,4,0:0:0:0:
197,164,199331,1,6,0:0:0:0:
197,164,199617,1,6,0:0:0:0:
197,164,199760,1,6,0:0:0:0:
197,164,199902,1,6,0:0:0:0:
197,164,200045,1,4,0:0:0:0:
197,164,200331,1,4,0:0:0:0:
385,113,200617,1,0,0:0:0:0:
385,113,200760,1,8,0:0:0:0:
385,113,200831,1,0,0:0:0:0:
385,113,200903,1,0,0:0:0:0:
385,113,200974,1,0,0:0:0:0:
385,113,201046,1,8,0:0:0:0:
385,113,201331,1,8,0:0:0:0:
251,144,201403,1,8,0:0:0:0:
251,144,201474,1,0,0:0:0:0:
251,144,201546,1,0,0:0:0:0:
251,144,201617,1,8,0:0:0:0:
251,144,201689,1,8,0:0:0:0:
251,144,201760,1,0,0:0:0:0:
251,144,201831,1,0,0:0:0:0:
251,144,201903,1,8,0:0:0:0:
251,144,201974,1,0,0:0:0:0:
251,144,202046,1,8,0:0:0:0:
251,144,202117,1,0,0:0:0:0:
251,144,202189,1,8,0:0:0:0:
251,144,202260,1,0,0:0:0:0:
251,144,202331,1,8,0:0:0:0:
251,144,202403,1,8,0:0:0:0:
385,113,202474,1,0,0:0:0:0:
251,144,202546,1,0,0:0:0:0:
251,144,202617,1,8,0:0:0:0:
251,144,202689,1,0,0:0:0:0:
251,144,202760,1,0,0:0:0:0:
251,144,202832,1,0,0:0:0:0:
251,144,202903,1,8,0:0:0:0:
251,144,202974,1,8,0:0:0:0:
251,144,203046,1,0,0:0:0:0:
251,144,203117,1,0,0:0:0:0:
251,144,203189,1,8,0:0:0:0:
251,144,203332,1,8,0:0:0:0:
231,138,203617,1,4,0:0:0:0:
231,138,203903,1,12,0:0:0:0:
231,138,204189,1,12,0:0:0:0:
231,138,204331,1,12,0:0:0:0:
231,138,204474,1,12,0:0:0:0:
231,138,204617,1,4,0:0:0:0:
231,138,204903,1,4,0:0:0:0:
231,138,205189,1,4,0:0:0:0:
231,138,205331,1,8,0:0:0:0:
231,138,205474,1,8,0:0:0:0:
191,63,205617,1,8,0:0:0:0:
235,243,205760,1,4,0:0:0:0:
234,231,206045,1,0,0:0:0:0:
234,231,206188,1,8,0:0:0:0:
234,231,206331,1,0,0:0:0:0:
51,125,206402,1,8,0:0:0:0:
234,231,206474,1,0,0:0:0:0:
276,232,206617,1,8,0:0:0:0:
329,266,206760,1,8,0:0:0:0:
329,266,206902,1,4,0:0:0:0:
340,268,207188,1,0,0:0:0:0:
340,268,207331,1,8,0:0:0:0:
340,268,207474,1,0,0:0:0:0:
340,268,207617,1,8,0:0:0:0:
340,268,207760,1,8,0:0:0:0:
340,268,207902,1,8,0:0:0:0:
94,196,208045,1,4,0:0:0:0:
195,196,208331,1,0,0:0:0:0:
195,196,208474,1,8,0:0:0:0:
195,196,208617,1,0,0:0:0:0:
227,37,208688,1,8,0:0:0:0:
195,196,208760,1,0,0:0:0:0:
195,196,208902,1,8,0:0:0:0:
195,196,209045,1,0,0:0:0:0:
195,196,209188,1,12,0:0:0:0:
308,259,209474,1,0,0:0:0:0:
308,259,209617,1,8,0:0:0:0:
152,226,209760,1,0,0:0:0:0:
201,187,209831,1,0,0:0:0:0:
156,230,209903,1,8,0:0:0:0:
270,139,209974,1,8,0:0:0:0:
270,139,210046,1,8,0:0:0:0:
270,139,210117,1,8,0:0:0:0:
270,139,210189,1,8,0:0:0:0:
270,139,210260,1,8,0:0:0:0:
270,139,210331,1,4,0:0:0:0:
250,138,210617,1,0,0:0:0:0:
250,138,210760,1,8,0:0:0:0:
316,137,210831,1,8,0:0:0:0:
250,138,210903,1,0,0:0:0:0:
250,138,210974,1,0,0:0:0:0:
250,138,211046,1,8,0:0:0:0:
250,138,211189,1,0,0:0:0:0:
208,2,211260,1,0,0:0:0:0:
250,138,211331,1,8,0:0:0:0:
250,138,211474,1,0,0:0:0:0:
316,137,211617,1,0,0:0:0:0:
222,127,211689,1,8,0:0:0:0:
222,127,211760,1,0,0:0:0:0:
222,127,211831,1,0,0:0:0:0:
222,127,211903,1,8,0:0:0:0:
222,127,212046,1,0,0:0:0:0:
222,127,212189,1,8,0:0:0:0:
222,127,212260,1,8,0:0:0:0:
222,127,212331,1,0,0:0:0:0:
362,264,212403,1,0,0:0:0:0:
222,127,212474,1,8,0:0:0:0:
362,264,212546,1,8,0:0:0:0:
362,264,212617,1,0,0:0:0:0:
362,264,212689,1,0,0:0:0:0:
385,269,212760,1,8,0:0:0:0:
385,269,212831,1,0,0:0:0:0:
385,269,212903,1,8,0:0:0:0:
385,269,212974,1,0,0:0:0:0:
385,269,213046,1,8,0:0:0:0:
385,269,213117,1,8,0:0:0:0:
385,269,213189,1,0,0:0:0:0:
385,269,213260,1,0,0:0:0:0:
385,269,213331,1,8,0:0:0:0:
385,269,213403,1,8,0:0:0:0:
385,269,213474,1,8,0:0:0:0:
385,269,213546,1,8,0:0:0:0:
385,269,213617,1,0,0:0:0:0:
225,73,213760,1,12,0:0:0:0:
225,73,214046,1,8,0:0:0:0:
225,73,214189,1,8,0:0:0:0:
225,73,214331,1,0,0:0:0:0:
225,73,214403,1,0,0:0:0:0:
225,73,214474,1,12,0:0:0:0:
225,73,214617,1,12,0:0:0:0:
225,73,214760,1,12,0:0:0:0:
225,73,214903,1,4,0:0:0:0:
