osu file format v14

[General]
AudioFilename: audio.mp3
AudioLeadIn: 0
PreviewTime: 49903
Countdown: 0
SampleSet: Normal
StackLeniency: 0.7
Mode: 1
LetterboxInBreaks: 0
WidescreenStoryboard: 1

[Editor]
Bookmarks: 189,4617,9189,18474,25189,32046,41331,50331,59474,68760,73189,82331,89189,96046,105331,107474,116617,125903,130331,150903,160189,169189,178331,196760,205760
DistanceSpacing: 0.9
BeatDivisor: 4
GridSize: 32
TimelineZoom: 1.4

[Metadata]
Title:U.F.O. - U Feel Overjoyed! -
TitleUnicode:U.F.O. – U Feel Overjoyed! –
Artist:Unlucky Morpheus
ArtistUnicode:Unlucky Morpheus
Creator:roxorotto
Version:2199's Oni
Source:
Tags:日清焼そばU.F.O. nissin yakisoba ufo japanese rock jrock j-rock jmetal metal j-metal self cover ver. version iceoc gaston_2199 you 紫煉 shiren fuki
BeatmapID:4535481
BeatmapSetID:2047321

[Difficulty]
HPDrainRate:5.5
CircleSize:2
OverallDifficulty:6
ApproachRate:10
SliderMultiplier:1.4
SliderTickRate:1

[Events]
//Background and Video events
0,0,"angel.jpg",0,-140
//Break Periods
//Storyboard Layer 0 (Background)
//Storyboard Layer 1 (Fail)
//Storyboard Layer 2 (Pass)
//Storyboard Layer 3 (Foreground)
//Storyboard Layer 4 (Overlay)
//Storyboard Sound Samples

[TimingPoints]
189,285.714285714286,4,1,0,80,1,0
189,-83.3333333333333,4,1,0,80,0,0
4186,-86.9631434663418,4,1,0,80,0,0
4328,-90.8946195479147,4,1,0,80,0,0
4471,-95.2301534356237,4,1,0,80,0,0
4614,-100,4,1,0,80,0,0
4760,-125.000004921875,4,1,0,50,0,0
8043,-111.111111111111,4,1,0,65,0,0
8328,-108.115777525539,4,1,0,65,0,0
8471,-106.672888474102,4,1,0,65,0,0
8686,-104.574565416285,4,1,0,65,0,0
8757,-103.899645486774,4,1,0,65,0,0
8900,-102.5664034458,4,1,0,65,0,0
9043,-101.266944272172,4,1,0,65,0,0
9186,-100,4,1,0,80,0,0
18471,-100,4,1,0,70,0,0
31470,-102.04082,4,1,0,70,0,0
31613,-104.166664,4,1,0,70,0,0
31685,-105.270905,4,1,0,70,0,0
31756,-106.38298,4,1,0,70,0,0
31827,-107.5188,4,1,0,70,0,0
31899,-108.695656,4,1,0,70,0,0
32042,-111.111115,4,1,0,60,0,0
34471,-110.327255,4,1,0,60,0,0
34613,-109.5597,4,1,0,60,0,0
34756,-108.79212,4,1,0,60,0,0
34899,-108.02993,4,1,0,60,0,0
34970,-107.65349,4,1,0,60,0,0
35042,-107.27308,4,1,0,60,0,0
35185,-106.52153,4,1,0,60,0,0
35327,-105.78046,4,1,0,60,0,0
35470,-105.03936,4,1,0,60,0,0
35613,-104.30345,4,1,0,60,0,0
35685,-103.9349,4,1,0,60,0,0
35756,-103.572716,4,1,0,60,0,0
35827,-103.21181,4,1,0,60,0,0
35899,-102.84709,4,1,0,60,0,0
36042,-102.12655,4,1,0,60,0,0
36113,-101.770676,4,1,0,60,0,0
36185,-101.411064,4,1,0,60,0,0
36327,-100.70553,4,1,0,60,0,0
36399,-100.34968,4,1,0,60,0,0
36470,-99.999985,4,1,0,60,0,0
36617,-100,4,1,0,60,0,0
36760,-111.111092592593,4,1,0,60,0,0
39042,-110.42375,4,1,0,60,0,0
39185,-109.740654,4,1,0,60,0,0
39327,-109.06652,4,1,0,60,0,0
39470,-108.391815,4,1,0,60,0,0
39613,-107.721306,4,1,0,60,0,0
39756,-107.05492,4,1,0,60,0,0
39899,-106.39266,4,1,0,60,0,0
40042,-105.73451,4,1,0,60,0,0
40185,-105.08043,4,1,0,60,0,0
40327,-104.43491,4,1,0,60,0,0
40470,-103.78886,4,1,0,60,0,0
40613,-103.14683,4,1,0,60,0,0
40685,-102.82506,4,1,0,60,0,0
40756,-102.50874,4,1,0,60,0,0
40899,-101.87461,4,1,0,60,0,0
40970,-101.561226,4,1,0,60,0,0
41042,-101.2444,4,1,0,60,0,0
41185,-100.6181,4,1,0,60,0,0
41327,-100,4,1,0,65,0,0
41474,-111.111111111111,4,1,0,65,0,0
46186,-108.908832599882,4,1,0,70,0,0
46328,-107.847510551419,4,1,0,70,0,0
46471,-106.799415542492,4,1,0,70,0,0
46543,-106.279376458256,4,1,0,70,0,0
46614,-105.771495877503,4,1,0,70,0,0
46757,-104.763174560848,4,1,0,70,0,0
46900,-103.773896391191,4,1,0,70,0,0
46971,-103.289625028755,4,1,0,70,0,0
47043,-102.803126942073,4,1,0,70,0,0
47186,-101.850351599209,4,1,0,70,0,0
47328,-100.921555405709,4,1,0,70,0,0
47471,-100.003181774794,4,1,0,70,0,0
47543,-99.5470813669908,4,1,0,70,0,0
47614,-99.1013715907299,4,1,0,70,0,0
47686,-98.6534417276123,4,1,0,70,0,0
47757,-98.2156807599763,4,1,0,70,0,0
47900,-97.345680924211,4,1,0,70,0,0
48043,-96.4909587695331,4,1,0,70,0,0
48186,-95.6511153717398,4,1,0,70,0,0
48328,-94.8314877953112,4,1,0,70,0,0
48400,-94.4212455312885,4,1,0,70,0,0
48471,-94.0201621346735,4,1,0,70,0,0
48614,-93.2226012160759,4,1,0,70,0,0
48757,-92.4384576924208,4,1,0,70,0,0
48828,-92.0540081422253,4,1,0,70,0,0
48900,-91.6673958059906,4,1,0,70,0,0
48971,-91.2893200499579,4,1,0,70,0,0
49043,-90.9090909090909,4,1,0,70,0,0
49186,-83.3333333333333,4,1,0,85,0,0
50257,-90.9090909090909,4,1,0,85,0,0
50331,-100,4,1,0,85,0,1
68760,-83.3333333333333,4,1,0,80,0,0
72753,-86.9631434663418,4,1,0,80,0,0
72895,-90.8946195479147,4,1,0,80,0,0
73038,-95.2301534356237,4,1,0,80,0,0
73181,-100,4,1,0,80,0,0
82474,-111.111111111111,4,1,0,60,0,0
87327,-109.46113,4,1,0,60,0,0
87470,-107.82429,4,1,0,60,0,0
87613,-106.21193,4,1,0,60,0,0
87756,-104.623665,4,1,0,60,0,0
87899,-103.05917,4,1,0,60,0,0
88042,-101.51806,4,1,0,60,0,0
88113,-100.761475,4,1,0,60,0,0
88185,-99.999985,4,1,0,60,0,0
89400,-100,4,1,0,70,0,0
95185,-101.51806,4,1,0,70,0,0
95327,-103.04832,4,1,0,70,0,0
95470,-104.61265,4,1,0,70,0,0
95613,-106.20074,4,1,0,70,0,0
95685,-107.00944,4,1,0,70,0,0
95756,-107.812935,4,1,0,70,0,0
95827,-108.62246,4,1,0,70,0,0
95899,-109.4496,4,1,0,70,0,0
95970,-110.271416,4,1,0,70,0,0
96042,-111.111115,4,1,0,60,0,0
98472,-110.327255,4,1,0,60,0,0
98614,-109.5597,4,1,0,60,0,0
98757,-108.79212,4,1,0,60,0,0
98900,-108.02993,4,1,0,60,0,0
98971,-107.65349,4,1,0,60,0,0
99043,-107.27308,4,1,0,60,0,0
99186,-106.52153,4,1,0,60,0,0
99328,-105.78046,4,1,0,60,0,0
99471,-105.03936,4,1,0,60,0,0
99614,-104.30345,4,1,0,60,0,0
99686,-103.9349,4,1,0,60,0,0
99757,-103.572716,4,1,0,60,0,0
99828,-103.21181,4,1,0,60,0,0
99900,-102.84709,4,1,0,60,0,0
100043,-102.12655,4,1,0,60,0,0
100114,-101.770676,4,1,0,60,0,0
100186,-101.411064,4,1,0,60,0,0
100328,-100.70553,4,1,0,60,0,0
100400,-100.34968,4,1,0,60,0,0
100471,-99.999985,4,1,0,60,0,0
100615,-100,4,1,0,60,0,0
100760,-111.111092592593,4,1,0,60,0,0
102900,-111.111115,4,1,0,60,0,0
103044,-110.327255,4,1,0,60,0,0
103186,-109.5597,4,1,0,60,0,0
103329,-108.79212,4,1,0,60,0,0
103472,-108.02993,4,1,0,60,0,0
103543,-107.65349,4,1,0,60,0,0
103615,-107.27308,4,1,0,60,0,0
103758,-106.52153,4,1,0,60,0,0
103900,-105.78046,4,1,0,60,0,0
104043,-105.03936,4,1,0,60,0,0
104186,-104.30345,4,1,0,60,0,0
104258,-103.9349,4,1,0,60,0,0
104329,-103.572716,4,1,0,60,0,0
104400,-103.21181,4,1,0,60,0,0
104472,-102.84709,4,1,0,60,0,0
104615,-102.12655,4,1,0,60,0,0
104686,-101.770676,4,1,0,60,0,0
104758,-101.411064,4,1,0,60,0,0
104900,-100.70553,4,1,0,60,0,0
104972,-100.34968,4,1,0,60,0,0
105043,-99.999985,4,1,0,60,0,0
105399,-99.31611,4,1,0,60,0,0
105470,-98.6463,4,1,0,60,0,0
105613,-97.31093,4,1,0,60,0,0
105756,-95.993645,4,1,0,60,0,0
105827,-95.34625,4,1,0,60,0,0
105899,-94.69419,4,1,0,60,0,0
106042,-93.41232,4,1,0,60,0,0
106185,-92.14781,4,1,0,60,0,0
106256,-91.52635,4,1,0,60,0,0
106327,-90.90907,4,1,0,60,0,0
106685,-92.00628,4,1,0,60,0,0
106756,-93.10122,4,1,0,60,0,0
106827,-94.20919,4,1,0,60,0,0
106899,-95.34624,4,1,0,60,0,0
106970,-96.48092,4,1,0,60,0,0
107042,-97.645386,4,1,0,60,0,0
107185,-99.99998,4,1,0,60,0,0
107400,-100,4,1,0,85,0,0
107474,-100,4,1,0,85,0,1
125903,-83.3333333333333,4,1,0,80,0,0
129896,-86.9631434663418,4,1,0,80,0,0
130038,-90.8946195479147,4,1,0,80,0,0
130181,-95.2301534356237,4,1,0,80,0,0
130324,-100,4,1,0,80,0,0
130403,-100,4,1,0,70,0,0
137471,-98.7681002809596,4,1,0,70,0,0
137543,-98.4616710475288,4,1,0,70,0,0
137614,-98.1613540682189,4,1,0,70,0,0
137757,-97.5620169932966,4,1,0,70,0,0
137900,-96.969954167374,4,1,0,70,0,0
138043,-96.3850339562155,4,1,0,70,0,0
138114,-96.0972327361427,4,1,0,70,0,0
138186,-95.8071278825996,4,1,0,70,0,0
138328,-95.2400800266756,4,1,0,70,0,0
138471,-94.67578205925,4,1,0,70,0,0
138686,-93.8398357289528,4,1,0,70,0,0
138757,-93.5670119978707,4,1,0,70,0,0
138900,-93.022309070184,4,1,0,70,0,0
139043,-92.4839114421014,4,1,0,70,0,0
139114,-92.218903866333,4,1,0,70,0,0
139186,-91.9517102615694,4,1,0,70,0,0
139328,-91.429257362356,4,1,0,70,0,0
139471,-90.9090909090909,4,1,0,70,0,0
146757,-92.437963071857,4,1,0,80,0,0
146900,-93.2218466465042,4,1,0,80,0,0
147186,-94.8301864028473,4,1,0,80,0,0
147328,-95.6495284453909,4,1,0,80,0,0
147614,-97.343488760914,4,1,0,80,0,0
147757,-98.213170061227,4,1,0,80,0,0
147900,-99.0985311731703,4,1,0,80,0,0
148043,-100,4,1,0,80,0,0
148328,-96.1616161616162,4,1,0,80,0,0
148400,-95.2380952380952,4,1,0,80,0,0
148471,-94.3446088794926,4,1,0,80,0,0
148614,-92.594994164181,4,1,0,80,0,0
148757,-90.9090909090909,4,1,0,80,0,0
150089,-94.51798,4,1,0,80,0,0
150185,-96.35647,4,1,0,80,0,0
150280,-98.211,4,1,0,80,0,0
150375,-100.10122,4,1,0,80,0,0
150470,-102.027824,4,1,0,80,0,0
150565,-103.991516,4,1,0,80,0,0
150661,-106.014275,4,1,0,80,0,0
150753,-107.96798,4,1,0,80,0,0
150899,-111.111111111111,4,1,0,60,0,0
153329,-110.327255,4,1,0,60,0,0
153471,-109.5597,4,1,0,60,0,0
153614,-108.79212,4,1,0,60,0,0
153757,-108.02993,4,1,0,60,0,0
153828,-107.65349,4,1,0,60,0,0
153900,-107.27308,4,1,0,60,0,0
154043,-106.52153,4,1,0,60,0,0
154185,-105.78046,4,1,0,60,0,0
154328,-105.03936,4,1,0,60,0,0
154471,-104.30345,4,1,0,60,0,0
154543,-103.9349,4,1,0,60,0,0
154614,-103.572716,4,1,0,60,0,0
154685,-103.21181,4,1,0,60,0,0
154757,-102.84709,4,1,0,60,0,0
154900,-102.12655,4,1,0,60,0,0
154971,-101.770676,4,1,0,60,0,0
155043,-101.411064,4,1,0,60,0,0
155185,-100.70553,4,1,0,60,0,0
155257,-100.34968,4,1,0,60,0,0
155328,-99.999985,4,1,0,60,0,0
155472,-100,4,1,0,60,0,0
155617,-111.111092592593,4,1,0,60,0,0
157888,-110.42375,4,1,0,60,0,0
158031,-109.740654,4,1,0,60,0,0
158173,-109.06652,4,1,0,60,0,0
158316,-108.391815,4,1,0,60,0,0
158459,-107.721306,4,1,0,60,0,0
158602,-107.05492,4,1,0,60,0,0
158745,-106.39266,4,1,0,60,0,0
158888,-105.73451,4,1,0,60,0,0
159031,-105.08043,4,1,0,60,0,0
159173,-104.43491,4,1,0,60,0,0
159316,-103.78886,4,1,0,60,0,0
159459,-103.14683,4,1,0,60,0,0
159531,-102.82506,4,1,0,60,0,0
159602,-102.50874,4,1,0,60,0,0
159745,-101.87461,4,1,0,60,0,0
159816,-101.561226,4,1,0,60,0,0
159888,-101.2444,4,1,0,60,0,0
160031,-100.6181,4,1,0,60,0,0
160173,-100,4,1,0,65,0,0
160316,-111.111111111111,4,1,0,65,0,0
165028,-108.908832599882,4,1,0,70,0,0
165170,-107.847510551419,4,1,0,70,0,0
165313,-106.799415542492,4,1,0,70,0,0
165385,-106.279376458256,4,1,0,70,0,0
165456,-105.771495877503,4,1,0,70,0,0
165599,-104.763174560848,4,1,0,70,0,0
165742,-103.773896391191,4,1,0,70,0,0
165813,-103.289625028755,4,1,0,70,0,0
165885,-102.803126942073,4,1,0,70,0,0
166028,-101.850351599209,4,1,0,70,0,0
166170,-100.921555405709,4,1,0,70,0,0
166313,-100.003181774794,4,1,0,70,0,0
166385,-99.5470813669908,4,1,0,70,0,0
166456,-99.1013715907299,4,1,0,70,0,0
166528,-98.6534417276123,4,1,0,70,0,0
166599,-98.2156807599763,4,1,0,70,0,0
166742,-97.345680924211,4,1,0,70,0,0
166885,-96.4909587695331,4,1,0,70,0,0
167028,-95.6511153717398,4,1,0,70,0,0
167170,-94.8314877953112,4,1,0,70,0,0
167242,-94.4212455312885,4,1,0,70,0,0
167313,-94.0201621346735,4,1,0,70,0,0
167456,-93.2226012160759,4,1,0,70,0,0
167599,-92.4384576924208,4,1,0,70,0,0
167670,-92.0540081422253,4,1,0,70,0,0
167742,-91.6673958059906,4,1,0,70,0,0
167813,-91.2893200499579,4,1,0,70,0,0
167885,-90.9090909090909,4,1,0,70,0,0
168028,-83.3333333333333,4,1,0,85,0,0
169114,-83.3333333333333,4,1,0,80,0,0
169328,-100,4,1,0,80,0,0
171331,-83.3333333333333,4,1,0,80,0,0
171617,-100,4,1,0,80,0,0
173617,-83.3333333333333,4,1,0,80,0,0
173903,-100,4,1,0,80,0,0
175903,-83.3333333333333,4,1,0,80,0,0
176141,-100,4,1,0,80,0,0
177328,-111.111111111111,4,1,0,80,0,0
177471,-109.373291042327,4,1,0,80,0,0
177614,-107.688994184794,4,1,0,80,0,0
177757,-106.05578534309,4,1,0,80,0,0
177900,-104.471374843293,4,1,0,80,0,0
177971,-103.702167375298,4,1,0,80,0,0
178043,-102.933607822954,4,1,0,80,0,0
178114,-102.186797465767,4,1,0,80,0,0
178186,-101.440454453236,4,1,0,80,0,0
178331,-100,4,1,0,85,0,1
196760,-83.3333333333333,4,1,0,80,0,0
201328,-100,4,1,0,80,0,0
201400,-99.5819300894205,4,1,0,80,0,0
201471,-99.1730758110218,4,1,0,80,0,0
201614,-98.3597155310851,4,1,0,80,0,0
201686,-97.955220470642,4,1,0,80,0,0
201757,-97.5595881449457,4,1,0,80,0,0
201900,-96.7723733212956,4,1,0,80,0,0
202043,-95.9977609851665,4,1,0,80,0,0
202186,-95.2354509107064,4,1,0,80,0,0
202328,-94.4903581267218,4,1,0,80,0,0
202471,-93.7517083037227,4,1,0,80,0,0
202614,-93.0245172488609,4,1,0,80,0,0
202686,-92.6626323751891,4,1,0,80,0,0
202757,-92.3085203724635,4,1,0,80,0,0
202900,-91.6034611686786,4,1,0,80,0,0
202971,-91.2573830681637,4,1,0,80,0,0
203043,-90.9090909090909,4,1,0,80,0,0
203189,-83.3333333333333,4,1,0,80,0,0
205321,-86.9631434663418,4,1,0,80,0,0
205463,-90.8946195479147,4,1,0,80,0,0
205606,-95.2301534356237,4,1,0,80,0,0
205749,-100,4,1,0,80,0,0
210614,-99.1728366496992,4,1,0,80,0,0
210757,-98.7643653331029,4,1,0,80,0,0
210900,-98.3592450232345,4,1,0,80,0,0
211043,-97.9574346521925,4,1,0,80,0,0
211186,-97.5588938204165,4,1,0,80,0,0
211328,-97.1663360725418,4,1,0,80,0,0
211471,-96.7741935483871,4,1,0,80,0,0
211543,-96.5779467680608,4,1,0,80,0,0
211614,-96.3852035079829,4,1,0,80,0,0
211757,-95.9993280886923,4,1,0,80,0,0
211900,-95.6165300317885,4,1,0,80,0,0
212043,-95.2367726704624,4,1,0,80,0,0
212186,-94.8600199181144,4,1,0,80,0,0
212328,-94.4888399007991,4,1,0,80,0,0
212471,-94.1179699722779,4,1,0,80,0,0
212614,-93.75,4,1,0,80,0,0
212686,-93.565815324165,4,1,0,80,0,0
212757,-93.384896102835,4,1,0,80,0,0
212900,-93.0226249253974,4,1,0,80,0,0
213043,-92.6631536278881,4,1,0,80,0,0
213186,-92.306449876171,4,1,0,80,0,0
213328,-91.9549477071601,4,1,0,80,0,0
213400,-91.7777420908945,4,1,0,80,0,0
213471,-91.6036652151845,4,1,0,80,0,0
213543,-91.4278096253833,4,1,0,80,0,0
213614,-91.2550564189908,4,1,0,80,0,0
213757,-90.9090909090909,4,1,0,80,0,0
214043,-93.0251485309677,4,1,0,80,0,0
214186,-94.1205533596838,4,1,0,80,0,0
214328,-95.2341276453924,4,1,0,80,0,0
214400,-95.8088851634535,4,1,0,80,0,0
214471,-96.3824943081204,4,1,0,80,0,0
214614,-97.5588938204165,4,1,0,80,0,0
214757,-98.7643653331029,4,1,0,80,0,0
214900,-83.3333333333333,4,1,0,80,0,0

[HitObjects]
256,192,189,5,12,0:0:0:0:
256,192,474,1,4,0:0:0:0:
256,192,760,1,12,0:0:0:0:
256,192,903,1,12,0:0:0:0:
256,192,1046,1,12,0:0:0:0:
256,192,1189,1,4,0:0:0:0:
256,192,1474,1,4,0:0:0:0:
256,192,1760,1,4,0:0:0:0:
256,192,2046,1,12,0:0:0:0:
256,192,2189,1,4,0:0:0:0:
256,192,2474,1,12,0:0:0:0:
256,192,2760,1,4,0:0:0:0:
256,192,3046,1,12,0:0:0:0:
256,192,3189,1,12,0:0:0:0:
256,192,3331,1,12,0:0:0:0:
256,192,3474,1,4,0:0:0:0:
256,192,3760,1,4,0:0:0:0:
256,192,4046,1,4,0:0:0:0:
256,192,4189,1,8,0:0:0:0:
256,192,4331,1,8,0:0:0:0:
288,224,4474,1,8,0:0:0:0:
288,224,4617,1,4,0:0:0:0:
288,224,5046,1,8,0:0:0:0:
288,224,5617,1,8,0:0:0:0:
288,224,6189,1,8,0:0:0:0:
288,224,6760,1,8,0:0:0:0:
288,224,7331,1,8,0:0:0:0:
288,224,7903,1,8,0:0:0:0:
288,224,8046,1,4,0:0:0:0:
288,224,8331,1,0,0:0:0:0:
288,224,8474,1,8,0:0:0:0:
288,224,8689,1,0,0:0:0:0:
288,224,8760,1,8,0:0:0:0:
288,224,8903,1,8,0:0:0:0:
288,224,9046,1,8,0:0:0:0:
288,224,9189,1,4,0:0:0:0:
288,224,9474,1,0,0:0:0:0:
288,224,9617,1,8,0:0:0:0:
288,224,9903,1,0,0:0:0:0:
288,224,10046,1,0,0:0:0:0:
288,224,10189,1,8,0:0:0:0:
288,224,10331,1,0,0:0:0:0:
288,224,10617,1,0,0:0:0:0:
288,224,10760,1,8,0:0:0:0:
288,224,10903,1,0,0:0:0:0:
288,224,11046,1,8,0:0:0:0:
288,224,11189,1,8,0:0:0:0:
288,224,11331,1,0,0:0:0:0:
288,224,11474,1,8,0:0:0:0:
288,224,11760,1,0,0:0:0:0:
288,224,11903,1,8,0:0:0:0:
288,224,12189,1,0,0:0:0:0:
288,224,12331,1,0,0:0:0:0:
288,224,12474,1,8,0:0:0:0:
288,224,12617,1,0,0:0:0:0:
288,224,12903,1,0,0:0:0:0:
288,224,13046,1,8,0:0:0:0:
288,224,13189,1,0,0:0:0:0:
288,224,13260,1,0,0:0:0:0:
288,224,13331,1,8,0:0:0:0:
288,224,13474,1,0,0:0:0:0:
288,224,13617,1,8,0:0:0:0:
288,224,13760,1,4,0:0:0:0:
288,224,14046,1,0,0:0:0:0:
288,224,14189,1,8,0:0:0:0:
288,224,14474,1,0,0:0:0:0:
288,224,14617,1,0,0:0:0:0:
288,224,14760,1,8,0:0:0:0:
288,224,14903,1,0,0:0:0:0:
288,224,15189,1,0,0:0:0:0:
288,224,15331,1,8,0:0:0:0:
288,224,15474,1,8,0:0:0:0:
288,224,15617,1,0,0:0:0:0:
288,224,15760,1,8,0:0:0:0:
288,224,15903,1,0,0:0:0:0:
288,224,16046,1,8,0:0:0:0:
288,224,16331,1,0,0:0:0:0:
288,224,16474,1,8,0:0:0:0:
288,224,16760,1,0,0:0:0:0:
288,224,16903,1,0,0:0:0:0:
288,224,17046,1,8,0:0:0:0:
288,224,17189,1,0,0:0:0:0:
288,224,17474,1,0,0:0:0:0:
288,224,17617,1,8,0:0:0:0:
288,224,17760,1,0,0:0:0:0:
288,224,17831,1,0,0:0:0:0:
288,224,17903,1,8,0:0:0:0:
288,224,18046,1,8,0:0:0:0:
288,224,18189,1,8,0:0:0:0:
288,224,18331,1,4,0:0:0:0:
288,224,18617,1,0,0:0:0:0:
288,224,18760,1,8,0:0:0:0:
288,224,19046,1,0,0:0:0:0:
288,224,19189,1,0,0:0:0:0:
288,224,19331,1,8,0:0:0:0:
288,224,19617,1,0,0:0:0:0:
288,224,19760,1,0,0:0:0:0:
288,224,19903,1,8,0:0:0:0:
288,224,20046,1,0,0:0:0:0:
288,224,20117,1,0,0:0:0:0:
288,224,20189,1,8,0:0:0:0:
288,224,20331,1,0,0:0:0:0:
288,224,20474,1,8,0:0:0:0:
288,224,20617,1,0,0:0:0:0:
288,224,20903,1,0,0:0:0:0:
288,224,21046,1,8,0:0:0:0:
288,224,21331,1,8,0:0:0:0:
288,224,21474,1,0,0:0:0:0:
288,224,21617,1,8,0:0:0:0:
288,224,21903,1,8,0:0:0:0:
288,224,22046,1,0,0:0:0:0:
288,224,22189,1,8,0:0:0:0:
288,224,22331,1,8,0:0:0:0:
288,224,22403,1,8,0:0:0:0:
288,224,22474,1,0,0:0:0:0:
288,224,22617,1,0,0:0:0:0:
288,224,22760,1,8,0:0:0:0:
288,224,22903,1,4,0:0:0:0:
288,224,23189,1,0,0:0:0:0:
288,224,23331,1,8,0:0:0:0:
288,224,23474,1,8,0:0:0:0:
288,224,23617,1,0,0:0:0:0:
288,224,23903,1,8,0:0:0:0:
288,224,24189,1,8,0:0:0:0:
288,224,24331,1,0,0:0:0:0:
288,224,24474,1,8,0:0:0:0:
288,224,24617,1,0,0:0:0:0:
288,224,24689,1,0,0:0:0:0:
288,224,24760,1,0,0:0:0:0:
288,224,24903,1,0,0:0:0:0:
288,224,25046,1,8,0:0:0:0:
288,224,25189,1,4,0:0:0:0:
288,224,25474,1,0,0:0:0:0:
288,224,25617,1,8,0:0:0:0:
224,256,25760,1,8,0:0:0:0:
288,224,25903,1,0,0:0:0:0:
288,224,26046,1,0,0:0:0:0:
288,224,26189,1,8,0:0:0:0:
288,224,26474,1,8,0:0:0:0:
288,224,26617,1,0,0:0:0:0:
288,224,26760,1,8,0:0:0:0:
288,224,26903,1,0,0:0:0:0:
288,224,26974,1,0,0:0:0:0:
288,224,27046,1,0,0:0:0:0:
288,224,27189,1,0,0:0:0:0:
288,224,27331,1,8,0:0:0:0:
288,224,27474,1,0,0:0:0:0:
288,224,27760,1,0,0:0:0:0:
288,224,27903,1,8,0:0:0:0:
288,224,28189,1,8,0:0:0:0:
288,224,28331,1,0,0:0:0:0:
288,224,28474,1,8,0:0:0:0:
288,224,28760,1,0,0:0:0:0:
288,224,28903,1,0,0:0:0:0:
288,224,29046,1,8,0:0:0:0:
288,224,29189,1,8,0:0:0:0:
288,224,29260,1,8,0:0:0:0:
288,224,29331,1,8,0:0:0:0:
288,224,29474,1,0,0:0:0:0:
288,224,29617,1,8,0:0:0:0:
288,224,29760,1,4,0:0:0:0:
288,224,30046,1,0,0:0:0:0:
288,224,30189,1,8,0:0:0:0:
288,224,30331,1,8,0:0:0:0:
288,224,30474,1,0,0:0:0:0:
288,224,30760,1,8,0:0:0:0:
288,224,31046,1,8,0:0:0:0:
288,224,31189,1,0,0:0:0:0:
288,224,31331,1,8,0:0:0:0:
288,224,31474,1,8,0:0:0:0:
288,224,31617,1,0,0:0:0:0:
288,224,31689,1,0,0:0:0:0:
288,224,31760,1,0,0:0:0:0:
288,224,31831,1,0,0:0:0:0:
288,224,31903,1,0,0:0:0:0:
288,224,32046,1,12,0:0:0:0:
288,224,32331,1,0,0:0:0:0:
288,224,32617,1,0,0:0:0:0:
288,192,32689,1,0,0:0:0:0:
288,224,32760,1,8,0:0:0:0:
288,224,32903,1,0,0:0:0:0:
288,224,33189,1,0,0:0:0:0:
288,224,33331,1,0,0:0:0:0:
288,224,33474,1,0,0:0:0:0:
288,224,33760,1,0,0:0:0:0:
288,224,33831,1,0,0:0:0:0:
288,224,33903,1,8,0:0:0:0:
288,224,34046,1,8,0:0:0:0:
288,224,34331,1,0,0:0:0:0:
288,224,34617,1,0,0:0:0:0:
288,224,34760,1,0,0:0:0:0:
288,224,34903,1,0,0:0:0:0:
288,224,35046,1,8,0:0:0:0:
288,224,35189,1,0,0:0:0:0:
288,224,35474,1,8,0:0:0:0:
288,224,35617,1,0,0:0:0:0:
288,224,35760,1,0,0:0:0:0:
288,224,35903,1,8,0:0:0:0:
288,224,36046,1,0,0:0:0:0:
288,224,36117,1,0,0:0:0:0:
288,224,36189,1,8,0:0:0:0:
288,160,36331,1,0,0:0:0:0:
256,128,36403,1,0,0:0:0:0:
288,224,36474,1,8,0:0:0:0:
288,224,36617,1,4,0:0:0:0:
288,224,36903,1,0,0:0:0:0:
288,224,37189,1,0,0:0:0:0:
256,224,37260,1,0,0:0:0:0:
288,224,37331,1,8,0:0:0:0:
288,224,37474,1,0,0:0:0:0:
288,224,37760,1,0,0:0:0:0:
288,224,37903,1,0,0:0:0:0:
288,224,38046,1,0,0:0:0:0:
288,224,38331,1,0,0:0:0:0:
288,224,38403,1,0,0:0:0:0:
288,224,38474,1,8,0:0:0:0:
288,224,38617,1,8,0:0:0:0:
288,224,38903,1,0,0:0:0:0:
288,224,39189,1,0,0:0:0:0:
288,224,39331,1,0,0:0:0:0:
288,224,39474,1,0,0:0:0:0:
288,224,39617,1,8,0:0:0:0:
288,224,39760,1,0,0:0:0:0:
288,224,40046,1,8,0:0:0:0:
288,224,40189,1,0,0:0:0:0:
288,224,40331,1,0,0:0:0:0:
288,224,40474,1,8,0:0:0:0:
288,224,40617,1,0,0:0:0:0:
288,224,40689,1,0,0:0:0:0:
288,224,40760,1,8,0:0:0:0:
288,160,40903,1,0,0:0:0:0:
256,128,40974,1,0,0:0:0:0:
288,224,41046,1,8,0:0:0:0:
288,224,41189,1,0,0:0:0:0:
256,160,41331,1,8,0:0:0:0:
256,160,41617,1,0,0:0:0:0:
256,160,41760,1,8,0:0:0:0:
256,160,41903,1,0,0:0:0:0:
256,160,42046,1,0,0:0:0:0:
256,160,42189,1,8,0:0:0:0:
256,160,42474,1,8,0:0:0:0:
256,160,42617,1,8,0:0:0:0:
256,160,42760,1,0,0:0:0:0:
256,160,42903,1,8,0:0:0:0:
256,160,43046,1,0,0:0:0:0:
256,160,43189,1,0,0:0:0:0:
256,160,43331,1,8,0:0:0:0:
256,160,43617,1,0,0:0:0:0:
256,160,43903,1,8,0:0:0:0:
256,160,44046,1,8,0:0:0:0:
256,160,44189,1,0,0:0:0:0:
256,160,44331,1,0,0:0:0:0:
256,160,44474,1,8,0:0:0:0:
256,160,44760,1,8,0:0:0:0:
256,160,44903,1,0,0:0:0:0:
256,160,45046,1,0,0:0:0:0:
256,160,45189,1,8,0:0:0:0:
256,160,45331,1,0,0:0:0:0:
256,160,45474,1,0,0:0:0:0:
256,160,45617,1,8,0:0:0:0:
256,160,45903,1,8,0:0:0:0:
256,160,46189,1,8,0:0:0:0:
256,160,46331,1,0,0:0:0:0:
256,160,46474,1,8,0:0:0:0:
256,128,46546,1,8,0:0:0:0:
224,192,46617,1,0,0:0:0:0:
256,160,46760,1,8,0:0:0:0:
256,160,46903,1,0,0:0:0:0:
224,128,46974,1,0,0:0:0:0:
224,192,47046,1,8,0:0:0:0:
256,160,47189,1,0,0:0:0:0:
256,160,47331,1,8,0:0:0:0:
256,160,47474,1,0,0:0:0:0:
256,160,47546,1,0,0:0:0:0:
256,160,47617,1,8,0:0:0:0:
224,128,47689,1,8,0:0:0:0:
256,160,47760,1,0,0:0:0:0:
256,160,47903,1,8,0:0:0:0:
256,160,48046,1,0,0:0:0:0:
256,160,48189,1,8,0:0:0:0:
256,160,48331,1,0,0:0:0:0:
256,160,48403,1,0,0:0:0:0:
256,160,48474,1,8,0:0:0:0:
256,160,48617,1,0,0:0:0:0:
256,160,48760,1,8,0:0:0:0:
256,160,48831,1,0,0:0:0:0:
256,160,48903,1,0,0:0:0:0:
256,160,48974,1,0,0:0:0:0:
256,160,49046,1,8,0:0:0:0:
256,160,49189,1,4,0:0:0:0:
256,160,49474,1,12,0:0:0:0:
256,160,49617,1,12,0:0:0:0:
256,160,50331,1,12,0:0:0:0:
256,160,50617,1,0,0:0:0:0:
256,160,50760,1,8,0:0:0:0:
256,160,51046,1,8,0:0:0:0:
256,160,51189,1,0,0:0:0:0:
256,160,51331,1,8,0:0:0:0:
256,160,51474,1,8,0:0:0:0:
256,160,51546,1,8,0:0:0:0:
256,160,51617,1,0,0:0:0:0:
256,160,51760,1,0,0:0:0:0:
256,160,51903,1,8,0:0:0:0:
256,160,52046,1,8,0:0:0:0:
256,160,52189,1,0,0:0:0:0:
224,128,52260,1,8,0:0:0:0:
256,160,52331,1,0,0:0:0:0:
256,160,52474,1,8,0:0:0:0:
256,160,52617,1,4,0:0:0:0:
256,160,52903,1,0,0:0:0:0:
256,160,53046,1,8,0:0:0:0:
256,160,53331,1,0,0:0:0:0:
256,160,53474,1,0,0:0:0:0:
256,160,53617,1,8,0:0:0:0:
256,160,53760,1,0,0:0:0:0:
256,160,53831,1,0,0:0:0:0:
256,160,53903,1,8,0:0:0:0:
256,160,54046,1,0,0:0:0:0:
256,160,54189,1,8,0:0:0:0:
256,160,54331,1,0,0:0:0:0:
256,160,54474,1,8,0:0:0:0:
256,160,54546,1,8,0:0:0:0:
256,160,54617,1,8,0:0:0:0:
249,162,54689,1,8,0:0:0:0:
256,160,54760,1,0,0:0:0:0:
256,160,54903,1,12,0:0:0:0:
256,160,55189,1,0,0:0:0:0:
256,160,55331,1,8,0:0:0:0:
256,160,55403,1,0,0:0:0:0:
256,160,55474,1,0,0:0:0:0:
256,160,55617,1,8,0:0:0:0:
256,160,55760,1,0,0:0:0:0:
256,160,55903,1,8,0:0:0:0:
256,160,56046,1,8,0:0:0:0:
247,162,56117,1,8,0:0:0:0:
256,160,56189,1,0,0:0:0:0:
256,160,56260,1,0,0:0:0:0:
256,160,56331,1,0,0:0:0:0:
256,160,56474,1,8,0:0:0:0:
224,96,56617,1,0,0:0:0:0:
192,64,56689,1,0,0:0:0:0:
256,160,56760,1,8,0:0:0:0:
256,160,56903,1,0,0:0:0:0:
256,160,57046,1,8,0:0:0:0:
256,160,57189,1,4,0:0:0:0:
256,160,57474,1,0,0:0:0:0:
256,160,57617,1,8,0:0:0:0:
256,160,57760,1,8,0:0:0:0:
256,160,57903,1,0,0:0:0:0:
256,160,57974,1,0,0:0:0:0:
256,160,58046,1,0,0:0:0:0:
256,160,58189,1,8,0:0:0:0:
256,160,58331,1,4,0:0:0:0:
256,160,58617,1,8,0:0:0:0:
256,160,58760,1,8,0:0:0:0:
256,160,58903,1,0,0:0:0:0:
256,160,59046,1,8,0:0:0:0:
224,128,59117,1,0,0:0:0:0:
256,160,59189,1,8,0:0:0:0:
256,128,59260,1,8,0:0:0:0:
256,160,59331,1,0,0:0:0:0:
256,160,59474,1,12,0:0:0:0:
256,160,59760,1,0,0:0:0:0:
256,160,59903,1,8,0:0:0:0:
256,160,60189,1,0,0:0:0:0:
256,160,60331,1,0,0:0:0:0:
256,160,60474,1,8,0:0:0:0:
256,160,60617,1,0,0:0:0:0:
256,160,60689,1,0,0:0:0:0:
256,160,60760,1,8,0:0:0:0:
256,160,60903,1,0,0:0:0:0:
256,160,61046,1,8,0:0:0:0:
256,160,61189,1,8,0:0:0:0:
256,160,61331,1,0,0:0:0:0:
224,128,61403,1,0,0:0:0:0:
256,160,61474,1,0,0:0:0:0:
256,160,61617,1,8,0:0:0:0:
256,160,61760,1,4,0:0:0:0:
256,160,62046,1,0,0:0:0:0:
256,160,62189,1,8,0:0:0:0:
256,160,62474,1,8,0:0:0:0:
256,160,62617,1,0,0:0:0:0:
256,160,62760,1,8,0:0:0:0:
256,160,62903,1,8,0:0:0:0:
256,160,62974,1,8,0:0:0:0:
256,160,63046,1,0,0:0:0:0:
256,160,63189,1,0,0:0:0:0:
256,160,63331,1,8,0:0:0:0:
256,160,63474,1,8,0:0:0:0:
256,160,63617,1,0,0:0:0:0:
256,160,63689,1,0,0:0:0:0:
256,160,63760,1,0,0:0:0:0:
247,162,63831,1,0,0:0:0:0:
256,160,63903,1,8,0:0:0:0:
256,160,64046,1,4,0:0:0:0:
256,160,64331,1,0,0:0:0:0:
256,160,64474,1,8,0:0:0:0:
256,160,64546,1,8,0:0:0:0:
256,160,64617,1,0,0:0:0:0:
256,160,64760,1,8,0:0:0:0:
256,160,64903,1,0,0:0:0:0:
256,160,65046,1,8,0:0:0:0:
256,160,65117,1,0,0:0:0:0:
256,160,65189,1,8,0:0:0:0:
247,162,65260,1,8,0:0:0:0:
256,160,65331,1,0,0:0:0:0:
256,160,65474,1,0,0:0:0:0:
256,160,65617,1,8,0:0:0:0:
224,96,65760,1,0,0:0:0:0:
192,64,65831,1,0,0:0:0:0:
256,160,65903,1,8,0:0:0:0:
256,160,66046,1,0,0:0:0:0:
256,160,66189,1,8,0:0:0:0:
256,160,66331,1,4,0:0:0:0:
256,160,66617,1,0,0:0:0:0:
256,160,66760,1,8,0:0:0:0:
256,160,66903,1,8,0:0:0:0:
256,160,67046,1,0,0:0:0:0:
256,160,67117,1,0,0:0:0:0:
256,160,67189,1,0,0:0:0:0:
256,160,67331,1,8,0:0:0:0:
256,160,67474,1,4,0:0:0:0:
256,160,67760,1,0,0:0:0:0:
256,160,67903,1,8,0:0:0:0:
256,160,68046,1,8,0:0:0:0:
256,160,68189,1,0,0:0:0:0:
224,128,68260,1,0,0:0:0:0:
256,160,68331,1,0,0:0:0:0:
288,128,68403,1,0,0:0:0:0:
256,160,68474,1,8,0:0:0:0:
256,160,68617,1,0,0:0:0:0:
256,192,68760,5,12,0:0:0:0:
256,192,69046,1,4,0:0:0:0:
256,192,69331,1,12,0:0:0:0:
256,192,69474,1,12,0:0:0:0:
256,192,69617,1,12,0:0:0:0:
256,192,69760,1,4,0:0:0:0:
256,192,70046,1,4,0:0:0:0:
256,192,70331,1,4,0:0:0:0:
256,192,70617,1,12,0:0:0:0:
256,192,70760,1,4,0:0:0:0:
256,192,71046,1,12,0:0:0:0:
256,192,71331,1,4,0:0:0:0:
256,192,71617,1,12,0:0:0:0:
256,192,71760,1,12,0:0:0:0:
256,192,71903,1,12,0:0:0:0:
256,192,72046,1,4,0:0:0:0:
256,192,72331,1,4,0:0:0:0:
256,192,72617,1,4,0:0:0:0:
256,192,72760,1,8,0:0:0:0:
256,192,72903,1,8,0:0:0:0:
288,224,73046,1,8,0:0:0:0:
288,224,73189,1,4,0:0:0:0:
288,224,73474,1,0,0:0:0:0:
288,224,73617,1,8,0:0:0:0:
288,224,73903,1,0,0:0:0:0:
288,224,74046,1,0,0:0:0:0:
288,224,74189,1,8,0:0:0:0:
288,224,74331,1,0,0:0:0:0:
288,224,74617,1,0,0:0:0:0:
288,224,74760,1,8,0:0:0:0:
288,224,74903,1,0,0:0:0:0:
288,224,75046,1,8,0:0:0:0:
288,224,75189,1,8,0:0:0:0:
288,224,75331,1,0,0:0:0:0:
288,224,75474,1,8,0:0:0:0:
288,224,75760,1,0,0:0:0:0:
288,224,75903,1,8,0:0:0:0:
288,224,76189,1,0,0:0:0:0:
288,224,76331,1,0,0:0:0:0:
288,224,76474,1,8,0:0:0:0:
288,224,76617,1,0,0:0:0:0:
288,224,76903,1,0,0:0:0:0:
288,224,77046,1,8,0:0:0:0:
288,224,77189,1,0,0:0:0:0:
288,224,77260,1,0,0:0:0:0:
288,224,77331,1,8,0:0:0:0:
288,224,77474,1,0,0:0:0:0:
288,224,77617,1,8,0:0:0:0:
288,224,77760,1,4,0:0:0:0:
288,224,78046,1,0,0:0:0:0:
288,224,78189,1,8,0:0:0:0:
288,224,78474,1,0,0:0:0:0:
288,224,78617,1,0,0:0:0:0:
288,224,78760,1,8,0:0:0:0:
288,224,78903,1,0,0:0:0:0:
288,224,79189,1,0,0:0:0:0:
288,224,79331,1,8,0:0:0:0:
288,224,79474,1,8,0:0:0:0:
288,224,79617,1,0,0:0:0:0:
288,224,79760,1,8,0:0:0:0:
288,224,79903,1,0,0:0:0:0:
288,224,80046,1,8,0:0:0:0:
288,224,80331,1,0,0:0:0:0:
288,224,80474,1,8,0:0:0:0:
288,224,80760,1,0,0:0:0:0:
288,224,80903,1,0,0:0:0:0:
288,224,81046,1,8,0:0:0:0:
288,224,81189,1,0,0:0:0:0:
288,224,81474,1,0,0:0:0:0:
288,224,81617,1,8,0:0:0:0:
288,224,81760,1,0,0:0:0:0:
288,224,81831,1,0,0:0:0:0:
288,224,81903,1,0,0:0:0:0:
288,224,82046,1,0,0:0:0:0:
288,224,82189,1,0,0:0:0:0:
288,224,82331,1,12,0:0:0:0:
288,224,82760,1,0,0:0:0:0:
288,224,83046,1,0,0:0:0:0:
288,224,83331,1,0,0:0:0:0:
288,224,83617,1,8,0:0:0:0:
288,224,83903,1,0,0:0:0:0:
288,224,84189,1,0,0:0:0:0:
288,224,84474,1,0,0:0:0:0:
288,224,84617,1,8,0:0:0:0:
288,224,84760,1,0,0:0:0:0:
288,224,85046,1,0,0:0:0:0:
288,224,85331,1,0,0:0:0:0:
288,224,85617,1,0,0:0:0:0:
288,224,85760,1,8,0:0:0:0:
288,224,85831,1,8,0:0:0:0:
288,224,85903,1,0,0:0:0:0:
288,224,86046,1,8,0:0:0:0:
288,224,86189,1,0,0:0:0:0:
288,224,86474,1,8,0:0:0:0:
288,224,86617,1,0,0:0:0:0:
288,224,86760,1,0,0:0:0:0:
288,224,86903,1,8,0:0:0:0:
288,224,87189,1,0,0:0:0:0:
288,224,87331,1,8,0:0:0:0:
288,224,87474,1,0,0:0:0:0:
288,224,87617,1,8,0:0:0:0:
288,224,87760,1,0,0:0:0:0:
288,224,87903,1,8,0:0:0:0:
288,224,88046,1,8,0:0:0:0:
288,224,88117,1,8,0:0:0:0:
288,224,88189,1,0,0:0:0:0:
288,224,89046,1,8,0:0:0:0:
288,224,89189,1,4,0:0:0:0:
288,224,89474,1,0,0:0:0:0:
288,224,89617,1,8,0:0:0:0:
224,256,89760,1,8,0:0:0:0:
288,224,89903,1,0,0:0:0:0:
288,224,90046,1,0,0:0:0:0:
288,224,90189,1,8,0:0:0:0:
288,224,90474,1,8,0:0:0:0:
288,224,90617,1,0,0:0:0:0:
288,224,90760,1,8,0:0:0:0:
288,224,90903,1,8,0:0:0:0:
288,224,90974,1,8,0:0:0:0:
288,224,91046,1,0,0:0:0:0:
288,224,91189,1,0,0:0:0:0:
288,224,91331,1,8,0:0:0:0:
288,224,91474,1,0,0:0:0:0:
288,224,91760,1,0,0:0:0:0:
288,224,91903,1,8,0:0:0:0:
288,224,92189,1,8,0:0:0:0:
288,224,92331,1,0,0:0:0:0:
288,224,92474,1,8,0:0:0:0:
288,224,92760,1,0,0:0:0:0:
288,224,92903,1,0,0:0:0:0:
288,224,93046,1,8,0:0:0:0:
288,224,93189,1,0,0:0:0:0:
288,224,93260,1,0,0:0:0:0:
288,224,93331,1,0,0:0:0:0:
288,224,93474,1,0,0:0:0:0:
288,224,93617,1,8,0:0:0:0:
288,224,93760,1,4,0:0:0:0:
288,224,94046,1,0,0:0:0:0:
288,224,94189,1,8,0:0:0:0:
288,224,94331,1,8,0:0:0:0:
288,224,94474,1,0,0:0:0:0:
288,224,94760,1,8,0:0:0:0:
288,224,95046,1,8,0:0:0:0:
288,224,95189,1,0,0:0:0:0:
288,224,95331,1,8,0:0:0:0:
288,224,95474,1,0,0:0:0:0:
288,224,95617,1,8,0:0:0:0:
288,224,95689,1,8,0:0:0:0:
288,224,95760,1,8,0:0:0:0:
288,224,95831,1,8,0:0:0:0:
288,224,95903,1,0,0:0:0:0:
288,224,96046,1,12,0:0:0:0:
288,224,96331,1,0,0:0:0:0:
288,224,96617,1,0,0:0:0:0:
288,192,96689,1,0,0:0:0:0:
288,224,96760,1,8,0:0:0:0:
288,224,96903,1,0,0:0:0:0:
288,224,97189,1,0,0:0:0:0:
288,224,97331,1,0,0:0:0:0:
288,224,97474,1,0,0:0:0:0:
288,224,97760,1,0,0:0:0:0:
288,224,97831,1,0,0:0:0:0:
288,224,97903,1,8,0:0:0:0:
288,224,98046,1,8,0:0:0:0:
288,224,98331,1,0,0:0:0:0:
288,224,98617,1,0,0:0:0:0:
288,224,98760,1,0,0:0:0:0:
288,224,98903,1,0,0:0:0:0:
288,224,99046,1,8,0:0:0:0:
288,224,99189,1,0,0:0:0:0:
288,224,99474,1,8,0:0:0:0:
288,224,99617,1,0,0:0:0:0:
288,224,99689,1,0,0:0:0:0:
288,224,99760,1,0,0:0:0:0:
288,224,99903,1,8,0:0:0:0:
288,224,100046,1,0,0:0:0:0:
288,224,100117,1,0,0:0:0:0:
288,224,100189,1,8,0:0:0:0:
288,160,100331,1,0,0:0:0:0:
256,128,100403,1,0,0:0:0:0:
288,224,100474,1,8,0:0:0:0:
288,224,100617,1,4,0:0:0:0:
288,224,100903,1,0,0:0:0:0:
288,224,101189,1,0,0:0:0:0:
288,224,101260,1,0,0:0:0:0:
288,224,101331,1,8,0:0:0:0:
288,224,101474,1,0,0:0:0:0:
288,224,101760,1,0,0:0:0:0:
288,224,101903,1,0,0:0:0:0:
288,224,102046,1,0,0:0:0:0:
288,224,102331,1,0,0:0:0:0:
288,224,102403,1,0,0:0:0:0:
288,224,102474,1,8,0:0:0:0:
288,224,102617,1,8,0:0:0:0:
288,224,102903,1,0,0:0:0:0:
288,224,103189,1,0,0:0:0:0:
288,224,103331,1,0,0:0:0:0:
288,224,103474,1,0,0:0:0:0:
288,224,103617,1,8,0:0:0:0:
288,224,103760,1,0,0:0:0:0:
288,224,104046,1,8,0:0:0:0:
288,224,104189,1,0,0:0:0:0:
288,224,104260,1,0,0:0:0:0:
288,224,104331,1,0,0:0:0:0:
288,224,104474,1,8,0:0:0:0:
288,224,104617,1,0,0:0:0:0:
288,224,104689,1,0,0:0:0:0:
288,224,104760,1,8,0:0:0:0:
288,160,104903,1,0,0:0:0:0:
256,128,104974,1,0,0:0:0:0:
288,224,105046,1,8,0:0:0:0:
288,224,105189,1,8,0:0:0:0:
256,160,105331,1,0,0:0:0:0:
256,160,105474,1,8,0:0:0:0:
256,160,105617,1,8,0:0:0:0:
256,160,105760,1,0,0:0:0:0:
256,160,105831,1,0,0:0:0:0:
256,160,105903,1,8,0:0:0:0:
256,160,106046,1,8,0:0:0:0:
256,160,106189,1,0,0:0:0:0:
224,128,106260,1,0,0:0:0:0:
256,160,106331,1,8,0:0:0:0:
224,128,106617,1,0,0:0:0:0:
224,128,106689,1,0,0:0:0:0:
224,128,106760,1,0,0:0:0:0:
224,128,106831,1,0,0:0:0:0:
224,128,106903,1,0,0:0:0:0:
224,128,107046,1,8,0:0:0:0:
224,128,107189,1,0,0:0:0:0:
256,160,107474,1,12,0:0:0:0:
256,160,107760,1,0,0:0:0:0:
256,160,107903,1,8,0:0:0:0:
256,160,108189,1,8,0:0:0:0:
256,160,108331,1,0,0:0:0:0:
256,160,108474,1,8,0:0:0:0:
256,160,108617,1,8,0:0:0:0:
256,160,108689,1,8,0:0:0:0:
256,160,108760,1,0,0:0:0:0:
256,160,108903,1,0,0:0:0:0:
256,160,109046,1,8,0:0:0:0:
256,160,109189,1,8,0:0:0:0:
256,160,109331,1,0,0:0:0:0:
224,128,109403,1,8,0:0:0:0:
256,160,109474,1,0,0:0:0:0:
256,160,109617,1,8,0:0:0:0:
256,160,109760,1,4,0:0:0:0:
256,160,110046,1,0,0:0:0:0:
256,160,110189,1,8,0:0:0:0:
256,160,110474,1,0,0:0:0:0:
256,160,110617,1,0,0:0:0:0:
256,160,110760,1,8,0:0:0:0:
256,160,110903,1,0,0:0:0:0:
256,160,110974,1,0,0:0:0:0:
256,160,111046,1,8,0:0:0:0:
256,160,111189,1,0,0:0:0:0:
256,160,111331,1,8,0:0:0:0:
256,160,111474,1,0,0:0:0:0:
256,160,111617,1,8,0:0:0:0:
256,160,111689,1,8,0:0:0:0:
256,160,111760,1,0,0:0:0:0:
246,162,111831,1,0,0:0:0:0:
256,160,111903,1,0,0:0:0:0:
256,160,112046,1,12,0:0:0:0:
256,160,112331,1,0,0:0:0:0:
256,160,112474,1,8,0:0:0:0:
256,160,112546,1,8,0:0:0:0:
256,160,112617,1,0,0:0:0:0:
256,160,112760,1,8,0:0:0:0:
256,160,112903,1,0,0:0:0:0:
256,160,113046,1,8,0:0:0:0:
256,160,113117,1,0,0:0:0:0:
256,160,113189,1,8,0:0:0:0:
246,162,113260,1,8,0:0:0:0:
256,160,113331,1,0,0:0:0:0:
256,160,113474,1,0,0:0:0:0:
256,160,113617,1,8,0:0:0:0:
224,96,113760,1,0,0:0:0:0:
192,64,113831,1,0,0:0:0:0:
256,160,113903,1,8,0:0:0:0:
256,160,114046,1,0,0:0:0:0:
256,160,114189,1,8,0:0:0:0:
256,160,114331,1,4,0:0:0:0:
256,160,114617,1,0,0:0:0:0:
256,160,114760,1,8,0:0:0:0:
256,160,114903,1,8,0:0:0:0:
256,160,115046,1,0,0:0:0:0:
256,160,115117,1,8,0:0:0:0:
256,160,115189,1,0,0:0:0:0:
256,160,115331,1,8,0:0:0:0:
256,160,115474,1,4,0:0:0:0:
256,160,115760,1,8,0:0:0:0:
256,160,115903,1,8,0:0:0:0:
256,160,116046,1,0,0:0:0:0:
256,160,116189,1,8,0:0:0:0:
224,128,116260,1,0,0:0:0:0:
256,160,116331,1,8,0:0:0:0:
256,128,116403,1,8,0:0:0:0:
256,160,116474,1,0,0:0:0:0:
256,160,116617,1,12,0:0:0:0:
256,160,116903,1,0,0:0:0:0:
256,160,117046,1,8,0:0:0:0:
256,160,117331,1,0,0:0:0:0:
256,160,117474,1,0,0:0:0:0:
256,160,117617,1,8,0:0:0:0:
256,160,117760,1,0,0:0:0:0:
256,160,117831,1,0,0:0:0:0:
256,160,117903,1,8,0:0:0:0:
256,160,118046,1,0,0:0:0:0:
256,160,118189,1,8,0:0:0:0:
256,160,118331,1,8,0:0:0:0:
256,160,118474,1,0,0:0:0:0:
224,128,118546,1,8,0:0:0:0:
256,160,118617,1,0,0:0:0:0:
256,160,118760,1,8,0:0:0:0:
256,160,118903,1,4,0:0:0:0:
256,160,119189,1,0,0:0:0:0:
256,160,119331,1,8,0:0:0:0:
256,160,119617,1,8,0:0:0:0:
256,160,119760,1,0,0:0:0:0:
256,160,119903,1,8,0:0:0:0:
256,160,120046,1,8,0:0:0:0:
256,160,120117,1,8,0:0:0:0:
256,160,120189,1,0,0:0:0:0:
256,160,120331,1,0,0:0:0:0:
256,160,120474,1,8,0:0:0:0:
256,160,120617,1,8,0:0:0:0:
256,160,120760,1,0,0:0:0:0:
256,160,120831,1,8,0:0:0:0:
256,160,120903,1,0,0:0:0:0:
250,153,120974,1,0,0:0:0:0:
256,160,121046,1,8,0:0:0:0:
256,160,121189,1,4,0:0:0:0:
256,160,121474,1,0,0:0:0:0:
256,160,121617,1,8,0:0:0:0:
256,160,121689,1,8,0:0:0:0:
256,160,121760,1,0,0:0:0:0:
256,160,121903,1,8,0:0:0:0:
256,160,122046,1,0,0:0:0:0:
256,160,122189,1,8,0:0:0:0:
256,160,122331,1,8,0:0:0:0:
253,151,122403,1,8,0:0:0:0:
256,160,122474,1,0,0:0:0:0:
256,160,122546,1,0,0:0:0:0:
256,160,122617,1,0,0:0:0:0:
256,160,122760,1,8,0:0:0:0:
224,96,122903,1,0,0:0:0:0:
192,64,122974,1,0,0:0:0:0:
256,160,123046,1,8,0:0:0:0:
256,160,123189,1,0,0:0:0:0:
256,160,123331,1,8,0:0:0:0:
256,160,123474,1,4,0:0:0:0:
256,160,123760,1,0,0:0:0:0:
256,160,123903,1,8,0:0:0:0:
256,160,124046,1,8,0:0:0:0:
256,160,124189,1,0,0:0:0:0:
256,160,124260,1,8,0:0:0:0:
256,160,124331,1,0,0:0:0:0:
256,160,124474,1,8,0:0:0:0:
256,160,124617,1,4,0:0:0:0:
256,160,124903,1,0,0:0:0:0:
256,160,125046,1,8,0:0:0:0:
256,160,125189,1,8,0:0:0:0:
256,160,125331,1,0,0:0:0:0:
224,128,125403,1,0,0:0:0:0:
256,160,125474,1,0,0:0:0:0:
288,128,125546,1,0,0:0:0:0:
256,160,125617,1,8,0:0:0:0:
256,160,125760,1,0,0:0:0:0:
256,192,125903,5,12,0:0:0:0:
256,192,126189,1,4,0:0:0:0:
256,192,126474,1,12,0:0:0:0:
256,192,126617,1,12,0:0:0:0:
256,192,126760,1,12,0:0:0:0:
256,192,126903,1,4,0:0:0:0:
256,192,127189,1,4,0:0:0:0:
256,192,127474,1,4,0:0:0:0:
256,192,127760,1,12,0:0:0:0:
256,192,127903,1,4,0:0:0:0:
256,192,128189,1,12,0:0:0:0:
256,192,128474,1,4,0:0:0:0:
256,192,128760,1,12,0:0:0:0:
256,192,128903,1,12,0:0:0:0:
256,192,129046,1,12,0:0:0:0:
256,192,129189,1,4,0:0:0:0:
256,192,129474,1,4,0:0:0:0:
256,192,129760,1,4,0:0:0:0:
256,192,129903,1,8,0:0:0:0:
256,192,130046,1,8,0:0:0:0:
288,224,130189,1,8,0:0:0:0:
288,224,130331,1,4,0:0:0:0:
256,183,130617,1,0,0:0:0:0:
256,192,130760,1,8,0:0:0:0:
258,184,131046,1,8,0:0:0:0:
256,183,131189,1,0,0:0:0:0:
256,183,131331,1,8,0:0:0:0:
256,183,131474,1,4,0:0:0:0:
258,184,131760,1,0,0:0:0:0:
258,184,131903,1,8,0:0:0:0:
256,183,132189,1,0,0:0:0:0:
256,183,132331,1,0,0:0:0:0:
256,183,132474,1,8,0:0:0:0:
258,184,132617,1,4,0:0:0:0:
258,184,132903,1,0,0:0:0:0:
256,183,133046,1,8,0:0:0:0:
256,183,133189,1,8,0:0:0:0:
256,183,133331,1,0,0:0:0:0:
256,183,133474,1,0,0:0:0:0:
258,184,133617,1,8,0:0:0:0:
258,184,133760,1,0,0:0:0:0:
256,183,134046,1,0,0:0:0:0:
256,183,134189,1,8,0:0:0:0:
256,183,134331,1,0,0:0:0:0:
256,183,134474,1,8,0:0:0:0:
258,184,134617,1,8,0:0:0:0:
258,184,134760,1,8,0:0:0:0:
256,183,134903,1,4,0:0:0:0:
256,183,135189,1,0,0:0:0:0:
256,183,135331,1,8,0:0:0:0:
258,184,135617,1,8,0:0:0:0:
258,184,135760,1,0,0:0:0:0:
256,183,135903,1,8,0:0:0:0:
256,183,136046,1,4,0:0:0:0:
256,183,136331,1,0,0:0:0:0:
258,184,136474,1,8,0:0:0:0:
258,184,136760,1,0,0:0:0:0:
256,183,136903,1,0,0:0:0:0:
256,183,137046,1,8,0:0:0:0:
256,183,137189,1,4,0:0:0:0:
258,184,137474,1,0,0:0:0:0:
220,109,137546,1,0,0:0:0:0:
258,184,137617,1,8,0:0:0:0:
256,183,137760,1,0,0:0:0:0:
256,183,137903,1,8,0:0:0:0:
231,143,138046,1,0,0:0:0:0:
258,144,138117,1,0,0:0:0:0:
256,183,138189,1,8,0:0:0:0:
258,184,138331,1,0,0:0:0:0:
258,184,138474,1,8,0:0:0:0:
242,139,138689,1,0,0:0:0:0:
242,139,138760,1,8,0:0:0:0:
256,183,138903,1,0,0:0:0:0:
256,183,139046,1,8,0:0:0:0:
235,117,139117,1,8,0:0:0:0:
256,183,139189,1,0,0:0:0:0:
258,184,139331,1,8,0:0:0:0:
258,184,139474,1,4,0:0:0:0:
253,164,139760,1,0,0:0:0:0:
253,164,139903,1,8,0:0:0:0:
253,164,140046,1,0,0:0:0:0:
253,164,140189,1,8,0:0:0:0:
253,164,140331,1,8,0:0:0:0:
253,164,140474,1,0,0:0:0:0:
253,164,140617,1,12,0:0:0:0:
253,164,140903,1,8,0:0:0:0:
253,164,141046,1,0,0:0:0:0:
253,164,141189,1,8,0:0:0:0:
253,164,141331,1,0,0:0:0:0:
253,164,141474,1,0,0:0:0:0:
253,164,141617,1,8,0:0:0:0:
253,164,141760,1,4,0:0:0:0:
253,164,142046,1,0,0:0:0:0:
253,164,142189,1,8,0:0:0:0:
253,164,142331,1,0,0:0:0:0:
253,164,142474,1,8,0:0:0:0:
235,152,142546,1,0,0:0:0:0:
253,164,142617,1,8,0:0:0:0:
253,164,142760,1,0,0:0:0:0:
253,164,142903,1,8,0:0:0:0:
253,164,143046,1,0,0:0:0:0:
253,164,143189,1,8,0:0:0:0:
253,164,143331,1,8,0:0:0:0:
253,164,143474,1,0,0:0:0:0:
235,152,143546,1,0,0:0:0:0:
253,164,143617,1,0,0:0:0:0:
230,149,143760,1,0,0:0:0:0:
253,164,143903,1,8,0:0:0:0:
253,164,144046,1,4,0:0:0:0:
253,164,144331,1,0,0:0:0:0:
253,164,144474,1,8,0:0:0:0:
221,136,144546,1,0,0:0:0:0:
253,164,144617,1,0,0:0:0:0:
253,164,144760,1,8,0:0:0:0:
253,164,144903,1,0,0:0:0:0:
221,147,144974,1,0,0:0:0:0:
253,164,145046,1,8,0:0:0:0:
253,164,145189,1,4,0:0:0:0:
255,140,145474,1,0,0:0:0:0:
255,140,145617,1,8,0:0:0:0:
253,164,145760,1,0,0:0:0:0:
253,164,145903,1,8,0:0:0:0:
255,140,145974,1,8,0:0:0:0:
253,164,146046,1,0,0:0:0:0:
255,140,146117,1,0,0:0:0:0:
253,164,146189,1,8,0:0:0:0:
253,164,146331,1,8,0:0:0:0:
253,164,146474,1,4,0:0:0:0:
253,164,146760,1,8,0:0:0:0:
253,164,146903,1,4,0:0:0:0:
253,164,147189,1,0,0:0:0:0:
253,164,147331,1,12,0:0:0:0:
253,164,147617,1,8,0:0:0:0:
253,164,147760,1,0,0:0:0:0:
253,164,147903,1,8,0:0:0:0:
253,164,148046,1,4,0:0:0:0:
253,164,148331,1,0,0:0:0:0:
203,129,148403,1,0,0:0:0:0:
253,164,148474,1,8,0:0:0:0:
253,164,148617,1,0,0:0:0:0:
253,164,148760,1,12,0:0:0:0:
253,164,149046,1,8,0:0:0:0:
253,164,149189,1,4,0:0:0:0:
253,164,149474,1,0,0:0:0:0:
253,164,149617,1,12,0:0:0:0:
253,164,149903,1,4,0:0:0:0:
242,168,150189,1,8,0:0:0:0:
229,129,150284,1,8,0:0:0:0:
229,129,150379,1,0,0:0:0:0:
242,168,150474,1,0,0:0:0:0:
242,168,150569,1,8,0:0:0:0:
242,168,150665,1,0,0:0:0:0:
242,168,150760,1,0,0:0:0:0:
242,168,150903,1,12,0:0:0:0:
288,224,151189,1,0,0:0:0:0:
288,224,151474,1,0,0:0:0:0:
288,192,151546,1,0,0:0:0:0:
288,224,151617,1,8,0:0:0:0:
288,224,151760,1,0,0:0:0:0:
288,224,152046,1,0,0:0:0:0:
288,224,152189,1,0,0:0:0:0:
288,224,152331,1,0,0:0:0:0:
288,224,152617,1,0,0:0:0:0:
288,224,152689,1,0,0:0:0:0:
288,224,152760,1,8,0:0:0:0:
288,224,152903,1,8,0:0:0:0:
288,224,153189,1,0,0:0:0:0:
288,224,153474,1,0,0:0:0:0:
288,224,153617,1,0,0:0:0:0:
288,224,153760,1,0,0:0:0:0:
288,224,153903,1,8,0:0:0:0:
288,224,154046,1,0,0:0:0:0:
288,224,154331,1,8,0:0:0:0:
288,224,154474,1,0,0:0:0:0:
288,224,154617,1,0,0:0:0:0:
288,224,154760,1,8,0:0:0:0:
288,224,154903,1,0,0:0:0:0:
288,224,154974,1,0,0:0:0:0:
288,224,155046,1,8,0:0:0:0:
288,160,155189,1,0,0:0:0:0:
256,128,155260,1,0,0:0:0:0:
288,224,155331,1,8,0:0:0:0:
288,224,155474,1,4,0:0:0:0:
288,224,155760,1,0,0:0:0:0:
288,224,156046,1,0,0:0:0:0:
256,224,156117,1,0,0:0:0:0:
288,224,156189,1,8,0:0:0:0:
288,224,156331,1,0,0:0:0:0:
288,224,156617,1,0,0:0:0:0:
288,224,156760,1,0,0:0:0:0:
288,224,156903,1,0,0:0:0:0:
288,224,157189,1,0,0:0:0:0:
288,224,157260,1,0,0:0:0:0:
288,224,157331,1,8,0:0:0:0:
288,224,157474,1,8,0:0:0:0:
288,224,157760,1,0,0:0:0:0:
288,224,158046,1,0,0:0:0:0:
288,224,158189,1,0,0:0:0:0:
288,224,158331,1,0,0:0:0:0:
288,224,158474,1,8,0:0:0:0:
288,224,158617,1,0,0:0:0:0:
288,224,158903,1,8,0:0:0:0:
288,224,159046,1,0,0:0:0:0:
288,224,159189,1,0,0:0:0:0:
288,224,159331,1,8,0:0:0:0:
288,224,159474,1,0,0:0:0:0:
288,224,159546,1,0,0:0:0:0:
288,224,159617,1,8,0:0:0:0:
288,160,159760,1,0,0:0:0:0:
256,128,159831,1,0,0:0:0:0:
288,224,159903,1,8,0:0:0:0:
288,224,160046,1,0,0:0:0:0:
256,160,160189,1,8,0:0:0:0:
256,160,160474,1,0,0:0:0:0:
256,160,160617,1,8,0:0:0:0:
256,160,160760,1,0,0:0:0:0:
256,160,160903,1,0,0:0:0:0:
256,160,161046,1,8,0:0:0:0:
256,160,161331,1,8,0:0:0:0:
256,160,161474,1,8,0:0:0:0:
256,160,161617,1,0,0:0:0:0:
256,160,161760,1,8,0:0:0:0:
256,160,161903,1,0,0:0:0:0:
256,160,162046,1,0,0:0:0:0:
256,160,162189,1,8,0:0:0:0:
256,160,162474,1,0,0:0:0:0:
256,160,162760,1,8,0:0:0:0:
256,160,162903,1,8,0:0:0:0:
256,160,163046,1,0,0:0:0:0:
256,160,163189,1,0,0:0:0:0:
256,160,163331,1,8,0:0:0:0:
256,160,163617,1,8,0:0:0:0:
256,160,163760,1,0,0:0:0:0:
256,160,163903,1,0,0:0:0:0:
256,160,164046,1,8,0:0:0:0:
256,160,164189,1,0,0:0:0:0:
256,160,164331,1,0,0:0:0:0:
256,160,164474,1,8,0:0:0:0:
256,160,164760,1,8,0:0:0:0:
256,160,165046,1,8,0:0:0:0:
256,160,165189,1,0,0:0:0:0:
256,160,165331,1,8,0:0:0:0:
256,128,165403,1,8,0:0:0:0:
224,192,165474,1,0,0:0:0:0:
256,160,165617,1,8,0:0:0:0:
256,160,165760,1,0,0:0:0:0:
224,128,165831,1,0,0:0:0:0:
224,192,165903,1,8,0:0:0:0:
256,160,166046,1,0,0:0:0:0:
256,160,166189,1,8,0:0:0:0:
256,160,166331,1,8,0:0:0:0:
256,160,166403,1,8,0:0:0:0:
256,160,166474,1,8,0:0:0:0:
224,128,166546,1,8,0:0:0:0:
256,160,166617,1,0,0:0:0:0:
256,160,166760,1,8,0:0:0:0:
256,160,166903,1,0,0:0:0:0:
256,160,167046,1,8,0:0:0:0:
256,160,167189,1,0,0:0:0:0:
256,160,167260,1,0,0:0:0:0:
256,160,167331,1,8,0:0:0:0:
256,160,167474,1,0,0:0:0:0:
256,160,167617,1,8,0:0:0:0:
256,160,167689,1,0,0:0:0:0:
256,160,167760,1,0,0:0:0:0:
256,160,167831,1,0,0:0:0:0:
256,160,167903,1,8,0:0:0:0:
256,160,168046,1,4,0:0:0:0:
256,160,168331,1,12,0:0:0:0:
256,160,168474,1,12,0:0:0:0:
256,160,169189,1,4,0:0:0:0:
256,160,171474,1,4,0:0:0:0:
256,160,173760,1,12,0:0:0:0:
256,160,176046,1,4,0:0:0:0:
256,160,176331,1,0,0:0:0:0:
256,160,176474,1,8,0:0:0:0:
256,160,176617,1,0,0:0:0:0:
256,160,176760,1,8,0:0:0:0:
256,160,176831,1,0,0:0:0:0:
256,160,176903,1,0,0:0:0:0:
256,160,177046,1,8,0:0:0:0:
256,160,177189,1,4,0:0:0:0:
256,160,177474,1,8,0:0:0:0:
256,160,177617,1,8,0:0:0:0:
256,160,177760,1,0,0:0:0:0:
256,160,177903,1,8,0:0:0:0:
224,128,177974,1,8,0:0:0:0:
256,160,178046,1,8,0:0:0:0:
256,128,178117,1,8,0:0:0:0:
256,160,178189,1,0,0:0:0:0:
256,160,178331,1,12,0:0:0:0:
256,160,178617,1,0,0:0:0:0:
256,160,178760,1,8,0:0:0:0:
256,160,179046,1,8,0:0:0:0:
256,160,179189,1,0,0:0:0:0:
256,160,179331,1,8,0:0:0:0:
256,160,179474,1,8,0:0:0:0:
256,160,179546,1,8,0:0:0:0:
256,160,179617,1,0,0:0:0:0:
256,160,179760,1,0,0:0:0:0:
256,160,179903,1,8,0:0:0:0:
256,160,180046,1,8,0:0:0:0:
256,160,180189,1,0,0:0:0:0:
224,128,180260,1,8,0:0:0:0:
256,160,180331,1,0,0:0:0:0:
256,160,180403,1,0,0:0:0:0:
256,160,180474,1,8,0:0:0:0:
256,160,180617,1,4,0:0:0:0:
256,160,180903,1,0,0:0:0:0:
256,160,181046,1,8,0:0:0:0:
256,160,181331,1,0,0:0:0:0:
256,160,181474,1,0,0:0:0:0:
256,160,181617,1,8,0:0:0:0:
256,160,181760,1,0,0:0:0:0:
256,160,181831,1,0,0:0:0:0:
256,160,181903,1,8,0:0:0:0:
256,160,182046,1,0,0:0:0:0:
256,160,182189,1,8,0:0:0:0:
256,160,182331,1,0,0:0:0:0:
256,160,182474,1,8,0:0:0:0:
256,160,182546,1,8,0:0:0:0:
256,160,182617,1,8,0:0:0:0:
249,162,182689,1,8,0:0:0:0:
256,160,182760,1,0,0:0:0:0:
256,160,182903,1,12,0:0:0:0:
256,160,183189,1,0,0:0:0:0:
256,160,183331,1,8,0:0:0:0:
256,160,183403,1,0,0:0:0:0:
256,160,183474,1,0,0:0:0:0:
256,160,183617,1,8,0:0:0:0:
256,160,183760,1,0,0:0:0:0:
256,160,183903,1,8,0:0:0:0:
256,160,184046,1,8,0:0:0:0:
247,162,184117,1,8,0:0:0:0:
256,160,184189,1,0,0:0:0:0:
256,160,184260,1,0,0:0:0:0:
256,160,184331,1,0,0:0:0:0:
256,160,184474,1,8,0:0:0:0:
224,96,184617,1,0,0:0:0:0:
192,64,184689,1,0,0:0:0:0:
256,160,184760,1,8,0:0:0:0:
256,160,184903,1,0,0:0:0:0:
256,160,185046,1,8,0:0:0:0:
256,160,185189,1,4,0:0:0:0:
256,160,185474,1,0,0:0:0:0:
256,160,185617,1,8,0:0:0:0:
256,160,185760,1,8,0:0:0:0:
256,160,185903,1,0,0:0:0:0:
256,160,185974,1,0,0:0:0:0:
256,160,186046,1,0,0:0:0:0:
256,160,186189,1,8,0:0:0:0:
256,160,186331,1,4,0:0:0:0:
256,160,186617,1,8,0:0:0:0:
256,160,186760,1,8,0:0:0:0:
256,160,186903,1,0,0:0:0:0:
256,160,187046,1,8,0:0:0:0:
224,128,187117,1,0,0:0:0:0:
256,160,187189,1,8,0:0:0:0:
256,128,187260,1,8,0:0:0:0:
256,160,187331,1,0,0:0:0:0:
256,160,187474,1,12,0:0:0:0:
256,160,187760,1,0,0:0:0:0:
256,160,187903,1,8,0:0:0:0:
256,160,188189,1,0,0:0:0:0:
256,160,188331,1,0,0:0:0:0:
256,160,188474,1,8,0:0:0:0:
256,160,188617,1,0,0:0:0:0:
256,160,188689,1,0,0:0:0:0:
256,160,188760,1,8,0:0:0:0:
266,162,188831,1,8,0:0:0:0:
256,160,188903,1,0,0:0:0:0:
256,160,189046,1,8,0:0:0:0:
256,160,189189,1,8,0:0:0:0:
256,160,189331,1,0,0:0:0:0:
224,128,189403,1,0,0:0:0:0:
256,160,189474,1,0,0:0:0:0:
256,160,189617,1,8,0:0:0:0:
256,160,189760,1,4,0:0:0:0:
256,160,190046,1,0,0:0:0:0:
256,160,190189,1,8,0:0:0:0:
256,160,190474,1,8,0:0:0:0:
256,160,190617,1,0,0:0:0:0:
256,160,190760,1,8,0:0:0:0:
256,160,190903,1,8,0:0:0:0:
256,160,190974,1,8,0:0:0:0:
256,160,191046,1,0,0:0:0:0:
256,160,191189,1,0,0:0:0:0:
256,160,191331,1,8,0:0:0:0:
256,160,191474,1,8,0:0:0:0:
256,160,191617,1,0,0:0:0:0:
256,160,191689,1,0,0:0:0:0:
256,160,191760,1,0,0:0:0:0:
247,162,191831,1,0,0:0:0:0:
256,160,191903,1,8,0:0:0:0:
256,160,192046,1,4,0:0:0:0:
256,160,192331,1,0,0:0:0:0:
256,160,192474,1,8,0:0:0:0:
256,160,192546,1,8,0:0:0:0:
256,160,192617,1,0,0:0:0:0:
256,160,192760,1,8,0:0:0:0:
256,160,192903,1,0,0:0:0:0:
256,160,193046,1,8,0:0:0:0:
256,160,193117,1,0,0:0:0:0:
256,160,193189,1,8,0:0:0:0:
247,162,193260,1,8,0:0:0:0:
256,160,193331,1,0,0:0:0:0:
256,160,193474,1,0,0:0:0:0:
256,160,193617,1,8,0:0:0:0:
224,96,193760,1,0,0:0:0:0:
192,64,193831,1,0,0:0:0:0:
256,160,193903,1,8,0:0:0:0:
256,160,194046,1,0,0:0:0:0:
256,160,194189,1,8,0:0:0:0:
256,160,194331,1,4,0:0:0:0:
256,160,194617,1,0,0:0:0:0:
256,160,194760,1,8,0:0:0:0:
256,160,194903,1,8,0:0:0:0:
256,160,195046,1,0,0:0:0:0:
256,160,195117,1,0,0:0:0:0:
256,160,195189,1,0,0:0:0:0:
256,160,195331,1,8,0:0:0:0:
256,160,195474,1,4,0:0:0:0:
256,160,195760,1,0,0:0:0:0:
256,160,195903,1,8,0:0:0:0:
256,160,196046,1,8,0:0:0:0:
256,160,196189,1,0,0:0:0:0:
224,128,196260,1,0,0:0:0:0:
256,160,196331,1,0,0:0:0:0:
288,128,196403,1,0,0:0:0:0:
256,160,196474,1,8,0:0:0:0:
256,160,196617,1,0,0:0:0:0:
256,192,196760,5,12,0:0:0:0:
256,192,197046,1,4,0:0:0:0:
256,192,197331,1,12,0:0:0:0:
256,192,197474,1,12,0:0:0:0:
256,192,197617,1,12,0:0:0:0:
256,192,197760,1,4,0:0:0:0:
256,192,198046,1,4,0:0:0:0:
256,192,198331,1,4,0:0:0:0:
256,192,198617,1,12,0:0:0:0:
256,192,198760,1,4,0:0:0:0:
256,192,199046,1,12,0:0:0:0:
256,192,199331,1,4,0:0:0:0:
256,192,199617,1,12,0:0:0:0:
256,192,199760,1,12,0:0:0:0:
256,192,199903,1,12,0:0:0:0:
256,192,200046,1,4,0:0:0:0:
256,192,200331,1,4,0:0:0:0:
256,192,200617,1,4,0:0:0:0:
256,192,200760,1,8,0:0:0:0:
218,118,200831,1,0,0:0:0:0:
256,192,200903,1,0,0:0:0:0:
219,163,200974,1,0,0:0:0:0:
288,224,201046,1,8,0:0:0:0:
258,183,201331,1,0,0:0:0:0:
258,183,201403,1,0,0:0:0:0:
258,183,201474,1,0,0:0:0:0:
258,183,201617,1,8,0:0:0:0:
256,184,201689,1,8,0:0:0:0:
258,183,201760,1,0,0:0:0:0:
256,184,201903,1,8,0:0:0:0:
258,183,202046,1,0,0:0:0:0:
258,183,202189,1,8,0:0:0:0:
258,183,202331,1,8,0:0:0:0:
258,183,202474,1,0,0:0:0:0:
258,183,202617,1,8,0:0:0:0:
256,184,202689,1,0,0:0:0:0:
258,183,202760,1,0,0:0:0:0:
256,184,202903,1,8,0:0:0:0:
258,183,202974,1,8,0:0:0:0:
258,183,203046,1,0,0:0:0:0:
258,183,203189,1,12,0:0:0:0:
258,183,203331,1,4,0:0:0:0:
256,192,203617,1,12,0:0:0:0:
256,192,203903,1,4,0:0:0:0:
256,192,204189,1,12,0:0:0:0:
256,192,204331,1,12,0:0:0:0:
256,192,204474,1,12,0:0:0:0:
256,192,204617,1,4,0:0:0:0:
242,157,204903,1,4,0:0:0:0:
247,184,205189,1,4,0:0:0:0:
247,184,205331,1,8,0:0:0:0:
247,184,205474,1,8,0:0:0:0:
247,184,205617,1,8,0:0:0:0:
288,224,205760,1,4,0:0:0:0:
288,224,206046,1,0,0:0:0:0:
288,224,206189,1,8,0:0:0:0:
288,224,206474,1,0,0:0:0:0:
288,224,206617,1,0,0:0:0:0:
288,224,206760,1,8,0:0:0:0:
288,224,206903,1,0,0:0:0:0:
288,224,207189,1,0,0:0:0:0:
288,224,207331,1,8,0:0:0:0:
288,224,207474,1,0,0:0:0:0:
288,224,207617,1,8,0:0:0:0:
288,224,207760,1,8,0:0:0:0:
288,224,207903,1,0,0:0:0:0:
288,224,208046,1,8,0:0:0:0:
288,224,208331,1,0,0:0:0:0:
288,224,208474,1,8,0:0:0:0:
288,224,208760,1,0,0:0:0:0:
288,224,208903,1,0,0:0:0:0:
288,224,209046,1,8,0:0:0:0:
288,224,209189,1,0,0:0:0:0:
288,224,209474,1,0,0:0:0:0:
288,224,209617,1,8,0:0:0:0:
288,224,209760,1,0,0:0:0:0:
288,224,209831,1,0,0:0:0:0:
288,224,209903,1,8,0:0:0:0:
288,216,209974,1,8,0:0:0:0:
288,224,210046,1,0,0:0:0:0:
288,224,210189,1,8,0:0:0:0:
288,224,210331,1,4,0:0:0:0:
301,219,210617,1,0,0:0:0:0:
301,219,210760,1,8,0:0:0:0:
301,219,210903,1,0,0:0:0:0:
301,219,211046,1,8,0:0:0:0:
301,219,211189,1,8,0:0:0:0:
301,219,211331,1,0,0:0:0:0:
280,217,211474,1,8,0:0:0:0:
180,55,211546,1,8,0:0:0:0:
301,219,211617,1,0,0:0:0:0:
301,219,211760,1,0,0:0:0:0:
301,219,211903,1,8,0:0:0:0:
301,219,212046,1,8,0:0:0:0:
301,219,212189,1,0,0:0:0:0:
301,219,212331,1,8,0:0:0:0:
301,219,212474,1,0,0:0:0:0:
301,219,212617,1,8,0:0:0:0:
235,152,212689,1,8,0:0:0:0:
301,219,212760,1,8,0:0:0:0:
301,219,212903,1,0,0:0:0:0:
301,219,213046,1,8,0:0:0:0:
301,219,213189,1,0,0:0:0:0:
301,219,213331,1,8,0:0:0:0:
229,96,213403,1,8,0:0:0:0:
301,219,213474,1,0,0:0:0:0:
229,96,213546,1,0,0:0:0:0:
301,219,213617,1,8,0:0:0:0:
301,219,213760,1,4,0:0:0:0:
301,219,214046,1,8,0:0:0:0:
301,219,214189,1,8,0:0:0:0:
301,219,214331,1,0,0:0:0:0:
221,88,214403,1,0,0:0:0:0:
301,219,214474,1,8,0:0:0:0:
301,219,214617,1,8,0:0:0:0:
301,219,214760,1,8,0:0:0:0:
301,219,214903,1,4,0:0:0:0:
