osu file format v14

[General]
AudioFilename: Unlucky Morpheus - Sono Tamashii Ni Yasuragi Wo ~ Dignity of Spirit.mp3
AudioLeadIn: 0
PreviewTime: 475870
Countdown: 0
SampleSet: Soft
StackLeniency: 0.6
Mode: 0
LetterboxInBreaks: 0
WidescreenStoryboard: 0

[Editor]
DistanceSpacing: 2
BeatDivisor: 4
GridSize: 4
TimelineZoom: 1.700001

[Metadata]
Title:Sono Tamashii ni Yasuragi wo ~ Dignity of Spirit
TitleUnicode:その魂に安らぎを ~ Dignity of Spirit
Artist:Unlucky Morpheus
ArtistUnicode:Unlucky Morpheus
Creator:tokiko
Version:Extra Stage
Source:東方妖々夢 ~ Perfect Cherry Blossom.
Tags:touhou project th7 team shanghai alice 西行寺 幽々子 saigyouji yuyuko 幽雅に咲かせ、墨染の桜 ~ border of life bloom nobly ink black Hypothetical Box ACT 2 sumizome yukimura hirano fuyuki M3-25 天外冬黄 平野幸村 上海アリス幻樂団 Youyoumu Yuuga ni sakase Sumizome no sakura May the Soul Rest in Peace tenge yuki fuki marathon ZUN
BeatmapID:1387153
BeatmapSetID:654402

[Difficulty]
HPDrainRate:9
CircleSize:4.3
OverallDifficulty:8
ApproachRate:9.6
SliderMultiplier:2.8
SliderTickRate:1

[Events]
//Background and Video events
0,0,"Unlucky Morpheus - Dignity of Spirit.jpg",0,0
//Break Periods
2,91191,95605
//Storyboard Layer 0 (Background)
//Storyboard Layer 1 (Fail)
//Storyboard Layer 2 (Pass)
//Storyboard Layer 3 (Foreground)
//Storyboard Sound Samples

[TimingPoints]
267,548.747027620267,4,2,1,10,1,0
267,-175.438596491228,4,2,1,10,0,0
54318,-175.438596491228,4,2,2,10,0,0
55141,-312.5,4,2,2,45,0,0
57199,-312.5,4,2,2,5,0,0
57336,-312.5,4,2,2,45,0,0
59394,-312.5,4,2,2,5,0,0
59531,-312.5,4,2,2,45,0,0
60491,-312.5,4,2,2,5,0,0
60629,-312.5,4,2,2,45,0,0
61589,-312.5,4,2,2,5,0,0
61726,-312.5,4,2,2,45,0,0
63784,-312.5,4,2,2,5,0,0
63921,-312.5,4,2,2,45,0,0
65979,-312.5,4,2,2,5,0,0
66116,-312.5,4,2,2,45,0,0
68174,-312.5,4,2,2,5,0,0
68311,-312.5,4,2,2,45,0,0
69271,-312.5,4,2,2,5,0,0
69409,-312.5,4,2,2,45,0,0
70369,-312.5,4,2,2,5,0,0
70506,-312.5,4,2,2,45,0,0
71466,-312.5,4,2,2,5,0,0
71604,-312.5,4,2,2,45,0,0
72701,-200,4,2,2,45,0,0
86420,-333.333333333333,4,2,2,45,0,0
86969,-500,4,2,2,45,0,0
88066,365.853658536585,4,2,2,45,1,0
96480,-200,4,2,2,45,0,0
96755,-200,4,2,2,5,0,0
96846,-100,4,2,2,65,0,0
102700,-100,4,1,3,50,0,0
113858,-100,4,2,2,65,0,0
150992,-133.333333333333,4,2,2,65,0,0
159773,-133.333333333333,4,2,2,65,0,0
160047,-133.333333333333,4,2,2,5,0,0
160139,-133.333333333333,4,2,2,65,0,0
160413,-133.333333333333,4,2,2,5,0,0
160505,-133.333333333333,4,2,2,65,0,0
164163,-86.9565217391304,4,2,2,65,0,1
184651,-66.6666666666667,4,2,2,65,0,1
185383,-50,4,2,2,65,0,1
187578,-100,4,1,3,50,0,0
198736,-100,4,2,2,65,0,0
222700,-133.333333333333,4,2,2,65,0,0
243462,-133.333333333333,4,2,2,5,0,0
243553,-133.333333333333,4,2,2,65,0,0
243828,-133.333333333333,4,2,2,5,0,0
243919,-133.333333333333,4,2,2,65,0,0
247578,-86.9565217391303,4,2,2,65,0,1
268065,-66.6666666666667,4,2,2,65,0,1
268797,-50,4,2,2,65,0,1
270992,-133.333333333333,4,2,2,65,0,0
273919,-344.827586206897,4,2,2,65,0,0
274285,-133.333333333333,4,2,2,65,0,0
276846,-344.827586206897,4,2,2,65,0,0
277212,-133.333333333333,4,2,2,65,0,0
279773,-344.827586206897,4,2,2,65,0,0
280139,-133.333333333333,4,2,2,65,0,0
306114,-100,4,2,2,65,0,0
328065,-80,4,2,2,65,0,0
328797,-66.6666666666667,4,2,2,65,0,0
329529,-100,4,2,2,65,0,0
352944,-133.333333333333,4,2,2,65,0,0
373431,-200,4,2,2,65,0,0
373706,-100,4,2,2,65,0,0
374163,-200,4,2,2,65,0,0
374437,-100,4,2,2,65,0,0
374895,-133.333333333333,4,2,2,65,0,0
379285,-200,4,2,2,65,0,0
380017,-133.333333333333,4,2,2,65,0,0
380200,-200,4,2,2,65,0,0
380748,-133.333333333333,4,2,2,65,0,0
382212,-133.333333333333,4,2,2,65,0,0
388065,-66.6666666666667,4,2,2,65,0,0
390992,-100,4,2,2,65,0,0
393919,-66.6666666666667,4,2,2,65,0,0
396846,-100,4,2,2,65,0,0
399773,-66.6666666666667,4,2,2,65,0,0
402700,-100,4,2,2,65,0,0
405626,-66.6666666666667,4,2,2,65,0,0
408553,-100,4,2,2,65,0,0
414407,-50,4,2,2,65,0,0
417334,-86.9565217391303,4,2,2,65,0,1
439285,-50,4,2,2,65,0,1
440748,-86.9565217391303,4,2,2,65,0,1
461236,-66.6666666666667,4,2,2,65,0,1
461968,-50,4,2,2,65,0,1
464163,-100,4,1,3,50,0,0
475870,548.747027620267,4,2,2,65,1,0
475870,-178.571428571429,4,2,2,65,0,0
482454,-666.666666666667,4,2,2,65,0,0
483003,-666.666666666667,4,2,2,5,0,0
484649,-178.571428571429,4,2,2,65,0,0
491234,-526.315789473684,4,2,2,65,0,0
491783,-526.315789473684,4,2,2,5,0,0
492881,-200,4,2,2,65,0,0
506599,760,4,2,2,65,1,0
506599,-285.714285714286,4,2,2,65,0,0
507359,710,4,2,2,65,1,0
508069,728,4,2,2,65,1,0
508069,-400,4,2,2,65,0,0
509525,824.042857142857,4,2,2,65,1,0
509525,-102.040816326531,4,2,2,65,0,0
510349,-102.040816326531,4,2,2,5,0,0
516117,548.747027620267,4,2,4,15,1,0
516117,-175.438596491228,4,2,4,15,0,0
542456,-175.438596491228,4,2,4,10,0,0
557821,-175.438596491228,4,2,4,9,0,0
560016,-175.438596491228,4,2,4,8,0,0
562211,-175.438596491228,4,2,4,7,0,0
564406,-175.438596491228,4,2,4,6,0,0
565229,-175.438596491228,4,2,1,5,0,0

[Colours]
Combo1 : 26,117,208
Combo2 : 48,48,144
Combo3 : 95,175,175
Combo4 : 32,175,244

[HitObjects]
92,224,267,6,0,L|184:220,1,79.7999990258789,2|0,0:0|0:0,0:0:0:0:
236,172,815,1,0,0:0:0:0:
236,172,1090,1,0,0:0:0:0:
260,248,1364,1,0,0:0:0:0:
260,248,1638,1,0,0:0:0:0:
196,296,1913,1,0,0:0:0:0:
196,296,2187,1,0,0:0:0:0:
276,156,2461,6,0,L|196:152,1,80,2|0,0:0|0:0,0:0:0:0:
135,108,3010,1,0,0:0:0:0:
135,108,3285,1,0,0:0:0:0:
111,184,3559,1,0,0:0:0:0:
111,184,3833,1,0,0:0:0:0:
175,232,4108,1,0,0:0:0:0:
175,232,4382,1,0,0:0:0:0:
320,192,4656,6,0,L|312:100,1,80,2|0,0:0|0:0,0:0:0:0:
396,252,5205,1,0,0:0:0:0:
384,332,5480,1,8,0:0:0:0:
313,112,5754,6,0,L|320:28,1,80,2|0,0:0|0:0,0:0:0:0:
237,172,6303,1,0,0:0:0:0:
249,252,6577,1,8,0:0:0:0:
319,32,6851,6,0,L|228:23,1,80,2|0,0:0|0:0,0:0:0:0:
164,48,7400,1,0,0:0:0:0:
84,40,7675,1,2,0:0:0:0:
112,116,7949,1,0,0:0:0:0:
112,116,8223,1,0,0:0:0:0:
68,184,8498,1,0,0:0:0:0:
68,184,8772,1,0,0:0:0:0:
209,108,9046,6,0,L|297:104,1,80,2|0,0:0|0:0,0:0:0:0:
339,168,9595,1,0,0:0:0:0:
327,164,9870,1,2,0:0:0:0:
375,99,10144,1,0,0:0:0:0:
363,95,10418,1,2,0:0:0:0:
327,35,10693,1,0,0:0:0:0:
327,35,10967,1,0,0:0:0:0:
419,171,11241,6,0,L|331:167,1,80,2|0,0:0|0:0,0:0:0:0:
289,231,11790,1,0,0:0:0:0:
289,231,12065,1,0,0:0:0:0:
253,164,12339,1,0,0:0:0:0:
253,164,12613,1,0,0:0:0:0:
301,100,12888,1,0,0:0:0:0:
301,100,13162,1,0,0:0:0:0:
200,220,13436,6,0,L|196:304,1,80,2|0,0:0|0:0,0:0:0:0:
128,156,13985,1,0,0:0:0:0:
120,236,14260,1,8,0:0:0:0:
300,95,14534,6,0,L|304:179,1,80,2|0,0:0|0:0,0:0:0:0:
372,31,15083,1,0,0:0:0:0:
380,111,15357,1,8,0:0:0:0:
216,92,15631,6,0,L|132:88,1,80,2|0,0:0|0:0,0:0:0:0:
57,104,16180,1,0,0:0:0:0:
81,180,16455,1,0,0:0:0:0:
157,208,16729,2,0,L|161:252,1,40,10|0,0:0|0:0,0:0:0:0:
420,128,17826,6,0,L|424:220,1,80,8|0,0:0|0:0,0:0:0:0:
499,248,18375,1,0,0:0:0:0:
499,248,18650,1,0,0:0:0:0:
431,288,18924,1,0,0:0:0:0:
431,288,19198,1,0,0:0:0:0:
359,256,19473,1,0,0:0:0:0:
363,336,19747,1,0,0:0:0:0:
248,216,20021,6,0,L|244:308,1,80,2|0,0:0|0:0,0:0:0:0:
176,336,20570,1,0,0:0:0:0:
176,336,20845,1,0,0:0:0:0:
248,376,21119,1,0,0:0:0:0:
248,376,21393,1,0,0:0:0:0:
320,344,21668,1,0,0:0:0:0:
255,296,21942,2,0,L|254:251,1,40,2|0,0:0|0:0,0:0:0:0:
212,188,22216,5,10,0:0:0:0:
212,188,22491,1,0,0:0:0:0:
372,212,22765,5,0,0:0:0:0:
372,212,23040,1,0,0:0:0:0:
512,132,23314,5,0,0:0:0:0:
432,140,23588,1,0,0:0:0:0:
468,212,23863,1,0,0:0:0:0:
432,284,24137,1,0,0:0:0:0:
276,252,24411,6,0,L|184:248,1,80,2|0,0:0|0:0,0:0:0:0:
146,192,24960,1,0,0:0:0:0:
116,184,25234,1,0,0:0:0:0:
32,288,25509,5,0,0:0:0:0:
107,264,25783,1,0,0:0:0:0:
159,326,26058,1,0,0:0:0:0:
236,316,26332,2,0,L|240:364,1,39.8999995129395
196,244,26606,6,0,L|288:240,1,80,2|0,0:0|0:0,0:0:0:0:
332,184,27155,1,0,0:0:0:0:
332,184,27429,1,0,0:0:0:0:
372,256,27704,1,0,0:0:0:0:
372,256,27978,1,0,0:0:0:0:
306,300,28253,1,0,0:0:0:0:
306,300,28527,2,0,L|314:340,1,40,2|0,0:0|0:0,0:0:0:0:
288,224,28801,6,0,L|284:132,1,80,10|0,0:0|0:0,0:0:0:0:
230,92,29350,1,0,0:0:0:0:
230,92,29624,1,0,0:0:0:0:
306,68,29899,1,0,0:0:0:0:
380,39,30173,1,0,0:0:0:0:
366,120,30448,1,0,0:0:0:0:
366,120,30722,2,0,L|374:172,1,40,2|0,0:0|0:0,0:0:0:0:
268,156,30996,6,0,L|264:248,1,80,10|0,0:0|0:0,0:0:0:0:
260,316,31545,1,0,0:0:0:0:
260,316,31819,2,0,L|256:360,1,40,2|0,0:0|0:0,0:0:0:0:
188,284,32094,5,10,0:0:0:0:
116,320,32368,1,0,0:0:0:0:
100,244,32643,1,0,0:0:0:0:
32,284,32917,2,0,L|28:328,1,40,2|0,0:0|0:0,0:0:0:0:
100,244,33191,6,0,L|96:164,1,80,10|0,0:0|0:0,0:0:0:0:
88,84,33740,1,0,0:0:0:0:
164,112,34014,1,0,0:0:0:0:
232,68,34289,2,0,L|276:64,1,40,2|0,0:0|0:0,0:0:0:0:
456,276,35386,6,0,L|364:272,1,80,2|0,0:0|0:0,0:0:0:0:
323,219,35935,1,0,0:0:0:0:
323,219,36209,1,0,0:0:0:0:
295,295,36484,1,0,0:0:0:0:
295,295,36758,1,0,0:0:0:0:
335,363,37033,1,0,0:0:0:0:
383,299,37307,1,0,0:0:0:0:
244,208,37581,6,0,L|336:204,1,80,2|0,0:0|0:0,0:0:0:0:
380,148,38130,1,0,0:0:0:0:
380,148,38404,1,0,0:0:0:0:
408,224,38679,1,0,0:0:0:0:
408,224,38953,1,0,0:0:0:0:
368,292,39228,1,0,0:0:0:0:
320,228,39502,2,0,L|272:224,1,40,2|0,0:0|0:0,0:0:0:0:
200,212,39776,5,10,0:0:0:0:
200,212,40051,1,0,0:0:0:0:
308,332,40325,5,0,0:0:0:0:
308,332,40600,1,0,0:0:0:0:
468,312,40874,5,0,0:0:0:0:
389,296,41148,1,0,0:0:0:0:
440,236,41423,1,0,0:0:0:0:
408,164,41697,1,0,0:0:0:0:
264,228,41971,6,0,L|260:144,1,80,2|0,0:0|0:0,0:0:0:0:
288,75,42520,1,0,0:0:0:0:
288,75,42794,1,0,0:0:0:0:
212,91,43069,1,0,0:0:0:0:
212,91,43343,1,0,0:0:0:0:
152,40,43618,1,0,0:0:0:0:
72,36,43892,2,0,L|56:0,1,39.8999995129395
104,100,44166,6,0,L|96:192,1,80,2|0,0:0|0:0,0:0:0:0:
52,248,44715,1,0,0:0:0:0:
52,248,44989,1,0,0:0:0:0:
135,264,45264,1,0,0:0:0:0:
135,264,45538,1,0,0:0:0:0:
80,320,45813,1,0,0:0:0:0:
156,340,46087,2,0,L|148:384,1,39.8999995129395
224,296,46361,6,0,L|312:292,1,79.7999990258789,2|0,0:0|0:0,0:0:0:0:
368,243,46910,1,0,0:0:0:0:
368,243,47184,1,0,0:0:0:0:
299,211,47459,1,0,0:0:0:0:
299,211,47733,1,0,0:0:0:0:
239,265,48007,1,0,0:0:0:0:
312,296,48282,2,0,L|316:344,1,39.8999995129395,2|0,0:0|0:0,0:0:0:0:
416,368,48556,6,0,L|420:280,1,79.7999990258789,10|0,0:0|0:0,0:0:0:0:
448,213,49105,1,0,0:0:0:0:
412,141,49379,2,0,L|408:101,1,39.8999995129395,2|0,0:0|0:0,0:0:0:0:
316,148,49654,6,0,L|312:244,1,79.7999990258789,10|0,0:0|0:0,0:0:0:0:
276,299,50202,1,0,0:0:0:0:
197,316,50477,2,0,L|137:312,1,39.8999995129395,2|0,0:0|0:0,0:0:0:0:
84,276,50751,5,10,0:0:0:0:
84,276,51026,1,0,0:0:0:0:
236,224,51300,5,0,0:0:0:0:
236,224,51575,1,0,0:0:0:0:
384,168,51849,6,0,L|380:212,1,39.8999995129395,2|0,0:0|0:0,0:0:0:0:
140,68,52946,5,0,0:0:0:0:
140,68,53221,1,0,0:0:0:0:
260,172,53495,5,0,0:0:0:0:
260,172,53770,1,0,0:0:0:0:
420,156,54044,6,0,L|428:104,1,39.8999995129395
460,226,54318,5,8,0:0:0:0:
424,298,54455,5,8,0:0:0:0:
344,314,54592,5,8,0:0:0:0:
12,140,54867,5,8,0:0:0:0:
92,124,55004,5,8,0:0:0:0:
120,44,55141,6,0,L|124:384,1,336,12|0,0:0|0:0,0:0:0:0:
196,375,57336,6,0,L|192:39,1,336,12|0,0:0|0:0,0:0:0:0:
120,44,59531,6,0,L|120:208,1,156.8,12|0,0:0|0:0,0:0:0:0:
196,220,60629,2,0,L|196:384,1,156.8,12|0,0:0|0:0,0:0:0:0:
123,379,61726,2,0,L|120:44,1,336,12|0,0:0|0:0,0:0:0:0:
245,50,63921,6,0,P|273:78|122:116,1,336,12|0,0:0|0:0,0:0:0:0:
133,51,66116,6,0,P|-6:39|50:167,1,336,12|0,0:0|0:0,0:0:0:0:
60,87,68311,6,0,P|90:40|193:47,1,156.8,12|0,0:0|0:0,0:0:0:0:
73,155,69409,2,0,P|60:85|126:24,1,156.8,12|0,0:0|0:0,0:0:0:0:
131,188,70506,2,0,P|79:162|70:65,1,156.8,12|0,0:0|0:0,0:0:0:0:
140,107,71604,5,8,0:0:0:0:
149,103,71741,1,0,0:0:0:0:
262,139,72015,5,0,0:0:0:0:
271,135,72152,1,8,0:0:0:0:
380,184,72427,5,0,0:0:0:0:
389,180,72564,1,0,0:0:0:0:
398,176,72701,6,0,L|408:320,1,140,12|0,0:0|0:0,0:0:0:0:
312,268,73524,1,0,0:0:0:0:
304,264,73661,1,0,0:0:0:0:
296,260,73799,6,0,L|148:252,1,140,12|0,0:0|0:0,0:0:0:0:
84,176,74622,1,2,0:0:0:0:
232,85,74896,6,0,L|240:173,1,70,12|0,0:0|0:0,0:0:0:0:
300,241,75445,1,0,0:0:0:0:
236,329,75719,1,0,0:0:0:0:
228,321,75856,1,0,0:0:0:0:
220,313,75994,6,0,L|213:243,1,70,12|0,0:0|0:0,0:0:0:0:
208,137,76542,1,8,0:0:0:0:
140,221,76817,1,2,0:0:0:0:
308,173,77091,6,0,L|384:169,1,70,12|0,0:0|0:0,0:0:0:0:
480,144,77640,1,2,0:0:0:0:
456,44,77914,2,0,L|460:8,1,35,8|0,0:0|0:0,0:0:0:0:
380,89,78189,6,0,L|304:85,1,70,12|0,0:0|0:0,0:0:0:0:
204,77,78737,1,8,0:0:0:0:
292,17,79012,1,2,0:0:0:0:
212,173,79286,6,0,L|216:257,1,70,12|0,0:0|0:0,0:0:0:0:
264,336,79835,1,2,0:0:0:0:
364,312,80109,2,0,L|416:308,1,35,8|0,0:0|0:0,0:0:0:0:
304,248,80384,6,0,L|216:244,1,70,12|0,0:0|0:0,0:0:0:0:
128,240,80932,1,8,0:0:0:0:
24,236,81207,1,2,0:0:0:0:
172,128,81481,6,0,L|316:120,1,140,12|0,0:0|0:0,0:0:0:0:
416,132,82304,1,0,0:0:0:0:
424,140,82441,1,0,0:0:0:0:
432,148,82579,6,0,L|436:240,1,70,12|0,0:0|0:0,0:0:0:0:
400,316,83127,1,8,0:0:0:0:
504,292,83402,1,2,0:0:0:0:
336,244,83676,6,0,L|192:240,1,140,12|0,0:0|0:0,0:0:0:0:
104,188,84499,1,0,0:0:0:0:
96,180,84636,1,0,0:0:0:0:
88,172,84774,6,0,L|80:84,1,70,12|0,0:0|0:0,0:0:0:0:
36,8,85322,1,8,0:0:0:0:
4,108,85597,1,2,0:0:0:0:
172,64,85871,6,0,L|172:144,1,70,12|0,0:0|0:0,0:0:0:0:
268,160,86420,2,0,L|268:220,1,41.9999987182618,12|0,0:0|0:0,0:0:0:0:
364,224,86969,2,0,L|364:264,1,28,12|0,0:0|0:0,0:0:0:0:
368,328,87380,1,0,0:0:0:0:
368,328,87517,1,0,0:0:0:0:
368,328,87654,2,0,L|368:352,1,14
364,36,88066,5,6,0:0:0:0:
364,36,89529,5,4,0:0:0:0:
360,48,89895,1,4,0:0:0:0:
352,60,90261,5,8,0:0:0:0:
319,71,90352,1,0,0:0:0:0:
284,75,90443,1,0,0:0:0:0:
249,72,90535,1,0,0:0:0:0:
216,62,90626,5,8,0:0:0:0:
165,48,90717,1,0,0:0:0:0:
113,44,90808,1,8,0:0:0:0:
60,47,90900,1,0,0:0:0:0:
9,60,90991,5,12,0:0:0:0:
80,64,96114,5,0,0:0:0:0:
140,120,96297,1,0,0:0:0:0:
136,132,96389,1,0,0:0:0:0:
132,144,96480,2,0,B|120:176|120:176|132:272,1,105
144,316,96846,5,4,0:0:0:0:
164,320,97212,1,0,0:0:0:0:
184,324,97578,1,0,0:0:0:0:
204,328,97944,1,0,0:0:0:0:
224,332,98309,1,0,0:0:0:0:
244,336,98675,1,0,0:0:0:0:
264,340,99041,1,0,0:0:0:0:
284,344,99407,1,0,0:0:0:0:
176,256,99773,5,12,0:0:0:0:
196,260,100139,1,0,0:0:0:0:
216,264,100505,1,0,0:0:0:0:
236,268,100871,1,0,0:0:0:0:
120,188,101236,6,0,L|112:48,1,140,12|0,0:0|0:0,0:0:0:0:
8,144,101602,1,2,0:0:0:0:
220,236,101785,1,0,0:0:0:0:
220,224,101876,1,0,0:0:0:0:
220,212,101968,2,0,L|212:72,1,140,12|0,0:0|0:0,0:0:0:0:
120,264,102334,1,0,0:0:0:0:
128,272,102425,1,0,0:0:0:0:
136,280,102517,1,0,0:0:0:0:
144,288,102608,1,0,0:0:0:0:
152,296,102700,5,10,0:0:0:0:
218,312,102791,1,0,0:0:0:0:
279,282,102882,1,12,0:0:0:0:
306,218,102974,1,0,0:0:0:0:
285,153,103065,5,0,0:0:0:0:
262,90,103156,1,0,0:0:0:0:
303,37,103247,1,12,0:0:0:0:
370,42,103339,1,0,0:0:0:0:
402,101,103431,5,0,0:0:0:0:
383,165,103522,1,0,0:0:0:0:
431,212,103613,1,12,0:0:0:0:
495,192,103705,1,0,0:0:0:0:
509,127,103797,5,0,0:0:0:0:
440,139,103888,1,0,0:0:0:0:
373,122,103980,2,0,P|327:127|295:139,1,70,12|0,0:0|0:0,0:0:0:0:
272,344,104163,5,10,0:0:0:0:
263,276,104255,1,0,0:0:0:0:
292,212,104346,1,12,0:0:0:0:
308,145,104437,1,0,0:0:0:0:
275,85,104528,5,0,0:0:0:0:
217,115,104620,1,0,0:0:0:0:
168,71,104711,1,12,0:0:0:0:
192,9,104803,1,0,0:0:0:0:
258,10,104894,5,0,0:0:0:0:
224,71,104986,1,0,0:0:0:0:
164,104,105077,1,12,0:0:0:0:
95,100,105169,1,0,0:0:0:0:
39,60,105261,5,0,0:0:0:0:
20,126,105352,1,0,0:0:0:0:
49,187,105444,2,0,P|56:228|48:264,1,70,12|0,0:0|0:0,0:0:0:0:
228,364,105626,5,10,0:0:0:0:
227,295,105717,1,0,0:0:0:0:
268,236,105809,1,12,0:0:0:0:
300,175,105900,1,0,0:0:0:0:
291,107,105991,5,0,0:0:0:0:
355,123,106083,1,0,0:0:0:0:
395,70,106174,1,12,0:0:0:0:
362,13,106266,1,0,0:0:0:0:
296,22,106357,5,0,0:0:0:0:
231,46,106449,1,0,0:0:0:0:
162,55,106540,1,12,0:0:0:0:
92,49,106632,1,0,0:0:0:0:
25,28,106724,5,0,0:0:0:0:
40,96,106815,1,0,0:0:0:0:
17,161,106907,2,0,P|16:200|25:229,1,70,12|0,0:0|0:0,0:0:0:0:
205,340,107090,5,10,0:0:0:0:
202,271,107181,1,0,0:0:0:0:
168,208,107273,1,12,0:0:0:0:
148,142,107364,1,0,0:0:0:0:
173,78,107456,5,2,0:0:0:0:
258,99,107547,1,2,0:0:0:0:
345,98,107639,1,6,0:0:0:0:
429,75,107730,1,2,0:0:0:0:
505,31,107822,6,0,L|508:116,1,70,10|0,0:0|0:0,0:0:0:0:
420,292,108005,1,12,0:0:0:0:
350,296,108096,1,0,0:0:0:0:
283,277,108187,2,0,P|244:272|208:272,1,70,10|0,0:0|0:0,0:0:0:0:
332,196,108370,2,0,P|371:190|407:190,1,70,12|0,0:0|0:0,0:0:0:0:
284,112,108553,5,10,0:0:0:0:
218,93,108644,1,0,0:0:0:0:
163,131,108735,1,12,0:0:0:0:
158,199,108827,1,0,0:0:0:0:
207,245,108918,5,0,0:0:0:0:
235,306,109010,1,0,0:0:0:0:
203,366,109101,1,12,0:0:0:0:
137,375,109193,1,0,0:0:0:0:
89,327,109285,5,0,0:0:0:0:
156,306,109376,1,0,0:0:0:0:
224,313,109467,1,12,0:0:0:0:
291,333,109559,1,0,0:0:0:0:
361,328,109651,6,0,P|396:324|432:304,1,70,10|0,0:0|0:0,0:0:0:0:
336,112,109834,2,0,P|301:116|265:136,1,70,12|0,0:0|0:0,0:0:0:0:
364,212,110017,5,10,0:0:0:0:
423,177,110108,1,0,0:0:0:0:
449,113,110199,1,12,0:0:0:0:
430,47,110291,1,0,0:0:0:0:
375,7,110383,5,0,0:0:0:0:
351,72,110474,1,0,0:0:0:0:
366,139,110565,1,12,0:0:0:0:
387,206,110657,1,0,0:0:0:0:
383,275,110748,5,0,0:0:0:0:
351,336,110839,1,0,0:0:0:0:
288,363,110930,1,12,0:0:0:0:
223,342,111022,1,0,0:0:0:0:
185,285,111114,6,0,P|192:252|184:216,1,70,10|0,0:0|0:0,0:0:0:0:
48,56,111297,2,0,P|41:89|49:125,1,70,12|0,0:0|0:0,0:0:0:0:
140,200,111480,5,10,0:0:0:0:
206,210,111571,1,0,0:0:0:0:
250,159,111662,1,12,0:0:0:0:
230,95,111754,1,0,0:0:0:0:
165,78,111846,5,0,0:0:0:0:
181,144,111937,1,0,0:0:0:0:
238,182,112029,1,12,0:0:0:0:
306,171,112120,1,0,0:0:0:0:
348,117,112212,5,0,0:0:0:0:
413,97,112303,1,0,0:0:0:0:
474,126,112395,1,12,0:0:0:0:
499,189,112486,1,0,0:0:0:0:
475,255,112578,6,0,P|468:292|476:328,1,70,10|0,0:0|0:0,0:0:0:0:
305,239,112761,2,0,P|298:204|305:170,1,70,12|0,0:0|0:0,0:0:0:0:
348,20,112944,5,10,0:0:0:0:
280,18,113035,1,0,0:0:0:0:
236,70,113126,1,12,0:0:0:0:
247,137,113218,1,0,0:0:0:0:
306,171,113309,5,2,0:0:0:0:
371,222,113400,1,0,0:0:0:0:
357,304,113491,1,6,0:0:0:0:
278,332,113583,1,0,0:0:0:0:
216,276,113675,2,0,P|180:271|142:272,1,70,4|0,0:0|0:0,0:0:0:0:
44,300,113858,5,10,0:0:0:0:
40,230,113949,1,2,0:0:0:0:
96,188,114041,1,10,0:0:0:0:
92,118,114132,1,2,0:0:0:0:
152,80,114224,1,10,0:0:0:0:
148,10,114315,1,2,0:0:0:0:
212,36,114407,6,0,P|276:40|368:24,1,140,12|0,0:0|0:0,0:0:0:0:
268,144,114865,1,0,0:0:0:0:
268,144,114956,1,2,0:0:0:0:
372,140,115139,1,8,0:0:0:0:
460,236,115322,2,0,L|464:312,1,70,10|0,0:0|0:0,0:0:0:0:
344,232,115596,1,0,0:0:0:0:
344,232,115687,1,2,0:0:0:0:
236,320,115870,6,0,P|152:324|88:312,1,140,12|0,0:0|0:0,0:0:0:0:
4,208,116328,1,0,0:0:0:0:
4,208,116419,1,2,0:0:0:0:
108,212,116602,1,8,0:0:0:0:
260,168,116785,2,0,L|264:96,1,70,10|0,0:0|0:0,0:0:0:0:
380,20,117059,1,0,0:0:0:0:
380,20,117151,1,2,0:0:0:0:
484,112,117334,6,0,L|484:272,1,140,12|0,0:0|0:0,0:0:0:0:
416,376,117791,1,0,0:0:0:0:
416,376,117883,1,2,0:0:0:0:
292,316,118065,6,0,P|212:304|132:304,1,140,12|0,0:0|0:0,0:0:0:0:
120,316,118340,1,0,0:0:0:0:
12,228,118523,1,0,0:0:0:0:
12,228,118614,1,2,0:0:0:0:
152,220,118797,6,0,P|240:204|308:180,1,140,12|0,0:0|0:0,0:0:0:0:
392,92,119255,1,0,0:0:0:0:
392,92,119347,1,2,0:0:0:0:
368,192,119529,1,8,0:0:0:0:
248,288,119712,2,0,L|152:280,1,70,2|0,0:0|0:0,0:0:0:0:
64,204,119986,1,0,0:0:0:0:
64,204,120078,1,2,0:0:0:0:
296,48,120261,6,0,L|292:200,1,140,12|0,0:0|0:0,0:0:0:0:
248,320,120718,1,0,0:0:0:0:
248,320,120810,1,2,0:0:0:0:
144,308,120992,1,8,0:0:0:0:
8,220,121175,2,0,L|4:136,1,70,2|0,0:0|0:0,0:0:0:0:
36,12,121450,1,0,0:0:0:0:
36,12,121541,1,2,0:0:0:0:
156,84,121724,6,0,L|312:80,1,140,12|0,0:0|0:0,0:0:0:0:
428,32,122182,1,0,0:0:0:0:
428,32,122273,1,2,0:0:0:0:
412,136,122456,1,8,0:0:0:0:
476,272,122639,2,0,L|480:352,1,70,2|0,0:0|0:0,0:0:0:0:
344,308,122913,1,0,0:0:0:0:
344,308,123005,1,2,0:0:0:0:
220,248,123187,6,0,L|212:108,1,140,12|0,0:0|0:0,0:0:0:0:
312,208,123645,1,0,0:0:0:0:
312,208,123737,1,2,0:0:0:0:
436,272,123919,6,0,L|444:132,1,140,12|0,0:0|0:0,0:0:0:0:
432,100,124194,1,0,0:0:0:0:
316,24,124376,1,0,0:0:0:0:
316,24,124468,1,2,0:0:0:0:
192,84,124651,6,0,L|40:80,1,140,12|0,0:0|0:0,0:0:0:0:
136,192,125108,1,0,0:0:0:0:
136,192,125199,1,2,0:0:0:0:
272,156,125383,6,0,P|344:148|428:156,1,140,12|0,0:0|0:0,0:0:0:0:
468,216,125657,1,0,0:0:0:0:
468,216,125748,2,0,L|480:292,1,70
359,271,125931,1,0,0:0:0:0:
347,267,126023,1,0,0:0:0:0:
336,264,126114,5,10,0:0:0:0:
266,256,126205,1,0,0:0:0:0:
196,256,126296,1,0,0:0:0:0:
126,263,126388,1,0,0:0:0:0:
58,278,126480,2,0,P|30:292|0:316,1,70,10|0,0:0|0:0,0:0:0:0:
228,192,126663,5,12,0:0:0:0:
243,127,126754,1,0,0:0:0:0:
193,84,126845,1,0,0:0:0:0:
132,109,126937,1,0,0:0:0:0:
126,175,127029,2,0,P|88:184|52:180,1,70,2|0,0:0|0:0,0:0:0:0:
264,56,127212,6,0,P|298:48|332:49,1,70,8|0,0:0|0:0,0:0:0:0:
508,216,127395,2,0,P|492:184|468:159,1,70,10|0,0:0|0:0,0:0:0:0:
396,112,127578,5,12,0:0:0:0:
371,177,127669,1,0,0:0:0:0:
388,244,127760,1,2,0:0:0:0:
410,309,127852,1,2,0:0:0:0:
392,376,127944,2,0,L|384:304,1,70,8|0,0:0|0:0,0:0:0:0:
244,152,128126,5,2,0:0:0:0:
222,217,128218,1,2,0:0:0:0:
240,284,128309,2,0,L|248:211,1,70,8|0,0:0|0:0,0:0:0:0:
376,46,128492,5,10,0:0:0:0:
396,112,128584,1,2,0:0:0:0:
371,177,128676,2,0,L|365:104,1,70,8|0,0:0|0:0,0:0:0:0:
216,28,128858,5,10,0:0:0:0:
177,124,128950,5,2,0:0:0:0:
222,217,129041,5,12,0:0:0:0:
152,215,129132,1,0,0:0:0:0:
82,214,129223,1,0,0:0:0:0:
12,213,129315,1,0,0:0:0:0:
12,213,129407,2,0,L|17:296,1,70,8|0,0:0|0:0,0:0:0:0:
210,369,129590,2,0,L|214:299,1,70,10|0,0:0|0:0,0:0:0:0:
299,145,129773,5,12,0:0:0:0:
368,143,129864,1,0,0:0:0:0:
438,142,129955,1,0,0:0:0:0:
508,141,130047,1,0,0:0:0:0:
508,141,130139,2,0,L|502:224,1,70,8|0,0:0|0:0,0:0:0:0:
311,297,130322,2,0,L|306:227,1,70,10|0,0:0|0:0,0:0:0:0:
296,52,130505,5,12,0:0:0:0:
226,52,130596,1,0,0:0:0:0:
156,52,130687,1,0,0:0:0:0:
86,52,130779,1,0,0:0:0:0:
16,52,130870,6,0,L|16:136,1,70,8|0,0:0|0:0,0:0:0:0:
156,52,131053,2,0,L|156:132,1,70,2|0,0:0|0:0,0:0:0:0:
86,52,131236,2,0,L|86:136,1,70,8|0,0:0|0:0,0:0:0:0:
226,52,131419,2,0,L|226:132,1,70,10|0,0:0|0:0,0:0:0:0:
156,52,131602,2,0,L|156:136,1,70,8|0,0:0|0:0,0:0:0:0:
296,52,131785,2,0,L|296:132,1,70,10|0,0:0|0:0,0:0:0:0:
336,292,131968,5,12,0:0:0:0:
353,224,132059,1,0,0:0:0:0:
381,160,132150,1,0,0:0:0:0:
420,101,132242,1,0,0:0:0:0:
467,50,132334,2,0,P|500:40|536:36,1,70,10|0,0:0|0:0,0:0:0:0:
308,164,132517,5,12,0:0:0:0:
243,183,132608,1,0,0:0:0:0:
190,141,132699,1,0,0:0:0:0:
194,74,132791,1,0,0:0:0:0:
251,38,132883,2,0,P|286:36|332:44,1,70,2|0,0:0|0:0,0:0:0:0:
496,204,133065,6,0,P|482:171|463:142,1,70,8|0,0:0|0:0,0:0:0:0:
251,38,133248,2,0,P|286:36|332:44,1,70,10|0,0:0|0:0,0:0:0:0:
392,92,133431,5,12,0:0:0:0:
367,156,133522,1,0,0:0:0:0:
383,223,133613,1,2,0:0:0:0:
404,290,133705,1,2,0:0:0:0:
396,359,133797,2,0,L|435:299,1,70,8|0,0:0|0:0,0:0:0:0:
263,171,133980,5,2,0:0:0:0:
284,238,134072,1,2,0:0:0:0:
276,307,134164,2,0,L|315:247,1,70,8|0,0:0|0:0,0:0:0:0:
141,124,134346,5,10,0:0:0:0:
162,191,134438,1,2,0:0:0:0:
154,260,134530,2,0,L|193:200,1,70,8|0,0:0|0:0,0:0:0:0:
220,60,134712,5,10,0:0:0:0:
118,55,134803,5,2,0:0:0:0:
47,127,134895,5,12,0:0:0:0:
49,196,134986,1,0,0:0:0:0:
52,266,135077,1,0,0:0:0:0:
60,340,135169,1,0,0:0:0:0:
60,340,135261,2,0,L|133:332,1,70,8|0,0:0|0:0,0:0:0:0:
224,144,135444,2,0,L|151:136,1,70,10|0,0:0|0:0,0:0:0:0:
292,240,135626,5,12,0:0:0:0:
361,238,135717,1,0,0:0:0:0:
431,235,135808,1,0,0:0:0:0:
505,231,135900,1,0,0:0:0:0:
505,231,135992,2,0,L|497:158,1,70,8|0,0:0|0:0,0:0:0:0:
309,63,136175,2,0,L|301:136,1,70,10|0,0:0|0:0,0:0:0:0:
188,264,136358,5,12,0:0:0:0:
138,214,136450,1,0,0:0:0:0:
188,165,136541,1,2,0:0:0:0:
237,214,136633,1,0,0:0:0:0:
160,252,136724,5,10,0:0:0:0:
153,180,136816,1,0,0:0:0:0:
222,175,136907,1,10,0:0:0:0:
229,244,136999,1,0,0:0:0:0:
188,212,137090,6,0,L|188:64,1,140,12|0,0:0|0:0,0:0:0:0:
189,352,137456,6,0,L|183:282,1,70
320,304,137639,1,0,0:0:0:0:
332,300,137730,1,0,0:0:0:0:
344,296,137822,6,0,L|352:196,1,70
376,144,138005,1,0,0:0:0:0:
384,132,138096,1,0,0:0:0:0:
392,120,138187,1,0,0:0:0:0:
400,108,138279,1,0,0:0:0:0:
444,36,138370,5,0,0:0:0:0:
360,40,138462,1,0,0:0:0:0:
276,44,138553,1,10,0:0:0:0:
28,352,139285,5,12,0:0:0:0:
36,340,139651,1,0,0:0:0:0:
44,328,140017,1,0,0:0:0:0:
52,316,140383,1,0,0:0:0:0:
188,288,140748,5,12,0:0:0:0:
196,276,141114,1,0,0:0:0:0:
204,264,141480,1,0,0:0:0:0:
212,252,141846,1,0,0:0:0:0:
100,168,142212,5,12,0:0:0:0:
108,180,142578,1,0,0:0:0:0:
284,64,142944,5,12,0:0:0:0:
276,76,143310,1,0,0:0:0:0:
324,200,143675,5,12,0:0:0:0:
336,196,144041,1,0,0:0:0:0:
348,192,144407,1,0,0:0:0:0:
360,188,144773,1,0,0:0:0:0:
288,308,145139,5,12,0:0:0:0:
293,296,145505,1,0,0:0:0:0:
299,285,145871,1,0,0:0:0:0:
304,274,146237,1,0,0:0:0:0:
216,164,146602,5,12,0:0:0:0:
211,152,146968,1,0,0:0:0:0:
205,141,147334,1,0,0:0:0:0:
200,130,147700,1,0,0:0:0:0:
324,192,148065,5,12,0:0:0:0:
319,204,148431,1,0,0:0:0:0:
452,164,148797,5,12,0:0:0:0:
396,100,148980,1,0,0:0:0:0:
363,86,149071,1,0,0:0:0:0:
329,80,149162,1,0,0:0:0:0:
294,80,149254,1,0,0:0:0:0:
260,86,149345,1,0,0:0:0:0:
265,156,149437,1,0,0:0:0:0:
271,226,149529,5,10,0:0:0:0:
172,124,149712,1,0,0:0:0:0:
80,232,149895,1,0,0:0:0:0:
8,112,150078,1,0,0:0:0:0:
12,100,150169,1,0,0:0:0:0:
16,88,150261,5,8,0:0:0:0:
144,28,150444,1,0,0:0:0:0:
276,68,150626,1,0,0:0:0:0:
412,36,150809,1,0,0:0:0:0:
424,32,150901,1,0,0:0:0:0:
436,28,150992,6,0,L|444:252,1,210.000008010865,12|8,0:0|0:0,0:0:0:0:
444,344,151541,1,2,0:0:0:0:
376,264,151724,1,8,0:0:0:0:
480,244,151907,1,0,0:0:0:0:
488,232,151998,1,0,0:0:0:0:
496,220,152090,1,0,0:0:0:0:
492,116,152273,1,8,0:0:0:0:
368,20,152456,6,0,B|312:12|312:12|152:20,1,210.000008010865,12|8,0:0|0:0,0:0:0:0:
56,40,153005,1,2,0:0:0:0:
76,144,153187,1,8,0:0:0:0:
100,248,153370,1,0,0:0:0:0:
108,236,153462,1,0,0:0:0:0:
116,224,153553,1,0,0:0:0:0:
12,204,153736,1,8,0:0:0:0:
96,336,153919,6,0,B|160:344|160:344|312:328,1,210.000008010865,12|8,0:0|0:0,0:0:0:0:
396,276,154468,1,2,0:0:0:0:
296,252,154651,1,8,0:0:0:0:
324,352,154834,1,0,0:0:0:0:
340,348,154925,1,0,0:0:0:0:
356,344,155017,1,0,0:0:0:0:
460,356,155200,1,8,0:0:0:0:
512,208,155383,6,0,L|504:-4,1,210.000008010865,12|8,0:0|0:0,0:0:0:0:
408,40,155931,1,2,0:0:0:0:
304,20,156114,1,8,0:0:0:0:
344,116,156297,1,0,0:0:0:0:
352,132,156389,1,0,0:0:0:0:
360,148,156480,1,0,0:0:0:0:
332,248,156663,1,8,0:0:0:0:
192,176,156846,6,0,B|128:164|128:164|-24:176,1,210.000008010865,12|8,0:0|0:0,0:0:0:0:
8,276,157395,1,2,0:0:0:0:
112,268,157578,1,8,0:0:0:0:
216,256,157761,1,0,0:0:0:0:
224,240,157852,1,0,0:0:0:0:
232,224,157944,1,0,0:0:0:0:
148,164,158126,1,8,0:0:0:0:
172,328,158309,6,0,B|224:332|224:332|384:304,1,210.000008010865,12|8,0:0|0:0,0:0:0:0:
452,228,158858,1,2,0:0:0:0:
348,228,159041,1,8,0:0:0:0:
304,324,159224,1,0,0:0:0:0:
320,320,159315,1,0,0:0:0:0:
336,316,159407,1,0,0:0:0:0:
440,328,159590,1,8,0:0:0:0:
404,168,159773,6,0,B|352:152|352:152|240:168,1,157.500006008148,12|0,0:0|0:0,0:0:0:0:
340,72,160139,2,0,L|500:124,1,157.500006008148,8|0,0:0|0:0,0:0:0:0:
344,224,160505,2,0,L|228:244,1,105.000004005432,10|0,0:0|0:0,0:0:0:0:
204,312,160779,1,0,0:0:0:0:
204,312,160870,2,0,L|88:332,1,105.000004005432
240,241,161236,6,0,P|248:184|232:120,1,105.000004005432,12|0,0:0|0:0,0:0:0:0:
160,40,161602,1,8,0:0:0:0:
160,40,161694,1,0,0:0:0:0:
264,120,161876,1,0,0:0:0:0:
264,120,161968,2,0,P|328:124|424:104,1,157.500006008148,12|0,0:0|0:0,0:0:0:0:
440,92,162334,2,0,L|436:156,2,52.5000020027161,2|0|0,0:0|0:0|0:0,0:0:0:0:
428,252,162700,5,8,0:0:0:0:
480,344,162883,1,0,0:0:0:0:
484,328,162974,1,0,0:0:0:0:
492,304,163065,5,10,0:0:0:0:
340,260,163340,5,0,0:0:0:0:
336,276,163431,1,10,0:0:0:0:
240,296,163614,1,10,0:0:0:0:
236,280,163705,1,0,0:0:0:0:
232,264,163796,1,10,0:0:0:0:
228,248,163889,1,0,0:0:0:0:
224,232,163980,1,10,0:0:0:0:
220,216,164071,1,0,0:0:0:0:
216,200,164163,5,12,0:0:0:0:
157,147,164254,1,0,0:0:0:0:
79,147,164345,1,0,0:0:0:0:
21,200,164437,1,0,0:0:0:0:
14,279,164529,1,0,0:0:0:0:
62,341,164620,1,0,0:0:0:0:
140,355,164711,5,8,0:0:0:0:
216,329,164803,1,0,0:0:0:0:
295,338,164894,1,0,0:0:0:0:
372,359,164986,1,0,0:0:0:0:
451,357,165078,1,8,0:0:0:0:
506,302,165169,1,0,0:0:0:0:
504,224,165260,5,8,0:0:0:0:
468,154,165352,1,0,0:0:0:0:
485,77,165444,2,0,P|496:36|492:-4,1,80.5000015354157,10|0,0:0|0:0,0:0:0:0:
420,216,165626,5,12,0:0:0:0:
361,268,165717,1,0,0:0:0:0:
282,267,165808,1,0,0:0:0:0:
225,213,165900,1,0,0:0:0:0:
220,134,165991,1,0,0:0:0:0:
269,73,166083,1,0,0:0:0:0:
347,61,166175,5,8,0:0:0:0:
334,140,166266,1,0,0:0:0:0:
293,208,166357,1,0,0:0:0:0:
229,256,166449,1,0,0:0:0:0:
151,276,166540,1,8,0:0:0:0:
72,266,166632,1,0,0:0:0:0:
2,226,166724,5,8,0:0:0:0:
39,156,166815,1,0,0:0:0:0:
2,86,166907,2,0,P|-10:51|-1:10,1,80.5000015354157,10|0,0:0|0:0,0:0:0:0:
163,177,167090,5,12,0:0:0:0:
243,175,167181,1,0,0:0:0:0:
323,173,167272,1,0,0:0:0:0:
402,170,167364,1,0,0:0:0:0:
482,169,167455,1,0,0:0:0:0:
477,193,167547,1,0,0:0:0:0:
469,217,167639,2,0,L|480:299,1,80.5000015354157,10|0,0:0|0:0,0:0:0:0:
432,64,167822,5,12,0:0:0:0:
353,63,167913,1,0,0:0:0:0:
273,60,168004,1,0,0:0:0:0:
193,59,168096,1,0,0:0:0:0:
114,56,168187,1,0,0:0:0:0:
124,80,168279,1,0,0:0:0:0:
132,104,168370,2,0,L|120:186,1,80.5000015354157,10|0,0:0|0:0,0:0:0:0:
184,332,168553,6,0,P|232:332|280:312,1,80.5000015354157,12|0,0:0|0:0,0:0:0:0:
321,269,168736,2,0,P|342:234|352:196,1,80.5000015354157,12|0,0:0|0:0,0:0:0:0:
216,220,168919,6,0,P|240:261|281:293,1,80.5000015354157,6|0,0:0|0:0,0:0:0:0:
338,306,169102,2,0,P|378:308|417:297,1,80.5000015354157,12|0,0:0|0:0,0:0:0:0:
480,252,169285,5,12,0:0:0:0:
480,252,169376,1,0,0:0:0:0:
480,252,169468,2,0,P|501:218|511:179,1,80.5000015354157
504,108,169651,5,8,0:0:0:0:
504,108,169742,1,0,0:0:0:0:
504,108,169834,2,0,P|485:72|456:44,1,80.5000015354157
223,17,170017,5,12,0:0:0:0:
144,20,170108,1,0,0:0:0:0:
94,79,170199,1,0,0:0:0:0:
103,157,170291,1,0,0:0:0:0:
167,202,170382,1,0,0:0:0:0:
243,186,170474,1,0,0:0:0:0:
284,119,170565,5,8,0:0:0:0:
220,165,170656,1,0,0:0:0:0:
209,243,170747,1,0,0:0:0:0:
258,304,170839,1,0,0:0:0:0:
336,311,170930,1,8,0:0:0:0:
395,259,171022,1,0,0:0:0:0:
398,180,171114,5,8,0:0:0:0:
383,103,171205,1,0,0:0:0:0:
418,32,171297,2,0,P|459:18|502:16,1,80.5000015354157,10|0,0:0|0:0,0:0:0:0:
309,155,171480,5,12,0:0:0:0:
263,219,171571,1,0,0:0:0:0:
188,247,171662,1,0,0:0:0:0:
111,228,171754,1,0,0:0:0:0:
58,169,171845,1,0,0:0:0:0:
47,91,171937,1,0,0:0:0:0:
83,20,172029,5,8,0:0:0:0:
159,4,172120,1,0,0:0:0:0:
219,54,172211,1,0,0:0:0:0:
217,132,172303,1,0,0:0:0:0:
156,180,172394,1,8,0:0:0:0:
80,161,172486,1,0,0:0:0:0:
47,91,172578,5,8,0:0:0:0:
126,105,172669,1,0,0:0:0:0:
156,180,172761,2,0,P|157:225|141:266,1,80.5000015354157,10|0,0:0|0:0,0:0:0:0:
194,28,172944,5,12,0:0:0:0:
273,27,173035,1,0,0:0:0:0:
353,24,173126,1,0,0:0:0:0:
433,23,173218,1,0,0:0:0:0:
512,20,173309,1,0,0:0:0:0:
502,44,173401,1,0,0:0:0:0:
494,68,173492,2,0,L|520:144,1,80.5000015354157,10|0,0:0|0:0,0:0:0:0:
320,264,173675,5,12,0:0:0:0:
241,263,173766,1,0,0:0:0:0:
161,260,173857,1,0,0:0:0:0:
81,259,173949,1,0,0:0:0:0:
2,256,174040,1,0,0:0:0:0:
12,280,174132,1,0,0:0:0:0:
20,304,174223,2,0,L|2:383,1,80.5000015354157,10|0,0:0|0:0,0:0:0:0:
168,372,174407,6,0,P|216:372|264:352,1,80.5000015354157,12|0,0:0|0:0,0:0:0:0:
336,235,174590,2,0,P|325:274|304:309,1,80.5000015354157,12|0,0:0|0:0,0:0:0:0:
200,260,174773,6,0,P|219:295|248:322,1,80.5000015354157,6|0,0:0|0:0,0:0:0:0:
400,337,174956,2,0,P|362:347|322:346,1,80.5000015354157,12|0,0:0|0:0,0:0:0:0:
256,188,175139,5,12,0:0:0:0:
248,108,175230,1,0,0:0:0:0:
241,28,175321,1,8,0:0:0:0:
228,38,175413,1,0,0:0:0:0:
215,48,175504,1,8,0:0:0:0:
203,58,175596,1,0,0:0:0:0:
190,68,175687,2,0,L|105:92,1,80.5000015354157,10|0,0:0|0:0,0:0:0:0:
334,167,175870,5,12,0:0:0:0:
256,188,175961,1,0,0:0:0:0:
218,256,176052,1,0,0:0:0:0:
234,332,176144,1,0,0:0:0:0:
299,377,176235,1,0,0:0:0:0:
376,365,176327,1,0,0:0:0:0:
425,304,176418,5,8,0:0:0:0:
346,296,176510,1,0,0:0:0:0:
295,236,176601,1,0,0:0:0:0:
301,158,176693,1,0,0:0:0:0:
360,105,176784,1,8,0:0:0:0:
438,109,176876,1,0,0:0:0:0:
487,163,176968,5,8,0:0:0:0:
467,239,177059,1,0,0:0:0:0:
503,309,177151,2,0,P|461:314|421:302,1,80.5000015354157,10|0,0:0|0:0,0:0:0:0:
222,188,177334,5,12,0:0:0:0:
145,172,177425,1,0,0:0:0:0:
81,218,177516,1,0,0:0:0:0:
70,295,177608,1,0,0:0:0:0:
118,357,177699,1,0,0:0:0:0:
196,364,177791,1,0,0:0:0:0:
255,312,177883,5,8,0:0:0:0:
331,327,177974,1,0,0:0:0:0:
395,283,178065,1,0,0:0:0:0:
407,205,178157,1,0,0:0:0:0:
359,143,178248,1,8,0:0:0:0:
281,136,178340,1,0,0:0:0:0:
222,188,178431,5,8,0:0:0:0:
204,112,178522,1,0,0:0:0:0:
187,33,178614,2,0,L|100:28,1,80.5000015354157,10|0,0:0|0:0,0:0:0:0:
320,124,178797,5,12,0:0:0:0:
400,120,178889,1,0,0:0:0:0:
480,112,178980,2,0,L|456:196,1,80.5000015354157,10|0,0:0|0:0,0:0:0:0:
222,188,179163,5,12,0:0:0:0:
142,184,179255,1,0,0:0:0:0:
62,176,179346,2,0,L|86:260,1,80.5000015354157,10|0,0:0|0:0,0:0:0:0:
288,368,179529,5,12,0:0:0:0:
308,292,179620,1,0,0:0:0:0:
336,216,179712,2,0,L|360:136,1,80.5000015354157,10|0,0:0|0:0,0:0:0:0:
162,260,179895,5,12,0:0:0:0:
142,184,179986,1,0,0:0:0:0:
114,108,180078,2,0,L|90:28,1,80.5000015354157,10|0,0:0|0:0,0:0:0:0:
48,336,180261,6,0,P|90:337|136:324,1,80.5000015354157,12|0,0:0|0:0,0:0:0:0:
239,256,180444,2,0,P|261:222|272:184,1,80.5000015354157,12|0,0:0|0:0,0:0:0:0:
115,195,180626,6,0,P|134:232|169:265,1,80.5000015354157,6|0,0:0|0:0,0:0:0:0:
252,328,180809,2,0,P|292:330|330:320,1,80.5000015354157,12|0,0:0|0:0,0:0:0:0:
432,264,180992,5,12,0:0:0:0:
432,264,181084,1,0,0:0:0:0:
432,264,181175,2,0,P|453:230|464:191,1,80.5000015354157
464,84,181358,5,8,0:0:0:0:
464,84,181450,1,0,0:0:0:0:
464,84,181541,2,0,P|445:48|417:19,1,80.5000015354157
184,12,181724,5,12,0:0:0:0:
107,26,181815,1,0,0:0:0:0:
67,93,181906,1,0,0:0:0:0:
91,168,181998,1,0,0:0:0:0:
162,199,182089,1,0,0:0:0:0:
233,166,182181,1,0,0:0:0:0:
256,92,182273,5,8,0:0:0:0:
291,24,182364,1,0,0:0:0:0:
368,3,182456,1,0,0:0:0:0:
432,46,182547,1,0,0:0:0:0:
442,124,182639,1,8,0:0:0:0:
392,183,182730,1,0,0:0:0:0:
315,186,182822,5,8,0:0:0:0:
306,262,182913,1,0,0:0:0:0:
366,311,183005,2,0,P|412:312|460:300,1,80.5000015354157,10|0,0:0|0:0,0:0:0:0:
352,100,183187,5,12,0:0:0:0:
273,95,183278,1,0,0:0:0:0:
209,142,183369,1,0,0:0:0:0:
188,218,183461,1,0,0:0:0:0:
219,290,183552,1,0,0:0:0:0:
289,327,183644,1,0,0:0:0:0:
366,311,183736,5,8,0:0:0:0:
406,243,183827,1,0,0:0:0:0:
387,167,183918,1,0,0:0:0:0:
319,127,184010,1,0,0:0:0:0:
243,146,184101,1,10,0:0:0:0:
202,212,184193,1,2,0:0:0:0:
219,290,184285,5,8,0:0:0:0:
142,311,184376,1,0,0:0:0:0:
63,301,184468,2,0,L|56:216,1,80.5000015354157,10|0,0:0|0:0,0:0:0:0:
84,8,184651,6,0,L|76:236,1,210.000008010865,4|0,0:0|0:0,0:0:0:0:
428,8,185017,2,0,L|436:236,1,210.000008010865,4|0,0:0|0:0,0:0:0:0:
84,8,185383,6,0,L|75:287,1,280,4|0,0:0|0:0,0:0:0:0:
428,8,185748,2,0,L|439:307,1,280,4|0,0:0|0:0,0:0:0:0:
84,8,186114,6,0,L|79:147,1,140,6|0,0:0|0:0,0:0:0:0:
428,8,186389,2,0,L|433:147,1,140,6|0,0:0|0:0,0:0:0:0:
84,8,186663,6,0,L|79:148,1,140,6|0,0:0|0:0,0:0:0:0:
428,8,186846,2,0,L|433:147,1,140,6|0,0:0|0:0,0:0:0:0:
400,240,187029,1,0,0:0:0:0:
392,228,187120,1,0,0:0:0:0:
384,216,187212,1,0,0:0:0:0:
345,204,187303,1,0,0:0:0:0:
307,216,187394,1,0,0:0:0:0:
269,227,187486,1,0,0:0:0:0:
229,222,187578,5,10,0:1:0:0:
163,205,187669,1,0,0:0:0:0:
114,251,187760,1,12,0:0:0:0:
124,317,187852,1,0,0:0:0:0:
185,345,187944,5,0,0:0:0:0:
252,325,188035,1,0,0:0:0:0:
321,334,188126,1,12,0:0:0:0:
389,351,188218,1,0,0:0:0:0:
459,345,188309,5,0,0:0:0:0:
499,292,188400,1,0,0:0:0:0:
472,231,188491,1,12,0:0:0:0:
406,224,188583,1,0,0:0:0:0:
368,279,188674,5,0,0:0:0:0:
384,212,188766,1,0,0:0:0:0:
359,148,188858,2,0,P|351:115|360:58,1,70,12|0,0:0|0:0,0:0:0:0:
255,267,189041,5,10,0:0:0:0:
190,282,189132,1,0,0:0:0:0:
141,236,189223,1,12,0:0:0:0:
151,170,189315,1,0,0:0:0:0:
212,142,189407,5,0,0:0:0:0:
273,114,189498,1,0,0:0:0:0:
284,47,189590,1,12,0:0:0:0:
235,2,189681,1,0,0:0:0:0:
170,17,189773,5,0,0:0:0:0:
222,62,189864,1,0,0:0:0:0:
288,81,189955,1,12,0:0:0:0:
357,69,190047,1,0,0:0:0:0:
413,29,190139,5,0,0:0:0:0:
387,91,190230,1,0,0:0:0:0:
415,153,190322,2,0,P|424:192|412:232,1,70,12|0,0:0|0:0,0:0:0:0:
240,344,190505,5,10,0:0:0:0:
176,365,190596,1,0,0:0:0:0:
126,320,190687,1,12,0:0:0:0:
140,255,190779,1,0,0:0:0:0:
204,235,190870,5,0,0:0:0:0:
164,288,190961,1,0,0:0:0:0:
97,282,191052,1,12,0:0:0:0:
68,222,191144,1,0,0:0:0:0:
104,165,191237,5,0,0:0:0:0:
149,115,191328,1,0,0:0:0:0:
131,50,191420,1,12,0:0:0:0:
66,32,191511,1,0,0:0:0:0:
12,80,191602,5,0,0:0:0:0:
77,101,191693,1,0,0:0:0:0:
144,84,191785,2,0,P|178:78|224:81,1,70,12|0,0:0|0:0,0:0:0:0:
411,153,191968,5,10,0:0:0:0:
477,151,192059,1,0,0:0:0:0:
503,90,192150,1,12,0:0:0:0:
458,41,192242,1,0,0:0:0:0:
395,62,192334,5,2,0:0:0:0:
378,147,192425,1,2,0:0:0:0:
388,234,192516,1,6,0:0:0:0:
425,313,192608,1,2,0:0:0:0:
484,377,192700,6,0,L|503:304,1,70,10|0,0:0|0:0,0:0:0:0:
320,196,192883,1,12,0:0:0:0:
250,188,192974,1,0,0:0:0:0:
180,190,193065,2,0,P|145:192|104:204,1,70,8|0,0:0|0:0,0:0:0:0:
212,104,193248,2,0,P|247:106|288:117,1,70,12|0,0:0|0:0,0:0:0:0:
172,28,193431,5,10,0:0:0:0:
103,34,193522,1,0,0:0:0:0:
58,85,193614,1,12,0:0:0:0:
61,153,193705,1,0,0:0:0:0:
110,201,193797,5,0,0:0:0:0:
153,252,193888,1,0,0:0:0:0:
150,320,193980,1,12,0:0:0:0:
101,367,194071,1,0,0:0:0:0:
33,367,194163,5,0,0:0:0:0:
97,340,194254,1,0,0:0:0:0:
166,328,194345,1,12,0:0:0:0:
236,332,194437,1,0,0:0:0:0:
303,352,194529,6,0,P|336:353|374:343,1,70,8|0,0:0|0:0,0:0:0:0:
268,159,194712,2,0,P|234:158|197:168,1,70,12|0,0:0|0:0,0:0:0:0:
283,258,194895,5,10,0:0:0:0:
347,236,194986,1,0,0:0:0:0:
383,177,195077,1,12,0:0:0:0:
372,109,195169,1,0,0:0:0:0:
320,65,195261,5,0,0:0:0:0:
253,48,195352,1,0,0:0:0:0:
185,63,195443,1,12,0:0:0:0:
117,76,195535,1,0,0:0:0:0:
48,63,195626,5,0,0:0:0:0:
7,116,195717,1,0,0:0:0:0:
25,181,195808,1,12,0:0:0:0:
88,205,195900,1,0,0:0:0:0:
144,168,195992,6,0,P|181:163|224:164,1,70,10|0,0:0|0:0,0:0:0:0:
300,356,196175,2,0,P|263:360|220:360,1,70,6|0,0:0|0:0,0:0:0:0:
280,248,196358,5,10,0:0:0:0:
345,233,196449,1,0,0:0:0:0:
388,284,196540,1,12,0:0:0:0:
365,346,196632,1,0,0:0:0:0:
300,356,196723,5,0,0:0:0:0:
317,288,196815,1,0,0:0:0:0:
305,220,196906,1,12,0:0:0:0:
264,164,196998,1,0,0:0:0:0:
203,131,197090,5,0,0:0:0:0:
236,189,197181,1,0,0:0:0:0:
205,249,197272,1,12,0:0:0:0:
138,255,197364,1,0,0:0:0:0:
97,202,197456,6,0,P|89:167|96:124,1,70,10|0,0:0|0:0,0:0:0:0:
201,317,197639,2,0,P|209:281|202:238,1,70,6|0,0:0|0:0,0:0:0:0:
406,316,197822,5,10,0:0:0:0:
472,317,197913,1,0,0:0:0:0:
499,257,198004,1,12,0:0:0:0:
454,208,198096,1,0,0:0:0:0:
392,231,198187,5,2,0:0:0:0:
310,241,198278,1,0,0:0:0:0:
263,172,198369,1,6,0:0:0:0:
303,99,198461,1,0,0:0:0:0:
386,102,198553,2,0,P|399:69|402:26,1,70,10|0,0:0|0:0,0:0:0:0:
300,12,198736,5,10,0:0:0:0:
230,8,198827,1,2,0:0:0:0:
192,68,198919,1,10,0:0:0:0:
122,64,199010,1,2,0:0:0:0:
88,124,199102,1,10,0:0:0:0:
18,120,199193,1,2,0:0:0:0:
48,184,199285,6,0,L|52:332,1,140,12|0,0:0|0:0,0:0:0:0:
164,236,199742,1,0,0:0:0:0:
164,236,199833,1,2,0:0:0:0:
264,264,200017,1,8,0:0:0:0:
432,252,200200,2,0,L|444:184,1,70,2|0,0:0|0:0,0:0:0:0:
476,48,200474,1,0,0:0:0:0:
476,48,200565,1,2,0:0:0:0:
352,116,200748,6,0,P|280:120|208:112,1,140,12|0,0:0|0:0,0:0:0:0:
84,52,201206,1,0,0:0:0:0:
84,52,201298,1,2,0:0:0:0:
48,148,201480,1,8,0:0:0:0:
100,300,201663,2,0,L|92:376,1,70,2|0,0:0|0:0,0:0:0:0:
228,332,201937,1,0,0:0:0:0:
228,332,202029,1,2,0:0:0:0:
348,264,202212,6,0,P|360:196|348:124,1,140,12|0,0:0|0:0,0:0:0:0:
272,8,202670,1,0,0:0:0:0:
272,8,202761,1,2,0:0:0:0:
168,104,202944,6,0,L|172:252,1,140,12|0,0:0|0:0,0:0:0:0:
196,272,203218,1,0,0:0:0:0:
328,320,203401,1,0,0:0:0:0:
328,320,203492,1,2,0:0:0:0:
448,252,203675,6,0,L|451:112,1,140,12|0,0:0|0:0,0:0:0:0:
324,172,204133,1,0,0:0:0:0:
324,172,204225,1,2,0:0:0:0:
232,128,204407,1,8,0:0:0:0:
68,176,204590,2,0,L|64:100,1,70,2|0,0:0|0:0,0:0:0:0:
160,208,204864,1,0,0:0:0:0:
160,208,204956,1,2,0:0:0:0:
408,80,205139,6,0,L|412:236,1,140,12|0,0:0|0:0,0:0:0:0:
368,352,205596,1,0,0:0:0:0:
368,352,205687,1,2,0:0:0:0:
268,324,205870,1,8,0:0:0:0:
116,348,206053,2,0,L|32:344,1,70,2|0,0:0|0:0,0:0:0:0:
160,260,206328,1,0,0:0:0:0:
160,260,206419,1,2,0:0:0:0:
264,168,206602,6,0,P|328:160|412:168,1,140,12|0,0:0|0:0,0:0:0:0:
508,256,207059,1,0,0:0:0:0:
508,256,207150,1,2,0:0:0:0:
424,316,207334,1,8,0:0:0:0:
264,328,207517,2,0,L|260:252,1,70,2|0,0:0|0:0,0:0:0:0:
220,124,207791,1,0,0:0:0:0:
220,124,207883,1,2,0:0:0:0:
96,192,208065,6,0,L|100:344,1,140,12|0,0:0|0:0,0:0:0:0:
188,224,208523,1,0,0:0:0:0:
188,224,208615,1,2,0:0:0:0:
296,136,208797,6,0,L|300:288,1,140,12|0,0:0|0:0,0:0:0:0:
388,168,209255,1,0,0:0:0:0:
388,168,209347,1,2,0:0:0:0:
348,36,209529,6,0,P|264:28|200:32,1,140,12|0,0:0|0:0,0:0:0:0:
72,60,209986,1,0,0:0:0:0:
72,60,210077,1,2,0:0:0:0:
176,156,210261,6,0,P|184:228|160:304,1,140,12|0,0:0|0:0,0:0:0:0:
228,352,210535,1,0,0:0:0:0:
228,352,210626,2,0,L|304:348,1,70
416,324,210809,1,0,0:0:0:0:
412,312,210901,1,0,0:0:0:0:
408,300,210992,5,8,0:0:0:0:
389,232,211083,1,0,0:0:0:0:
390,162,211174,1,0,0:0:0:0:
410,95,211266,1,0,0:0:0:0:
447,36,211358,2,0,P|476:20|512:12,1,70,10|0,0:0|0:0,0:0:0:0:
316,180,211541,5,12,0:0:0:0:
250,194,211632,1,0,0:0:0:0:
206,144,211723,1,0,0:0:0:0:
229,81,211815,1,0,0:0:0:0:
295,71,211907,2,0,P|332:60|356:36,1,70,2|0,0:0|0:0,0:0:0:0:
116,64,212090,6,0,P|96:93|86:127,1,70,8|0,0:0|0:0,0:0:0:0:
144,360,212273,2,0,P|120:334|103:304,1,70,10|0,0:0|0:0,0:0:0:0:
87,219,212456,5,12,0:0:0:0:
154,200,212547,1,0,0:0:0:0:
221,215,212638,1,2,0:0:0:0:
288,237,212730,1,2,0:0:0:0:
357,234,212822,2,0,P|390:227|436:226,1,70,8|0,0:0|0:0,0:0:0:0:
228,297,213005,5,2,0:0:0:0:
161,318,213097,1,2,0:0:0:0:
91,314,213187,2,0,P|56:306|21:305,1,70,8|0,0:0|0:0,0:0:0:0:
134,126,213370,5,10,0:0:0:0:
201,147,213462,1,2,0:0:0:0:
271,143,213554,2,0,P|305:135|340:134,1,70,8|0,0:0|0:0,0:0:0:0:
480,148,213736,5,10,0:0:0:0:
452,248,213828,5,2,0:0:0:0:
352,280,213919,5,12,0:0:0:0:
282,279,214010,1,0,0:0:0:0:
212,278,214101,1,0,0:0:0:0:
142,277,214193,1,0,0:0:0:0:
142,277,214285,2,0,L|148:352,1,70,8|0,0:0|0:0,0:0:0:0:
23,176,214468,2,0,L|28:250,1,70,10|0,0:0|0:0,0:0:0:0:
169,140,214651,5,12,0:0:0:0:
238,139,214742,1,0,0:0:0:0:
308,138,214833,1,0,0:0:0:0:
378,137,214925,1,0,0:0:0:0:
378,137,215017,2,0,L|372:211,1,70,8|0,0:0|0:0,0:0:0:0:
497,36,215200,2,0,L|491:110,1,70,10|0,0:0|0:0,0:0:0:0:
472,280,215383,5,12,0:0:0:0:
402,280,215474,1,0,0:0:0:0:
332,280,215565,1,0,0:0:0:0:
262,280,215657,1,0,0:0:0:0:
192,280,215748,6,0,L|192:352,1,70,10|0,0:0|0:0,0:0:0:0:
332,280,215931,2,0,L|332:352,1,70,2|0,0:0|0:0,0:0:0:0:
262,280,216114,2,0,L|262:352,1,70,10|0,0:0|0:0,0:0:0:0:
402,280,216297,2,0,L|402:352,1,70,10|0,0:0|0:0,0:0:0:0:
332,280,216480,2,0,L|332:352,1,70,10|0,0:0|0:0,0:0:0:0:
472,280,216663,2,0,L|472:352,1,70,10|0,0:0|0:0,0:0:0:0:
364,212,216846,5,12,0:0:0:0:
296,192,216937,1,0,0:0:0:0:
227,183,217028,1,0,0:0:0:0:
157,183,217120,1,0,0:0:0:0:
88,193,217212,2,0,P|51:203|19:223,1,70,10|0,0:0|0:0,0:0:0:0:
268,124,217395,5,12,0:0:0:0:
302,65,217486,1,0,0:0:0:0:
266,8,217577,1,0,0:0:0:0:
201,13,217669,1,0,0:0:0:0:
175,74,217761,2,0,P|136:70|103:55,1,70,2|0,0:0|0:0,0:0:0:0:
340,4,217944,6,0,P|378:7|411:22,1,70,8|0,0:0|0:0,0:0:0:0:
512,232,218126,2,0,P|507:197|491:166,1,70,10|0,0:0|0:0,0:0:0:0:
436,100,218309,5,12,0:0:0:0:
367,89,218400,1,0,0:0:0:0:
300,109,218491,1,2,0:0:0:0:
232,122,218583,1,2,0:0:0:0:
164,103,218675,2,0,L|84:100,1,70,8|0,0:0|0:0,0:0:0:0:
272,216,218858,5,2,0:0:0:0:
340,229,218950,1,2,0:0:0:0:
407,210,219041,2,0,L|487:206,1,70,8|0,0:0|0:0,0:0:0:0:
304,324,219224,5,10,0:0:0:0:
236,337,219316,1,2,0:0:0:0:
169,318,219408,2,0,L|88:314,1,70,8|0,0:0|0:0,0:0:0:0:
8,208,219590,5,8,0:0:0:0:
104,164,219681,5,2,0:0:0:0:
208,188,219773,5,12,0:0:0:0:
277,186,219864,1,0,0:0:0:0:
347,185,219955,1,0,0:0:0:0:
417,184,220047,1,0,0:0:0:0:
417,184,220139,2,0,L|412:264,1,70,8|0,0:0|0:0,0:0:0:0:
288,376,220322,2,0,L|282:306,1,70,10|0,0:0|0:0,0:0:0:0:
308,98,220505,5,12,0:0:0:0:
238,96,220596,1,0,0:0:0:0:
168,95,220687,1,0,0:0:0:0:
98,94,220779,1,0,0:0:0:0:
98,94,220870,2,0,L|103:173,1,70,8|0,0:0|0:0,0:0:0:0:
224,288,221053,2,0,L|229:218,1,70,10|0,0:0|0:0,0:0:0:0:
328,72,221236,5,12,0:0:0:0:
378,121,221328,1,0,0:0:0:0:
328,171,221419,1,2,0:0:0:0:
279,122,221511,1,0,0:0:0:0:
356,84,221602,5,10,0:0:0:0:
363,156,221694,1,0,0:0:0:0:
294,161,221785,1,10,0:0:0:0:
287,92,221877,1,0,0:0:0:0:
328,124,221968,6,0,L|328:216,1,70,12|0,0:0|0:0,0:0:0:0:
292,340,222151,1,0,0:0:0:0:
292,340,222242,1,0,0:0:0:0:
292,340,222334,2,0,L|200:336,1,70
328,264,222517,2,0,L|420:260,1,70
144,328,222700,6,0,L|136:108,1,210.000008010865,4|8,0:0|0:0,0:0:0:0:
136,118,223248,1,2,0:0:0:0:
276,84,223431,6,0,L|268:293,1,210.000008010865,4|8,0:0|0:0,0:0:0:0:
268,293,223980,1,2,0:0:0:0:
408,224,224163,6,0,P|324:208|200:208,1,210.000008010865,4|8,0:0|0:0,0:0:0:0:
199,208,224712,1,2,0:0:0:0:
72,116,224895,6,0,P|156:100|280:100,1,210.000008010865,4|8,0:0|0:0,0:0:0:0:
280,100,225444,1,2,0:0:0:0:
156,4,225626,6,0,B|140:64|140:64|164:228,1,210.000008010865,4|8,0:0|0:0,0:0:0:0:
161,210,226175,1,2,0:0:0:0:
284,104,226358,6,0,B|300:164|300:164|276:328,1,210.000008010865,4|8,0:0|0:0,0:0:0:0:
278,310,226907,1,2,0:0:0:0:
424,248,227090,6,0,L|436:24,1,210.000008010865,4|8,0:0|0:0,0:0:0:0:
435,38,227639,1,2,0:0:0:0:
284,84,227822,6,0,L|292:204,1,105.000004005432,4|0,0:0|0:0,0:0:0:0:
300,292,228187,1,8,0:0:0:0:
392,240,228370,1,2,0:0:0:0:
184,264,228553,6,0,L|172:48,1,210.000008010865,4|8,0:0|0:0,0:0:0:0:
172,54,229102,1,2,0:0:0:0:
32,124,229285,6,0,L|20:340,1,210.000008010865,4|8,0:0|0:0,0:0:0:0:
20,333,229834,1,2,0:0:0:0:
156,256,230017,6,0,P|232:252|376:256,1,210.000008010865,4|8,0:0|0:0,0:0:0:0:
365,255,230565,1,2,0:0:0:0:
464,132,230748,6,0,P|388:128|244:132,1,210.000008010865,4|8,0:0|0:0,0:0:0:0:
254,131,231296,1,2,0:0:0:0:
136,236,231480,6,0,L|132:12,1,210.000008010865,4|8,0:0|0:0,0:0:0:0:
132,26,232029,1,2,0:0:0:0:
258,135,232212,6,0,L|254:344,1,210.000008010865,4|8,0:0|0:0,0:0:0:0:
254,344,232761,1,2,0:0:0:0:
384,256,232944,6,0,B|416:216|416:216|408:40,1,210.000008010865,4|8,0:0|0:0,0:0:0:0:
408,57,233492,1,2,0:0:0:0:
264,120,233675,6,0,L|268:236,1,105.000004005432,4|0,0:0|0:0,0:0:0:0:
272,332,234041,1,8,0:0:0:0:
172,304,234224,1,2,0:0:0:0:
164,300,234315,1,0,0:0:0:0:
156,296,234407,6,0,L|148:52,1,210.000008010865,12|8,0:0|0:0,0:0:0:0:
56,32,234956,1,2,0:0:0:0:
64,136,235139,1,8,0:0:0:0:
76,240,235322,1,0,0:0:0:0:
88,232,235413,1,0,0:0:0:0:
100,224,235505,1,0,0:0:0:0:
184,164,235687,1,8,0:0:0:0:
312,252,235870,6,0,P|376:256|512:204,1,210.000008010865,4|8,0:0|0:0,0:0:0:0:
448,120,236419,1,2,0:0:0:0:
416,220,236602,1,8,0:0:0:0:
456,316,236785,1,0,0:0:0:0:
468,328,236876,1,0,0:0:0:0:
480,340,236968,1,0,0:0:0:0:
376,352,237151,1,8,0:0:0:0:
220,368,237334,6,0,L|8:360,1,210.000008010865,4|8,0:0|0:0,0:0:0:0:
80,280,237883,1,2,0:0:0:0:
120,184,238065,1,8,0:0:0:0:
16,200,238248,1,0,0:0:0:0:
12,216,238340,1,0,0:0:0:0:
8,232,238431,1,0,0:0:0:0:
20,336,238614,1,8,0:0:0:0:
168,284,238797,6,0,P|200:224|176:80,1,210.000008010865,4|8,0:0|0:0,0:0:0:0:
104,16,239346,1,2,0:0:0:0:
80,120,239529,1,8,0:0:0:0:
181,87,239712,1,0,0:0:0:0:
196,84,239803,1,0,0:0:0:0:
212,80,239895,1,0,0:0:0:0:
308,124,240078,1,8,0:0:0:0:
452,64,240261,6,0,L|460:288,1,210.000008010865,4|8,0:0|0:0,0:0:0:0:
424,372,240809,1,2,0:0:0:0:
352,296,240992,1,8,0:0:0:0:
368,192,241175,1,0,0:0:0:0:
372,176,241267,1,0,0:0:0:0:
376,160,241358,1,0,0:0:0:0:
332,64,241541,1,8,0:0:0:0:
208,160,241724,6,0,P|144:168|-8:156,1,210.000008010865,12|8,0:0|0:0,0:0:0:0:
60,72,242273,1,2,0:0:0:0:
96,172,242456,1,8,0:0:0:0:
136,268,242639,1,0,0:0:0:0:
152,260,242730,1,0,0:0:0:0:
168,252,242822,1,0,0:0:0:0:
272,236,243005,1,8,0:0:0:0:
416,292,243187,6,0,L|420:112,1,157.500006008148,12|0,0:0|0:0,0:0:0:0:
336,32,243553,2,0,L|339:189,1,157.500006008148,8|0,0:0|0:0,0:0:0:0:
288,360,243919,2,0,B|160:356,1,105.000004005432,10|0,0:0|0:0,0:0:0:0:
128,304,244194,1,0,0:0:0:0:
128,304,244285,2,0,B|0:300,1,105.000004005432
164,228,244651,6,0,P|176:176|164:120,1,105.000004005432,12|0,0:0|0:0,0:0:0:0:
116,32,245017,1,8,0:0:0:0:
116,32,245109,1,0,0:0:0:0:
212,72,245291,1,0,0:0:0:0:
212,72,245383,2,0,L|384:68,1,157.500006008148,12|0,0:0|0:0,0:0:0:0:
396,60,245748,1,2,0:0:0:0:
368,268,246114,5,8,0:0:0:0:
464,224,246297,1,0,0:0:0:0:
468,208,246389,1,0,0:0:0:0:
476,184,246480,5,10,0:0:0:0:
316,332,246755,5,0,0:0:0:0:
312,348,246846,1,10,0:0:0:0:
220,288,247029,1,10,0:0:0:0:
216,272,247121,1,0,0:0:0:0:
212,256,247212,1,10,0:0:0:0:
208,240,247303,1,0,0:0:0:0:
204,224,247395,1,10,0:0:0:0:
200,208,247486,1,0,0:0:0:0:
196,192,247578,5,12,0:0:0:0:
208,114,247669,1,0,0:0:0:0:
273,70,247760,1,0,0:0:0:0:
350,86,247852,1,0,0:0:0:0:
391,153,247943,1,0,0:0:0:0:
371,229,248035,1,0,0:0:0:0:
303,267,248126,5,8,0:0:0:0:
341,199,248217,1,0,0:0:0:0:
417,180,248308,1,0,0:0:0:0:
482,224,248400,1,0,0:0:0:0:
494,301,248491,1,8,0:0:0:0:
445,362,248583,1,0,0:0:0:0:
367,368,248675,5,8,0:0:0:0:
288,356,248766,1,0,0:0:0:0:
208,362,248858,2,0,P|164:368|120:360,1,80.5000015354157,10|0,0:0|0:0,0:0:0:0:
76,136,249041,5,12,0:0:0:0:
153,147,249132,1,0,0:0:0:0:
195,212,249223,1,0,0:0:0:0:
173,287,249315,1,0,0:0:0:0:
102,320,249406,1,0,0:0:0:0:
31,288,249498,1,0,0:0:0:0:
9,213,249590,5,8,0:0:0:0:
86,190,249681,1,0,0:0:0:0:
166,183,249772,1,0,0:0:0:0:
245,197,249864,1,0,0:0:0:0:
323,217,249955,1,8,0:0:0:0:
403,217,250047,1,0,0:0:0:0:
480,194,250139,5,8,0:0:0:0:
499,116,250230,1,0,0:0:0:0:
483,38,250322,2,0,P|444:24|400:16,1,80.5000015354157,10|0,0:0|0:0,0:0:0:0:
172,28,250505,5,12,0:0:0:0:
101,57,250596,1,0,0:0:0:0:
98,134,250687,1,0,0:0:0:0:
166,169,250779,1,0,0:0:0:0:
227,123,250870,1,0,0:0:0:0:
240,144,250962,1,0,0:0:0:0:
256,164,251053,2,0,L|248:80,1,80.5000015354157,10|0,0:0|0:0,0:0:0:0:
428,236,251236,5,12,0:0:0:0:
499,265,251327,1,0,0:0:0:0:
502,342,251418,1,0,0:0:0:0:
434,377,251510,1,0,0:0:0:0:
373,331,251601,1,0,0:0:0:0:
360,352,251693,1,0,0:0:0:0:
344,372,251784,2,0,L|352:288,1,80.5000015354157,10|0,0:0|0:0,0:0:0:0:
412,140,251968,6,0,P|370:164|318:170,1,80.5000015354157,12|0,0:0|0:0,0:0:0:0:
264,154,252151,2,0,P|228:134|200:106,1,80.5000015354157,6|0,0:0|0:0,0:0:0:0:
332,60,252334,6,0,P|332:108|312:156,1,80.5000015354157,12|0,0:0|0:0,0:0:0:0:
270,195,252517,2,0,P|235:216|196:226,1,80.5000015354157,12|0,0:0|0:0,0:0:0:0:
116,232,252700,5,12,0:0:0:0:
116,232,252791,1,0,0:0:0:0:
116,232,252883,2,0,P|80:212|52:184,1,80.5000015354157
16,112,253065,5,8,0:0:0:0:
16,112,253156,1,0,0:0:0:0:
16,112,253248,2,0,P|15:71|25:33,1,80.5000015354157
256,68,253431,5,12,0:0:0:0:
302,130,253522,1,0,0:0:0:0:
283,205,253613,1,0,0:0:0:0:
212,238,253705,1,0,0:0:0:0:
142,204,253796,1,0,0:0:0:0:
125,129,253888,1,0,0:0:0:0:
172,67,253980,5,8,0:0:0:0:
148,143,254071,1,0,0:0:0:0:
163,221,254162,1,0,0:0:0:0:
215,281,254254,1,0,0:0:0:0:
290,309,254345,1,8,0:0:0:0:
368,298,254437,1,0,0:0:0:0:
431,249,254529,5,8,0:0:0:0:
424,169,254620,1,0,0:0:0:0:
452,95,254712,2,0,P|461:55|456:12,1,80.5000015354157,10|0,0:0|0:0,0:0:0:0:
331,215,254895,5,12,0:0:0:0:
323,292,254986,1,0,0:0:0:0:
375,350,255077,1,0,0:0:0:0:
454,347,255169,1,0,0:0:0:0:
503,287,255260,1,0,0:0:0:0:
490,210,255352,1,0,0:0:0:0:
424,169,255443,5,8,0:0:0:0:
354,209,255535,1,0,0:0:0:0:
275,221,255626,1,0,0:0:0:0:
196,205,255718,1,0,0:0:0:0:
129,163,255809,1,8,0:0:0:0:
80,99,255901,1,0,0:0:0:0:
56,23,255992,5,8,0:0:0:0:
33,99,256083,1,0,0:0:0:0:
51,176,256175,2,0,P|56:223|42:261,1,80.5000015354157,10|0,0:0|0:0,0:0:0:0:
218,95,256358,5,12,0:0:0:0:
289,124,256449,1,0,0:0:0:0:
292,201,256540,1,0,0:0:0:0:
224,236,256632,1,0,0:0:0:0:
163,190,256723,1,0,0:0:0:0:
150,211,256815,1,0,0:0:0:0:
134,231,256906,2,0,L|142:147,1,80.5000015354157,10|0,0:0|0:0,0:0:0:0:
379,164,257090,5,12,0:0:0:0:
308,193,257181,1,0,0:0:0:0:
305,270,257272,1,0,0:0:0:0:
373,305,257364,1,0,0:0:0:0:
434,259,257455,1,0,0:0:0:0:
447,280,257547,1,0,0:0:0:0:
463,300,257638,2,0,L|455:216,1,80.5000015354157,10|0,0:0|0:0,0:0:0:0:
439,65,257822,6,0,P|392:52|341:59,1,80.5000015354157,12|0,0:0|0:0,0:0:0:0:
241,153,258005,2,0,P|261:118|291:89,1,80.5000015354157,6|0,0:0|0:0,0:0:0:0:
379,164,258188,6,0,P|369:125|348:91,1,80.5000015354157,12|0,0:0|0:0,0:0:0:0:
205,38,258371,2,0,P|244:38|282:49,1,80.5000015354157,12|0,0:0|0:0,0:0:0:0:
308,193,258553,5,4,0:0:0:0:
311,273,258644,1,0,0:0:0:0:
315,353,258735,1,8,0:0:0:0:
332,348,258828,1,0,0:0:0:0:
348,344,258919,1,8,0:0:0:0:
364,340,259011,1,0,0:0:0:0:
380,336,259102,2,0,L|468:316,1,80.5000015354157,10|0,0:0|0:0,0:0:0:0:
240,236,259285,5,12,0:0:0:0:
172,275,259376,1,0,0:0:0:0:
97,254,259467,1,0,0:0:0:0:
60,184,259559,1,0,0:0:0:0:
85,110,259650,1,0,0:0:0:0:
155,76,259742,1,0,0:0:0:0:
229,104,259834,5,8,0:0:0:0:
260,176,259925,1,0,0:0:0:0:
330,208,260016,1,0,0:0:0:0:
404,180,260108,1,0,0:0:0:0:
436,109,260199,1,8,0:0:0:0:
410,34,260291,1,0,0:0:0:0:
340,0,260382,5,8,0:0:0:0:
300,60,260474,1,0,0:0:0:0:
361,99,260565,2,0,P|398:115|442:107,1,80.5000015354157,10|0,0:0|0:0,0:0:0:0:
218,195,260748,5,12,0:0:0:0:
295,187,260839,1,0,0:0:0:0:
354,238,260930,1,0,0:0:0:0:
357,317,261022,1,0,0:0:0:0:
301,372,261113,1,0,0:0:0:0:
223,369,261205,1,0,0:0:0:0:
172,310,261296,5,8,0:0:0:0:
239,270,261388,1,0,0:0:0:0:
257,193,261479,1,0,0:0:0:0:
215,127,261571,1,0,0:0:0:0:
138,111,261662,1,8,0:0:0:0:
73,155,261754,1,0,0:0:0:0:
59,232,261846,5,8,0:0:0:0:
139,228,261937,1,0,0:0:0:0:
219,224,262029,2,0,L|312:216,1,80.5000015354157,10|0,0:0|0:0,0:0:0:0:
472,56,262212,5,12,0:0:0:0:
468,136,262303,1,0,0:0:0:0:
460,216,262395,2,0,L|452:296,1,80.5000015354157,10|0,0:0|0:0,0:0:0:0:
360,80,262578,5,12,0:0:0:0:
364,160,262669,1,0,0:0:0:0:
372,240,262761,2,0,L|380:320,1,80.5000015354157,10|0,0:0|0:0,0:0:0:0:
280,108,262944,5,12,0:0:0:0:
200,99,263035,1,0,0:0:0:0:
120,94,263127,2,0,L|39:89,1,80.5000015354157,10|0,0:0|0:0,0:0:0:0:
252,184,263309,5,12,0:0:0:0:
172,193,263400,1,0,0:0:0:0:
92,198,263492,2,0,L|11:202,1,80.5000015354157,10|0,0:0|0:0,0:0:0:0:
281,350,263675,6,0,P|318:329|350:293,1,80.5000015354157,12|0,0:0|0:0,0:0:0:0:
411,112,263858,2,0,P|411:152|422:190,1,80.5000015354157,6|0,0:0|0:0,0:0:0:0:
512,328,264041,6,0,P|473:338|433:336,1,80.5000015354157,12|0,0:0|0:0,0:0:0:0:
331,285,264224,2,0,P|302:256|283:221,1,80.5000015354157,12|0,0:0|0:0,0:0:0:0:
240,117,264407,5,12,0:0:0:0:
240,117,264498,1,0,0:0:0:0:
240,117,264590,2,0,P|250:78|271:43,1,80.5000015354157
379,11,264773,5,8,0:0:0:0:
379,11,264864,1,0,0:0:0:0:
379,11,264956,2,0,P|417:0|457:1,1,80.5000015354157
324,192,265139,5,12,0:0:0:0:
249,215,265230,1,0,0:0:0:0:
181,176,265321,1,0,0:0:0:0:
163,100,265413,1,0,0:0:0:0:
207,35,265504,1,0,0:0:0:0:
284,23,265596,1,0,0:0:0:0:
345,71,265687,5,8,0:0:0:0:
291,128,265778,1,0,0:0:0:0:
287,207,265869,1,0,0:0:0:0:
335,269,265961,1,0,0:0:0:0:
412,284,266052,1,8,0:0:0:0:
481,245,266144,1,0,0:0:0:0:
507,171,266236,5,8,0:0:0:0:
482,96,266327,1,0,0:0:0:0:
496,17,266419,2,0,P|454:10|400:12,1,80.5000015354157,10|0,0:0|0:0,0:0:0:0:
287,207,266602,5,12,0:0:0:0:
215,239,266693,1,0,0:0:0:0:
143,209,266784,1,0,0:0:0:0:
117,135,266876,1,0,0:0:0:0:
154,66,266967,1,0,0:0:0:0:
230,47,267059,1,0,0:0:0:0:
295,90,267151,5,8,0:0:0:0:
299,168,267242,1,0,0:0:0:0:
358,219,267333,1,0,0:0:0:0:
436,212,267425,1,0,0:0:0:0:
485,151,267516,1,10,0:0:0:0:
475,73,267608,1,2,0:0:0:0:
413,26,267700,5,8,0:0:0:0:
404,104,267791,1,0,0:0:0:0:
396,184,267883,2,0,L|383:281,1,80.5000015354157,10|0,0:0|0:0,0:0:0:0:
216,352,268065,6,0,L|-16:348,1,210.000008010865,12|0,0:0|0:0,0:0:0:0:
300,44,268431,2,0,L|532:40,1,210.000008010865,12|0,0:0|0:0,0:0:0:0:
216,352,268797,6,0,B|4:350|4:350|148:320,1,280,12|0,0:0|0:0,0:0:0:0:
300,44,269163,2,0,B|512:42|512:42|368:12,1,280,12|0,0:0|0:0,0:0:0:0:
216,352,269529,6,0,L|52:348,1,140,6|0,0:0|0:0,0:0:0:0:
300,44,269803,2,0,L|464:40,1,140,6|0,0:0|0:0,0:0:0:0:
216,352,270078,6,0,L|52:348,1,140,6|0,0:0|0:0,0:0:0:0:
300,44,270261,2,0,L|464:40,1,140,6|0,0:0|0:0,0:0:0:0:
397,129,270444,1,0,0:0:0:0:
392,140,270535,1,0,0:0:0:0:
388,152,270627,1,0,0:0:0:0:
350,137,270718,1,0,0:0:0:0:
311,142,270809,1,0,0:0:0:0:
272,153,270901,1,0,0:0:0:0:
233,146,270992,6,0,L|244:368,1,210.000008010865,12|2,0:0|0:0,0:0:0:0:
323,348,271541,1,2,0:0:0:0:
208,296,271724,1,8,0:0:0:0:
208,296,272090,1,2,0:0:0:0:
288,288,272273,1,2,0:0:0:0:
376,196,272456,6,0,L|384:80,1,105.000004005432,12|0,0:0|0:0,0:0:0:0:
321,40,272822,1,0,0:0:0:0:
243,55,273005,1,2,0:0:0:0:
200,172,273187,1,8,0:0:0:0:
263,221,273370,1,0,0:0:0:0:
343,222,273553,1,0,0:0:0:0:
395,283,273736,2,0,L|459:279,1,52.5000020027161,8|0,0:1|0:0,0:0:0:0:
343,222,273919,6,0,L|262:221,1,81.2000024780274,12|2,0:0|0:0,0:0:0:0:
189,255,274468,1,2,0:0:0:0:
241,139,274651,1,8,0:0:0:0:
248,60,274834,1,0,0:0:0:0:
169,53,275017,1,0,0:0:0:0:
162,132,275200,1,8,0:0:0:0:
189,255,275383,6,0,L|180:360,1,105.000004005432,12|0,0:0|0:0,0:0:0:0:
257,360,275748,1,0,0:0:0:0:
330,330,275931,1,2,0:0:0:0:
448,372,276114,1,8,0:0:0:0:
448,372,276480,1,0,0:0:0:0:
411,304,276663,2,0,L|408:248,1,52.5000020027161,8|0,0:1|0:0,0:0:0:0:
480,156,276846,6,0,L|484:56,1,81.2000024780274,12|2,0:0|0:0,0:0:0:0:
428,20,277395,1,2,0:0:0:0:
336,104,277578,1,8,0:0:0:0:
257,94,277761,1,0,0:0:0:0:
267,16,277944,1,0,0:0:0:0:
345,25,278126,1,8,0:0:0:0:
408,132,278309,6,0,L|404:252,1,105.000004005432,12|0,0:0|0:0,0:0:0:0:
400,316,278675,1,0,0:0:0:0:
336,272,278858,1,2,0:0:0:0:
236,348,279041,1,8,0:0:0:0:
172,304,279224,1,0,0:0:0:0:
112,255,279407,1,0,0:0:0:0:
56,200,279590,2,0,L|-8:196,1,52.5000020027161,8|0,0:1|0:0,0:0:0:0:
95,120,279773,6,0,L|183:116,1,81.2000024780274,12|2,0:0|0:0,0:0:0:0:
240,68,280322,1,2,0:0:0:0:
356,120,280505,1,8,0:0:0:0:
279,136,280687,1,0,0:0:0:0:
297,214,280870,1,0,0:0:0:0:
374,196,281053,1,8,0:0:0:0:
484,260,281236,6,0,L|480:368,1,105.000004005432,12|0,0:0|0:0,0:0:0:0:
404,340,281602,1,0,0:0:0:0:
328,360,281785,1,2,0:0:0:0:
220,296,281968,1,8,0:0:0:0:
144,316,282151,2,0,L|148:368,2,52.5000020027161
80,268,282517,2,0,L|84:216,1,52.5000020027161
96,112,282700,5,12,0:0:0:0:
196,80,282883,1,0,0:0:0:0:
192,92,282974,1,0,0:0:0:0:
188,104,283065,1,0,0:0:0:0:
160,204,283248,5,8,0:0:0:0:
260,172,283431,1,0,0:0:0:0:
256,184,283522,1,0,0:0:0:0:
252,196,283613,1,0,0:0:0:0:
228,300,283797,5,8,0:0:0:0:
328,268,283980,1,0,0:0:0:0:
324,280,284071,1,0,0:0:0:0:
316,304,284163,5,6,0:0:0:0:
420,288,284346,1,0,0:0:0:0:
424,276,284437,1,0,0:0:0:0:
428,264,284529,1,0,0:0:0:0:
348,196,284712,5,8,0:0:0:0:
244,180,284895,1,0,0:0:0:0:
240,168,284986,1,0,0:0:0:0:
236,156,285078,1,0,0:0:0:0:
204,56,285261,5,8,0:0:0:0:
56,108,285535,1,0,0:0:0:0:
56,108,285626,2,0,L|60:328,1,210.000008010865,10|2,0:0|0:0,0:0:0:0:
152,264,286175,5,8,0:0:0:0:
244,212,286358,1,0,0:0:0:0:
248,200,286450,1,0,0:0:0:0:
252,188,286541,1,0,0:0:0:0:
356,164,286724,5,8,0:0:0:0:
264,112,286907,1,0,0:0:0:0:
260,100,286999,1,0,0:0:0:0:
252,76,287090,5,12,0:0:0:0:
148,52,287273,1,0,0:0:0:0:
144,64,287364,1,0,0:0:0:0:
140,76,287456,1,0,0:0:0:0:
100,172,287639,5,8,0:0:0:0:
204,148,287822,1,0,0:0:0:0:
208,160,287913,1,0,0:0:0:0:
212,172,288005,1,0,0:0:0:0:
176,272,288187,5,8,0:0:0:0:
72,248,288370,1,0,0:0:0:0:
68,260,288461,1,0,0:0:0:0:
64,272,288553,2,0,L|56:48,1,210.000008010865,10|2,0:0|0:0,0:0:0:0:
156,96,289102,5,8,0:0:0:0:
252,52,289285,1,0,0:0:0:0:
248,64,289376,1,0,0:0:0:0:
244,76,289468,1,0,0:0:0:0:
188,168,289651,5,8,0:0:0:0:
92,124,289834,1,0,0:0:0:0:
96,136,289925,1,0,0:0:0:0:
104,160,290017,5,12,0:0:0:0:
144,256,290200,1,2,0:0:0:0:
184,352,290383,1,2,0:0:0:0:
304,312,290565,5,8,0:0:0:0:
408,336,290748,1,0,0:0:0:0:
416,328,290840,1,0,0:0:0:0:
424,320,290931,1,0,0:0:0:0:
380,224,291114,5,8,0:0:0:0:
460,88,291389,1,0,0:0:0:0:
460,88,291480,2,0,L|248:84,1,210.000008010865,10|2,0:0|0:0,0:0:0:0:
152,48,292029,5,8,0:0:0:0:
52,80,292212,1,0,0:0:0:0:
52,92,292303,1,0,0:0:0:0:
52,104,292395,1,0,0:0:0:0:
152,140,292578,5,8,0:0:0:0:
252,172,292761,1,0,0:0:0:0:
252,184,292852,1,0,0:0:0:0:
253,209,292944,5,12,0:0:0:0:
352,244,293126,1,0,0:0:0:0:
352,232,293218,1,0,0:0:0:0:
352,220,293309,1,0,0:0:0:0:
348,116,293492,5,8,0:0:0:0:
447,151,293674,1,0,0:0:0:0:
447,139,293766,1,0,0:0:0:0:
447,127,293857,1,0,0:0:0:0:
448,20,294041,5,8,0:0:0:0:
344,20,294224,1,0,0:0:0:0:
332,20,294315,1,0,0:0:0:0:
320,20,294407,6,0,L|208:20,1,105.000004005432,10|0,0:0|0:0,0:0:0:0:
212,28,294681,1,0,0:0:0:0:
208,36,294773,1,0,0:0:0:0:
284,108,294956,5,8,0:0:0:0:
356,184,295139,1,0,0:0:0:0:
364,176,295230,1,0,0:0:0:0:
372,168,295322,1,0,0:0:0:0:
432,252,295505,1,8,0:0:0:0:
440,244,295596,1,0,0:0:0:0:
448,236,295688,1,8,0:0:0:0:
456,228,295779,1,0,0:0:0:0:
464,220,295870,5,12,0:0:0:0:
432,120,296053,1,0,0:0:0:0:
440,112,296144,1,0,0:0:0:0:
448,104,296236,1,0,0:0:0:0:
368,36,296419,5,8,0:0:0:0:
288,104,296602,1,0,0:0:0:0:
296,112,296694,1,0,0:0:0:0:
304,120,296785,1,0,0:0:0:0:
384,188,296968,2,0,L|376:248,1,52.5000020027161,8|0,0:0|0:0,0:0:0:0:
364,316,297151,1,2,0:0:0:0:
256,252,297334,6,0,L|128:248,1,105.000004005432,10|0,0:0|0:0,0:0:0:0:
144,240,297608,1,0,0:0:0:0:
136,232,297700,1,0,0:0:0:0:
64,152,297883,5,8,0:0:0:0:
152,96,298065,1,0,0:0:0:0:
164,92,298157,1,0,0:0:0:0:
176,88,298248,1,0,0:0:0:0:
248,164,298431,5,8,0:0:0:0:
336,108,298613,1,0,0:0:0:0:
348,104,298705,1,0,0:0:0:0:
372,96,298796,5,12,0:0:0:0:
452,164,298980,1,0,0:0:0:0:
448,176,299072,1,0,0:0:0:0:
444,188,299163,1,0,0:0:0:0:
348,232,299346,5,8,0:0:0:0:
268,300,299530,1,0,0:0:0:0:
272,312,299620,1,0,0:0:0:0:
276,324,299713,1,0,0:0:0:0:
376,348,299895,5,8,0:0:0:0:
468,300,300078,1,0,0:0:0:0:
472,288,300169,1,0,0:0:0:0:
476,276,300261,2,0,L|472:156,1,105.000004005432,10|0,0:0|0:0,0:0:0:0:
476,160,300535,1,0,0:0:0:0:
484,152,300626,1,0,0:0:0:0:
400,88,300809,5,8,0:0:0:0:
316,152,300992,1,0,0:0:0:0:
304,148,301084,1,0,0:0:0:0:
292,144,301175,1,0,0:0:0:0:
192,180,301358,1,8,0:0:0:0:
180,176,301450,1,0,0:0:0:0:
168,172,301541,1,8,0:0:0:0:
156,168,301633,1,0,0:0:0:0:
144,164,301724,5,12,0:0:0:0:
44,132,301907,1,0,0:0:0:0:
48,144,301998,1,0,0:0:0:0:
52,156,302090,1,0,0:0:0:0:
80,256,302273,5,8,0:0:0:0:
0,324,302456,1,0,0:0:0:0:
4,336,302547,1,0,0:0:0:0:
8,348,302639,1,0,0:0:0:0:
112,372,302822,2,0,L|180:368,1,52.5000020027161,8|0,0:0|0:0,0:0:0:0:
244,364,303005,1,2,0:0:0:0:
324,268,303187,6,0,L|328:144,1,105.000004005432,10|0,0:0|0:0,0:0:0:0:
332,56,303553,1,8,0:0:0:0:
356,160,303736,1,2,0:0:0:0:
256,132,303919,2,0,L|192:128,1,52.5000020027161,10|0,0:0|0:0,0:0:0:0:
124,124,304102,5,8,0:0:0:0:
56,204,304285,1,0,0:0:0:0:
56,216,304376,1,0,0:0:0:0:
56,228,304468,1,0,0:0:0:0:
152,308,304651,6,0,L|284:304,1,105.000004005432,10|0,0:0|0:0,0:0:0:0:
312,216,304925,1,0,0:0:0:0:
312,216,305017,2,0,L|180:212,1,105.000004005432,10|0,0:0|0:0,0:0:0:0:
164,116,305383,1,10,0:0:0:0:
256,64,305565,1,0,0:0:0:0:
268,60,305657,1,0,0:0:0:0:
280,60,305748,1,0,0:0:0:0:
330,72,305839,1,0,0:0:0:0:
382,64,305930,1,0,0:0:0:0:
433,52,306022,1,0,0:0:0:0:
483,64,306114,6,0,L|480:144,1,70,12|0,0:0|0:0,0:0:0:0:
396,248,306297,1,0,0:0:0:0:
362,237,306388,1,0,0:0:0:0:
329,246,306479,1,0,0:0:0:0:
295,256,306571,1,0,0:0:0:0:
261,248,306663,6,0,L|257:178,1,70,8|0,0:0|0:0,0:0:0:0:
164,72,306846,1,0,0:0:0:0:
130,82,306937,1,0,0:0:0:0:
97,73,307028,1,0,0:0:0:0:
63,63,307120,1,0,0:0:0:0:
29,72,307212,6,0,L|25:141,1,70,8|0,0:0|0:0,0:0:0:0:
96,276,307395,1,8,0:0:0:0:
96,276,307486,1,0,0:0:0:0:
96,276,307578,6,0,L|92:345,1,70,12|0,0:0|0:0,0:0:0:0:
188,244,307761,1,0,0:0:0:0:
222,236,307852,1,0,0:0:0:0:
256,232,307943,1,0,0:0:0:0:
291,231,308035,1,0,0:0:0:0:
326,233,308126,6,0,L|403:243,1,70,8|0,0:0|0:0,0:0:0:0:
504,152,308309,1,0,0:0:0:0:
469,144,308400,1,0,0:0:0:0:
435,140,308491,1,0,0:0:0:0:
400,139,308583,1,0,0:0:0:0:
365,141,308675,6,0,L|287:151,1,70,8|0,0:0|0:0,0:0:0:0:
384,44,308858,1,8,0:0:0:0:
384,44,308950,1,0,0:0:0:0:
384,44,309041,6,0,L|306:54,1,70,12|0,0:0|0:0,0:0:0:0:
176,76,309224,1,0,0:0:0:0:
141,75,309315,1,0,0:0:0:0:
106,74,309406,1,0,0:0:0:0:
71,73,309498,1,0,0:0:0:0:
36,72,309590,6,0,L|40:148,1,70,8|0,0:0|0:0,0:0:0:0:
124,256,309773,1,0,0:0:0:0:
158,256,309864,1,0,0:0:0:0:
193,257,309955,1,0,0:0:0:0:
228,258,310047,1,0,0:0:0:0:
263,259,310139,6,0,L|259:183,1,70,8|0,0:0|0:0,0:0:0:0:
364,92,310322,1,8,0:0:0:0:
364,92,310413,1,0,0:0:0:0:
364,92,310505,6,0,L|360:16,1,70,12|0,0:0|0:0,0:0:0:0:
444,132,310687,1,0,0:0:0:0:
454,165,310778,1,0,0:0:0:0:
456,200,310869,1,0,0:0:0:0:
451,234,310961,1,0,0:0:0:0:
438,267,311053,6,0,L|444:344,1,70,8|0,0:0|0:0,0:0:0:0:
316,276,311236,2,0,L|320:206,1,70,8|0,0:0|0:0,0:0:0:0:
292,140,311419,1,10,0:0:0:0:
224,96,311511,1,8,0:0:0:0:
148,120,311602,6,0,L|72:116,1,70,8|0,0:0|0:0,0:0:0:0:
20,248,311785,1,0,0:0:0:0:
20,248,311876,1,0,0:0:0:0:
20,248,311968,2,0,L|96:244,1,70,12|0,0:0|0:0,0:0:0:0:
220,300,312151,1,0,0:0:0:0:
254,306,312242,1,0,0:0:0:0:
289,307,312333,1,0,0:0:0:0:
324,304,312425,1,0,0:0:0:0:
358,296,312517,6,0,L|432:292,1,70,8|0,0:0|0:0,0:0:0:0:
344,180,312700,1,0,0:0:0:0:
332,146,312791,1,0,0:0:0:0:
328,112,312882,1,0,0:0:0:0:
330,77,312974,1,0,0:0:0:0:
340,43,313065,6,0,L|412:36,1,70,8|0,0:0|0:0,0:0:0:0:
488,152,313248,1,8,0:0:0:0:
488,152,313340,1,0,0:0:0:0:
488,152,313431,6,0,L|416:145,1,70,12|0,0:0|0:0,0:0:0:0:
292,204,313614,1,0,0:0:0:0:
293,238,313705,1,0,0:0:0:0:
295,273,313796,1,0,0:0:0:0:
297,308,313888,1,0,0:0:0:0:
299,343,313980,6,0,L|348:280,1,70,8|0,0:0|0:0,0:0:0:0:
212,228,314163,1,0,0:0:0:0:
210,262,314254,1,0,0:0:0:0:
208,297,314345,1,0,0:0:0:0:
206,332,314437,1,0,0:0:0:0:
204,367,314529,6,0,L|155:303,1,70,8|0,0:0|0:0,0:0:0:0:
44,252,314712,1,8,0:0:0:0:
44,252,314803,1,0,0:0:0:0:
44,252,314895,6,0,L|-4:188,1,70,12|0,0:0|0:0,0:0:0:0:
100,96,315078,1,0,0:0:0:0:
133,85,315169,1,0,0:0:0:0:
167,89,315260,1,0,0:0:0:0:
201,98,315352,1,0,0:0:0:0:
235,94,315444,6,0,L|244:16,1,70,8|0,0:0|0:0,0:0:0:0:
328,136,315626,1,0,0:0:0:0:
362,125,315717,1,0,0:0:0:0:
396,129,315808,1,0,0:0:0:0:
430,138,315900,1,0,0:0:0:0:
464,134,315992,6,0,L|472:55,1,70,8|0,0:0|0:0,0:0:0:0:
508,208,316175,1,8,0:0:0:0:
508,208,316267,1,0,0:0:0:0:
508,208,316358,6,0,L|500:277,1,70,12|0,0:0|0:0,0:0:0:0:
376,348,316541,1,0,0:0:0:0:
341,352,316632,1,0,0:0:0:0:
306,352,316723,1,0,0:0:0:0:
271,350,316815,1,0,0:0:0:0:
236,344,316907,6,0,L|232:274,1,70,8|0,0:0|0:0,0:0:0:0:
168,148,317090,1,10,0:0:0:0:
96,122,317182,1,8,0:0:0:0:
109,197,317273,6,0,L|104:272,1,70,12|0,0:0|0:0,0:0:0:0:
4,180,317456,2,0,L|0:110,1,70,12|0,0:0|0:0,0:0:0:0:
112,24,317639,2,0,L|107:93,1,70,12|0,0:0|0:0,0:0:0:0:
334,192,317822,6,0,L|329:122,1,70,12|0,0:0|0:0,0:0:0:0:
428,224,318005,1,0,0:0:0:0:
425,258,318096,1,0,0:0:0:0:
422,293,318187,1,0,0:0:0:0:
419,328,318279,1,0,0:0:0:0:
416,363,318370,6,0,L|340:356,1,70,8|0,0:0|0:0,0:0:0:0:
228,280,318553,1,0,0:0:0:0:
193,278,318644,1,0,0:0:0:0:
158,276,318735,1,0,0:0:0:0:
123,274,318827,1,0,0:0:0:0:
88,273,318919,6,0,L|80:196,1,70,8|0,0:0|0:0,0:0:0:0:
196,124,319102,1,8,0:0:0:0:
196,124,319194,1,0,0:0:0:0:
196,124,319285,6,0,L|187:46,1,70,12|0,0:0|0:0,0:0:0:0:
288,156,319468,1,0,0:0:0:0:
322,161,319559,1,0,0:0:0:0:
357,164,319650,1,0,0:0:0:0:
392,162,319742,1,0,0:0:0:0:
426,156,319834,6,0,L|420:236,1,70,8|0,0:0|0:0,0:0:0:0:
340,340,320017,1,0,0:0:0:0:
305,346,320108,1,0,0:0:0:0:
270,348,320199,1,0,0:0:0:0:
235,345,320291,1,0,0:0:0:0:
201,339,320383,6,0,L|206:269,1,70,8|0,0:0|0:0,0:0:0:0:
304,168,320565,1,8,0:0:0:0:
304,168,320657,1,0,0:0:0:0:
304,168,320748,6,0,L|298:98,1,70,12|0,0:0|0:0,0:0:0:0:
168,40,320931,1,0,0:0:0:0:
133,39,321022,1,0,0:0:0:0:
98,38,321113,1,0,0:0:0:0:
63,37,321205,1,0,0:0:0:0:
28,36,321297,6,0,L|36:120,1,70,8|0,0:0|0:0,0:0:0:0:
64,244,321480,1,0,0:0:0:0:
98,244,321571,1,0,0:0:0:0:
133,245,321662,1,0,0:0:0:0:
168,246,321754,1,0,0:0:0:0:
203,247,321846,6,0,L|195:163,1,70,8|0,0:0|0:0,0:0:0:0:
278,304,322029,1,8,0:0:0:0:
278,304,322120,1,0,0:0:0:0:
278,304,322212,6,0,L|271:373,1,70,12|0,0:0|0:0,0:0:0:0:
356,260,322395,1,0,0:0:0:0:
389,251,322486,1,0,0:0:0:0:
424,248,322577,1,0,0:0:0:0:
459,250,322669,1,0,0:0:0:0:
493,259,322761,6,0,L|492:172,1,70,8|0,0:0|0:0,0:0:0:0:
392,92,322944,2,0,L|390:161,1,70,8|0,0:0|0:0,0:0:0:0:
316,148,323126,1,10,0:0:0:0:
248,184,323218,1,8,0:0:0:0:
177,156,323309,6,0,L|175:86,1,70,8|0,0:0|0:0,0:0:0:0:
104,208,323492,1,0,0:0:0:0:
104,208,323584,1,0,0:0:0:0:
104,208,323675,6,0,L|102:277,1,70,12|0,0:0|0:0,0:0:0:0:
216,364,323858,1,0,0:0:0:0:
250,363,323949,1,0,0:0:0:0:
285,362,324040,1,0,0:0:0:0:
320,361,324132,1,0,0:0:0:0:
355,360,324224,6,0,L|436:356,1,70,8|0,0:0|0:0,0:0:0:0:
392,220,324407,1,0,0:0:0:0:
357,219,324498,1,0,0:0:0:0:
322,218,324589,1,0,0:0:0:0:
287,217,324681,1,0,0:0:0:0:
252,216,324773,6,0,L|171:211,1,70,8|0,0:0|0:0,0:0:0:0:
288,116,324956,1,8,0:0:0:0:
288,116,325047,1,0,0:0:0:0:
288,116,325139,6,0,L|357:111,1,70,12|0,0:0|0:0,0:0:0:0:
240,36,325322,1,0,0:0:0:0:
205,30,325413,1,0,0:0:0:0:
170,28,325504,1,0,0:0:0:0:
135,29,325596,1,0,0:0:0:0:
100,34,325687,6,0,L|16:32,1,70,8|0,0:0|0:0,0:0:0:0:
144,116,325870,1,0,0:0:0:0:
151,150,325961,1,0,0:0:0:0:
152,185,326053,1,2,0:0:0:0:
138,252,326144,1,2,0:0:0:0:
164,316,326236,2,0,P|244:320|308:296,1,140,2|8,0:0|0:0,0:0:0:0:
368,256,326511,1,8,0:0:0:0:
440,284,326602,6,0,L|448:124,1,140,12|0,0:0|0:0,0:0:0:0:
368,256,326876,2,0,L|362:95,1,140,10|0,0:0|0:0,0:0:0:0:
292,260,327151,2,0,L|278:166,1,70,10|0,0:0|0:0,0:0:0:0:
134,214,327334,6,0,L|126:54,1,140,12|0,0:0|0:0,0:0:0:0:
206,186,327608,2,0,L|211:25,1,140,10|0,0:0|0:0,0:0:0:0:
282,190,327883,2,0,L|295:96,1,70,10|0,0:0|0:0,0:0:0:0:
440,284,328065,6,0,L|448:104,1,175,12|0,0:0|0:0,0:0:0:0:
368,248,328340,2,0,L|360:67,1,175,2|0,0:0|0:0,0:0:0:0:
294,276,328614,2,0,L|278:161,1,87.5,2|0,0:0|0:0,0:0:0:0:
20,268,328797,6,0,L|8:56,1,210.000008010865,12|0,0:0|0:0,0:0:0:0:
92,232,329072,2,0,L|98:19,1,210.000008010865,10|0,0:0|0:0,0:0:0:0:
166,260,329346,2,0,L|180:152,1,105.000004005432,10|0,0:0|0:0,0:0:0:0:
264,44,329529,6,0,P|295:40|344:40,1,70,14|0,0:0|0:0,0:0:0:0:
412,56,329712,2,0,P|440:68|483:92,1,70
348,148,329895,6,0,P|316:144|268:144,1,70,2|0,0:0|0:0,0:0:0:0:
200,160,330078,2,0,P|171:172|128:196,1,70
212,312,330261,6,0,P|224:282|239:236,1,70,2|0,0:0|0:0,0:0:0:0:
243,166,330444,2,0,P|239:134|228:87,1,70,2|0,0:0|0:0,0:0:0:0:
100,52,330626,6,0,P|87:81|72:127,1,70,2|0,0:0|0:0,0:0:0:0:
69,198,330809,2,0,P|72:229|83:276,1,70,2|0,0:0|0:0,0:0:0:0:
352,188,330992,6,0,L|356:112,1,70,14|0,0:0|0:0,0:0:0:0:
428,88,331175,2,0,L|432:12,1,70
288,28,331358,6,0,L|284:97,1,70,2|0,0:0|0:0,0:0:0:0:
211,128,331541,2,0,L|207:197,1,70
276,320,331724,6,0,L|352:316,1,70,2|0,0:0|0:0,0:0:0:0:
400,260,331907,2,0,L|469:263,1,70,2|0,0:0|0:0,0:0:0:0:
512,128,332090,6,0,L|436:124,1,70,2|0,0:0|0:0,0:0:0:0:
388,68,332273,2,0,L|318:71,1,70,2|0,0:0|0:0,0:0:0:0:
76,216,332456,6,0,P|69:179|76:140,1,70,14|0,0:0|0:0,0:0:0:0:
132,96,332639,2,0,P|136:61|129:27,1,70
224,132,332822,6,0,P|217:166|221:200,1,70,2|0,0:0|0:0,0:0:0:0:
279,252,333005,2,0,P|283:286|276:320,1,70
344,200,333187,6,0,P|383:200|420:192,1,70,2|0,0:0|0:0,0:0:0:0:
476,148,333370,2,0,P|496:114|507:78,1,70,2|0,0:0|0:0,0:0:0:0:
362,63,333553,6,0,P|361:102|370:139,1,70,2|0,0:0|0:0,0:0:0:0:
413,194,333736,2,0,P|446:214|482:225,1,70,2|0,0:0|0:0,0:0:0:0:
260,40,333919,6,0,L|176:36,1,70,14|0,0:0|0:0,0:0:0:0:
112,32,334102,2,0,L|28:28,1,70
72,168,334285,6,0,L|156:164,1,70,2|0,0:0|0:0,0:0:0:0:
220,160,334468,2,0,L|304:156,1,70
400,72,334651,6,0,L|396:152,1,70,2|0,0:0|0:0,0:0:0:0:
388,220,334834,2,0,L|384:300,1,70,2|0,0:0|0:0,0:0:0:0:
244,312,335017,6,0,L|240:242,1,70,2|0,0:0|0:0,0:0:0:0:
232,164,335200,2,0,L|228:94,1,70,2|0,0:0|0:0,0:0:0:0:
92,340,335383,6,0,P|132:348|172:348,1,70,14|0,0:0|0:0,0:0:0:0:
236,328,335565,2,0,P|269:305|298:277,1,70
232,164,335748,6,0,P|192:172|152:172,1,70,2|0,0:0|0:0,0:0:0:0:
88,152,335931,2,0,P|54:129|25:101,1,70
172,72,336114,6,0,P|148:97|129:127,1,70,2|0,0:0|0:0,0:0:0:0:
108,201,336297,2,0,P|109:235|116:270,1,70,2|0,0:0|0:0,0:0:0:0:
256,248,336480,6,0,P|279:222|298:192,1,70,2|0,0:0|0:0,0:0:0:0:
320,119,336663,2,0,P|318:84|311:49,1,70,2|0,0:0|0:0,0:0:0:0:
436,308,336846,6,0,L|440:224,1,70,14|0,0:0|0:0,0:0:0:0:
480,172,337029,2,0,L|484:88,1,70
364,172,337212,6,0,L|360:241,1,70,2|0,0:0|0:0,0:0:0:0:
320,307,337395,2,0,L|316:376,1,70
196,304,337578,6,0,L|116:300,1,70,2|0,0:0|0:0,0:0:0:0:
132,224,337761,2,0,L|52:220,1,70,2|0,0:0|0:0,0:0:0:0:
160,120,337944,6,0,L|240:116,1,70,2|0,0:0|0:0,0:0:0:0:
224,40,338127,2,0,L|304:36,1,70,2|0,0:0|0:0,0:0:0:0:
504,220,338309,6,0,P|464:212|420:216,1,70,14|0,0:0|0:0,0:0:0:0:
364,240,338492,2,0,P|329:240|294:233,1,70
216,116,338675,6,0,P|181:108|146:109,1,70,2|0,0:0|0:0,0:0:0:0:
75,135,338858,2,0,P|40:135|5:128,1,70
116,216,339041,6,0,P|120:256|112:288,1,70,2|0,0:0|0:0,0:0:0:0:
188,296,339224,2,0,P|184:336|192:368,1,70,2|0,0:0|0:0,0:0:0:0:
296,272,339407,6,0,P|303:237|298:203,1,70,2|0,0:0|0:0,0:0:0:0:
373,192,339590,2,0,P|365:157|370:123,1,70,2|0,0:0|0:0,0:0:0:0:
496,376,339773,6,0,L|500:288,1,70,14|0,0:0|0:0,0:0:0:0:
373,192,339956,1,2,0:0:0:0:
373,192,340047,2,0,L|376:261,1,70,8|2,0:0|0:0,0:0:0:0:
220,340,340230,1,2,0:0:0:0:
220,340,340321,2,0,L|223:270,1,70,8|0,0:0|0:0,0:0:0:0:
84,168,340505,1,0,0:0:0:0:
84,168,340596,2,0,L|87:237,1,70,8|2,0:0|0:0,0:0:0:0:
236,144,340779,5,2,0:0:0:0:
216,68,340871,1,10,0:0:0:0:
139,63,340962,1,2,0:0:0:0:
110,134,341053,1,10,0:0:0:0:
169,185,341145,1,2,0:0:0:0:
233,228,341236,6,0,L|313:224,1,70,14|0,0:0|0:0,0:0:0:0:
380,220,341419,2,0,L|460:216,1,70
356,320,341602,6,0,L|276:316,1,70,2|0,0:0|0:0,0:0:0:0:
209,312,341785,2,0,L|129:308,1,70
44,204,341968,6,0,L|40:120,1,70,2|0,0:0|0:0,0:0:0:0:
108,92,342151,2,0,L|104:8,1,70,2|0,0:0|0:0,0:0:0:0:
236,68,342334,6,0,L|232:137,1,70,2|0,0:0|0:0,0:0:0:0:
300,179,342517,2,0,L|296:248,1,70,2|0,0:0|0:0,0:0:0:0:
472,28,342700,6,0,P|464:72|472:104,1,70,14|0,0:0|0:0,0:0:0:0:
496,168,342883,2,0,P|501:202|492:236,1,70
392,140,343065,6,0,P|400:184|392:216,1,70
368,280,343248,2,0,P|362:314|371:348,1,70
284,240,343431,6,0,P|244:232|200:236,1,70
136,244,343614,2,0,P|98:257|61:282,1,70
170,375,343797,6,0,P|189:339|201:296,1,70
214,233,343980,2,0,P|213:192|201:149,1,70
416,352,344163,6,0,L|424:272,1,70,14|0,0:0|0:0,0:0:0:0:
376,220,344346,2,0,L|368:140,1,70
288,36,344529,6,0,L|296:116,1,70,2|0,0:0|0:0,0:0:0:0:
248,168,344712,2,0,L|239:248,1,70
140,336,344895,6,0,L|216:332,1,70,2|0,0:0|0:0,0:0:0:0:
288,328,345078,2,0,L|364:324,1,70,2|0,0:0|0:0,0:0:0:0:
392,188,345261,6,0,L|316:184,1,70,2|0,0:0|0:0,0:0:0:0:
244,180,345444,2,0,L|168:176,1,70,2|0,0:0|0:0,0:0:0:0:
428,60,345626,6,0,P|440:104|440:132,1,70,14|0,0:0|0:0,0:0:0:0:
392,188,345809,2,0,P|380:232|380:260,1,70
256,324,345992,6,0,P|268:280|268:252,1,70,2|0,0:0|0:0,0:0:0:0:
220,196,346175,2,0,P|208:152|208:124,1,70
117,11,346358,6,0,P|76:4|37:6,1,70,2|0,0:0|0:0,0:0:0:0:
131,113,346541,2,0,P|93:96|54:88,1,70,2|0,0:0|0:0,0:0:0:0:
150,201,346724,6,0,P|190:194|230:197,1,70,2|0,0:0|0:0,0:0:0:0:
135,305,346907,2,0,P|172:288|211:280,1,70,2|0,0:0|0:0,0:0:0:0:
484,280,347090,6,0,L|492:200,1,70,14|0,0:0|0:0,0:0:0:0:
436,156,347273,2,0,L|428:76,1,70
296,44,347456,6,0,L|289:113,1,70,2|0,0:0|0:0,0:0:0:0:
234,168,347639,2,0,L|240:237,1,70
320,352,347822,6,0,L|400:348,1,70,2|0,0:0|0:0,0:0:0:0:
414,276,348005,2,0,L|483:279,1,70,2|0,0:0|0:0,0:0:0:0:
412,160,348187,6,0,L|332:156,1,70,2|0,0:0|0:0,0:0:0:0:
318,84,348370,2,0,L|248:87,1,70,2|0,0:0|0:0,0:0:0:0:
76,312,348553,6,0,P|68:272|76:228,1,70,14|0,0:0|0:0,0:0:0:0:
116,180,348736,2,0,P|118:145|111:111,1,70
236,176,348919,6,0,P|228:210|231:244,1,70,2|0,0:0|0:0,0:0:0:0:
275,308,349102,2,0,P|277:342|270:376,1,70
368,276,349285,6,0,P|406:271|448:272,1,70,2|0,0:0|0:0,0:0:0:0:
440,192,349468,2,0,P|474:191|509:187,1,70,2|0,0:0|0:0,0:0:0:0:
392,108,349651,6,0,P|354:112|312:112,1,70,2|0,0:0|0:0,0:0:0:0:
320,191,349834,2,0,P|285:191|250:195,1,70,2|0,0:0|0:0,0:0:0:0:
8,336,350017,6,0,L|4:256,1,70,14|0,0:0|0:0,0:0:0:0:
136,148,350200,1,2,0:0:0:0:
136,148,350291,2,0,L|132:217,1,70,8|2,0:0|0:0,0:0:0:0:
264,336,350474,1,2,0:0:0:0:
264,336,350565,2,0,L|260:266,1,70,8|0,0:0|0:0,0:0:0:0:
376,132,350748,1,0,0:0:0:0:
376,132,350839,2,0,L|372:201,1,70,8|2,0:0|0:0,0:0:0:0:
496,332,351023,5,2,0:0:0:0:
496,332,351114,2,0,L|492:262,1,70,8|0,0:0|0:0,0:0:0:0:
484,120,351297,2,0,L|480:50,1,70,8|0,0:0|0:0,0:0:0:0:
264,232,351480,5,14,0:0:0:0:
252,228,351572,1,0,0:0:0:0:
240,224,351663,2,0,L|236:148,1,70
340,296,351846,5,12,0:0:0:0:
352,292,351938,1,0,0:0:0:0:
364,288,352029,2,0,L|368:212,1,70
232,56,352212,5,14,0:0:0:0:
220,52,352303,1,0,0:0:0:0:
208,48,352395,2,0,L|116:44,1,70,2|0,0:0|0:0,0:0:0:0:
16,168,352578,5,14,0:0:0:0:
28,164,352669,1,0,0:0:0:0:
40,160,352761,1,2,0:0:0:0:
116,144,352852,1,2,0:0:0:0:
176,196,352944,6,0,P|252:204|396:156,1,210,6|8,0:0|0:0,0:0:0:0:
378,167,353675,1,0,0:0:0:0:
280,200,353858,1,0,0:0:0:0:
176,196,354041,1,8,0:0:0:0:
176,196,354407,5,0,0:0:0:0:
176,196,354773,1,8,0:0:0:0:
240,280,354956,1,0,0:0:0:0:
240,280,355047,1,0,0:0:0:0:
240,280,355139,1,8,0:0:0:0:
240,280,355505,1,0,0:0:0:0:
44,352,355870,6,0,L|40:236,1,105.000004005432,12|0,0:0|0:0,0:0:0:0:
124,180,356236,2,0,L|120:252,1,52.5000020027161
176,304,356419,1,0,0:0:0:0:
176,304,356511,1,0,0:0:0:0:
176,304,356602,2,0,P|232:308|384:260,1,210.000008010865
377,264,357059,1,0,0:0:0:0:
377,264,357151,1,0,0:0:0:0:
196,160,357334,6,0,L|188:36,1,105.000004005432,8|0,0:0|0:0,0:0:0:0:
189,55,357608,1,0,0:0:0:0:
189,55,357700,1,10,0:0:0:0:
300,232,358065,5,0,0:0:0:0:
300,232,358157,1,0,0:0:0:0:
300,232,358248,1,0,0:0:0:0:
204,276,358431,2,0,L|196:212,1,52.5000020027161
192,152,358614,1,0,0:0:0:0:
192,152,358706,1,0,0:0:0:0:
192,152,358797,6,0,P|248:141|320:141,1,105.000004005432,12|0,0:0|0:0,0:0:0:0:
400,164,359163,2,0,L|396:104,2,52.5000020027161
460,260,359529,1,8,0:0:0:0:
460,260,359620,1,0,0:0:0:0:
412,352,359803,1,8,0:0:0:0:
412,352,359894,1,0,0:0:0:0:
412,352,359986,1,0,0:0:0:0:
376,232,360169,5,8,0:0:0:0:
376,232,360261,1,0,0:0:0:0:
376,232,360352,1,0,0:0:0:0:
424,140,360535,1,8,0:0:0:0:
424,140,360626,1,0,0:0:0:0:
424,140,360718,1,0,0:0:0:0:
372,48,360901,5,8,0:0:0:0:
372,48,360992,1,0,0:0:0:0:
372,48,361084,1,0,0:0:0:0:
372,48,361175,1,0,0:0:0:0:
372,48,361267,1,2,0:0:0:0:
280,96,361450,1,2,0:0:0:0:
280,96,361541,1,0,0:0:0:0:
128,64,361724,5,8,0:0:0:0:
128,64,361785,1,0,0:0:0:0:
128,64,361846,1,0,0:0:0:0:
128,64,361907,2,0,L|132:120,2,35.0000013351441
140,204,362273,2,0,L|144:260,2,35.0000013351441
256,124,362639,2,0,L|260:180,2,35.0000013351441
332,88,362822,5,0,0:0:0:0:
332,88,362883,1,0,0:0:0:0:
332,88,362944,1,0,0:0:0:0:
332,88,363005,2,0,L|336:144,2,35.0000013351441
344,228,363370,2,0,L|348:284,2,35.0000013351441
472,168,363736,2,0,L|476:224,2,35.0000013351441
468,132,363919,6,0,B|416:140|416:140|308:132,1,140.000005340576,4|0,0:0|0:0,0:0:0:0:
260,120,364285,5,8,0:0:0:0:
263,189,364406,1,2,0:0:0:0:
267,259,364528,1,0,0:0:0:0:
270,329,364651,6,0,L|260:92,1,210.000008010865,12|8,0:0|0:0,0:0:0:0:
208,28,365200,1,0,0:0:0:0:
60,88,365383,6,0,L|56:216,1,105.000004005432,12|0,0:0|0:0,0:0:0:0:
92,292,365748,1,0,0:0:0:0:
92,292,365931,1,8,0:0:0:0:
240,240,366114,6,0,L|352:236,1,105.000004005432,12|0,0:0|0:0,0:0:0:0:
408,320,366480,1,0,0:0:0:0:
408,320,366663,1,8,0:0:0:0:
368,164,366846,6,0,L|360:52,1,105.000004005432,12|0,0:0|0:0,0:0:0:0:
280,128,367212,1,0,0:0:0:0:
444,92,367395,1,8,0:0:0:0:
168,24,367578,6,0,L|164:156,1,105.000004005432,12|0,0:0|0:0,0:0:0:0:
164,236,367944,1,0,0:0:0:0:
164,236,368126,1,8,0:0:0:0:
280,128,368309,6,0,L|276:260,1,105.000004005432,12|0,0:0|0:0,0:0:0:0:
276,340,368675,1,0,0:0:0:0:
276,340,368857,1,8,0:0:0:0:
392,24,369041,6,0,L|396:156,1,105.000004005432,12|0,0:0|0:0,0:0:0:0:
396,236,369407,1,0,0:0:0:0:
396,236,369589,1,8,0:0:0:0:
280,128,369773,6,0,L|284:260,1,105.000004005432,12|0,0:0|0:0,0:0:0:0:
284,340,370138,1,8,0:0:0:0:
200,280,370322,1,8,0:0:0:0:
376,312,370505,6,0,L|496:308,1,105.000004005432,12|0,0:0|0:0,0:0:0:0:
476,204,370870,1,0,0:0:0:0:
476,204,371053,1,8,0:0:0:0:
348,112,371236,6,0,L|468:108,1,105.000004005432,12|0,0:0|0:0,0:0:0:0:
448,4,371601,1,0,0:0:0:0:
448,4,371784,1,0,0:0:0:0:
336,244,371968,5,12,0:0:0:0:
336,244,372151,1,2,0:0:0:0:
128,280,372517,1,8,0:0:0:0:
300,160,372700,6,0,L|296:40,1,105.000004005432,12|0,0:0|0:0,0:0:0:0:
220,172,372974,2,0,L|205:52,1,105.000004005432,2|0,0:0|0:0,0:0:0:0:
144,192,373248,2,0,L|128:124,1,52.5000020027161,2|0,0:0|0:0,0:0:0:0:
232,260,373431,6,0,L|228:344,1,70,10|0,0:0|0:0,0:0:0:0:
260,368,373706,2,0,L|264:204,1,140,12|0,0:0|0:0,0:0:0:0:
332,351,373980,2,0,L|333:269,1,70,8|0,0:0|0:0,0:0:0:0:
144,192,374163,6,0,L|148:276,1,70,10|0,0:0|0:0,0:0:0:0:
116,300,374438,2,0,L|112:136,1,140,12|0,0:0|0:0,0:0:0:0:
44,283,374712,2,0,L|43:201,1,70,2|0,0:0|0:0,0:0:0:0:
116,72,374895,6,0,B|156:60|156:60|272:68,1,140.000005340576,10|0,0:0|0:0,0:0:0:0:
256,140,375261,5,8,0:0:0:0:
325,137,375382,1,2,0:0:0:0:
395,135,375504,1,8,0:0:0:0:
184,144,375748,6,0,L|192:224,1,70.0000026702882
108,100,375992,5,8,0:0:0:0:
106,169,376113,1,2,0:0:0:0:
105,239,376235,1,8,0:0:0:0:
104,309,376358,6,0,L|328:300,1,210.000008010865,12|8,0:0|0:0,0:0:0:0:
313,300,376907,1,2,0:0:0:0:
436,200,377090,6,0,L|440:88,1,105.000004005432,12|0,0:0|0:0,0:0:0:0:
439,95,377456,1,0,0:0:0:0:
439,95,377639,1,8,0:0:0:0:
328,204,377822,6,0,L|208:200,1,105.000004005432,12|0,0:0|0:0,0:0:0:0:
223,200,378187,1,0,0:0:0:0:
223,200,378370,1,8,0:0:0:0:
140,64,378553,6,0,L|260:60,1,105.000004005432,12|0,0:0|0:0,0:0:0:0:
348,60,378918,1,0,0:0:0:0:
508,8,379101,1,8,0:0:0:0:
296,196,379285,6,0,L|68:192,1,210,12|0,0:0|0:0,0:0:0:0:
12,216,380017,2,0,L|16:280,1,52.5000020027161,8|0,0:0|0:0,0:0:0:0:
88,304,380200,2,0,L|84:384,1,70,0|8,0:0|0:0,0:0:0:0:
96,228,380565,1,2,0:0:0:0:
220,324,380748,6,0,B|332:320,1,105.000004005432,12|0,0:0|0:0,0:0:0:0:
324,320,381114,1,0,0:0:0:0:
324,320,381297,1,8,0:0:0:0:
436,208,381480,6,0,B|324:204,1,105.000004005432,12|0,0:0|0:0,0:0:0:0:
331,204,381846,1,0,0:0:0:0:
331,204,382029,1,8,0:0:0:0:
76,48,382212,6,0,L|20:44,1,52.5000020027161,12|0,0:0|0:0,0:0:0:0:
180,44,382395,2,0,L|236:40,1,52.5000020027161,2|0,0:0|0:0,0:0:0:0:
76,144,382578,6,0,L|20:132,1,52.5000020027161,8|0,0:0|0:0,0:0:0:0:
180,140,382761,2,0,L|236:128,1,52.5000020027161,2|0,0:0|0:0,0:0:0:0:
76,240,382944,6,0,L|76:300,1,52.5000020027161,8|0,0:0|0:0,0:0:0:0:
184,240,383126,2,0,L|184:300,1,52.5000020027161,2|0,0:0|0:0,0:0:0:0:
4,240,383309,6,0,L|4:300,1,52.5000020027161,10|0,0:0|0:0,0:0:0:0:
256,240,383492,2,0,L|256:300,1,52.5000020027161,10|0,0:0|0:0,0:0:0:0:
328,48,383675,6,0,L|275:44,1,52.5000020027161,12|0,0:0|0:0,0:0:0:0:
432,44,383858,2,0,L|484:40,1,52.5000020027161,2|0,0:0|0:0,0:0:0:0:
328,144,384041,6,0,L|276:132,1,52.5000020027161,8|0,0:0|0:0,0:0:0:0:
432,140,384224,2,0,L|483:128,1,52.5000020027161,2|0,0:0|0:0,0:0:0:0:
328,240,384407,6,0,L|328:292,1,52.5000020027161,8|0,0:0|0:0,0:0:0:0:
436,240,384589,2,0,L|436:292,1,52.5000020027161,2|0,0:0|0:0,0:0:0:0:
256,240,384772,6,0,L|256:292,1,52.5000020027161,10|0,0:0|0:0,0:0:0:0:
508,240,384955,2,0,L|508:292,1,52.5000020027161,10|0,0:0|0:0,0:0:0:0:
380,68,385139,6,0,L|380:176,1,105.000004005432,12|0,0:0|0:0,0:0:0:0:
296,24,385413,2,0,L|296:132,1,105.000004005432,10|0,0:0|0:0,0:0:0:0:
296,208,385687,2,0,L|296:268,1,52.5000020027161,8|0,0:0|0:0,0:0:0:0:
132,68,385870,6,0,L|132:176,1,105.000004005432,12|0,0:0|0:0,0:0:0:0:
216,24,386145,2,0,L|216:132,1,105.000004005432,10|0,0:0|0:0,0:0:0:0:
216,208,386419,2,0,L|216:268,1,52.5000020027161,8|0,0:0|0:0,0:0:0:0:
290,286,386602,5,0,0:0:0:0:
368,292,386693,1,0,0:0:0:0:
374,214,386784,1,0,0:0:0:0:
296,208,386876,1,0,0:0:0:0:
216,208,386968,5,0,0:0:0:0:
139,227,387060,1,0,0:0:0:0:
96,161,387151,1,0,0:0:0:0:
146,100,387243,1,0,0:0:0:0:
219,129,387334,6,0,L|224:72,1,52.5000020027161,8|0,0:0|0:0,0:0:0:0:
292,100,387517,2,0,L|296:152,1,52.5000020027161,10|0,0:0|0:0,0:0:0:0:
364,128,387700,2,0,L|369:71,1,52.5000020027161,8|0,0:0|0:0,0:0:0:0:
437,99,387883,2,0,L|441:151,1,52.5000020027161,10|0,0:0|0:0,0:0:0:0:
456,340,388065,6,0,L|468:124,1,210.000008010865,12|0,0:0|0:0,0:0:0:0:
56,340,388431,2,0,L|44:124,1,210.000008010865,12|0,0:0|0:0,0:0:0:0:
456,340,388797,6,0,L|468:124,1,210.000008010865,12|0,0:0|0:0,0:0:0:0:
256,192,389072,1,2,0:0:0:0:
256,192,389163,2,0,L|262:296,1,105.000004005432,8|0,0:0|0:0,0:0:0:0:
456,340,389346,2,0,L|462:221,1,105.000004005432,10|0,0:0|0:0,0:0:0:0:
44,130,389529,6,0,L|56:340,1,210.000008010865,12|0,0:0|0:0,0:0:0:0:
467,130,389895,2,0,L|456:340,1,210.000008010865,12|0,0:0|0:0,0:0:0:0:
44,130,390261,6,0,L|56:340,1,210.000008010865,12|0,0:0|0:0,0:0:0:0:
250,296,390535,1,2,0:0:0:0:
250,296,390626,2,0,L|256:192,1,105.000004005432,8|0,0:0|0:0,0:0:0:0:
160,116,390809,2,0,L|166:220,1,105.000004005432,10|0,0:0|0:0,0:0:0:0:
332,280,390992,6,0,L|340:132,1,140,12|0,0:0|0:0,0:0:0:0:
248,32,391267,1,2,0:0:0:0:
248,32,391358,2,0,L|255:171,1,140,8|0,0:0|0:0,0:0:0:0:
344,56,391633,5,2,0:0:0:0:
344,56,391724,2,0,L|334:195,1,140,8|0,0:0|0:0,0:0:0:0:
440,96,391998,5,2,0:0:0:0:
440,96,392090,2,0,L|413:233,1,140,8|0,0:0|0:0,0:0:0:0:
256,312,392364,5,2,0:0:0:0:
256,312,392456,2,0,P|180:320|96:304,1,140,8|0,0:0|0:0,0:0:0:0:
232,228,392730,5,2,0:0:0:0:
232,228,392822,2,0,P|308:236|392:220,1,140,8|0,0:0|0:0,0:0:0:0:
260,148,393096,5,2,0:0:0:0:
260,148,393188,2,0,P|184:156|100:140,1,140,8|0,0:0|0:0,0:0:0:0:
240,72,393462,5,2,0:0:0:0:
240,72,393553,2,0,L|244:0,1,70,8|0,0:0|0:0,0:0:0:0:
117,76,393736,2,0,L|120:145,1,70,8|0,0:0|0:0,0:0:0:0:
56,328,393919,6,0,L|44:112,1,210.000008010865,12|0,0:0|0:0,0:0:0:0:
456,328,394285,2,0,L|468:112,1,210.000008010865,12|0,0:0|0:0,0:0:0:0:
56,328,394651,6,0,L|44:112,1,210.000008010865,12|0,0:0|0:0,0:0:0:0:
256,180,394926,1,2,0:0:0:0:
256,180,395017,2,0,L|248:284,1,105.000004005432,8|0,0:0|0:0,0:0:0:0:
56,328,395200,2,0,L|50:209,1,105.000004005432,10|0,0:0|0:0,0:0:0:0:
467,118,395383,6,0,L|456:328,1,210.000008010865,12|0,0:0|0:0,0:0:0:0:
44,118,395748,2,0,L|56:328,1,210.000008010865,12|0,0:0|0:0,0:0:0:0:
467,118,396114,6,0,L|456:328,1,210.000008010865,12|0,0:0|0:0,0:0:0:0:
248,284,396389,1,2,0:0:0:0:
248,284,396480,2,0,L|256:180,1,105.000004005432,8|0,0:0|0:0,0:0:0:0:
340,92,396663,2,0,L|348:196,1,105.000004005432,10|0,0:0|0:0,0:0:0:0:
172,224,396846,6,0,L|184:80,1,140,12|0,0:0|0:0,0:0:0:0:
308,20,397120,1,2,0:0:0:0:
308,20,397212,2,0,L|315:159,1,140,8|0,0:0|0:0,0:0:0:0:
404,44,397486,5,2,0:0:0:0:
404,44,397578,2,0,L|394:183,1,140,8|0,0:0|0:0,0:0:0:0:
500,84,397851,5,2,0:0:0:0:
500,84,397943,2,0,L|473:221,1,140,8|0,0:0|0:0,0:0:0:0:
340,340,398218,5,2,0:0:0:0:
340,340,398309,2,0,P|260:344|184:332,1,140,8|0,0:0|0:0,0:0:0:0:
320,256,398584,5,2,0:0:0:0:
320,256,398675,2,0,P|239:253|165:234,1,140,8|0,0:0|0:0,0:0:0:0:
304,166,398950,5,2,0:0:0:0:
304,166,399041,2,0,P|224:156|151:131,1,140,8|0,0:0|0:0,0:0:0:0:
100,56,399315,5,2,0:0:0:0:
100,56,399407,1,10,0:0:0:0:
172,28,399498,1,0,0:0:0:0:
196,102,399590,1,8,0:0:0:0:
124,126,399681,1,0,0:0:0:0:
48,112,399773,6,0,L|56:336,1,210.000008010865,12|0,0:0|0:0,0:0:0:0:
464,112,400139,2,0,L|456:336,1,210.000008010865,12|0,0:0|0:0,0:0:0:0:
48,112,400505,6,0,L|56:336,1,210.000008010865,12|0,0:0|0:0,0:0:0:0:
256,248,400779,1,2,0:0:0:0:
256,248,400870,2,0,L|264:136,1,105.000004005432,8|0,0:0|0:0,0:0:0:0:
48,112,401053,2,0,L|51:221,1,105.000004005432,10|0,0:0|0:0,0:0:0:0:
456,321,401236,6,0,L|464:112,1,210.000008010865,12|0,0:0|0:0,0:0:0:0:
55,321,401602,2,0,L|48:112,1,210.000008010865,12|0,0:0|0:0,0:0:0:0:
456,321,401968,6,0,L|464:112,1,210.000008010865,12|0,0:0|0:0,0:0:0:0:
248,143,402243,1,2,0:0:0:0:
248,143,402334,2,0,L|256:248,1,105.000004005432,8|0,0:0|0:0,0:0:0:0:
336,336,402517,2,0,L|344:231,1,105.000004005432,10|0,0:0|0:0,0:0:0:0:
172,180,402700,6,0,L|184:344,1,140,12|0,0:0|0:0,0:0:0:0:
308,256,402974,1,2,0:0:0:0:
308,256,403065,2,0,L|318:116,1,140,8|0,0:0|0:0,0:0:0:0:
404,232,403340,5,2,0:0:0:0:
404,232,403431,2,0,L|397:92,1,140,8|0,0:0|0:0,0:0:0:0:
500,200,403706,5,2,0:0:0:0:
500,200,403797,2,0,L|476:62,1,140,8|0,0:0|0:0,0:0:0:0:
300,28,404072,5,2,0:0:0:0:
300,28,404163,2,0,P|244:20|148:28,1,140,8|0,0:0|0:0,0:0:0:0:
276,108,404437,5,2,0:0:0:0:
276,108,404529,2,0,P|332:100|428:108,1,140,8|0,0:0|0:0,0:0:0:0:
300,192,404803,5,2,0:0:0:0:
300,192,404895,2,0,P|244:184|148:192,1,140,8|0,0:0|0:0,0:0:0:0:
280,268,405169,5,2,0:0:0:0:
280,268,405261,2,0,L|284:344,1,70,8|0,0:0|0:0,0:0:0:0:
157,259,405444,2,0,L|160:189,1,70,8|0,0:0|0:0,0:0:0:0:
28,28,405626,6,0,L|40:238,1,210.000008010865,12|0,0:0|0:0,0:0:0:0:
484,28,405992,2,0,L|472:238,1,210.000008010865,12|0,0:0|0:0,0:0:0:0:
28,28,406358,6,0,L|40:238,1,210.000008010865,12|0,0:0|0:0,0:0:0:0:
256,204,406633,1,2,0:0:0:0:
256,204,406724,2,0,L|264:96,1,105.000004005432,8|0,0:0|0:0,0:0:0:0:
28,28,406907,2,0,L|34:133,1,105.000004005432,10|0,0:0|0:0,0:0:0:0:
472,238,407090,6,0,L|484:28,1,210.000008010865,12|0,0:0|0:0,0:0:0:0:
40,238,407456,2,0,L|28:28,1,210.000008010865,12|0,0:0|0:0,0:0:0:0:
472,238,407822,6,0,L|484:28,1,210.000008010865,12|0,0:0|0:0,0:0:0:0:
248,99,408096,1,2,0:0:0:0:
248,99,408187,2,0,L|256:204,1,105.000004005432,8|0,0:0|0:0,0:0:0:0:
340,292,408370,2,0,L|347:187,1,105.000004005432,10|0,0:0|0:0,0:0:0:0:
172,160,408553,6,0,L|180:304,1,140,12|0,0:0|0:0,0:0:0:0:
308,360,408828,1,2,0:0:0:0:
308,360,408919,2,0,L|315:220,1,140,8|0,0:0|0:0,0:0:0:0:
396,336,409194,5,2,0:0:0:0:
396,336,409285,2,0,L|386:196,1,140,8|0,0:0|0:0,0:0:0:0:
480,300,409559,5,2,0:0:0:0:
480,300,409651,2,0,L|453:162,1,140,8|0,0:0|0:0,0:0:0:0:
324,40,409925,5,2,0:0:0:0:
324,40,410017,2,0,P|240:36|160:48,1,140,12|0,0:0|0:0,0:0:0:0:
96,152,410291,5,2,0:0:0:0:
96,152,410383,2,0,P|180:148|260:160,1,140,8|0,0:0|0:0,0:0:0:0:
316,272,410657,5,2,0:0:0:0:
316,272,410749,2,0,P|232:268|152:280,1,140,8|0,0:0|0:0,0:0:0:0:
80,376,411023,5,2,0:0:0:0:
80,376,411115,2,0,P|164:372|244:384,1,140,8|0,0:0|0:0,0:0:0:0:
396,360,411389,5,2,0:0:0:0:
396,360,411480,2,0,L|408:220,1,140,8|0,0:0|0:0,0:0:0:0:
488,340,411755,1,2,0:0:0:0:
488,340,411846,2,0,L|500:200,1,140,12|0,0:0|0:0,0:0:0:0:
380,272,412120,5,2,0:0:0:0:
380,272,412212,2,0,L|368:132,1,140,12|0,0:0|0:0,0:0:0:0:
288,252,412486,1,2,0:0:0:0:
288,252,412578,2,0,L|276:112,1,140,8|0,0:0|0:0,0:0:0:0:
124,20,412852,5,2,0:0:0:0:
124,20,412944,2,0,P|40:16|-20:20,1,140,8|0,0:0|0:0,0:0:0:0:
72,128,413218,1,2,0:0:0:0:
72,128,413310,2,0,P|155:116|215:115,1,140,12|0,0:0|0:0,0:0:0:0:
296,228,413584,5,2,0:0:0:0:
296,228,413676,2,0,P|212:224|152:228,1,140,12|0,0:0|0:0,0:0:0:0:
244,336,413950,1,2,0:0:0:0:
244,336,414042,2,0,P|327:324|387:323,1,140,8|0,0:0|0:0,0:0:0:0:
512,372,414315,5,2,0:0:0:0:
512,372,414407,2,0,L|516:84,1,280,12|0,0:0|0:0,0:0:0:0:
0,372,414773,2,0,L|-4:84,1,280,12|0,0:0|0:0,0:0:0:0:
512,372,415139,6,0,L|516:84,1,280,12|0,0:0|0:0,0:0:0:0:
0,372,415505,2,0,L|-4:84,1,280,12|0,0:0|0:0,0:0:0:0:
256,0,415870,6,0,L|256:304,1,280,12|0,0:0|0:0,0:0:0:0:
256,376,416236,1,4,0:1:0:0:
256,280,416419,1,8,0:1:0:0:
256,184,416602,1,4,0:1:0:0:
256,92,416785,1,8,0:1:0:0:
256,0,416968,1,8,0:0:0:0:
229,3,417059,1,0,0:0:0:0:
203,6,417150,1,8,0:0:0:0:
177,9,417242,1,0,0:0:0:0:
152,12,417334,5,12,0:0:0:0:
83,50,417425,1,0,0:0:0:0:
61,125,417516,1,0,0:0:0:0:
97,194,417608,1,0,0:0:0:0:
172,218,417699,1,0,0:0:0:0:
242,183,417791,1,0,0:0:0:0:
268,109,417882,5,8,0:0:0:0:
337,72,417974,1,0,0:0:0:0:
412,94,418065,1,0,0:0:0:0:
450,163,418157,1,0,0:0:0:0:
428,238,418248,1,8,0:0:0:0:
359,276,418340,1,0,0:0:0:0:
283,254,418431,5,8,0:0:0:0:
295,331,418522,1,0,0:0:0:0:
366,361,418614,2,0,P|411:359|456:344,1,80.5000015354157,10|0,0:0|0:0,0:0:0:0:
284,180,418797,5,12,0:0:0:0:
208,159,418888,1,0,0:0:0:0:
139,197,418979,1,0,0:0:0:0:
116,272,419071,1,0,0:0:0:0:
153,342,419162,1,0,0:0:0:0:
227,367,419254,1,0,0:0:0:0:
295,331,419346,5,8,0:0:0:0:
246,269,419437,1,0,0:0:0:0:
241,190,419528,1,0,0:0:0:0:
283,123,419620,1,0,0:0:0:0:
356,92,419711,1,8,0:0:0:0:
433,110,419803,1,0,0:0:0:0:
486,169,419894,5,8,0:0:0:0:
462,244,419986,1,0,0:0:0:0:
482,321,420078,2,0,P|440:322|395:299,1,80.5000015354157,10|0,0:0|0:0,0:0:0:0:
240,144,420261,5,12,0:0:0:0:
163,145,420352,1,0,0:0:0:0:
128,213,420443,1,0,0:0:0:0:
173,276,420535,1,0,0:0:0:0:
246,269,420626,1,0,0:0:0:0:
260,288,420718,1,0,0:0:0:0:
276,308,420809,2,0,L|364:304,1,80.5000015354157,10|0,0:0|0:0,0:0:0:0:
396,72,420992,5,12,0:0:0:0:
472,73,421083,1,0,0:0:0:0:
507,141,421174,1,0,0:0:0:0:
462,204,421266,1,0,0:0:0:0:
390,197,421357,1,0,0:0:0:0:
376,216,421449,1,0,0:0:0:0:
360,236,421541,2,0,L|272:232,1,80.5000015354157,10|0,0:0|0:0,0:0:0:0:
136,156,421724,6,0,P|180:152|220:140,1,80.5000015354157,12|0,0:0|0:0,0:0:0:0:
276,96,421907,2,0,P|294:55|304:15,1,80.5000015354157,6|0,0:0|0:0,0:0:0:0:
168,60,422090,6,0,P|199:91|234:114,1,80.5000015354157,12|0,0:0|0:0,0:0:0:0:
303,128,422273,2,0,P|346:116|382:97,1,80.5000015354157,12|0,0:0|0:0,0:0:0:0:
462,100,422456,5,12,0:0:0:0:
462,100,422547,1,0,0:0:0:0:
462,100,422639,2,0,P|439:138|426:177,1,80.5000015354157
431,247,422822,5,8,0:0:0:0:
431,247,422913,1,0,0:0:0:0:
431,247,423005,2,0,P|453:285|481:316,1,80.5000015354157
320,140,423187,5,12,0:0:0:0:
243,123,423278,1,0,0:0:0:0:
179,168,423369,1,0,0:0:0:0:
167,245,423461,1,0,0:0:0:0:
215,307,423552,1,0,0:0:0:0:
293,314,423644,1,0,0:0:0:0:
352,262,423736,5,8,0:0:0:0:
319,189,423827,1,0,0:0:0:0:
252,147,423918,1,0,0:0:0:0:
173,148,424010,1,0,0:0:0:0:
108,193,424101,1,8,0:0:0:0:
78,267,424193,1,0,0:0:0:0:
94,344,424285,5,8,0:0:0:0:
172,328,424376,1,0,0:0:0:0:
251,342,424468,2,0,P|296:344|340:332,1,80.5000015354157,10|0,0:0|0:0,0:0:0:0:
450,133,424651,5,12,0:0:0:0:
371,131,424742,1,0,0:0:0:0:
319,189,424833,1,0,0:0:0:0:
330,266,424925,1,0,0:0:0:0:
395,309,425016,1,0,0:0:0:0:
471,286,425108,1,0,0:0:0:0:
499,214,425199,5,8,0:0:0:0:
424,193,425291,1,0,0:0:0:0:
344,195,425382,1,0,0:0:0:0:
267,220,425474,1,0,0:0:0:0:
189,238,425565,1,8,0:0:0:0:
109,233,425657,1,0,0:0:0:0:
32,212,425748,5,8,0:0:0:0:
51,135,425839,1,0,0:0:0:0:
28,59,425931,2,0,P|68:48|112:44,1,80.5000015354157,10|0,0:0|0:0,0:0:0:0:
332,116,426114,5,12,0:0:0:0:
406,125,426205,1,0,0:0:0:0:
440,58,426296,1,0,0:0:0:0:
387,4,426388,1,0,0:0:0:0:
319,36,426479,1,0,0:0:0:0:
296,24,426572,1,0,0:0:0:0:
276,12,426663,2,0,L|192:8,1,80.5000015354157,10|0,0:0|0:0,0:0:0:0:
116,228,426846,5,12,0:0:0:0:
41,237,426937,1,0,0:0:0:0:
7,170,427028,1,0,0:0:0:0:
60,116,427120,1,0,0:0:0:0:
128,148,427211,1,0,0:0:0:0:
152,136,427304,1,0,0:0:0:0:
172,124,427395,2,0,L|256:120,1,80.5000015354157,10|0,0:0|0:0,0:0:0:0:
404,169,427578,54,0,P|370:173|325:161,1,80.5000015354157,12|0,0:0|0:0,0:0:0:0:
466,131,427761,2,0,P|485:101|493:53,1,80.5000015354157,6|0,0:0|0:0,0:0:0:0:
425,206,427944,6,0,P|410:236|376:270,1,80.5000015354157,12|0,0:0|0:0,0:0:0:0:
428,129,428126,2,0,P|411:98|378:68,1,80.5000015354157,12|0,0:0|0:0,0:0:0:0:
500,204,428309,5,12,0:0:0:0:
498,284,428400,1,0,0:0:0:0:
497,364,428491,1,8,0:0:0:0:
481,362,428583,1,0,0:0:0:0:
465,360,428674,1,8,0:0:0:0:
449,358,428766,1,0,0:0:0:0:
433,356,428858,2,0,L|349:352,1,80.5000015354157,10|0,0:0|0:0,0:0:0:0:
128,284,429041,5,12,0:0:0:0:
121,205,429132,1,0,0:0:0:0:
174,147,429223,1,0,0:0:0:0:
252,144,429315,1,0,0:0:0:0:
308,199,429406,1,0,0:0:0:0:
307,277,429498,1,0,0:0:0:0:
249,331,429590,5,8,0:0:0:0:
235,253,429681,1,0,0:0:0:0:
269,182,429772,1,0,0:0:0:0:
338,144,429864,1,0,0:0:0:0:
417,155,429955,1,8,0:0:0:0:
474,210,430047,1,0,0:0:0:0:
487,288,430138,5,8,0:0:0:0:
507,210,430230,1,0,0:0:0:0:
490,133,430322,2,0,P|484:90|492:44,1,80.5000015354157,10|0,0:0|0:0,0:0:0:0:
352,244,430505,5,12,0:0:0:0:
275,261,430596,1,0,0:0:0:0:
204,226,430687,1,0,0:0:0:0:
172,154,430779,1,0,0:0:0:0:
194,78,430870,1,0,0:0:0:0:
259,33,430962,1,0,0:0:0:0:
338,41,431053,5,8,0:0:0:0:
340,120,431144,1,0,0:0:0:0:
307,193,431235,1,0,0:0:0:0:
245,243,431327,1,0,0:0:0:0:
167,261,431418,1,8,0:0:0:0:
90,242,431510,1,0,0:0:0:0:
29,191,431602,5,8,0:0:0:0:
22,111,431693,1,0,0:0:0:0:
16,31,431785,2,0,L|-8:117,1,80.5000015354157,10|0,0:0|0:0,0:0:0:0:
224,156,431968,5,12,0:0:0:0:
304,157,432059,1,0,0:0:0:0:
379,130,432151,2,0,P|424:124|472:128,1,80.5000015354157,10|0,0:0|0:0,0:0:0:0:
510,356,432334,5,12,0:0:0:0:
431,357,432425,1,0,0:0:0:0:
356,330,432517,2,0,P|311:323|263:327,1,80.5000015354157,10|0,0:0|0:0,0:0:0:0:
44,365,432700,5,12,0:0:0:0:
60,286,432791,1,0,0:0:0:0:
42,209,432883,2,0,P|36:166|45:106,1,80.5000015354157,10|0,0:0|0:0,0:0:0:0:
249,31,433065,5,12,0:0:0:0:
232,109,433156,1,0,0:0:0:0:
250,186,433248,2,0,P|256:229|247:289,1,80.5000015354157,10|0,0:0|0:0,0:0:0:0:
496,75,433431,6,0,P|454:66|407:71,1,80.5000015354157,12|0,0:0|0:0,0:0:0:0:
295,120,433614,2,0,P|267:149|249:185,1,80.5000015354157,12|0,0:0|0:0,0:0:0:0:
406,201,433797,6,0,P|393:161|364:122,1,80.5000015354157,12|0,0:0|0:0,0:0:0:0:
294,48,433980,2,0,P|254:39|215:42,1,80.5000015354157,12|0,0:0|0:0,0:0:0:0:
105,80,434162,5,12,0:0:0:0:
105,80,434254,1,0,0:0:0:0:
105,80,434345,2,0,P|78:109|60:146,1,80.5000015354157
43,251,434528,5,8,0:0:0:0:
43,251,434620,1,0,0:0:0:0:
43,251,434711,2,0,P|55:289|77:323,1,80.5000015354157
312,364,434895,5,12,0:0:0:0:
390,364,434986,1,0,0:0:0:0:
445,308,435077,1,0,0:0:0:0:
442,230,435169,1,0,0:0:0:0:
384,177,435260,1,0,0:0:0:0:
306,183,435352,1,0,0:0:0:0:
256,243,435444,5,8,0:0:0:0:
205,303,435535,1,0,0:0:0:0:
127,308,435627,1,0,0:0:0:0:
69,256,435718,1,0,0:0:0:0:
67,177,435810,1,8,0:0:0:0:
121,121,435901,1,0,0:0:0:0:
200,122,435992,5,8,0:0:0:0:
178,197,436083,1,0,0:0:0:0:
220,263,436175,2,0,P|264:268|304:256,1,80.5000015354157,10|0,0:0|0:0,0:0:0:0:
472,100,436358,5,12,0:0:0:0:
394,88,436449,1,0,0:0:0:0:
333,137,436540,1,0,0:0:0:0:
326,215,436632,1,0,0:0:0:0:
377,273,436723,1,0,0:0:0:0:
456,276,436815,1,0,0:0:0:0:
511,221,436906,5,8,0:0:0:0:
435,196,436998,1,0,0:0:0:0:
356,179,437089,1,0,0:0:0:0:
276,170,437181,1,0,0:0:0:0:
196,169,437272,1,8,0:0:0:0:
116,176,437364,1,0,0:0:0:0:
36,190,437456,5,8,0:0:0:0:
42,270,437547,1,0,0:0:0:0:
47,350,437639,2,0,P|92:351|128:339,1,80.5000015354157,10|0,0:0|0:0,0:0:0:0:
342,252,437822,5,12,0:0:0:0:
262,247,437913,1,0,0:0:0:0:
182,242,438004,1,0,0:0:0:0:
102,237,438096,1,0,0:0:0:0:
22,232,438187,1,0,0:0:0:0:
32,212,438279,1,0,0:0:0:0:
44,192,438370,2,0,L|32:92,1,80.5000015354157,10|0,0:0|0:0,0:0:0:0:
136,324,438553,5,12,0:0:0:0:
216,319,438644,1,0,0:0:0:0:
296,314,438735,1,0,0:0:0:0:
376,309,438827,1,0,0:0:0:0:
456,304,438918,1,0,0:0:0:0:
447,284,439010,1,0,0:0:0:0:
435,264,439102,2,0,L|447:164,1,80.5000015354157,10|0,0:0|0:0,0:0:0:0:
140,28,439285,6,0,L|144:177,1,140,6|0,0:0|0:0,0:0:0:0:
372,28,439559,2,0,L|368:177,1,140,6|0,0:0|0:0,0:0:0:0:
140,28,439834,6,0,L|144:177,1,140,6|0,0:0|0:0,0:0:0:0:
372,28,440017,2,0,L|368:177,1,140,6|0,0:0|0:0,0:0:0:0:
256,252,440200,5,0,0:0:0:0:
252,240,440291,1,0,0:0:0:0:
256,228,440383,1,0,0:0:0:0:
288,287,440474,1,0,0:0:0:0:
263,351,440565,1,0,0:0:0:0:
199,373,440657,1,0,0:0:0:0:
140,339,440748,5,12,0:0:0:0:
183,274,440839,1,0,0:0:0:0:
160,199,440930,1,0,0:0:0:0:
89,167,441022,1,0,0:0:0:0:
18,200,441113,1,0,0:0:0:0:
0,276,441205,1,0,0:0:0:0:
41,340,441297,5,8,0:0:0:0:
117,314,441388,1,0,0:0:0:0:
197,303,441479,1,0,0:0:0:0:
276,313,441571,1,0,0:0:0:0:
354,333,441662,1,8,0:0:0:0:
434,339,441754,1,0,0:0:0:0:
512,330,441845,5,8,0:0:0:0:
489,254,441937,1,0,0:0:0:0:
501,175,442029,2,0,P|508:136|500:80,1,80.5000015354157,10|0,0:0|0:0,0:0:0:0:
284,12,442212,5,12,0:0:0:0:
224,62,442303,1,0,0:0:0:0:
220,141,442394,1,0,0:0:0:0:
274,197,442486,1,0,0:0:0:0:
353,197,442577,1,0,0:0:0:0:
406,139,442669,1,0,0:0:0:0:
401,61,442760,5,8,0:0:0:0:
357,128,442852,1,0,0:0:0:0:
289,170,442943,1,0,0:0:0:0:
210,178,443035,1,0,0:0:0:0:
134,153,443126,1,8,0:0:0:0:
77,97,443218,1,0,0:0:0:0:
49,22,443309,5,8,0:0:0:0:
36,101,443400,1,0,0:0:0:0:
58,178,443492,2,0,P|64:228|56:268,1,80.5000015354157,10|0,0:0|0:0,0:0:0:0:
268,360,443675,5,12,0:0:0:0:
345,358,443766,1,0,0:0:0:0:
388,294,443857,1,0,0:0:0:0:
359,222,443949,1,0,0:0:0:0:
284,205,444040,1,0,0:0:0:0:
296,184,444133,1,0,0:0:0:0:
308,164,444224,2,0,L|392:144,1,80.5000015354157,10|0,0:0|0:0,0:0:0:0:
172,244,444407,5,12,0:0:0:0:
94,242,444498,1,0,0:0:0:0:
51,178,444589,1,0,0:0:0:0:
80,106,444681,1,0,0:0:0:0:
155,89,444772,1,0,0:0:0:0:
144,68,444865,1,0,0:0:0:0:
132,48,444956,2,0,L|48:28,1,80.5000015354157,10|0,0:0|0:0,0:0:0:0:
137,168,445139,6,0,P|185:168|233:148,1,80.5000015354157,12|0,0:0|0:0,0:0:0:0:
273,104,445322,2,0,P|293:69|304:31,1,80.5000015354157,12|0,0:0|0:0,0:0:0:0:
168,56,445505,6,0,P|187:91|216:118,1,80.5000015354157,12|0,0:0|0:0,0:0:0:0:
290,142,445688,2,0,P|330:143|369:133,1,80.5000015354157,12|0,0:0|0:0,0:0:0:0:
444,160,445870,5,12,0:0:0:0:
444,160,445962,1,0,0:0:0:0:
444,160,446053,2,0,P|417:190|401:227,1,80.5000015354157
404,303,446236,5,8,0:0:0:0:
404,303,446328,1,0,0:0:0:0:
404,303,446419,2,0,P|416:341|439:374,1,80.5000015354157
280,200,446602,5,12,0:0:0:0:
208,167,446693,1,0,0:0:0:0:
134,194,446784,1,0,0:0:0:0:
100,265,446876,1,0,0:0:0:0:
126,339,446967,1,0,0:0:0:0:
196,375,447059,1,0,0:0:0:0:
271,351,447151,5,8,0:0:0:0:
234,280,447242,1,0,0:0:0:0:
235,201,447333,1,0,0:0:0:0:
276,132,447425,1,0,0:0:0:0:
344,92,447516,1,8,0:0:0:0:
424,90,447608,1,0,0:0:0:0:
494,127,447699,5,8,0:0:0:0:
476,204,447791,1,0,0:0:0:0:
500,279,447883,2,0,P|504:328|488:368,1,80.5000015354157,10|0,0:0|0:0,0:0:0:0:
324,200,448065,5,12,0:0:0:0:
254,164,448156,1,0,0:0:0:0:
183,194,448247,1,0,0:0:0:0:
161,269,448339,1,0,0:0:0:0:
205,333,448430,1,0,0:0:0:0:
283,340,448522,1,0,0:0:0:0:
337,284,448613,5,8,0:0:0:0:
262,260,448705,1,0,0:0:0:0:
216,195,448796,1,0,0:0:0:0:
218,116,448888,1,0,0:0:0:0:
268,54,448979,1,8,0:0:0:0:
344,35,449071,1,0,0:0:0:0:
417,66,449163,5,8,0:0:0:0:
389,138,449254,1,0,0:0:0:0:
315,162,449346,2,0,P|272:168|220:156,1,80.5000015354157,10|0,0:0|0:0,0:0:0:0:
40,32,449529,5,12,0:0:0:0:
115,44,449620,1,0,0:0:0:0:
135,118,449711,1,0,0:0:0:0:
77,167,449803,1,0,0:0:0:0:
8,136,449894,1,0,0:0:0:0:
12,160,449986,1,0,0:0:0:0:
16,184,450078,2,0,L|72:116,1,80.5000015354157,10|0,0:0|0:0,0:0:0:0:
304,120,450261,5,12,0:0:0:0:
228,132,450352,1,0,0:0:0:0:
208,206,450443,1,0,0:0:0:0:
266,255,450535,1,0,0:0:0:0:
335,224,450626,1,0,0:0:0:0:
332,248,450718,1,0,0:0:0:0:
328,272,450810,2,0,L|272:204,1,80.5000015354157,10|0,0:0|0:0,0:0:0:0:
211,60,450992,6,0,P|174:74|143:99,1,80.5000015354157,12|0,0:0|0:0,0:0:0:0:
109,250,451175,2,0,P|103:210|109:171,1,80.5000015354157,12|0,0:0|0:0,0:0:0:0:
225,174,451358,6,0,P|193:149|156:136,1,80.5000015354157,12|0,0:0|0:0,0:0:0:0:
10,182,451541,2,0,P|41:157|79:142,1,80.5000015354157,12|0,0:0|0:0,0:0:0:0:
184,244,451724,5,12,0:0:0:0:
264,246,451815,1,0,0:0:0:0:
344,250,451907,1,8,0:0:0:0:
351,235,451998,1,0,0:0:0:0:
358,221,452089,1,8,0:0:0:0:
365,206,452181,1,0,0:0:0:0:
372,192,452273,2,0,L|404:108,1,80.5000015354157,10|0,0:0|0:0,0:0:0:0:
192,12,452456,5,12,0:0:0:0:
114,0,452547,1,0,0:0:0:0:
53,47,452638,1,0,0:0:0:0:
46,124,452730,1,0,0:0:0:0:
99,182,452821,1,0,0:0:0:0:
178,181,452913,1,0,0:0:0:0:
230,123,453005,5,8,0:0:0:0:
282,65,453096,1,0,0:0:0:0:
360,64,453188,1,0,0:0:0:0:
413,122,453279,1,0,0:0:0:0:
407,199,453371,1,8,0:0:0:0:
345,247,453462,1,0,0:0:0:0:
268,234,453553,5,8,0:0:0:0:
195,267,453644,1,0,0:0:0:0:
117,256,453736,2,0,P|72:251|24:252,1,80.5000015354157,10|0,0:0|0:0,0:0:0:0:
256,336,453919,5,12,0:0:0:0:
314,283,454010,1,0,0:0:0:0:
319,204,454101,1,0,0:0:0:0:
269,144,454193,1,0,0:0:0:0:
191,134,454284,1,0,0:0:0:0:
128,182,454376,1,0,0:0:0:0:
117,256,454468,5,8,0:0:0:0:
192,234,454559,1,0,0:0:0:0:
235,167,454650,1,0,0:0:0:0:
223,90,454742,1,0,0:0:0:0:
162,39,454833,1,8,0:0:0:0:
83,41,454925,1,0,0:0:0:0:
26,95,455016,5,8,0:0:0:0:
37,174,455108,1,0,0:0:0:0:
11,250,455200,2,0,P|11:296|24:336,1,80.5000015354157,10|0,0:0|0:0,0:0:0:0:
252,280,455383,5,12,0:0:0:0:
332,278,455474,1,0,0:0:0:0:
412,276,455565,2,0,L|404:360,1,80.5000015354157,10|0,0:0|0:0,0:0:0:0:
439,124,455748,5,12,0:0:0:0:
359,122,455839,1,0,0:0:0:0:
279,120,455931,2,0,L|287:203,1,80.5000015354157,10|0,0:0|0:0,0:0:0:0:
88,326,456114,5,12,0:0:0:0:
90,246,456205,1,0,0:0:0:0:
92,166,456297,2,0,L|11:174,1,80.5000015354157,10|0,0:0|0:0,0:0:0:0:
244,141,456479,5,12,0:0:0:0:
246,221,456572,1,0,0:0:0:0:
248,301,456663,2,0,L|167:292,1,80.5000015354157,10|0,0:0|0:0,0:0:0:0:
468,376,456846,6,0,P|426:371|382:353,1,80.5000015354157,12|0,0:0|0:0,0:0:0:0:
287,272,457029,2,0,P|269:235|263:196,1,80.5000015354157,12|0,0:0|0:0,0:0:0:0:
418,226,457211,6,0,P|394:260|355:288,1,80.5000015354157,12|0,0:0|0:0,0:0:0:0:
265,342,457394,2,0,P|225:339|188:324,1,80.5000015354157,12|0,0:0|0:0,0:0:0:0:
94,256,457577,5,12,0:0:0:0:
94,256,457669,1,0,0:0:0:0:
94,256,457760,2,0,P|77:219|71:179,1,80.5000015354157
84,73,457943,5,8,0:0:0:0:
84,73,458035,1,0,0:0:0:0:
84,73,458126,2,0,P|107:39|138:14,1,80.5000015354157
372,40,458309,5,12,0:0:0:0:
411,107,458400,1,0,0:0:0:0:
390,183,458491,1,0,0:0:0:0:
321,221,458583,1,0,0:0:0:0:
246,198,458674,1,0,0:0:0:0:
210,129,458766,1,0,0:0:0:0:
234,54,458858,5,8,0:0:0:0:
289,111,458949,1,0,0:0:0:0:
294,190,459040,1,0,0:0:0:0:
248,254,459132,1,0,0:0:0:0:
172,274,459223,1,8,0:0:0:0:
100,240,459315,1,0,0:0:0:0:
67,169,459406,5,8,0:0:0:0:
80,247,459498,1,0,0:0:0:0:
55,323,459590,2,0,P|12:332|-28:324,1,80.5000015354157,10|0,0:0|0:0,0:0:0:0:
160,180,459773,5,12,0:0:0:0:
237,165,459864,1,0,0:0:0:0:
303,207,459955,1,0,0:0:0:0:
323,283,460047,1,0,0:0:0:0:
286,352,460138,1,0,0:0:0:0:
211,377,460230,1,0,0:0:0:0:
140,345,460322,5,8,0:0:0:0:
199,294,460413,1,0,0:0:0:0:
198,217,460504,1,0,0:0:0:0:
136,169,460596,1,0,0:0:0:0:
60,186,460687,1,8,0:0:0:0:
26,256,460779,1,0,0:0:0:0:
55,323,460870,5,8,0:0:0:0:
108,262,460961,1,0,0:0:0:0:
162,202,461053,2,0,L|216:120,1,80.5000015354157,10|0,0:0|0:0,0:0:0:0:
18,46,461236,6,0,L|26:262,1,210.000008010865,12|0,0:0|0:0,0:0:0:0:
494,46,461602,2,0,L|486:262,1,210.000008010865,12|0,0:0|0:0,0:0:0:0:
18,46,461968,6,0,L|30:331,1,280,12|0,0:0|0:0,0:0:0:0:
494,46,462334,2,0,L|482:331,1,280,12|0,0:0|0:0,0:0:0:0:
18,46,462700,6,0,L|24:200,1,140,6|0,0:0|0:0,0:0:0:0:
494,46,462974,2,0,L|488:200,1,140,6|0,0:0|0:0,0:0:0:0:
18,46,463248,6,0,L|24:200,1,140,6|0,0:0|0:0,0:0:0:0:
494,46,463431,2,0,L|488:200,1,140,6|0,0:0|0:0,0:0:0:0:
416,272,463614,1,0,0:0:0:0:
408,284,463705,1,0,0:0:0:0:
400,296,463797,1,0,0:0:0:0:
361,308,463888,1,0,0:0:0:0:
323,295,463979,1,0,0:0:0:0:
285,285,464071,1,0,0:0:0:0:
245,290,464163,5,10,0:0:0:0:
180,306,464254,1,0,0:0:0:0:
134,258,464345,1,12,0:0:0:0:
155,195,464437,1,0,0:0:0:0:
220,182,464529,5,0,0:0:0:0:
285,169,464620,1,0,0:0:0:0:
306,106,464712,1,12,0:0:0:0:
260,57,464803,1,0,0:0:0:0:
195,74,464895,5,0,0:0:0:0:
245,120,464986,1,0,0:0:0:0:
313,130,465077,1,12,0:0:0:0:
375,100,465169,1,0,0:0:0:0:
409,40,465261,5,0,0:0:0:0:
400,108,465352,1,0,0:0:0:0:
428,171,465444,2,0,P|430:211|424:244,1,70,12|0,0:0|0:0,0:0:0:0:
256,364,465626,5,10,0:0:0:0:
189,359,465717,1,0,0:0:0:0:
158,299,465808,1,12,0:0:0:0:
192,242,465900,1,0,0:0:0:0:
259,241,465993,5,0,0:0:0:0:
201,275,466084,1,0,0:0:0:0:
140,248,466175,1,12,0:0:0:0:
126,182,466267,1,0,0:0:0:0:
172,133,466359,5,0,0:0:0:0:
185,67,466450,1,0,0:0:0:0:
139,16,466542,1,12,0:0:0:0:
74,23,466633,1,0,0:0:0:0:
40,82,466724,5,0,0:0:0:0:
54,149,466815,1,0,0:0:0:0:
22,209,466907,2,0,P|19:250|28:280,1,70,12|0,0:0|0:0,0:0:0:0:
224,356,467090,5,10,0:0:0:0:
293,363,467181,1,0,0:0:0:0:
362,357,467272,1,12,0:0:0:0:
429,335,467364,1,0,0:0:0:0:
489,300,467455,5,0,0:0:0:0:
422,295,467547,1,0,0:0:0:0:
384,239,467638,1,12,0:0:0:0:
406,175,467730,1,0,0:0:0:0:
471,155,467821,5,0,0:0:0:0:
418,199,467913,1,0,0:0:0:0:
350,195,468004,1,12,0:0:0:0:
302,146,468096,1,0,0:0:0:0:
301,78,468187,5,0,0:0:0:0:
280,142,468278,1,0,0:0:0:0:
219,173,468370,2,0,P|180:176|136:168,1,70,12|0,0:0|0:0,0:0:0:0:
16,12,468553,5,10,0:0:0:0:
81,27,468644,1,0,0:0:0:0:
108,89,468735,1,12,0:0:0:0:
73,147,468827,1,0,0:0:0:0:
6,154,468918,5,2,0:0:0:0:
89,125,469010,1,2,0:0:0:0:
175,112,469101,1,6,0:0:0:0:
262,115,469193,1,2,0:0:0:0:
347,134,469285,6,0,L|424:132,1,70,10|0,0:0|0:0,0:0:0:0:
504,324,469468,1,12,0:0:0:0:
434,328,469559,1,0,0:0:0:0:
365,318,469651,2,0,P|326:312|288:312,1,70,8|0,0:0|0:0,0:0:0:0:
156,328,469834,2,0,P|118:338|83:354,1,70,12|0,0:0|0:0,0:0:0:0:
196,256,470017,5,10,0:0:0:0:
219,192,470108,1,0,0:0:0:0:
183,135,470199,1,12,0:0:0:0:
116,128,470291,1,0,0:0:0:0:
69,177,470382,5,0,0:0:0:0:
135,197,470474,1,0,0:0:0:0:
199,173,470565,1,12,0:0:0:0:
264,147,470657,1,0,0:0:0:0:
331,159,470748,5,0,0:0:0:0:
379,208,470839,1,0,0:0:0:0:
381,276,470930,1,12,0:0:0:0:
334,325,471022,1,0,0:0:0:0:
265,328,471114,6,0,P|272:288|252:240,1,70,8|0,0:0|0:0,0:0:0:0:
69,177,471297,2,0,P|62:217|82:265,1,70,12|0,0:0|0:0,0:0:0:0:
184,200,471480,5,10,0:0:0:0:
201,133,471571,1,0,0:0:0:0:
177,68,471662,1,12,0:0:0:0:
121,28,471754,1,0,0:0:0:0:
52,26,471845,5,0,0:0:0:0:
84,86,471937,1,0,0:0:0:0:
147,114,472028,1,12,0:0:0:0:
213,97,472120,1,0,0:0:0:0:
255,42,472212,5,0,0:0:0:0:
316,10,472303,1,0,0:0:0:0:
383,22,472395,1,12,0:0:0:0:
428,74,472486,1,0,0:0:0:0:
496,56,472578,6,0,P|503:100|492:136,1,70,8|0,0:0|0:0,0:0:0:0:
296,184,472761,2,0,P|289:140|300:104,1,70,12|0,0:0|0:0,0:0:0:0:
410,160,472944,5,10,0:0:0:0:
398,228,473035,1,0,0:0:0:0:
351,278,473126,1,12,0:0:0:0:
283,293,473218,1,0,0:0:0:0:
219,268,473309,5,0,0:0:0:0:
156,240,473400,1,0,0:0:0:0:
87,249,473491,1,12,0:0:0:0:
33,292,473583,1,0,0:0:0:0:
8,356,473674,5,0,0:0:0:0:
64,315,473766,1,0,0:0:0:0:
87,249,473857,1,12,0:0:0:0:
70,184,473949,1,0,0:0:0:0:
19,137,474041,6,0,P|12:103|15:53,1,70,8|0,0:0|0:0,0:0:0:0:
161,219,474224,2,0,P|168:184|165:134,1,70,12|0,0:0|0:0,0:0:0:0:
303,328,474407,5,10,0:0:0:0:
368,316,474498,1,0,0:0:0:0:
386,252,474589,1,12,0:0:0:0:
336,208,474681,1,0,0:0:0:0:
275,234,474772,5,2,0:0:0:0:
195,264,474864,1,2,0:0:0:0:
118,227,474955,1,14,0:0:0:0:
92,146,475047,1,2,0:0:0:0:
133,71,475139,5,10,0:0:0:0:
249,67,475260,5,10,0:0:0:0:
368,63,475382,5,10,0:0:0:0:
428,160,475505,5,10,0:0:0:0:
311,155,475626,5,10,0:0:0:0:
194,150,475748,5,10,0:0:0:0:
133,71,475870,6,0,L|376:63,1,235.200002871094,12|2,0:0|0:0,0:0:0:0:
368,63,477516,1,2,0:0:0:0:
253,354,478064,6,0,L|17:346,1,235.200002871094,12|2,0:0|0:0,0:0:0:0:
17,346,479711,1,2,0:0:0:0:
440,36,480259,6,0,L|432:196,1,156.800001914063,12|8,0:0|0:0,0:0:0:0:
72,160,481357,2,0,L|80:320,1,156.800001914063,12|8,0:0|0:0,0:0:0:0:
440,36,482454,6,0,L|432:200,1,157.499995193482,6|0,0:0|0:0,0:0:0:0:
416,280,484649,6,0,L|408:44,1,235.200002871094,12|2,0:0|0:0,0:0:0:0:
408,44,486296,1,2,0:0:0:0:
104,44,486844,6,0,L|96:280,1,235.200002871094,12|2,0:0|0:0,0:0:0:0:
96,279,488491,1,2,0:0:0:0:
496,24,489039,6,0,L|328:28,1,156.800001914063,12|0,0:0|0:0,0:0:0:0:
179,360,490137,2,0,L|20:356,1,156.800001914063,12|0,0:0|0:0,0:0:0:0:
496,24,491234,6,0,L|328:28,1,159.599998051758,6|2,0:0|0:0,0:0:0:0:
311,52,493018,1,2,0:0:0:0:
208,64,493292,1,2,0:0:0:0:
183,89,493429,6,0,L|176:228,1,140,12|0,0:0|0:0,0:0:0:0:
216,324,494253,1,0,0:0:0:0:
224,320,494390,1,0,0:0:0:0:
232,316,494527,6,0,L|380:312,1,140,12|2,0:0|0:0,0:0:0:0:
472,284,495350,1,2,0:0:0:0:
344,164,495624,6,0,L|340:84,1,70,12|0,0:0|0:0,0:0:0:0:
268,16,496173,1,8,0:0:0:0:
180,76,496448,1,0,0:0:0:0:
168,72,496585,1,0,0:0:0:0:
156,68,496722,6,0,L|60:64,1,70,12|0,0:0|0:0,0:0:0:0:
40,160,497271,1,8,0:0:0:0:
72,260,497545,1,2,0:0:0:0:
228,336,497819,6,0,L|312:332,1,70,12|0,0:0|0:0,0:0:0:0:
392,288,498368,1,8,0:0:0:0:
488,328,498643,2,0,L|484:380,1,35,2|0,0:0|0:0,0:0:0:0:
464,252,498917,6,0,L|460:160,1,70,12|0,0:0|0:0,0:0:0:0:
420,84,499466,1,8,0:0:0:0:
336,144,499740,1,2,0:0:0:0:
172,88,500014,6,0,L|176:188,1,70,12|0,0:0|0:0,0:0:0:0:
180,264,500563,1,8,0:0:0:0:
280,292,500837,2,0,L|276:340,1,35,2|0,0:0|0:0,0:0:0:0:
364,252,501112,6,0,L|440:248,1,70,12|0,0:0|0:0,0:0:0:0:
460,148,501661,1,8,0:0:0:0:
484,48,501935,1,2,0:0:0:0:
328,128,502209,6,0,L|180:124,1,140,12|0,0:0|0:0,0:0:0:0:
88,92,503032,1,0,0:0:0:0:
84,104,503170,1,0,0:0:0:0:
80,116,503307,6,0,L|88:204,1,70,12|0,0:0|0:0,0:0:0:0:
100,288,503856,1,8,0:0:0:0:
0,252,504130,1,2,0:0:0:0:
172,220,504404,6,0,L|264:228,1,70,12|0,0:0|0:0,0:0:0:0:
348,240,504953,1,8,0:0:0:0:
444,196,505227,1,2,0:0:0:0:
440,184,505365,1,0,0:0:0:0:
436,172,505502,5,12,0:0:0:0:
64,136,505868,5,2,0:0:0:0:
24,67,506051,1,2,0:0:0:0:
91,30,506234,1,2,0:0:0:0:
130,96,506416,1,2,0:0:0:0:
4,188,506599,6,0,L|8:308,1,97.9999970092774,12|2,0:0|0:0,0:0:0:0:
508,104,508069,6,0,L|504:184,1,70,12|2,0:0|0:0,0:0:0:0:
496,248,508979,1,2,0:0:0:0:
256,280,509343,5,2,0:0:0:0:
228,180,509525,6,0,B|240:32|0:16|0:16|48:56|40:120|40:120|32:176|72:200|72:200|112:184|160:192|160:192|88:248|32:352|32:352|112:320|176:336|176:336|216:320|256:280|256:280|296:320|336:336|336:336|392:320|480:352|480:352|424:248|352:192|352:192|400:184|440:200|440:200|480:176|472:120|472:120|464:55|504:16|504:16|272:32|284:180,1,2126.5999805304,6|0,0:0|0:0,0:0:0:0:
256,281,516117,6,0,L|256:369,1,79.7999990258789,2|0,0:0|0:0,0:0:0:0:
332,336,516665,1,0,0:0:0:0:
332,336,516940,1,0,0:0:0:0:
400,296,517214,1,0,0:0:0:0:
400,296,517489,1,0,0:0:0:0:
468,336,517763,1,0,0:0:0:0:
468,336,518038,1,0,0:0:0:0:
324,268,518311,6,0,L|324:356,1,79.7999990258789,2|0,0:0|0:0,0:0:0:0:
252,323,518859,1,0,0:0:0:0:
252,323,519134,1,0,0:0:0:0:
188,283,519408,1,0,0:0:0:0:
188,283,519683,1,0,0:0:0:0:
120,323,519957,1,0,0:0:0:0:
120,323,520232,1,0,0:0:0:0:
4,208,520506,6,0,L|0:116,1,79.7999990258789,2|0,0:0|0:0,0:0:0:0:
68,272,521055,1,0,0:0:0:0:
48,348,521330,1,0,0:0:0:0:
236,216,521604,6,0,L|240:124,1,79.7999990258789,2|0,0:0|0:0,0:0:0:0:
172,280,522153,1,0,0:0:0:0:
192,356,522428,1,0,0:0:0:0:
239,136,522701,6,0,L|339:132,1,79.7999990258789,2|0,0:0|0:0,0:0:0:0:
392,100,523250,1,0,0:0:0:0:
464,136,523525,1,2,0:0:0:0:
398,180,523799,1,0,0:0:0:0:
398,180,524073,1,0,0:0:0:0:
414,260,524348,1,0,0:0:0:0:
414,260,524622,1,0,0:0:0:0:
276,336,524896,6,0,L|184:332,1,79.7999990258789,2|0,0:0|0:0,0:0:0:0:
120,308,525445,1,0,0:0:0:0:
115,296,525720,1,2,0:0:0:0:
176,248,525994,1,0,0:0:0:0:
171,236,526269,1,2,0:0:0:0:
236,188,526543,1,0,0:0:0:0:
236,188,526817,1,0,0:0:0:0:
384,248,527091,6,0,L|392:152,1,79.7999990258789,2|0,0:0|0:0,0:0:0:0:
464,140,527640,1,0,0:0:0:0:
464,140,527915,1,0,0:0:0:0:
404,94,528189,1,0,0:0:0:0:
404,94,528464,1,0,0:0:0:0:
336,132,528738,1,0,0:0:0:0:
336,132,529013,1,0,0:0:0:0:
176,144,529286,6,0,L|180:236,1,79.7999990258789,2|0,0:0|0:0,0:0:0:0:
100,84,529835,1,0,0:0:0:0:
88,164,530110,1,0,0:0:0:0:
300,256,530384,6,0,L|296:348,1,79.7999990258789,2|0,0:0|0:0,0:0:0:0:
376,196,530933,1,0,0:0:0:0:
388,276,531208,1,0,0:0:0:0:
180,180,531481,6,0,L|176:100,1,79.7999990258789,2|0,0:0|0:0,0:0:0:0:
136,32,532030,1,0,0:0:0:0:
64,64,532305,1,2,0:0:0:0:
130,114,532579,1,0,0:0:0:0:
130,114,532853,1,0,0:0:0:0:
190,170,533128,1,0,0:0:0:0:
190,170,533402,1,0,0:0:0:0:
344,132,533676,6,0,L|348:216,1,79.7999990258789,2|0,0:0|0:0,0:0:0:0:
356,292,534225,1,0,0:0:0:0:
356,292,534500,1,0,0:0:0:0:
424,252,534774,1,0,0:0:0:0:
424,252,535049,1,0,0:0:0:0:
357,216,535323,1,0,0:0:0:0:
357,216,535598,1,0,0:0:0:0:
208,156,535871,6,0,L|204:240,1,79.7999990258789,2|0,0:0|0:0,0:0:0:0:
196,316,536420,1,0,0:0:0:0:
196,316,536695,1,0,0:0:0:0:
132,276,536969,1,0,0:0:0:0:
132,276,537244,1,0,0:0:0:0:
199,240,537518,1,0,0:0:0:0:
199,240,537793,1,0,0:0:0:0:
344,304,538066,6,0,L|348:208,1,79.7999990258789,2|0,0:0|0:0,0:0:0:0:
268,84,538615,1,0,0:0:0:0:
260,164,538890,1,0,0:0:0:0:
76,304,539164,6,0,L|72:208,1,79.7999990258789,2|0,0:0|0:0,0:0:0:0:
152,84,539713,1,0,0:0:0:0:
160,164,539988,1,0,0:0:0:0:
372,252,540261,6,0,L|376:156,1,79.7999990258789,2|0,0:0|0:0,0:0:0:0:
376,92,540810,1,0,0:0:0:0:
304,128,541084,1,2,0:0:0:0:
237,92,541359,1,0,0:0:0:0:
237,92,541633,1,0,0:0:0:0:
167,128,541908,1,0,0:0:0:0:
167,128,542182,1,0,0:0:0:0:
40,32,542456,6,0,L|44:120,1,79.7999990258789,2|0,0:0|0:0,0:0:0:0:
52,192,543005,1,0,0:0:0:0:
52,192,543279,1,0,0:0:0:0:
60,272,543554,1,0,0:0:0:0:
60,272,543828,1,0,0:0:0:0:
68,352,544103,1,0,0:0:0:0:
68,352,544377,1,0,0:0:0:0:
228,336,544651,6,0,L|232:247,1,79.7999990258789,2|0,0:0|0:0,0:0:0:0:
239,179,545200,1,0,0:0:0:0:
239,179,545474,1,0,0:0:0:0:
245,103,545749,1,0,0:0:0:0:
245,103,546023,1,0,0:0:0:0:
254,26,546298,1,0,0:0:0:0:
254,26,546572,1,0,0:0:0:0:
368,136,546846,6,0,L|460:132,1,79.7999990258789,2|0,0:0|0:0,0:0:0:0:
320,228,547395,1,0,0:0:0:0:
340,304,547669,1,0,0:0:0:0:
148,176,547944,6,0,L|56:172,1,79.7999990258789,2|0,0:0|0:0,0:0:0:0:
196,268,548493,1,0,0:0:0:0:
176,344,548767,1,0,0:0:0:0:
340,184,549041,6,0,L|364:268,1,79.7999990258789,2|0,0:0|0:0,0:0:0:0:
392,335,549590,1,0,0:0:0:0:
444,276,549864,1,2,0:0:0:0:
412,207,550139,1,0,0:0:0:0:
412,207,550413,1,0,0:0:0:0:
464,148,550688,1,0,0:0:0:0:
464,148,550962,1,0,0:0:0:0:
312,196,551236,6,0,L|228:192,1,79.7999990258789,2|0,0:0|0:0,0:0:0:0:
160,168,551785,1,0,0:0:0:0:
160,168,552059,1,0,0:0:0:0:
92,208,552334,1,0,0:0:0:0:
92,208,552608,1,0,0:0:0:0:
19,185,552883,1,0,0:0:0:0:
19,185,553157,1,0,0:0:0:0:
144,88,553431,6,0,L|228:84,1,79.7999990258789,2|0,0:0|0:0,0:0:0:0:
296,60,553980,1,0,0:0:0:0:
296,60,554254,1,0,0:0:0:0:
364,100,554529,1,0,0:0:0:0:
364,100,554803,1,0,0:0:0:0:
437,77,555078,1,0,0:0:0:0:
437,77,555352,1,0,0:0:0:0:
256,336,555626,5,6,0:0:0:0:
256,192,555763,12,0,565229,0:0:0:0:
