osu file format v14

[General]
AudioFilename: audio.mp3
AudioLeadIn: 0
PreviewTime: 164033
Countdown: 0
SampleSet: Normal
StackLeniency: 0.7
Mode: 1
LetterboxInBreaks: 0
WidescreenStoryboard: 0

[Editor]
DistanceSpacing: 0.9
BeatDivisor: 4
GridSize: 32
TimelineZoom: 2.5

[Metadata]
Title:Sono Tamashii ni Yasuragi o ~ Dignity of Spirit
TitleUnicode:その魂に安らぎを ~ Dignity of Spirit
Artist:Unlucky Morpheus
ArtistUnicode:Unlucky Morpheus
Creator:Antti
Version:The Tragic Destiny of the Determined Soul
Source:東方妖々夢 ~ Perfect Cherry Blossom.
Tags:PCB touhou project TH7 TH07 team shanghai alice 西行寺 幽々子 saigyouji yuyuko 幽雅に咲かせ、墨染の桜 ~ border of life bloom nobly ink black Hypothetical Box ACT 2 yukimura hirano fuyuki M3-25 天外冬黄 平野幸村 上海アリス幻樂団 Youyoumu Yuuga ni sakase Sumizome no sakura May the Soul Rest in Peace tenge yuki fuki marathon ZUN japanese video game power metal
BeatmapID:2777442
BeatmapSetID:1340739

[Difficulty]
HPDrainRate:4
CircleSize:2
OverallDifficulty:6.5
ApproachRate:10
SliderMultiplier:1.4
SliderTickRate:1

[Events]
//Background and Video events
0,0,"touhouuuu.jpg",0,150
//Break Periods
//Storyboard Layer 0 (Background)
//Storyboard Layer 1 (Fail)
//Storyboard Layer 2 (Pass)
//Storyboard Layer 3 (Foreground)
//Storyboard Layer 4 (Overlay)
//Storyboard Sound Samples

[TimingPoints]
137,548.747027620267,4,1,0,50,1,0
17128,-99.009900990099,4,1,0,50,0,0
17402,-98.0392156862745,4,1,0,50,0,0
17676,-97.0873786407767,4,1,0,50,0,0
19048,-98.0392156862745,4,1,0,50,0,0
19323,-99.009900990099,4,1,0,50,0,0
19597,-100,4,1,0,50,0,0
19871,-101.010101010101,4,1,0,50,0,0
21243,-100,4,1,0,50,0,0
21518,-99.009900990099,4,1,0,50,0,0
21792,-98.0392156862745,4,1,0,50,0,0
22066,-97.0873786407767,4,1,0,50,0,0
22341,-96.1538461538461,4,1,0,50,0,0
22615,-95.2380952380952,4,1,0,50,0,0
22890,-94.3396226415094,4,1,0,50,0,0
23164,-93.4579439252336,4,1,0,50,0,0
23438,-92.5925925925926,4,1,0,50,0,0
23713,-91.743119266055,4,1,0,50,0,0
23987,-90.9090909090909,4,1,0,50,0,0
25633,-95.2380952380952,4,1,0,50,0,0
25908,-94.3396226415094,4,1,0,50,0,0
26182,-93.4579439252336,4,1,0,50,0,0
26456,-92.5925925925926,4,1,0,50,0,0
27828,-93.4579439252336,4,1,0,50,0,0
28103,-94.3396226415094,4,1,0,50,0,0
28377,-95.2380952380952,4,1,0,50,0,0
30023,-100,4,1,0,50,0,0
30298,-99.009900990099,4,1,0,50,0,0
30572,-98.0392156862745,4,1,0,50,0,0
31121,-96.1538461538461,4,1,0,50,0,0
31395,-97.0873786407767,4,1,0,50,0,0
31669,-98.0392156862745,4,1,0,50,0,0
31944,-99.009900990099,4,1,0,50,0,0
32218,-100,4,1,0,50,0,0
32493,-101.010101010101,4,1,0,50,0,0
32767,-102.040816326531,4,1,0,50,0,0
34413,-100,4,1,0,50,0,0
34688,-99.009900990099,4,1,0,50,0,0
34962,-98.0392156862745,4,1,0,50,0,0
35236,-97.0873786407767,4,1,0,50,0,0
36608,-98.0392156862745,4,1,0,50,0,0
36883,-99.009900990099,4,1,0,50,0,0
37157,-100,4,1,0,50,0,0
37431,-101.010101010101,4,1,0,50,0,0
38803,-100,4,1,0,50,0,0
39626,-99.009900990099,4,1,0,50,0,0
39901,-98.0392156862745,4,1,0,50,0,0
40175,-97.0873786407767,4,1,0,50,0,0
40724,-98.0392156862745,4,1,0,50,0,0
40998,-99.009900990099,4,1,0,50,0,0
41273,-100,4,1,0,50,0,0
41547,-101.010101010101,4,1,0,50,0,0
43193,-100,4,1,0,50,0,0
43468,-99.009900990099,4,1,0,50,0,0
43742,-98.0392156862745,4,1,0,50,0,0
44016,-97.0873786407767,4,1,0,50,0,0
45388,-99.009900990099,4,1,0,50,0,0
45663,-98.0392156862745,4,1,0,50,0,0
45937,-97.0873786407767,4,1,0,50,0,0
47583,-95.2380952380952,4,1,0,50,0,0
47857,-96.1538461538461,4,1,0,50,0,0
48132,-97.0873786407767,4,1,0,50,0,0
48406,-98.0392156862745,4,1,0,50,0,0
48681,-99.009900990099,4,1,0,50,0,0
48955,-100,4,1,0,50,0,0
49229,-101.010101010101,4,1,0,50,0,0
49504,-102.040816326531,4,1,0,50,0,0
49778,-103.092783505155,4,1,0,50,0,0
50052,-104.166666666667,4,1,0,50,0,0
50327,-105.263157894737,4,1,0,50,0,0
52796,-104.166666666667,4,1,0,50,0,0
53071,-103.092783505155,4,1,0,50,0,0
53345,-102.040816326531,4,1,0,50,0,0
53619,-101.010101010101,4,1,0,50,0,0
53894,-100,4,1,0,50,0,0
54168,-90.9090909090909,4,1,0,90,0,0
54305,-91.743119266055,4,1,0,90,0,0
54442,-92.5925925925926,4,1,0,90,0,0
54717,-90.9090909090909,4,1,0,90,0,0
54854,-91.743119266055,4,1,0,90,0,0
54991,-76.9230769230769,4,1,0,100,0,0
55814,-90.9090909090909,4,1,0,80,0,0
57186,-76.9230769230769,4,1,0,100,0,0
58009,-90.9090909090909,4,1,0,80,0,0
59381,-74.0740740740741,4,1,0,100,0,0
59930,-90.9090909090909,4,1,0,80,0,0
60479,-71.4285714285714,4,1,0,100,0,0
61027,-90.9090909090909,4,1,0,80,0,0
61576,-68.9655172413793,4,1,0,100,0,0
63771,-76.9230769230769,4,1,0,100,0,0
64594,-90.9090909090909,4,1,0,80,0,0
65966,-76.9230769230769,4,1,0,100,0,0
66789,-90.9090909090909,4,1,0,80,0,0
68161,-74.0740740740741,4,1,0,100,0,0
68710,-90.9090909090909,4,1,0,80,0,0
69259,-71.4285714285714,4,1,0,100,0,0
69807,-90.9090909090909,4,1,0,80,0,0
70356,-74.0740740740741,4,1,0,100,0,0
71454,-86.9565217391304,4,1,0,90,0,0
71591,-87.719298245614,4,1,0,90,0,0
71865,-88.4955752212389,4,1,0,90,0,0
72002,-89.2857142857143,4,1,0,90,0,0
72277,-90.0900900900901,4,1,0,90,0,0
72414,-90.9090909090909,4,1,0,90,0,0
72551,-74.0740740740741,4,1,0,100,0,0
73100,-90.9090909090909,4,1,0,85,0,0
73649,-74.0740740740741,4,1,0,100,0,0
74197,-90.9090909090909,4,1,0,85,0,0
74746,-74.0740740740741,4,1,0,100,0,0
75020,-90.9090909090909,4,1,0,85,0,0
75844,-74.0740740740741,4,1,0,100,0,0
76118,-90.9090909090909,4,1,0,85,0,0
76941,-74.0740740740741,4,1,0,100,0,0
77490,-90.9090909090909,4,1,0,85,0,0
78039,-74.0740740740741,4,1,0,100,0,0
78587,-90.9090909090909,4,1,0,85,0,0
79136,-74.0740740740741,4,1,0,100,0,0
79410,-90.9090909090909,4,1,0,85,0,0
80234,-74.0740740740741,4,1,0,100,0,0
80508,-90.9090909090909,4,1,0,85,0,0
80782,-71.4285714285714,4,1,0,100,0,0
81057,-90.9090909090909,4,1,0,85,0,0
81331,-68.9655172413793,4,1,0,100,0,0
81880,-89.2857142857143,4,1,0,85,0,0
82429,-74.0740740740741,4,1,0,100,0,0
82977,-88.4955752212389,4,1,0,85,0,0
83526,-71.4285714285714,4,1,0,100,0,0
83800,-87.719298245614,4,1,0,85,0,0
84624,-74.0740740740741,4,1,0,100,0,0
84898,-87.719298245614,4,1,0,85,0,0
85172,-71.4285714285714,4,1,0,100,0,0
85447,-86.9565217391304,4,1,0,85,0,0
85721,-68.9655172413793,4,1,0,100,0,0
85995,-87.719298245614,4,1,0,85,0,0
86819,-71.4285714285714,4,1,0,100,0,0
87093,-88.4955752212389,4,1,0,85,0,0
87926,-102.459016393443,4,1,0,100,0,0
87936,365.853658536585,4,1,0,100,1,0
90111,-90.9090909090909,4,1,0,95,0,0
90202,-91.743119266055,4,1,0,95,0,0
90294,-92.5925925925926,4,1,0,95,0,0
90385,-93.4579439252336,4,1,0,95,0,0
90476,-94.3396226415094,4,1,0,94,0,0
90568,-95.2380952380952,4,1,0,93,0,0
90659,-96.1538461538461,4,1,0,92,0,0
90751,-97.0873786407767,4,1,0,91,0,0
90842,-86.9565217391304,4,1,0,100,0,0
91025,-98.0392156862745,4,1,0,91,0,0
92031,-94.3396226415094,4,1,0,90,0,0
92123,-95.2380952380952,4,1,0,90,0,0
92214,-96.1538461538461,4,1,0,90,0,0
92306,-97.0873786407767,4,1,0,90,0,0
92489,-98.0392156862745,4,1,0,90,0,0
93495,-94.3396226415094,4,1,0,90,0,0
93586,-95.2380952380952,4,1,0,90,0,0
93678,-96.1538461538461,4,1,0,90,0,0
93769,-97.0873786407767,4,1,0,90,0,0
93952,-98.0392156862745,4,1,0,90,0,0
94958,-94.3396226415094,4,1,0,90,0,0
95050,-95.2380952380952,4,1,0,90,0,0
95141,-96.1538461538461,4,1,0,90,0,0
95233,-97.0873786407767,4,1,0,90,0,0
95415,-98.0392156862745,4,1,0,90,0,0
96330,-98.0392156862745,4,1,0,90,0,0
96422,-97.0873786407767,4,1,0,90,0,0
96513,-96.1538461538461,4,1,0,90,0,0
96605,-95.2380952380952,4,1,0,90,0,0
96696,-81.9672131147541,4,1,0,100,0,0
97062,-94.3396226415094,4,1,0,90,0,0
99257,-93.4579439252336,4,1,0,90,0,0
99440,-92.5925925925926,4,1,0,90,0,0
99623,-80,4,1,0,100,0,0
99989,-95.2380952380952,4,1,0,90,0,0
101086,-80,4,1,0,95,0,0
101269,-102.040816326531,4,1,0,90,0,0
101361,-101.010101010101,4,1,0,90,0,0
101452,-100,4,1,0,90,0,0
101544,-99.009900990099,4,1,0,90,0,0
101635,-98.0392156862745,4,1,0,90,0,0
101726,-97.0873786407767,4,1,0,90,0,0
101818,-96.1538461538461,4,1,0,90,0,0
102001,-95.2380952380952,4,1,0,90,0,0
102184,-94.3396226415094,4,1,0,90,0,0
102275,-93.4579439252336,4,1,0,90,0,0
102367,-92.5925925925926,4,1,0,90,0,0
102550,-90.9090909090909,4,1,0,90,0,0
108037,-91.743119266055,4,1,0,90,0,0
108129,-92.5925925925926,4,1,0,90,0,0
108220,-93.4579439252336,4,1,0,90,0,0
108312,-94.3396226415094,4,1,0,90,0,0
108403,-95.2380952380952,4,1,0,90,0,0
108586,-93.4579439252336,4,1,0,90,0,0
109684,-94.3396226415094,4,1,0,90,0,0
109775,-95.2380952380952,4,1,0,90,0,0
109867,-96.1538461538461,4,1,0,90,0,0
110050,-94.3396226415094,4,1,0,90,0,0
111147,-95.2380952380952,4,1,0,90,0,0
111239,-96.1538461538461,4,1,0,90,0,0
111330,-97.0873786407767,4,1,0,90,0,0
111513,-95.2380952380952,4,1,0,90,0,0
112611,-96.1538461538461,4,1,0,90,0,0
112702,-97.0873786407767,4,1,0,90,0,0
112794,-98.0392156862745,4,1,0,90,0,0
112976,-99.009900990099,4,1,0,90,0,0
113434,-100,4,1,0,90,0,0
113708,-99.009900990099,4,1,0,90,0,0
113800,-100,4,1,0,90,0,0
113891,-101.010101010101,4,1,0,90,0,0
113983,-102.040816326531,4,1,0,90,0,0
114074,-103.092783505155,4,1,0,90,0,0
114165,-104.166666666667,4,1,0,90,0,0
114257,-105.263157894737,4,1,0,90,0,0
114440,-100,4,1,0,85,0,0
117184,-83.3333333333333,4,1,0,100,0,0
117367,-100,4,1,0,85,0,0
117915,-90.9090909090909,4,1,0,95,0,0
118098,-100,4,1,0,85,0,0
118647,-95.2380952380952,4,1,0,90,0,0
118830,-100,4,1,0,85,0,0
120111,-83.3333333333333,4,1,0,100,0,0
120294,-100,4,1,0,85,0,0
121574,-83.3333333333333,4,1,0,100,0,0
121757,-100,4,1,0,85,0,0
123037,-83.3333333333333,4,1,0,100,0,0
123220,-100,4,1,0,85,0,0
123769,-90.9090909090909,4,1,0,95,0,0
123952,-100,4,1,0,85,0,0
124501,-95.2380952380952,4,1,0,100,0,0
124684,-96.1538461538461,4,1,0,85,0,0
125233,-97.0873786407767,4,1,0,85,0,0
125415,-98.0392156862745,4,1,0,85,0,0
125598,-99.009900990099,4,1,0,85,0,0
125690,-100,4,1,0,85,0,0
125781,-101.010101010101,4,1,0,85,0,0
125964,-95.2380952380952,4,1,0,90,0,0
131452,-96.1538461538461,4,1,0,90,0,0
131544,-97.0873786407767,4,1,0,90,0,0
131635,-98.0392156862745,4,1,0,90,0,0
131818,-94.3396226415094,4,1,0,90,0,0
137306,-95.2380952380952,4,1,0,90,0,0
137397,-96.1538461538461,4,1,0,90,0,0
137489,-97.0873786407767,4,1,0,90,0,0
137672,-95.2380952380952,4,1,0,90,0,0
137763,-96.1538461538461,4,1,0,90,0,0
137855,-97.0873786407767,4,1,0,90,0,0
137946,-98.0392156862745,4,1,0,90,0,0
138037,-99.009900990099,4,1,0,90,0,0
138129,-100,4,1,0,90,0,0
138220,-101.010101010101,4,1,0,90,0,0
138312,-102.040816326531,4,1,0,90,0,0
138403,-83.3333333333333,4,1,0,100,0,0
138586,-100,4,1,0,85,0,0
138769,-98.0392156862745,4,1,0,85,0,0
138952,-96.1538461538461,4,1,0,85,0,0
139135,-80,4,1,0,100,0,0
139501,-100,4,1,0,85,0,0
140233,-99.009900990099,4,1,0,85,0,0
140415,-97.0873786407767,4,1,0,85,0,0
140598,-83.3333333333333,4,1,0,100,0,0
140964,-99.009900990099,4,1,0,85,0,0
141696,-98.0392156862745,4,1,0,85,0,0
141879,-97.0873786407767,4,1,0,85,0,0
142062,-83.3333333333333,4,1,0,100,0,0
142245,-97.0873786407767,4,1,0,85,0,0
142428,-96.1538461538461,4,1,0,85,0,0
142611,-95.2380952380952,4,1,0,85,0,0
142794,-81.6326530612245,4,1,0,100,0,0
142976,-96.1538461538461,4,1,0,85,0,0
143159,-95.2380952380952,4,1,0,85,0,0
143342,-94.3396226415094,4,1,0,85,0,0
143525,-80,4,1,0,100,0,0
143891,-95.2380952380952,4,1,0,85,0,0
144257,-96.1538461538461,4,1,0,85,0,0
144440,-97.0873786407767,4,1,0,85,0,0
144623,-98.0392156862745,4,1,0,85,0,0
144806,-99.009900990099,4,1,0,85,0,0
144989,-83.3333333333333,4,1,0,100,0,0
145355,-100,4,1,0,85,0,0
145720,-99.009900990099,4,1,0,85,0,0
145903,-98.0392156862745,4,1,0,85,0,0
146086,-97.0873786407767,4,1,0,85,0,0
146269,-96.1538461538461,4,1,0,85,0,0
146452,-83.3333333333333,4,1,0,100,0,0
146818,-95.2380952380952,4,1,0,85,0,0
147184,-94.3396226415094,4,1,0,85,0,0
147367,-93.4579439252336,4,1,0,85,0,0
147550,-92.5925925925926,4,1,0,85,0,0
147733,-91.743119266055,4,1,0,85,0,0
147915,-80,4,1,0,100,0,0
148098,-91.743119266055,4,1,0,85,0,0
148281,-92.5925925925926,4,1,0,85,0,0
148464,-93.4579439252336,4,1,0,85,0,0
148647,-81.6326530612245,4,1,0,100,0,0
148830,-93.4579439252336,4,1,0,85,0,0
149013,-94.3396226415094,4,1,0,85,0,0
149196,-95.2380952380952,4,1,0,85,0,0
149379,-83.3333333333333,4,1,0,100,0,0
149562,-100,4,1,0,85,0,0
150111,-99.009900990099,4,1,0,85,0,0
150294,-98.0392156862745,4,1,0,85,0,0
150659,-97.0873786407767,4,1,0,85,0,0
150751,-96.1538461538461,4,1,0,85,0,0
150842,-95.2380952380952,4,1,0,85,0,0
156696,-86.9565217391304,4,1,0,100,0,0
157062,-95.2380952380952,4,1,0,85,0,0
158159,-83.3333333333333,4,1,0,100,0,0
158525,-95.2380952380952,4,1,0,85,0,0
159074,-94.3396226415094,4,1,0,85,0,0
159165,-93.4579439252336,4,1,0,85,0,0
159257,-92.5925925925926,4,1,0,85,0,0
159623,-86.9565217391304,4,1,0,100,0,0
159806,-92.5925925925926,4,1,0,100,0,0
160355,-86.2068965517241,4,1,0,100,0,0
160537,-92.5925925925926,4,1,0,100,0,0
161086,-85.4700854700855,4,1,0,100,0,0
161269,-96.1538461538461,4,1,0,85,0,0
161361,-95.2380952380952,4,1,0,85,0,0
161452,-94.3396226415094,4,1,0,85,0,0
161544,-93.4579439252336,4,1,0,85,0,0
161635,-92.5925925925926,4,1,0,85,0,0
161818,-99.009900990099,4,1,0,85,0,0
161909,-98.0392156862745,4,1,0,85,0,0
162001,-97.0873786407767,4,1,0,85,0,0
162092,-96.1538461538461,4,1,0,85,0,0
162184,-95.2380952380952,4,1,0,85,0,0
162275,-94.3396226415094,4,1,0,85,0,0
162367,-93.4579439252336,4,1,0,85,0,0
162458,-92.5925925925926,4,1,0,85,0,0
162550,-91.743119266055,4,1,0,85,0,0
162641,-90.9090909090909,4,1,0,85,0,0
162733,-90.0900900900901,4,1,0,85,0,0
162915,-96.1538461538461,4,1,0,85,0,0
163007,-95.2380952380952,4,1,0,85,0,0
163098,-94.3396226415094,4,1,0,85,0,0
163190,-93.4579439252336,4,1,0,85,0,0
163281,-92.5925925925926,4,1,0,85,0,0
163464,-95.2380952380952,4,1,0,85,0,0
163556,-94.3396226415094,4,1,0,85,0,0
163647,-93.4579439252336,4,1,0,85,0,0
163830,-92.5925925925926,4,1,0,85,0,0
164033,-91.743119266055,4,1,0,95,0,1
169145,-92.5925925925926,4,1,0,95,0,1
169236,-93.4579439252336,4,1,0,95,0,1
169328,-94.3396226415094,4,1,0,95,0,1
169419,-95.2380952380952,4,1,0,95,0,1
169511,-96.1538461538461,4,1,0,95,0,1
169694,-94.3396226415094,4,1,0,95,0,1
169877,-92.5925925925926,4,1,0,95,0,1
174633,-93.4579439252336,4,1,0,95,0,1
174724,-94.3396226415094,4,1,0,95,0,1
174816,-95.2380952380952,4,1,0,95,0,1
174907,-96.1538461538461,4,1,0,95,0,1
175009,-97.0873786407767,4,1,0,95,0,0
175172,-98.0392156862745,4,1,0,95,0,0
175355,-99.009900990099,4,1,0,95,0,0
175446,-100,4,1,0,95,0,0
175537,-101.010101010101,4,1,0,95,0,0
175740,-92.5925925925926,4,1,0,95,0,1
178657,-92.5925925925926,4,1,0,100,0,1
180852,-93.4579439252336,4,1,0,99,0,1
180944,-94.3396226415094,4,1,0,98,0,1
181035,-95.2380952380952,4,1,0,97,0,1
181127,-96.1538461538461,4,1,0,96,0,1
181218,-97.0873786407767,4,1,0,95,0,1
181401,-95.2380952380952,4,1,0,95,0,1
181584,-93.4579439252336,4,1,0,95,0,1
185608,-94.3396226415094,4,1,0,95,0,1
185700,-95.2380952380952,4,1,0,95,0,1
185791,-96.1538461538461,4,1,0,95,0,1
185883,-97.0873786407767,4,1,0,95,0,1
185974,-98.0392156862745,4,1,0,95,0,1
186157,-97.0873786407767,4,1,0,95,0,1
186249,-96.1538461538461,4,1,0,95,0,1
186432,-95.2380952380952,4,1,0,95,0,1
186523,-94.3396226415094,4,1,0,95,0,1
186706,-92.5925925925926,4,1,0,94,0,1
186889,-90.9090909090909,4,1,0,93,0,1
186980,-91.743119266055,4,1,0,92,0,1
187072,-92.5925925925926,4,1,0,91,0,1
187163,-93.4579439252336,4,1,0,90,0,1
187255,-94.3396226415094,4,1,0,90,0,1
187346,-95.2380952380952,4,1,0,90,0,1
187448,-96.1538461538461,4,1,0,90,0,0
187519,-97.0873786407767,4,1,0,90,0,0
187611,-98.0392156862745,4,1,0,90,0,0
188617,-94.3396226415094,4,1,0,90,0,0
188708,-95.2380952380952,4,1,0,90,0,0
188800,-96.1538461538461,4,1,0,90,0,0
188891,-97.0873786407767,4,1,0,90,0,0
190080,-93.4579439252336,4,1,0,90,0,0
190172,-94.3396226415094,4,1,0,90,0,0
190263,-95.2380952380952,4,1,0,90,0,0
190355,-96.1538461538461,4,1,0,90,0,0
191544,-92.5925925925926,4,1,0,90,0,0
191635,-93.4579439252336,4,1,0,90,0,0
191726,-94.3396226415094,4,1,0,90,0,0
191818,-95.2380952380952,4,1,0,90,0,0
192733,-92.5925925925926,4,1,0,90,0,0
192824,-93.4579439252336,4,1,0,90,0,0
192915,-94.3396226415094,4,1,0,90,0,0
193007,-95.2380952380952,4,1,0,90,0,0
193098,-96.1538461538461,4,1,0,90,0,0
193190,-97.0873786407767,4,1,0,90,0,0
193281,-98.0392156862745,4,1,0,90,0,0
194470,-94.3396226415094,4,1,0,90,0,0
194562,-95.2380952380952,4,1,0,90,0,0
194653,-96.1538461538461,4,1,0,90,0,0
194745,-97.0873786407767,4,1,0,90,0,0
195934,-93.4579439252336,4,1,0,90,0,0
196025,-94.3396226415094,4,1,0,90,0,0
196117,-95.2380952380952,4,1,0,90,0,0
196208,-96.1538461538461,4,1,0,90,0,0
197397,-92.5925925925926,4,1,0,90,0,0
197489,-93.4579439252336,4,1,0,90,0,0
197580,-94.3396226415094,4,1,0,90,0,0
197672,-95.2380952380952,4,1,0,90,0,0
198586,-92.5925925925926,4,1,0,90,0,0
198678,-93.4579439252336,4,1,0,90,0,0
198769,-94.3396226415094,4,1,0,89,0,0
198861,-95.2380952380952,4,1,0,88,0,0
198952,-96.1538461538461,4,1,0,87,0,0
199044,-97.0873786407767,4,1,0,86,0,0
199135,-98.0392156862745,4,1,0,85,0,0
199318,-95.2380952380952,4,1,0,85,0,0
202062,-80,4,1,0,100,0,0
202245,-95.2380952380952,4,1,0,85,0,0
202794,-86.9565217391304,4,1,0,95,0,0
202976,-95.2380952380952,4,1,0,85,0,0
203525,-90.9090909090909,4,1,0,90,0,0
203708,-95.2380952380952,4,1,0,85,0,0
204989,-83.3333333333333,4,1,0,100,0,0
205172,-95.2380952380952,4,1,0,85,0,0
206452,-83.3333333333333,4,1,0,100,0,0
206635,-95.2380952380952,4,1,0,85,0,0
207915,-83.3333333333333,4,1,0,100,0,0
208098,-95.2380952380952,4,1,0,85,0,0
208647,-86.9565217391304,4,1,0,95,0,0
208830,-95.2380952380952,4,1,0,85,0,0
209379,-96.1538461538461,4,1,0,85,0,0
209745,-97.0873786407767,4,1,0,85,0,0
209928,-98.0392156862745,4,1,0,85,0,0
210842,-93.0232558139535,4,1,0,90,0,0
216330,-93.4579439252336,4,1,0,90,0,0
216422,-94.3396226415094,4,1,0,90,0,0
216513,-95.2380952380952,4,1,0,90,0,0
216696,-92.5925925925926,4,1,0,90,0,0
221635,-93.4579439252336,4,1,0,90,0,0
221726,-94.3396226415094,4,1,0,90,0,0
221818,-95.2380952380952,4,1,0,90,0,0
222001,-96.1538461538461,4,1,0,90,0,0
222092,-97.0873786407767,4,1,0,90,0,0
222184,-98.0392156862745,4,1,0,90,0,0
222275,-99.009900990099,4,1,0,90,0,0
222367,-100,4,1,0,90,0,0
222550,-86.9565217391304,4,1,0,100,0,0
223098,-98.0392156862745,4,1,0,85,0,0
223281,-86.2068965517241,4,1,0,95,0,0
223464,-97.0873786407767,4,1,0,85,0,0
223647,-96.1538461538461,4,1,0,85,0,0
223830,-95.2380952380952,4,1,0,85,0,0
224013,-84.7457627118644,4,1,0,95,0,0
224196,-94.3396226415094,4,1,0,85,0,0
224745,-85.4700854700855,4,1,0,95,0,0
224928,-94.3396226415094,4,1,0,85,0,0
225294,-94.3396226415094,4,1,0,85,0,0
225476,-86.2068965517241,4,1,0,95,0,0
225659,-95.2380952380952,4,1,0,85,0,0
225842,-96.1538461538461,4,1,0,85,0,0
226025,-97.0873786407767,4,1,0,85,0,0
226208,-87.719298245614,4,1,0,95,0,0
226391,-98.0392156862745,4,1,0,85,0,0
226574,-99.009900990099,4,1,0,85,0,0
226757,-100,4,1,0,85,0,0
226940,-90.0900900900901,4,1,0,95,0,0
227123,-101.010101010101,4,1,0,85,0,0
227489,-100,4,1,0,85,0,0
227580,-99.009900990099,4,1,0,85,0,0
227672,-88.4955752212389,4,1,0,95,0,0
227855,-98.0392156862745,4,1,0,85,0,0
228037,-97.0873786407767,4,1,0,85,0,0
228220,-96.1538461538461,4,1,0,85,0,0
228403,-86.9565217391304,4,1,0,95,0,0
228769,-95.2380952380952,4,1,0,85,0,0
228952,-94.3396226415094,4,1,0,85,0,0
229135,-85.4700854700855,4,1,0,95,0,0
229318,-95.2380952380952,4,1,0,85,0,0
229501,-96.1538461538461,4,1,0,85,0,0
229684,-97.0873786407767,4,1,0,85,0,0
229867,-86.9565217391304,4,1,0,95,0,0
230050,-98.0392156862745,4,1,0,85,0,0
230415,-97.0873786407767,4,1,0,85,0,0
230507,-96.1538461538461,4,1,0,85,0,0
230598,-85.4700854700855,4,1,0,95,0,0
230781,-95.2380952380952,4,1,0,85,0,0
230964,-94.3396226415094,4,1,0,85,0,0
231147,-93.4579439252336,4,1,0,85,0,0
231330,-84.0336134453781,4,1,0,95,0,0
231513,-94.3396226415094,4,1,0,85,0,0
231696,-95.2380952380952,4,1,0,85,0,0
231879,-96.1538461538461,4,1,0,85,0,0
232062,-85.4700854700855,4,1,0,95,0,0
232245,-97.0873786407767,4,1,0,85,0,0
232428,-98.0392156862745,4,1,0,85,0,0
232611,-99.009900990099,4,1,0,85,0,0
232794,-86.9565217391304,4,1,0,95,0,0
232976,-100,4,1,0,85,0,0
233342,-102.040816326531,4,1,0,85,0,0
233434,-101.010101010101,4,1,0,85,0,0
233525,-100,4,1,0,85,0,0
233708,-102.040816326531,4,1,0,85,0,0
233800,-101.010101010101,4,1,0,85,0,0
233891,-100,4,1,0,85,0,0
233983,-99.009900990099,4,1,0,86,0,0
234074,-98.0392156862745,4,1,0,87,0,0
234165,-97.0873786407767,4,1,0,88,0,0
234257,-86.9565217391304,4,1,0,100,0,0
234623,-96.1538461538461,4,1,0,89,0,0
235720,-86.9565217391304,4,1,0,100,0,0
236086,-96.1538461538461,4,1,0,89,0,0
237184,-86.9565217391304,4,1,0,100,0,0
237367,-96.1538461538461,4,1,0,89,0,0
237915,-86.2068965517241,4,1,0,100,0,0
238098,-96.1538461538461,4,1,0,89,0,0
238647,-85.4700854700855,4,1,0,100,0,0
239013,-96.1538461538461,4,1,0,89,0,0
240111,-86.9565217391304,4,1,0,100,0,0
240476,-95.2380952380952,4,1,0,89,0,0
241574,-86.9565217391304,4,1,0,100,0,0
241940,-95.2380952380952,4,1,0,89,0,0
242489,-95.2380952380952,4,1,0,90,0,0
242580,-94.3396226415094,4,1,0,90,0,0
242672,-93.4579439252336,4,1,0,90,0,0
243037,-86.9565217391304,4,1,0,100,0,0
243220,-93.4579439252336,4,1,0,90,0,0
243769,-86.2068965517241,4,1,0,100,0,0
243962,-93.4579439252336,4,1,0,90,0,0
244501,-85.4700854700855,4,1,0,100,0,0
244867,-97.0873786407767,4,1,0,90,0,0
245050,-96.1538461538461,4,1,0,90,0,0
245233,-95.2380952380952,4,1,0,90,0,0
245324,-94.3396226415094,4,1,0,90,0,0
245415,-93.4579439252336,4,1,0,90,0,0
245507,-92.5925925925926,4,1,0,90,0,0
245598,-91.743119266055,4,1,0,90,0,0
245781,-96.1538461538461,4,1,0,90,0,0
245873,-95.2380952380952,4,1,0,90,0,0
245964,-94.3396226415094,4,1,0,90,0,0
246147,-93.4579439252336,4,1,0,90,0,0
246330,-99.009900990099,4,1,0,90,0,0
246422,-98.0392156862745,4,1,0,90,0,0
246513,-97.0873786407767,4,1,0,90,0,0
246605,-96.1538461538461,4,1,0,90,0,0
246696,-95.2380952380952,4,1,0,90,0,0
246879,-93.4579439252336,4,1,0,90,0,0
247062,-92.5925925925926,4,1,0,90,0,0
247448,-91.743119266055,4,1,0,95,0,1
252925,-92.5925925925926,4,1,0,95,0,1
253108,-94.3396226415094,4,1,0,95,0,1
253291,-91.743119266055,4,1,0,95,0,1
258230,-92.5925925925926,4,1,0,95,0,1
258322,-93.4579439252336,4,1,0,95,0,1
258423,-94.3396226415094,4,1,0,95,0,0
258586,-95.2380952380952,4,1,0,95,0,0
258769,-96.1538461538461,4,1,0,95,0,0
258861,-97.0873786407767,4,1,0,95,0,0
258952,-98.0392156862745,4,1,0,95,0,0
259155,-91.743119266055,4,1,0,95,0,1
262072,-91.743119266055,4,1,0,100,0,1
264450,-92.5925925925926,4,1,0,99,0,1
264541,-93.4579439252336,4,1,0,98,0,1
264633,-94.3396226415094,4,1,0,97,0,1
264816,-95.2380952380952,4,1,0,96,0,1
264999,-91.743119266055,4,1,0,95,0,1
270121,-92.5925925925926,4,1,0,93,0,1
270243,-93.4579439252336,4,1,0,91,0,1
270365,-94.3396226415094,4,1,0,90,0,1
270486,-95.2380952380952,4,1,0,88,0,1
270608,-97.0873786407767,4,1,0,87,0,1
270730,-99.009900990099,4,1,0,86,0,1
270862,-86.9565217391304,4,1,0,100,0,0
271208,-101.010101010101,4,1,0,85,0,0
281818,-100,4,1,0,85,0,0
282001,-99.009900990099,4,1,0,85,0,0
282184,-98.0392156862745,4,1,0,85,0,0
282275,-97.0873786407767,4,1,0,85,0,0
282367,-96.1538461538461,4,1,0,85,0,0
282550,-95.2380952380952,4,1,0,85,0,0
306147,-94.3396226415094,4,1,0,85,0,0
326269,-93.4579439252336,4,1,0,85,0,0
326361,-92.5925925925926,4,1,0,85,0,0
326452,-88.4955752212389,4,1,0,85,0,0
327184,-86.9565217391304,4,1,0,95,0,0
327915,-84.7457627118644,4,1,0,95,0,0
328647,-82.6446280991736,4,1,0,95,0,0
329379,-90.9090909090909,4,1,0,90,0,0
339714,-90.0900900900901,4,1,0,90,0,0
339806,-89.2857142857143,4,1,0,90,0,0
339897,-88.4955752212389,4,1,0,90,0,0
340080,-87.719298245614,4,1,0,90,0,0
340355,-86.9565217391304,4,1,0,90,0,0
340629,-86.2068965517241,4,1,0,90,0,0
341086,-86.9565217391304,4,1,0,90,0,0
341178,-87.719298245614,4,1,0,90,0,0
341269,-88.4955752212389,4,1,0,90,0,0
341361,-89.2857142857143,4,1,0,90,0,0
341452,-90.0900900900901,4,1,0,90,0,0
341544,-90.9090909090909,4,1,0,90,0,0
352428,-91.743119266055,4,1,0,90,0,0
352519,-92.5925925925926,4,1,0,90,0,0
352611,-93.4579439252336,4,1,0,90,0,0
352702,-94.3396226415094,4,1,0,90,0,0
352794,-86.9565217391304,4,1,0,95,0,0
353159,-95.2380952380952,4,1,0,90,0,0
353251,-94.3396226415094,4,1,0,90,0,0
353434,-93.4579439252336,4,1,0,90,0,0
353525,-92.5925925925926,4,1,0,90,0,0
353708,-91.743119266055,4,1,0,90,0,0
353800,-92.5925925925926,4,1,0,90,0,0
353891,-93.4579439252336,4,1,0,90,0,0
353983,-94.3396226415094,4,1,0,90,0,0
355720,-83.3333333333333,4,1,0,100,0,0
355903,-94.3396226415094,4,1,0,90,0,0
357915,-86.9565217391304,4,1,0,95,0,0
358098,-94.3396226415094,4,1,0,90,0,0
358190,-86.9565217391304,4,1,0,95,0,0
358373,-94.3396226415094,4,1,0,90,0,0
358464,-86.9565217391304,4,1,0,95,0,0
358647,-94.3396226415094,4,1,0,90,0,0
358739,-93.4579439252336,4,1,0,90,0,0
358830,-92.5925925925926,4,1,0,90,0,0
358922,-91.743119266055,4,1,0,90,0,0
359013,-90.9090909090909,4,1,0,90,0,0
359745,-83.3333333333333,4,1,0,95,0,0
359928,-95.2380952380952,4,1,0,90,0,0
360019,-94.3396226415094,4,1,0,90,0,0
360111,-93.4579439252336,4,1,0,90,0,0
362184,-94.3396226415094,4,1,0,90,0,0
362855,-95.2380952380952,4,1,0,90,0,0
363403,-86.9565217391304,4,1,0,95,0,0
363769,-95.2380952380952,4,1,0,90,0,0
364257,-94.3396226415094,4,1,0,90,0,0
364379,-93.4579439252336,4,1,0,90,0,0
364501,-92.5925925925926,4,1,0,90,0,0
364867,-96.1538461538461,4,1,0,90,0,0
365050,-95.2380952380952,4,1,0,90,0,0
365233,-86.9565217391304,4,1,0,95,0,0
365598,-94.3396226415094,4,1,0,90,0,0
365781,-95.2380952380952,4,1,0,90,0,0
365964,-96.1538461538461,4,1,0,90,0,0
366147,-97.0873786407767,4,1,0,90,0,0
367062,-96.1538461538461,4,1,0,90,0,0
367245,-95.2380952380952,4,1,0,90,0,0
367428,-86.9565217391304,4,1,0,95,0,0
367611,-94.3396226415094,4,1,0,90,0,0
369440,-93.4579439252336,4,1,0,90,0,0
369531,-92.5925925925926,4,1,0,90,0,0
369623,-85.4700854700855,4,1,0,95,0,0
369806,-93.4579439252336,4,1,0,90,0,0
369989,-94.3396226415094,4,1,0,90,0,0
370172,-95.2380952380952,4,1,0,90,0,0
370355,-86.9565217391304,4,1,0,95,0,0
370720,-96.1538461538461,4,1,0,90,0,0
371086,-95.2380952380952,4,1,0,90,0,0
371269,-94.3396226415094,4,1,0,90,0,0
371452,-93.4579439252336,4,1,0,90,0,0
371635,-92.5925925925926,4,1,0,90,0,0
372915,-91.743119266055,4,1,0,90,0,0
373098,-90.9090909090909,4,1,0,90,0,0
373556,-83.3333333333333,4,1,0,95,0,0
374013,-90.9090909090909,4,1,0,90,0,0
374287,-83.3333333333333,4,1,0,95,0,0
374745,-90.9090909090909,4,1,0,90,0,0
374989,-97.0873786407767,4,1,0,90,0,0
375111,-96.1538461538461,4,1,0,90,0,0
375233,-95.2380952380952,4,1,0,90,0,0
375355,-94.3396226415094,4,1,0,90,0,0
375476,-93.4579439252336,4,1,0,90,0,0
375598,-92.5925925925926,4,1,0,90,0,0
375720,-91.743119266055,4,1,0,90,0,0
375842,-90.9090909090909,4,1,0,90,0,0
375964,-90.0900900900901,4,1,0,90,0,0
376086,-89.2857142857143,4,1,0,90,0,0
376208,-83.3333333333333,4,1,0,95,0,0
376574,-95.2380952380952,4,1,0,90,0,0
376757,-94.3396226415094,4,1,0,90,0,0
376940,-86.9565217391304,4,1,0,95,0,0
377306,-93.4579439252336,4,1,0,90,0,0
377489,-94.3396226415094,4,1,0,90,0,0
377672,-95.2380952380952,4,1,0,90,0,0
377855,-96.1538461538461,4,1,0,90,0,0
378769,-95.2380952380952,4,1,0,90,0,0
378952,-94.3396226415094,4,1,0,90,0,0
379135,-86.2068965517241,4,1,0,95,0,0
379501,-94.3396226415094,4,1,0,90,0,0
379867,-86.2068965517241,4,1,0,95,0,0
380141,-95.2380952380952,4,1,0,90,0,0
380415,-96.1538461538461,4,1,0,90,0,0
380598,-87.719298245614,4,1,0,95,0,0
380781,-95.2380952380952,4,1,0,90,0,0
381330,-86.9565217391304,4,1,0,95,0,0
381513,-94.3396226415094,4,1,0,90,0,0
381879,-93.4579439252336,4,1,0,90,0,0
382062,-92.5925925925926,4,1,0,90,0,0
383159,-93.4579439252336,4,1,0,90,0,0
383251,-94.3396226415094,4,1,0,90,0,0
383342,-95.2380952380952,4,1,0,90,0,0
383525,-92.5925925925926,4,1,0,90,0,0
384623,-93.4579439252336,4,1,0,90,0,0
384714,-94.3396226415094,4,1,0,90,0,0
384806,-95.2380952380952,4,1,0,90,0,0
384989,-93.4579439252336,4,1,0,90,0,0
385720,-92.5925925925926,4,1,0,90,0,0
386452,-90.9090909090909,4,1,0,90,0,0
387367,-91.743119266055,4,1,0,90,0,0
387458,-92.5925925925926,4,1,0,90,0,0
387550,-93.4579439252336,4,1,0,90,0,0
387641,-94.3396226415094,4,1,0,90,0,0
387733,-95.2380952380952,4,1,0,90,0,0
387915,-86.9565217391304,4,1,0,100,0,0
388098,-94.3396226415094,4,1,0,90,0,0
388190,-93.4579439252336,4,1,0,90,0,0
388281,-86.9565217391304,4,1,0,100,0,0
388464,-94.3396226415094,4,1,0,90,0,0
388556,-93.4579439252336,4,1,0,90,0,0
388647,-86.9565217391304,4,1,0,100,0,0
388830,-93.4579439252336,4,1,0,90,0,0
388922,-94.3396226415094,4,1,0,90,0,0
389013,-95.2380952380952,4,1,0,90,0,0
389196,-94.3396226415094,4,1,0,90,0,0
389379,-86.9565217391304,4,1,0,100,0,0
389562,-94.3396226415094,4,1,0,90,0,0
389653,-93.4579439252336,4,1,0,90,0,0
389745,-86.9565217391304,4,1,0,100,0,0
389928,-94.3396226415094,4,1,0,90,0,0
390019,-93.4579439252336,4,1,0,90,0,0
390111,-86.9565217391304,4,1,0,100,0,0
390294,-93.4579439252336,4,1,0,90,0,0
390385,-94.3396226415094,4,1,0,90,0,0
390476,-95.2380952380952,4,1,0,90,0,0
393586,-94.3396226415094,4,1,0,90,0,0
393769,-86.9565217391304,4,1,0,100,0,0
393952,-94.3396226415094,4,1,0,90,0,0
394044,-93.4579439252336,4,1,0,90,0,0
394135,-86.9565217391304,4,1,0,100,0,0
394318,-94.3396226415094,4,1,0,90,0,0
394409,-93.4579439252336,4,1,0,90,0,0
394501,-86.9565217391304,4,1,0,100,0,0
394684,-93.4579439252336,4,1,0,90,0,0
394775,-94.3396226415094,4,1,0,90,0,0
394867,-95.2380952380952,4,1,0,90,0,0
395050,-94.3396226415094,4,1,0,90,0,0
395233,-86.9565217391304,4,1,0,100,0,0
395415,-94.3396226415094,4,1,0,90,0,0
395507,-93.4579439252336,4,1,0,90,0,0
395598,-86.9565217391304,4,1,0,100,0,0
395781,-94.3396226415094,4,1,0,90,0,0
395873,-93.4579439252336,4,1,0,90,0,0
395964,-86.9565217391304,4,1,0,100,0,0
396147,-93.4579439252336,4,1,0,90,0,0
396239,-94.3396226415094,4,1,0,90,0,0
396330,-95.2380952380952,4,1,0,90,0,0
399440,-93.4579439252336,4,1,0,90,0,0
399623,-86.2068965517241,4,1,0,100,0,0
399806,-93.4579439252336,4,1,0,90,0,0
399989,-86.2068965517241,4,1,0,100,0,0
400172,-93.4579439252336,4,1,0,90,0,0
400355,-86.2068965517241,4,1,0,100,0,0
400537,-93.4579439252336,4,1,0,90,0,0
400720,-91.743119266055,4,1,0,90,0,0
400903,-90.9090909090909,4,1,0,90,0,0
400995,-90.0900900900901,4,1,0,90,0,0
401086,-86.2068965517241,4,1,0,100,0,0
401269,-93.4579439252336,4,1,0,90,0,0
401452,-86.2068965517241,4,1,0,100,0,0
401635,-93.4579439252336,4,1,0,90,0,0
401818,-86.2068965517241,4,1,0,100,0,0
402001,-93.4579439252336,4,1,0,90,0,0
402184,-91.743119266055,4,1,0,90,0,0
402367,-93.4579439252336,4,1,0,90,0,0
402458,-92.5925925925926,4,1,0,90,0,0
402550,-91.743119266055,4,1,0,90,0,0
404745,-92.5925925925926,4,1,0,90,0,0
404928,-93.4579439252336,4,1,0,90,0,0
405111,-94.3396226415094,4,1,0,90,0,0
405476,-86.2068965517241,4,1,0,100,0,0
405659,-93.4579439252336,4,1,0,90,0,0
405842,-86.2068965517241,4,1,0,100,0,0
406025,-93.4579439252336,4,1,0,90,0,0
406208,-86.2068965517241,4,1,0,100,0,0
406391,-93.4579439252336,4,1,0,90,0,0
406574,-91.743119266055,4,1,0,90,0,0
406757,-90.9090909090909,4,1,0,90,0,0
406848,-90.0900900900901,4,1,0,90,0,0
406940,-86.2068965517241,4,1,0,100,0,0
407123,-93.4579439252336,4,1,0,90,0,0
407306,-86.2068965517241,4,1,0,100,0,0
407489,-93.4579439252336,4,1,0,90,0,0
407672,-86.2068965517241,4,1,0,100,0,0
407855,-93.4579439252336,4,1,0,90,0,0
408037,-92.5925925925926,4,1,0,90,0,0
410964,-93.4579439252336,4,1,0,90,0,0
411056,-94.3396226415094,4,1,0,90,0,0
411147,-95.2380952380952,4,1,0,90,0,0
411239,-96.1538461538461,4,1,0,90,0,0
411330,-97.0873786407767,4,1,0,90,0,0
414074,-96.1538461538461,4,1,0,90,0,0
414165,-95.2380952380952,4,1,0,90,0,0
414257,-94.3396226415094,4,1,0,90,0,0
415537,-93.4579439252336,4,1,0,90,0,0
415629,-92.5925925925926,4,1,0,90,0,0
415720,-83.3333333333333,4,1,0,100,0,0
416086,-96.1538461538461,4,1,0,90,0,0
416269,-95.2380952380952,4,1,0,90,0,0
416452,-94.3396226415094,4,1,0,90,0,0
416635,-93.4579439252336,4,1,0,91,0,0
416818,-92.5925925925926,4,1,0,92,0,0
416909,-91.743119266055,4,1,0,93,0,0
417001,-90.9090909090909,4,1,0,94,0,0
417204,-89.2857142857143,4,1,0,95,0,1
422499,-90.0900900900901,4,1,0,95,0,1
422590,-90.9090909090909,4,1,0,95,0,1
422682,-91.743119266055,4,1,0,95,0,1
422865,-92.5925925925926,4,1,0,95,0,1
423047,-90.0900900900901,4,1,0,95,0,1
427986,-90.9090909090909,4,1,0,95,0,1
428078,-91.743119266055,4,1,0,95,0,1
428179,-92.5925925925926,4,1,0,95,0,0
428342,-93.4579439252336,4,1,0,95,0,0
428525,-94.3396226415094,4,1,0,95,0,0
428617,-95.2380952380952,4,1,0,95,0,0
428708,-96.1538461538461,4,1,0,95,0,0
428911,-90.9090909090909,4,1,0,95,0,1
431828,-90.9090909090909,4,1,0,100,0,1
434023,-91.743119266055,4,1,0,99,0,1
434115,-92.5925925925926,4,1,0,98,0,1
434206,-93.4579439252336,4,1,0,97,0,1
434297,-94.3396226415094,4,1,0,96,0,1
434389,-95.2380952380952,4,1,0,95,0,1
434572,-96.1538461538461,4,1,0,95,0,1
434755,-92.5925925925926,4,1,0,95,0,1
435669,-93.4579439252336,4,1,0,95,0,1
435761,-94.3396226415094,4,1,0,95,0,1
435852,-95.2380952380952,4,1,0,95,0,1
436035,-96.1538461538461,4,1,0,95,0,1
436218,-92.5925925925926,4,1,0,95,0,1
437133,-93.4579439252336,4,1,0,95,0,1
437224,-94.3396226415094,4,1,0,95,0,1
437316,-95.2380952380952,4,1,0,95,0,1
437499,-96.1538461538461,4,1,0,95,0,1
437682,-92.5925925925926,4,1,0,95,0,1
439145,-93.4579439252336,4,1,0,95,0,1
439236,-94.3396226415094,4,1,0,95,0,1
439328,-95.2380952380952,4,1,0,95,0,1
439429,-96.1538461538461,4,1,0,95,0,0
439592,-97.0873786407767,4,1,0,95,0,0
439684,-98.0392156862745,4,1,0,95,0,0
439867,-99.009900990099,4,1,0,95,0,0
440618,-94.3396226415094,4,1,0,95,0,1
440700,-93.4579439252336,4,1,0,95,0,1
440791,-92.5925925925926,4,1,0,95,0,1
440883,-91.743119266055,4,1,0,95,0,1
440974,-90.9090909090909,4,1,0,95,0,1
445913,-91.743119266055,4,1,0,95,0,1
446005,-92.5925925925926,4,1,0,95,0,1
446096,-93.4579439252336,4,1,0,95,0,1
446279,-94.3396226415094,4,1,0,95,0,1
446462,-90.9090909090909,4,1,0,95,0,1
451218,-91.743119266055,4,1,0,95,0,1
451310,-92.5925925925926,4,1,0,95,0,1
451401,-93.4579439252336,4,1,0,95,0,1
451493,-94.3396226415094,4,1,0,95,0,1
451594,-95.2380952380952,4,1,0,95,0,0
451757,-96.1538461538461,4,1,0,95,0,0
451940,-97.0873786407767,4,1,0,95,0,0
452031,-98.0392156862745,4,1,0,95,0,0
452123,-99.009900990099,4,1,0,95,0,0
452326,-93.4579439252336,4,1,0,95,0,1
455243,-93.4579439252336,4,1,0,100,0,1
457438,-94.3396226415094,4,1,0,99,0,1
457529,-95.2380952380952,4,1,0,98,0,1
457621,-96.1538461538461,4,1,0,97,0,1
457712,-97.0873786407767,4,1,0,96,0,1
457804,-98.0392156862745,4,1,0,95,0,1
457986,-99.009900990099,4,1,0,95,0,1
458169,-93.4579439252336,4,1,0,95,0,1
462560,-94.3396226415094,4,1,0,94,0,1
462651,-95.2380952380952,4,1,0,93,0,1
462743,-96.1538461538461,4,1,0,92,0,1
462834,-97.0873786407767,4,1,0,91,0,1
463017,-98.0392156862745,4,1,0,90,0,1
463108,-99.009900990099,4,1,0,90,0,1
463291,-100,4,1,0,90,0,1
464033,-99.009900990099,4,1,0,90,0,0
464115,-98.0392156862745,4,1,0,90,0,0
464206,-97.0873786407767,4,1,0,90,0,0
465212,-94.3396226415094,4,1,0,90,0,0
465304,-95.2380952380952,4,1,0,90,0,0
465395,-96.1538461538461,4,1,0,90,0,0
465486,-97.0873786407767,4,1,0,90,0,0
466675,-94.3396226415094,4,1,0,90,0,0
466767,-95.2380952380952,4,1,0,90,0,0
466858,-96.1538461538461,4,1,0,90,0,0
466950,-97.0873786407767,4,1,0,90,0,0
468139,-94.3396226415094,4,1,0,90,0,0
468230,-95.2380952380952,4,1,0,90,0,0
468322,-96.1538461538461,4,1,0,90,0,0
468413,-97.0873786407767,4,1,0,90,0,0
471066,-94.3396226415094,4,1,0,90,0,0
471157,-95.2380952380952,4,1,0,90,0,0
471249,-96.1538461538461,4,1,0,90,0,0
471340,-97.0873786407767,4,1,0,90,0,0
472529,-94.3396226415094,4,1,0,90,0,0
472621,-95.2380952380952,4,1,0,90,0,0
472712,-96.1538461538461,4,1,0,90,0,0
472804,-97.0873786407767,4,1,0,90,0,0
473993,-94.3396226415094,4,1,0,90,0,0
474084,-95.2380952380952,4,1,0,90,0,0
474175,-96.1538461538461,4,1,0,90,0,0
474267,-97.0873786407767,4,1,0,90,0,0
474907,-98.0392156862745,4,1,0,90,0,0
474999,-99.009900990099,4,1,0,90,0,0
475243,-101.010101010101,4,1,0,89,0,0
475365,-102.040816326531,4,1,0,88,0,0
475486,-103.092783505155,4,1,0,87,0,0
475608,-104.166666666667,4,1,0,86,0,0
475740,548.747027620267,4,1,0,85,1,0
475740,-59.8802395209581,4,1,0,85,0,0
476553,-71.4285714285714,4,1,0,85,0,0
477376,-72.463768115942,4,1,0,85,0,0
477924,-62.5,4,1,0,90,0,0
478748,-73.5294117647059,4,1,0,85,0,0
479571,-74.6268656716418,4,1,0,85,0,0
480119,-66.6666666666667,4,1,0,90,0,0
480668,-75.7575757575758,4,1,0,85,0,0
481217,-68.4931506849315,4,1,0,90,0,0
481766,-76.9230769230769,4,1,0,85,0,0
482314,-69.4444444444444,4,1,0,90,0,0
484509,-70.4225352112676,4,1,0,90,0,0
485333,-78.125,4,1,0,85,0,0
486156,-79.3650793650794,4,1,0,85,0,0
486704,-72.463768115942,4,1,0,90,0,0
487528,-80.6451612903226,4,1,0,85,0,0
488351,-81.9672131147541,4,1,0,85,0,0
488899,-74.6268656716418,4,1,0,90,0,0
489448,-83.3333333333333,4,1,0,85,0,0
489997,-75.7575757575758,4,1,0,90,0,0
490546,-84.7457627118644,4,1,0,85,0,0
491094,-76.9230769230769,4,1,0,90,0,0
492192,-85.4700854700855,4,1,0,85,0,0
492329,-86.2068965517241,4,1,0,85,0,0
492603,-86.9565217391304,4,1,0,85,0,0
492741,-87.719298245614,4,1,0,85,0,0
493015,-88.4955752212389,4,1,0,85,0,0
493152,-89.2857142857143,4,1,0,85,0,0
493289,-83.3333333333333,4,1,0,90,0,0
493838,-90.0900900900901,4,1,0,85,0,0
494113,-90.9090909090909,4,1,0,85,0,0
494387,-84.7457627118644,4,1,0,90,0,0
494936,-91.743119266055,4,1,0,85,0,0
495210,-92.5925925925926,4,1,0,85,0,0
495484,-93.4579439252336,4,1,0,85,0,0
495759,-94.3396226415094,4,1,0,85,0,0
496033,-95.2380952380952,4,1,0,85,0,0
496308,-96.1538461538461,4,1,0,85,0,0
496445,-97.0873786407767,4,1,0,85,0,0
496582,-86.9565217391304,4,1,0,90,0,0
496856,-98.0392156862745,4,1,0,85,0,0
497131,-99.009900990099,4,1,0,85,0,0
497405,-100,4,1,0,85,0,0
497679,-86.9565217391304,4,1,0,100,0,0
498228,-102.040816326531,4,1,0,85,0,0
498777,-85.4700854700855,4,1,0,100,0,0
499326,-103.092783505155,4,1,0,85,0,0
499874,-84.0336134453781,4,1,0,100,0,0
500149,-103.092783505155,4,1,0,85,0,0
500697,-102.040816326531,4,1,0,85,0,0
500835,-101.010101010101,4,1,0,85,0,0
500972,-100,4,1,0,85,0,0
501246,-92.5925925925926,4,1,0,90,0,0
501521,-90.0900900900901,4,1,0,90,0,0
501795,-87.719298245614,4,1,0,90,0,0
502069,-86.9565217391304,4,1,0,85,0,0
502618,-99.009900990099,4,1,0,85,0,0
503167,-86.9565217391304,4,1,0,100,0,0
503716,-100,4,1,0,85,0,0
504264,-88.4955752212389,4,1,0,90,0,0
504539,-100,4,1,0,85,0,0
505087,-101.010101010101,4,1,0,85,0,0
505179,-102.040816326531,4,1,0,85,0,0
505270,-103.092783505155,4,1,0,85,0,0
505362,-90.9090909090909,4,1,0,100,0,0
505636,-105.263157894737,4,1,0,85,0,0
505911,-106.382978723404,4,1,0,85,0,0
506185,-107.52688172043,4,1,0,85,0,0
506469,718.562874251497,4,1,0,85,1,0
506469,-74.0740740740741,4,1,0,85,0,0
506818,-90.9090909090909,4,1,0,85,0,0
507189,750,4,1,0,85,1,8
507189,-86.9565217391304,4,1,0,85,0,0
507554,-87.719298245614,4,1,0,85,0,0
507939,727.996311485355,4,1,0,85,1,8
507939,-81.9672131147541,4,1,0,85,0,0
508292,-90.9090909090909,4,1,0,85,0,0
508383,-91.743119266055,4,1,0,85,0,0
508474,-92.5925925925926,4,1,0,85,0,0
508656,-93.4579439252336,4,1,0,85,0,0
508838,-94.3396226415094,4,1,0,85,0,0
509395,824.03999340768,4,1,0,85,1,0
509395,-90.9090909090909,4,1,0,85,0,0
515987,548.747027620267,4,1,0,85,1,0

[HitObjects]
256,192,16873,5,0,0:0:0:0:
256,192,17148,5,0,0:0:0:0:
256,192,17422,5,8,0:0:0:0:
256,192,17696,5,8,0:0:0:0:
256,192,19068,5,8,0:0:0:0:
256,192,19343,5,0,0:0:0:0:
256,192,19617,5,8,0:0:0:0:
256,192,19891,5,0,0:0:0:0:
256,192,21263,5,8,0:0:0:0:
256,192,21538,5,0,0:0:0:0:
256,192,21812,5,8,0:0:0:0:
256,192,22086,5,8,0:0:0:0:
256,192,22361,5,0,0:0:0:0:
256,192,22635,5,8,0:0:0:0:
256,192,22910,5,0,0:0:0:0:
256,192,23184,5,8,0:0:0:0:
256,192,23458,5,0,0:0:0:0:
256,192,23733,5,8,0:0:0:0:
256,192,24007,5,8,0:0:0:0:
256,192,25653,5,8,0:0:0:0:
256,192,25928,5,0,0:0:0:0:
256,192,26202,5,8,0:0:0:0:
256,192,26476,5,8,0:0:0:0:
256,192,27848,5,0,0:0:0:0:
256,192,28123,5,8,0:0:0:0:
256,192,28397,5,0,0:0:0:0:
256,192,30043,5,0,0:0:0:0:
256,192,30318,5,8,0:0:0:0:
256,192,30592,5,8,0:0:0:0:
256,192,31141,5,8,0:0:0:0:
256,192,31415,5,0,0:0:0:0:
256,192,31689,5,8,0:0:0:0:
256,192,31964,5,8,0:0:0:0:
256,192,32238,5,0,0:0:0:0:
256,192,32513,5,0,0:0:0:0:
256,192,32787,5,8,0:0:0:0:
256,192,34433,5,0,0:0:0:0:
256,192,34708,5,8,0:0:0:0:
256,192,34982,5,0,0:0:0:0:
256,192,35256,5,8,0:0:0:0:
256,192,36628,5,8,0:0:0:0:
256,192,36903,5,0,0:0:0:0:
256,192,37177,5,8,0:0:0:0:
256,192,37451,5,0,0:0:0:0:
256,192,38823,5,0,0:0:0:0:
256,192,39098,5,0,0:0:0:0:
256,192,39372,5,8,0:0:0:0:
256,192,39646,5,8,0:0:0:0:
256,192,39921,5,0,0:0:0:0:
256,192,40195,5,8,0:0:0:0:
256,192,40469,5,0,0:0:0:0:
256,192,40744,5,8,0:0:0:0:
256,192,41018,5,8,0:0:0:0:
256,192,41293,5,0,0:0:0:0:
256,192,41567,5,8,0:0:0:0:
256,192,43213,5,0,0:0:0:0:
256,192,43488,5,0,0:0:0:0:
256,192,43762,5,8,0:0:0:0:
256,192,44036,5,8,0:0:0:0:
256,192,45408,5,0,0:0:0:0:
256,192,45683,5,8,0:0:0:0:
256,192,45957,5,0,0:0:0:0:
256,192,47603,5,0,0:0:0:0:
256,192,47877,5,8,0:0:0:0:
256,192,48152,5,0,0:0:0:0:
256,192,48426,5,8,0:0:0:0:
256,192,48701,5,0,0:0:0:0:
256,192,48975,5,0,0:0:0:0:
256,192,49249,5,8,0:0:0:0:
256,192,49524,5,8,0:0:0:0:
256,192,49798,5,0,0:0:0:0:
256,192,50072,5,0,0:0:0:0:
256,192,50347,5,8,0:0:0:0:
256,192,52816,5,0,0:0:0:0:
256,192,53091,5,0,0:0:0:0:
256,192,53365,5,8,0:0:0:0:
256,192,53639,5,8,0:0:0:0:
256,192,53914,5,0,0:0:0:0:
256,192,54188,5,8,0:0:0:0:
256,192,54325,5,8,0:0:0:0:
256,192,54462,5,0,0:0:0:0:
256,192,54737,5,8,0:0:0:0:
256,192,54874,5,8,0:0:0:0:
256,192,55011,5,4,0:0:0:0:
256,192,55834,5,0,0:0:0:0:
256,192,56657,5,8,0:0:0:0:
256,192,57206,5,4,0:0:0:0:
256,192,58029,5,0,0:0:0:0:
256,192,58852,5,8,0:0:0:0:
256,192,59401,5,12,0:0:0:0:
256,192,59950,5,0,0:0:0:0:
256,192,60499,5,12,0:0:0:0:
256,192,61047,5,0,0:0:0:0:
256,192,61596,5,12,0:0:0:0:
256,192,63791,5,4,0:0:0:0:
256,192,64614,5,8,0:0:0:0:
256,192,65437,5,8,0:0:0:0:
256,192,65986,5,4,0:0:0:0:
256,192,66809,5,8,0:0:0:0:
256,192,67632,5,8,0:0:0:0:
256,192,68181,5,4,0:0:0:0:
256,192,68730,5,0,0:0:0:0:
256,192,69279,5,12,0:0:0:0:
256,192,69827,5,8,0:0:0:0:
256,192,70376,5,4,0:0:0:0:
256,192,71474,5,8,0:0:0:0:
256,192,71611,5,0,0:0:0:0:
256,192,71885,5,0,0:0:0:0:
256,192,72022,5,8,0:0:0:0:
256,192,72297,5,8,0:0:0:0:
256,192,72434,5,8,0:0:0:0:
256,192,72571,5,4,0:0:0:0:
256,192,73120,5,0,0:0:0:0:
256,192,73394,5,8,0:0:0:0:
256,192,73669,5,4,0:0:0:0:
256,192,74217,5,8,0:0:0:0:
256,192,74492,5,8,0:0:0:0:
256,192,74766,5,4,0:0:0:0:
256,192,75040,5,0,0:0:0:0:
256,192,75315,5,0,0:0:0:0:
256,192,75589,5,8,0:0:0:0:
256,192,75681,5,8,0:0:0:0:
256,192,75864,5,4,0:0:0:0:
256,192,76138,5,0,0:0:0:0:
256,192,76412,5,8,0:0:0:0:
256,192,76687,5,8,0:0:0:0:
256,192,76961,5,4,0:0:0:0:
256,192,77510,5,8,0:0:0:0:
256,192,77784,5,0,0:0:0:0:
256,192,78059,5,4,0:0:0:0:
256,192,78607,5,8,0:0:0:0:
256,192,78882,5,8,0:0:0:0:
256,192,79156,5,4,0:0:0:0:
263,194,79430,5,0,0:0:0:0:
256,192,79705,5,8,0:0:0:0:
256,192,79979,5,8,0:0:0:0:
256,192,80071,5,8,0:0:0:0:
256,192,80254,5,4,0:0:0:0:
256,192,80528,5,0,0:0:0:0:
256,192,80802,5,12,0:0:0:0:
256,192,81077,5,0,0:0:0:0:
256,192,81351,5,12,0:0:0:0:
256,192,81900,5,8,0:0:0:0:
256,192,82174,5,0,0:0:0:0:
256,192,82449,5,4,0:0:0:0:
256,192,82997,5,8,0:0:0:0:
256,192,83272,5,0,0:0:0:0:
256,192,83546,5,12,0:0:0:0:
256,192,83820,5,0,0:0:0:0:
256,192,84095,5,8,0:0:0:0:
256,192,84369,5,8,0:0:0:0:
256,192,84461,5,8,0:0:0:0:
256,192,84644,5,4,0:0:0:0:
256,192,84918,5,0,0:0:0:0:
256,192,85192,5,12,0:0:0:0:
256,192,85467,5,8,0:0:0:0:
256,192,85741,5,4,0:0:0:0:
256,192,86015,5,0,0:0:0:0:
256,192,86290,5,8,0:0:0:0:
256,192,86564,5,0,0:0:0:0:
256,192,86839,5,12,0:0:0:0:
256,192,87113,5,0,0:0:0:0:
256,192,87387,5,8,0:0:0:0:
256,192,87662,5,0,0:0:0:0:
256,192,87936,5,12,0:0:0:0:
256,192,90131,5,8,0:0:0:0:
256,192,90222,5,8,0:0:0:0:
256,192,90314,5,0,0:0:0:0:
256,192,90405,5,0,0:0:0:0:
256,192,90496,5,8,0:0:0:0:
256,192,90588,5,8,0:0:0:0:
256,192,90679,5,8,0:0:0:0:
256,192,90771,5,0,0:0:0:0:
256,192,90862,5,12,0:0:0:0:
256,192,91045,5,8,0:0:0:0:
256,192,91228,5,0,0:0:0:0:
256,192,91320,5,8,0:0:0:0:
256,192,91411,5,0,0:0:0:0:
256,192,91503,5,0,0:0:0:0:
256,192,91594,5,8,0:0:0:0:
256,192,91777,5,0,0:0:0:0:
256,192,91868,5,8,0:0:0:0:
256,192,92051,5,0,0:0:0:0:
256,192,92143,5,8,0:0:0:0:
256,192,92234,5,8,0:0:0:0:
256,192,92326,5,0,0:0:0:0:
256,192,92509,5,8,0:0:0:0:
256,192,92692,5,0,0:0:0:0:
256,192,92783,5,8,0:0:0:0:
256,192,92875,5,8,0:0:0:0:
256,192,92966,5,0,0:0:0:0:
256,192,93057,5,8,0:0:0:0:
256,192,93240,5,0,0:0:0:0:
256,192,93332,5,8,0:0:0:0:
256,192,93515,5,0,0:0:0:0:
256,192,93606,5,8,0:0:0:0:
256,192,93698,5,8,0:0:0:0:
256,192,93789,5,0,0:0:0:0:
256,192,93972,5,8,0:0:0:0:
256,192,94155,5,0,0:0:0:0:
256,192,94246,5,8,0:0:0:0:
256,192,94338,5,0,0:0:0:0:
256,192,94429,5,0,0:0:0:0:
256,192,94521,5,8,0:0:0:0:
256,192,94704,5,0,0:0:0:0:
256,192,94795,5,8,0:0:0:0:
256,192,94978,5,0,0:0:0:0:
256,192,95070,5,8,0:0:0:0:
256,192,95161,5,8,0:0:0:0:
256,192,95253,5,0,0:0:0:0:
256,192,95435,5,8,0:0:0:0:
256,192,95618,5,0,0:0:0:0:
256,192,95710,5,8,0:0:0:0:
256,192,95801,5,8,0:0:0:0:
256,192,95893,5,0,0:0:0:0:
256,192,95984,5,8,0:0:0:0:
256,192,96167,5,0,0:0:0:0:
256,192,96350,5,0,0:0:0:0:
256,192,96442,5,0,0:0:0:0:
256,192,96533,5,8,0:0:0:0:
256,192,96625,5,0,0:0:0:0:
256,192,96716,5,12,0:0:0:0:
256,192,97082,5,0,0:0:0:0:
256,192,97448,5,0,0:0:0:0:
256,192,97814,5,0,0:0:0:0:
256,192,98179,5,0,0:0:0:0:
256,192,98545,5,0,0:0:0:0:
256,192,98911,5,0,0:0:0:0:
256,192,99277,5,0,0:0:0:0:
256,192,99460,5,0,0:0:0:0:
256,192,99643,5,12,0:0:0:0:
256,192,100009,5,0,0:0:0:0:
256,192,100375,5,0,0:0:0:0:
256,192,100740,5,0,0:0:0:0:
256,192,101106,5,12,0:0:0:0:
256,192,101289,5,8,0:0:0:0:
256,192,101381,5,8,0:0:0:0:
256,192,101472,5,0,0:0:0:0:
256,192,101564,5,8,0:0:0:0:
256,192,101655,5,0,0:0:0:0:
256,192,101746,5,0,0:0:0:0:
256,192,101838,5,8,0:0:0:0:
256,192,102021,5,8,0:0:0:0:
256,192,102204,5,8,0:0:0:0:
256,192,102295,5,8,0:0:0:0:
256,192,102387,5,0,0:0:0:0:
256,192,102570,5,8,0:0:0:0:
256,192,102661,5,0,0:0:0:0:
256,192,102753,5,8,0:0:0:0:
256,192,102844,5,8,0:0:0:0:
256,192,102935,5,8,0:0:0:0:
256,192,103027,5,0,0:0:0:0:
256,192,103118,5,8,0:0:0:0:
256,192,103210,5,0,0:0:0:0:
256,192,103301,5,8,0:0:0:0:
256,192,103393,5,8,0:0:0:0:
256,192,103484,5,0,0:0:0:0:
256,192,103576,5,8,0:0:0:0:
256,192,103667,5,8,0:0:0:0:
256,192,103759,5,0,0:0:0:0:
256,192,103850,5,8,0:0:0:0:
256,192,103942,5,8,0:0:0:0:
256,192,104033,5,8,0:0:0:0:
256,192,104125,5,0,0:0:0:0:
256,192,104216,5,8,0:0:0:0:
256,192,104307,5,0,0:0:0:0:
256,192,104399,5,0,0:0:0:0:
256,192,104490,5,8,0:0:0:0:
256,192,104582,5,8,0:0:0:0:
256,192,104673,5,0,0:0:0:0:
256,192,104765,5,8,0:0:0:0:
256,192,104856,5,0,0:0:0:0:
256,192,104948,5,0,0:0:0:0:
256,192,105039,5,8,0:0:0:0:
256,192,105131,5,8,0:0:0:0:
256,192,105222,5,0,0:0:0:0:
256,192,105314,5,8,0:0:0:0:
256,192,105405,5,8,0:0:0:0:
256,192,105496,5,8,0:0:0:0:
256,192,105588,5,0,0:0:0:0:
256,192,105679,5,8,0:0:0:0:
256,192,105771,5,0,0:0:0:0:
256,192,105862,5,0,0:0:0:0:
256,192,105954,5,8,0:0:0:0:
256,192,106045,5,8,0:0:0:0:
256,192,106137,5,0,0:0:0:0:
256,192,106228,5,8,0:0:0:0:
256,192,106320,5,8,0:0:0:0:
256,192,106411,5,0,0:0:0:0:
256,192,106503,5,8,0:0:0:0:
256,192,106594,5,0,0:0:0:0:
256,192,106685,5,0,0:0:0:0:
256,192,106777,5,8,0:0:0:0:
256,192,106868,5,8,0:0:0:0:
256,192,106960,5,8,0:0:0:0:
256,192,107051,5,0,0:0:0:0:
256,192,107143,5,8,0:0:0:0:
256,192,107234,5,8,0:0:0:0:
256,192,107326,5,0,0:0:0:0:
256,192,107417,5,8,0:0:0:0:
256,192,107509,5,8,0:0:0:0:
256,192,107600,5,0,0:0:0:0:
256,192,107692,5,8,0:0:0:0:
256,192,107783,5,8,0:0:0:0:
256,192,107875,5,0,0:0:0:0:
256,192,107966,5,0,0:0:0:0:
256,192,108057,5,8,0:0:0:0:
256,192,108149,5,0,0:0:0:0:
256,192,108240,5,8,0:0:0:0:
256,192,108332,5,8,0:0:0:0:
256,192,108423,5,0,0:0:0:0:
256,192,108606,5,8,0:0:0:0:
256,192,108698,5,0,0:0:0:0:
256,192,108789,5,0,0:0:0:0:
256,192,108881,5,8,0:0:0:0:
256,192,108972,5,0,0:0:0:0:
256,192,109064,5,0,0:0:0:0:
256,192,109155,5,8,0:0:0:0:
256,192,109246,5,8,0:0:0:0:
256,192,109338,5,0,0:0:0:0:
256,192,109429,5,8,0:0:0:0:
256,192,109521,5,8,0:0:0:0:
256,192,109612,5,0,0:0:0:0:
256,192,109704,5,8,0:0:0:0:
256,192,109795,5,8,0:0:0:0:
256,192,109887,5,0,0:0:0:0:
256,192,110070,5,8,0:0:0:0:
256,192,110161,5,0,0:0:0:0:
256,192,110253,5,0,0:0:0:0:
256,192,110344,5,8,0:0:0:0:
256,192,110435,5,8,0:0:0:0:
256,192,110527,5,0,0:0:0:0:
256,192,110618,5,8,0:0:0:0:
256,192,110710,5,0,0:0:0:0:
256,192,110801,5,0,0:0:0:0:
256,192,110893,5,8,0:0:0:0:
256,192,110984,5,0,0:0:0:0:
256,192,111076,5,0,0:0:0:0:
256,192,111167,5,8,0:0:0:0:
256,192,111259,5,8,0:0:0:0:
256,192,111350,5,0,0:0:0:0:
256,192,111533,5,8,0:0:0:0:
256,192,111625,5,0,0:0:0:0:
256,192,111716,5,0,0:0:0:0:
256,192,111807,5,8,0:0:0:0:
256,192,111899,5,0,0:0:0:0:
256,192,111990,5,0,0:0:0:0:
256,192,112082,5,8,0:0:0:0:
256,192,112173,5,8,0:0:0:0:
256,192,112265,5,0,0:0:0:0:
256,192,112356,5,8,0:0:0:0:
256,192,112448,5,0,0:0:0:0:
256,192,112539,5,0,0:0:0:0:
256,192,112631,5,8,0:0:0:0:
256,192,112722,5,0,0:0:0:0:
256,192,112814,5,8,0:0:0:0:
256,192,112996,5,8,0:0:0:0:
256,192,113088,5,0,0:0:0:0:
256,192,113179,5,0,0:0:0:0:
256,192,113271,5,8,0:0:0:0:
256,192,113454,5,0,0:0:0:0:
256,192,113545,5,8,0:0:0:0:
256,192,113728,5,0,0:0:0:0:
256,192,113820,5,0,0:0:0:0:
256,192,113911,5,8,0:0:0:0:
256,192,114003,5,8,0:0:0:0:
256,192,114094,5,8,0:0:0:0:
256,192,114185,5,0,0:0:0:0:
256,192,114277,5,8,0:0:0:0:
256,192,114460,5,0,0:0:0:0:
256,192,114643,5,8,0:0:0:0:
256,192,114734,5,0,0:0:0:0:
256,192,114826,5,8,0:0:0:0:
256,192,115009,5,0,0:0:0:0:
256,192,115192,5,8,0:0:0:0:
256,192,115283,5,0,0:0:0:0:
256,192,115466,5,0,0:0:0:0:
256,192,115557,5,8,0:0:0:0:
256,192,115740,5,0,0:0:0:0:
256,192,115923,5,0,0:0:0:0:
256,192,116106,5,8,0:0:0:0:
256,192,116198,5,8,0:0:0:0:
256,192,116289,5,0,0:0:0:0:
256,192,116472,5,0,0:0:0:0:
256,192,116655,5,8,0:0:0:0:
256,192,116746,5,0,0:0:0:0:
256,192,116929,5,0,0:0:0:0:
256,192,117021,5,8,0:0:0:0:
256,192,117204,5,4,0:0:0:0:
256,192,117387,5,8,0:0:0:0:
256,192,117570,5,0,0:0:0:0:
256,192,117661,5,0,0:0:0:0:
256,192,117753,5,8,0:0:0:0:
256,192,117935,5,4,0:0:0:0:
256,192,118118,5,8,0:0:0:0:
256,192,118210,5,0,0:0:0:0:
256,192,118393,5,0,0:0:0:0:
256,192,118484,5,8,0:0:0:0:
256,192,118667,5,4,0:0:0:0:
256,192,118850,5,8,0:0:0:0:
256,192,119033,5,0,0:0:0:0:
256,192,119125,5,0,0:0:0:0:
256,192,119216,5,8,0:0:0:0:
256,192,119399,5,0,0:0:0:0:
256,192,119582,5,8,0:0:0:0:
256,192,119673,5,0,0:0:0:0:
256,192,119856,5,0,0:0:0:0:
256,192,119948,5,8,0:0:0:0:
256,192,120131,5,12,0:0:0:0:
256,192,120314,5,0,0:0:0:0:
256,192,120496,5,8,0:0:0:0:
256,192,120588,5,0,0:0:0:0:
256,192,120679,5,8,0:0:0:0:
256,192,120862,5,0,0:0:0:0:
256,192,121045,5,8,0:0:0:0:
256,192,121137,5,0,0:0:0:0:
256,192,121320,5,0,0:0:0:0:
256,192,121411,5,8,0:0:0:0:
256,192,121594,5,4,0:0:0:0:
256,192,121777,5,8,0:0:0:0:
256,192,121960,5,8,0:0:0:0:
256,192,122051,5,8,0:0:0:0:
256,192,122143,5,0,0:0:0:0:
256,192,122326,5,8,0:0:0:0:
256,192,122509,5,8,0:0:0:0:
256,192,122600,5,0,0:0:0:0:
256,192,122783,5,0,0:0:0:0:
256,192,122875,5,8,0:0:0:0:
256,192,123057,5,12,0:0:0:0:
256,192,123240,5,8,0:0:0:0:
256,192,123423,5,0,0:0:0:0:
256,192,123515,5,0,0:0:0:0:
256,192,123606,5,8,0:0:0:0:
256,192,123789,5,4,0:0:0:0:
256,192,123972,5,8,0:0:0:0:
256,192,124064,5,0,0:0:0:0:
256,192,124246,5,0,0:0:0:0:
256,192,124338,5,8,0:0:0:0:
256,192,124521,5,4,0:0:0:0:
256,192,124704,5,8,0:0:0:0:
256,192,124795,5,0,0:0:0:0:
256,192,124887,5,8,0:0:0:0:
256,192,124978,5,8,0:0:0:0:
256,192,125070,5,0,0:0:0:0:
256,192,125253,5,0,0:0:0:0:
256,192,125435,5,8,0:0:0:0:
256,192,125618,5,8,0:0:0:0:
256,192,125710,5,8,0:0:0:0:
256,192,125801,5,0,0:0:0:0:
256,192,125984,5,8,0:0:0:0:
256,192,126076,5,8,0:0:0:0:
256,192,126167,5,0,0:0:0:0:
256,192,126259,5,0,0:0:0:0:
256,192,126350,5,8,0:0:0:0:
256,192,126442,5,0,0:0:0:0:
256,192,126533,5,8,0:0:0:0:
256,192,126625,5,8,0:0:0:0:
256,192,126716,5,0,0:0:0:0:
256,192,126807,5,0,0:0:0:0:
256,192,126899,5,8,0:0:0:0:
256,192,126990,5,0,0:0:0:0:
256,192,127082,5,8,0:0:0:0:
256,192,127173,5,8,0:0:0:0:
256,192,127265,5,8,0:0:0:0:
256,192,127356,5,0,0:0:0:0:
256,192,127448,5,8,0:0:0:0:
256,192,127539,5,0,0:0:0:0:
256,192,127631,5,0,0:0:0:0:
256,192,127722,5,0,0:0:0:0:
256,192,127814,5,8,0:0:0:0:
256,192,127905,5,8,0:0:0:0:
256,192,127996,5,0,0:0:0:0:
256,192,128088,5,0,0:0:0:0:
256,192,128179,5,8,0:0:0:0:
256,192,128271,5,8,0:0:0:0:
256,192,128362,5,8,0:0:0:0:
256,192,128454,5,0,0:0:0:0:
256,192,128545,5,8,0:0:0:0:
256,192,128637,5,8,0:0:0:0:
256,192,128728,5,0,0:0:0:0:
256,192,128820,5,0,0:0:0:0:
256,192,128911,5,8,0:0:0:0:
256,192,129003,5,8,0:0:0:0:
256,192,129094,5,8,0:0:0:0:
256,192,129185,5,0,0:0:0:0:
256,192,129277,5,8,0:0:0:0:
256,192,129368,5,0,0:0:0:0:
256,192,129460,5,8,0:0:0:0:
256,192,129551,5,8,0:0:0:0:
256,192,129643,5,8,0:0:0:0:
256,192,129734,5,0,0:0:0:0:
256,192,129826,5,8,0:0:0:0:
256,192,129917,5,0,0:0:0:0:
256,192,130009,5,8,0:0:0:0:
256,192,130100,5,0,0:0:0:0:
256,192,130192,5,8,0:0:0:0:
256,192,130283,5,8,0:0:0:0:
256,192,130375,5,8,0:0:0:0:
256,192,130466,5,0,0:0:0:0:
256,192,130557,5,8,0:0:0:0:
256,192,130649,5,0,0:0:0:0:
256,192,130740,5,0,0:0:0:0:
256,192,130832,5,8,0:0:0:0:
256,192,130923,5,0,0:0:0:0:
256,192,131015,5,0,0:0:0:0:
256,192,131106,5,8,0:0:0:0:
256,192,131198,5,8,0:0:0:0:
256,192,131289,5,8,0:0:0:0:
256,192,131381,5,0,0:0:0:0:
256,192,131472,5,8,0:0:0:0:
256,192,131564,5,0,0:0:0:0:
256,192,131655,5,8,0:0:0:0:
256,192,131838,5,8,0:0:0:0:
256,192,131929,5,8,0:0:0:0:
256,192,132021,5,0,0:0:0:0:
256,192,132112,5,0,0:0:0:0:
256,192,132204,5,8,0:0:0:0:
256,192,132295,5,0,0:0:0:0:
256,192,132387,5,8,0:0:0:0:
256,192,132478,5,8,0:0:0:0:
256,192,132570,5,8,0:0:0:0:
256,192,132661,5,0,0:0:0:0:
256,192,132753,5,8,0:0:0:0:
256,192,132844,5,0,0:0:0:0:
256,192,132935,5,8,0:0:0:0:
256,192,133027,5,8,0:0:0:0:
256,192,133118,5,8,0:0:0:0:
256,192,133210,5,0,0:0:0:0:
256,192,133301,5,8,0:0:0:0:
256,192,133393,5,8,0:0:0:0:
256,192,133484,5,0,0:0:0:0:
256,192,133576,5,0,0:0:0:0:
256,192,133667,5,8,0:0:0:0:
256,192,133759,5,8,0:0:0:0:
256,192,133850,5,0,0:0:0:0:
256,192,133942,5,0,0:0:0:0:
256,192,134033,5,8,0:0:0:0:
256,192,134125,5,8,0:0:0:0:
256,192,134216,5,8,0:0:0:0:
256,192,134307,5,0,0:0:0:0:
256,192,134399,5,8,0:0:0:0:
256,192,134490,5,8,0:0:0:0:
256,192,134582,5,8,0:0:0:0:
256,192,134673,5,0,0:0:0:0:
256,192,134765,5,8,0:0:0:0:
256,192,134856,5,8,0:0:0:0:
256,192,134948,5,0,0:0:0:0:
256,192,135039,5,0,0:0:0:0:
256,192,135131,5,8,0:0:0:0:
256,192,135222,5,0,0:0:0:0:
256,192,135314,5,8,0:0:0:0:
256,192,135405,5,8,0:0:0:0:
256,192,135496,5,0,0:0:0:0:
256,192,135588,5,0,0:0:0:0:
256,192,135679,5,8,0:0:0:0:
256,192,135771,5,0,0:0:0:0:
256,192,135862,5,8,0:0:0:0:
256,192,135954,5,0,0:0:0:0:
256,192,136045,5,8,0:0:0:0:
256,192,136137,5,0,0:0:0:0:
256,192,136228,5,8,0:0:0:0:
256,192,136320,5,8,0:0:0:0:
256,192,136411,5,0,0:0:0:0:
256,192,136503,5,0,0:0:0:0:
256,192,136594,5,8,0:0:0:0:
256,192,136685,5,0,0:0:0:0:
256,192,136777,5,8,0:0:0:0:
256,192,136868,5,0,0:0:0:0:
256,192,136960,5,8,0:0:0:0:
256,192,137051,5,8,0:0:0:0:
256,192,137143,5,0,0:0:0:0:
256,192,137234,5,0,0:0:0:0:
256,192,137326,5,8,0:0:0:0:
256,192,137417,5,8,0:0:0:0:
256,192,137509,5,0,0:0:0:0:
256,192,137692,5,0,0:0:0:0:
256,192,137783,5,0,0:0:0:0:
256,192,137875,5,8,0:0:0:0:
256,192,137966,5,8,0:0:0:0:
256,192,138057,5,0,0:0:0:0:
256,192,138149,5,8,0:0:0:0:
256,192,138240,5,8,0:0:0:0:
256,192,138332,5,0,0:0:0:0:
256,192,138423,5,12,0:0:0:0:
256,192,138606,5,0,0:0:0:0:
256,192,138789,5,8,0:0:0:0:
256,192,138972,5,8,0:0:0:0:
256,192,139155,5,12,0:0:0:0:
256,192,139521,5,0,0:0:0:0:
256,192,139887,5,0,0:0:0:0:
256,192,140253,5,8,0:0:0:0:
256,192,140435,5,0,0:0:0:0:
256,192,140618,5,4,0:0:0:0:
256,192,140984,5,8,0:0:0:0:
256,192,141350,5,0,0:0:0:0:
256,192,141533,5,0,0:0:0:0:
256,192,141716,5,8,0:0:0:0:
256,192,141899,5,0,0:0:0:0:
256,192,142082,5,12,0:0:0:0:
256,192,142265,5,0,0:0:0:0:
256,192,142448,5,8,0:0:0:0:
256,192,142631,5,0,0:0:0:0:
256,192,142814,5,12,0:0:0:0:
256,192,142996,5,0,0:0:0:0:
256,192,143179,5,8,0:0:0:0:
256,192,143362,5,8,0:0:0:0:
256,192,143545,5,4,0:0:0:0:
256,192,143911,5,8,0:0:0:0:
256,192,144277,5,0,0:0:0:0:
256,192,144460,5,0,0:0:0:0:
256,192,144643,5,8,0:0:0:0:
256,192,144826,5,0,0:0:0:0:
256,192,145009,5,12,0:0:0:0:
256,192,145375,5,0,0:0:0:0:
256,192,145740,5,0,0:0:0:0:
256,192,145923,5,8,0:0:0:0:
256,192,146106,5,8,0:0:0:0:
256,192,146289,5,0,0:0:0:0:
256,192,146472,5,12,0:0:0:0:
256,192,146838,5,0,0:0:0:0:
256,192,147204,5,0,0:0:0:0:
256,192,147387,5,0,0:0:0:0:
256,192,147570,5,8,0:0:0:0:
256,192,147753,5,8,0:0:0:0:
256,192,147935,5,12,0:0:0:0:
256,192,148118,5,0,0:0:0:0:
256,192,148301,5,0,0:0:0:0:
256,192,148484,5,8,0:0:0:0:
256,192,148667,5,12,0:0:0:0:
256,192,148850,5,0,0:0:0:0:
256,192,149033,5,8,0:0:0:0:
256,192,149216,5,0,0:0:0:0:
256,192,149399,5,12,0:0:0:0:
256,192,149582,5,0,0:0:0:0:
256,192,149765,5,0,0:0:0:0:
256,192,149948,5,0,0:0:0:0:
256,192,150131,5,8,0:0:0:0:
256,192,150314,5,0,0:0:0:0:
256,192,150405,5,0,0:0:0:0:
256,192,150496,5,8,0:0:0:0:
256,192,150679,5,8,0:0:0:0:
256,192,150771,5,8,0:0:0:0:
256,192,150862,5,0,0:0:0:0:
256,192,151228,5,8,0:0:0:0:
256,192,151411,5,8,0:0:0:0:
256,192,151594,5,0,0:0:0:0:
256,192,151777,5,0,0:0:0:0:
256,192,151868,5,0,0:0:0:0:
256,192,151960,5,8,0:0:0:0:
256,192,152143,5,8,0:0:0:0:
256,192,152326,5,0,0:0:0:0:
256,192,152692,5,8,0:0:0:0:
256,192,152875,5,8,0:0:0:0:
256,192,153057,5,0,0:0:0:0:
256,192,153240,5,0,0:0:0:0:
256,192,153332,5,0,0:0:0:0:
256,192,153423,5,8,0:0:0:0:
256,192,153606,5,0,0:0:0:0:
256,192,153789,5,8,0:0:0:0:
256,192,153972,5,0,0:0:0:0:
256,192,154155,5,8,0:0:0:0:
256,192,154338,5,0,0:0:0:0:
256,192,154521,5,8,0:0:0:0:
256,192,154704,5,0,0:0:0:0:
256,192,154795,5,0,0:0:0:0:
256,192,154887,5,8,0:0:0:0:
256,192,155070,5,8,0:0:0:0:
256,192,155253,5,0,0:0:0:0:
256,192,155618,5,8,0:0:0:0:
256,192,155801,5,8,0:0:0:0:
256,192,155984,5,0,0:0:0:0:
256,192,156167,5,8,0:0:0:0:
256,192,156259,5,0,0:0:0:0:
256,192,156350,5,8,0:0:0:0:
256,192,156533,5,0,0:0:0:0:
256,192,156716,5,4,0:0:0:0:
256,192,157082,5,8,0:0:0:0:
256,192,157265,5,8,0:0:0:0:
256,192,157448,5,0,0:0:0:0:
256,192,157631,5,0,0:0:0:0:
256,192,157722,5,0,0:0:0:0:
256,192,157814,5,8,0:0:0:0:
256,192,157996,5,0,0:0:0:0:
256,192,158179,5,12,0:0:0:0:
256,192,158545,5,8,0:0:0:0:
256,192,158728,5,8,0:0:0:0:
256,192,158911,5,0,0:0:0:0:
256,192,159094,5,8,0:0:0:0:
256,192,159185,5,8,0:0:0:0:
256,192,159277,5,0,0:0:0:0:
256,192,159460,5,0,0:0:0:0:
256,192,159643,5,12,0:0:0:0:
256,192,159826,5,0,0:0:0:0:
256,192,160009,5,0,0:0:0:0:
256,192,160192,5,8,0:0:0:0:
256,192,160375,5,12,0:0:0:0:
256,192,160557,5,0,0:0:0:0:
256,192,160740,5,0,0:0:0:0:
256,192,160923,5,8,0:0:0:0:
256,192,161106,5,4,0:0:0:0:
256,192,161289,5,0,0:0:0:0:
256,192,161381,5,0,0:0:0:0:
256,192,161472,5,8,0:0:0:0:
256,192,161564,5,8,0:0:0:0:
256,192,161655,5,0,0:0:0:0:
256,192,161838,5,8,0:0:0:0:
256,192,161929,5,8,0:0:0:0:
256,192,162021,5,0,0:0:0:0:
256,192,162112,5,8,0:0:0:0:
256,192,162204,5,8,0:0:0:0:
256,192,162295,5,0,0:0:0:0:
256,192,162387,5,8,0:0:0:0:
256,192,162478,5,8,0:0:0:0:
256,192,162570,5,8,0:0:0:0:
256,192,162661,5,0,0:0:0:0:
256,192,162753,5,8,0:0:0:0:
256,192,162935,5,8,0:0:0:0:
256,192,163027,5,0,0:0:0:0:
256,192,163118,5,8,0:0:0:0:
256,192,163210,5,8,0:0:0:0:
256,192,163301,5,0,0:0:0:0:
256,192,163484,5,0,0:0:0:0:
256,192,163576,5,0,0:0:0:0:
256,192,163667,5,8,0:0:0:0:
256,192,163850,5,8,0:0:0:0:
256,192,164033,5,8,0:0:0:0:
256,192,164125,5,8,0:0:0:0:
256,192,164216,5,8,0:0:0:0:
256,192,164307,5,8,0:0:0:0:
256,192,164399,5,0,0:0:0:0:
256,192,164490,5,0,0:0:0:0:
256,192,164582,5,8,0:0:0:0:
256,192,164673,5,8,0:0:0:0:
256,192,164765,5,8,0:0:0:0:
256,192,164856,5,8,0:0:0:0:
256,192,164948,5,0,0:0:0:0:
256,192,165039,5,0,0:0:0:0:
256,192,165131,5,8,0:0:0:0:
256,192,165222,5,8,0:0:0:0:
256,192,165314,5,8,0:0:0:0:
256,192,165405,5,0,0:0:0:0:
256,192,165496,5,8,0:0:0:0:
256,192,165588,5,8,0:0:0:0:
256,192,165679,5,8,0:0:0:0:
256,192,165771,5,8,0:0:0:0:
256,192,165862,5,0,0:0:0:0:
256,192,165954,5,0,0:0:0:0:
256,192,166045,5,8,0:0:0:0:
256,192,166137,5,8,0:0:0:0:
256,192,166228,5,8,0:0:0:0:
256,192,166320,5,8,0:0:0:0:
256,192,166411,5,0,0:0:0:0:
256,192,166503,5,0,0:0:0:0:
256,192,166594,5,8,0:0:0:0:
256,192,166685,5,8,0:0:0:0:
256,192,166777,5,0,0:0:0:0:
256,192,166868,5,0,0:0:0:0:
256,192,166960,5,8,0:0:0:0:
256,192,167051,5,8,0:0:0:0:
256,192,167143,5,0,0:0:0:0:
256,192,167234,5,0,0:0:0:0:
256,192,167326,5,8,0:0:0:0:
256,192,167417,5,8,0:0:0:0:
256,192,167509,5,0,0:0:0:0:
256,192,167600,5,0,0:0:0:0:
256,192,167692,5,8,0:0:0:0:
256,192,167783,5,8,0:0:0:0:
256,192,167875,5,8,0:0:0:0:
256,192,167966,5,0,0:0:0:0:
256,192,168057,5,8,0:0:0:0:
256,192,168149,5,8,0:0:0:0:
256,192,168240,5,8,0:0:0:0:
256,192,168332,5,0,0:0:0:0:
256,192,168423,5,8,0:0:0:0:
256,192,168515,5,0,0:0:0:0:
256,192,168606,5,8,0:0:0:0:
256,192,168698,5,8,0:0:0:0:
256,192,168789,5,0,0:0:0:0:
256,192,168881,5,8,0:0:0:0:
256,192,168972,5,0,0:0:0:0:
256,192,169064,5,0,0:0:0:0:
256,192,169155,5,8,0:0:0:0:
256,192,169246,5,8,0:0:0:0:
256,192,169338,5,8,0:0:0:0:
256,192,169429,5,0,0:0:0:0:
256,192,169521,5,8,0:0:0:0:
256,192,169704,5,0,0:0:0:0:
256,192,169887,5,8,0:0:0:0:
256,192,169978,5,8,0:0:0:0:
256,192,170070,5,8,0:0:0:0:
256,192,170161,5,8,0:0:0:0:
256,192,170253,5,0,0:0:0:0:
256,192,170344,5,0,0:0:0:0:
256,192,170435,5,8,0:0:0:0:
256,192,170527,5,8,0:0:0:0:
256,192,170618,5,8,0:0:0:0:
256,192,170710,5,8,0:0:0:0:
256,192,170801,5,0,0:0:0:0:
256,192,170893,5,0,0:0:0:0:
256,192,170984,5,8,0:0:0:0:
256,192,171076,5,8,0:0:0:0:
256,192,171167,5,8,0:0:0:0:
256,192,171259,5,0,0:0:0:0:
256,192,171350,5,8,0:0:0:0:
256,192,171442,5,8,0:0:0:0:
256,192,171533,5,8,0:0:0:0:
256,192,171625,5,8,0:0:0:0:
256,192,171716,5,0,0:0:0:0:
256,192,171807,5,0,0:0:0:0:
256,192,171899,5,8,0:0:0:0:
256,192,171990,5,8,0:0:0:0:
256,192,172082,5,8,0:0:0:0:
256,192,172173,5,8,0:0:0:0:
256,192,172265,5,0,0:0:0:0:
256,192,172356,5,0,0:0:0:0:
256,192,172448,5,8,0:0:0:0:
256,192,172539,5,8,0:0:0:0:
256,192,172631,5,0,0:0:0:0:
256,192,172722,5,0,0:0:0:0:
256,192,172814,5,8,0:0:0:0:
256,192,172905,5,8,0:0:0:0:
256,192,172996,5,8,0:0:0:0:
256,192,173088,5,0,0:0:0:0:
256,192,173179,5,8,0:0:0:0:
256,192,173271,5,8,0:0:0:0:
256,192,173362,5,0,0:0:0:0:
256,192,173454,5,0,0:0:0:0:
256,192,173545,5,8,0:0:0:0:
256,192,173637,5,8,0:0:0:0:
256,192,173728,5,8,0:0:0:0:
256,192,173820,5,0,0:0:0:0:
256,192,173911,5,8,0:0:0:0:
256,192,174003,5,8,0:0:0:0:
256,192,174094,5,0,0:0:0:0:
256,192,174185,5,0,0:0:0:0:
256,192,174277,5,8,0:0:0:0:
256,192,174368,5,0,0:0:0:0:
256,192,174460,5,8,0:0:0:0:
256,192,174551,5,8,0:0:0:0:
256,192,174643,5,0,0:0:0:0:
256,192,174734,5,8,0:0:0:0:
256,192,174826,5,8,0:0:0:0:
256,192,174917,5,0,0:0:0:0:
256,192,175009,5,8,0:0:0:0:
256,192,175192,5,0,0:0:0:0:
256,192,175375,5,8,0:0:0:0:
256,192,175466,5,8,0:0:0:0:
256,192,175557,5,0,0:0:0:0:
256,192,175740,5,8,0:0:0:0:
256,192,175832,5,8,0:0:0:0:
256,192,175923,5,8,0:0:0:0:
256,192,176015,5,8,0:0:0:0:
256,192,176106,5,0,0:0:0:0:
256,192,176198,5,0,0:0:0:0:
256,192,176289,5,8,0:0:0:0:
256,192,176381,5,8,0:0:0:0:
256,192,176472,5,8,0:0:0:0:
256,192,176564,5,8,0:0:0:0:
256,192,176655,5,0,0:0:0:0:
256,192,176746,5,0,0:0:0:0:
256,192,176838,5,8,0:0:0:0:
256,192,176929,5,8,0:0:0:0:
256,192,177021,5,8,0:0:0:0:
256,192,177112,5,0,0:0:0:0:
256,192,177204,5,8,0:0:0:0:
256,192,177295,5,8,0:0:0:0:
256,192,177387,5,8,0:0:0:0:
256,192,177478,5,8,0:0:0:0:
256,192,177570,5,0,0:0:0:0:
256,192,177661,5,0,0:0:0:0:
256,192,177753,5,8,0:0:0:0:
256,192,177844,5,8,0:0:0:0:
256,192,177935,5,8,0:0:0:0:
256,192,178027,5,8,0:0:0:0:
256,192,178118,5,0,0:0:0:0:
256,192,178210,5,0,0:0:0:0:
256,192,178301,5,8,0:0:0:0:
256,192,178393,5,8,0:0:0:0:
256,192,178484,5,0,0:0:0:0:
256,192,178576,5,0,0:0:0:0:
256,192,178667,5,8,0:0:0:0:
256,192,178759,5,8,0:0:0:0:
256,192,178850,5,8,0:0:0:0:
256,192,178942,5,0,0:0:0:0:
256,192,179033,5,8,0:0:0:0:
256,192,179125,5,8,0:0:0:0:
256,192,179216,5,0,0:0:0:0:
256,192,179307,5,0,0:0:0:0:
256,192,179399,5,8,0:0:0:0:
256,192,179490,5,8,0:0:0:0:
256,192,179582,5,8,0:0:0:0:
256,192,179673,5,0,0:0:0:0:
256,192,179765,5,8,0:0:0:0:
256,192,179856,5,8,0:0:0:0:
256,192,179948,5,0,0:0:0:0:
256,192,180039,5,0,0:0:0:0:
256,192,180131,5,8,0:0:0:0:
256,192,180222,5,0,0:0:0:0:
256,192,180314,5,8,0:0:0:0:
256,192,180405,5,8,0:0:0:0:
256,192,180496,5,8,0:0:0:0:
256,192,180588,5,0,0:0:0:0:
256,192,180679,5,8,0:0:0:0:
256,192,180771,5,0,0:0:0:0:
256,192,180862,5,8,0:0:0:0:
256,192,180954,5,8,0:0:0:0:
256,192,181045,5,8,0:0:0:0:
256,192,181137,5,0,0:0:0:0:
256,192,181228,5,8,0:0:0:0:
256,192,181411,5,0,0:0:0:0:
256,192,181594,5,8,0:0:0:0:
256,192,181685,5,8,0:0:0:0:
256,192,181777,5,8,0:0:0:0:
256,192,181868,5,8,0:0:0:0:
256,192,181960,5,0,0:0:0:0:
256,192,182051,5,0,0:0:0:0:
256,192,182143,5,8,0:0:0:0:
256,192,182234,5,8,0:0:0:0:
256,192,182326,5,8,0:0:0:0:
256,192,182417,5,8,0:0:0:0:
256,192,182509,5,0,0:0:0:0:
256,192,182600,5,0,0:0:0:0:
256,192,182692,5,8,0:0:0:0:
256,192,182783,5,8,0:0:0:0:
256,192,182875,5,0,0:0:0:0:
256,192,182966,5,0,0:0:0:0:
256,192,183057,5,8,0:0:0:0:
256,192,183149,5,8,0:0:0:0:
256,192,183240,5,8,0:0:0:0:
256,192,183332,5,8,0:0:0:0:
256,192,183423,5,0,0:0:0:0:
256,192,183515,5,0,0:0:0:0:
256,192,183606,5,8,0:0:0:0:
256,192,183698,5,8,0:0:0:0:
256,192,183789,5,8,0:0:0:0:
256,192,183881,5,8,0:0:0:0:
256,192,183972,5,0,0:0:0:0:
256,192,184064,5,0,0:0:0:0:
256,192,184155,5,8,0:0:0:0:
256,192,184246,5,8,0:0:0:0:
256,192,184338,5,8,0:0:0:0:
256,192,184429,5,0,0:0:0:0:
256,192,184521,5,8,0:0:0:0:
256,192,184612,5,8,0:0:0:0:
256,192,184704,5,0,0:0:0:0:
256,192,184795,5,0,0:0:0:0:
256,192,184887,5,8,0:0:0:0:
256,192,184978,5,8,0:0:0:0:
256,192,185070,5,8,0:0:0:0:
256,192,185161,5,0,0:0:0:0:
256,192,185253,5,8,0:0:0:0:
256,192,185344,5,0,0:0:0:0:
256,192,185435,5,0,0:0:0:0:
256,192,185527,5,0,0:0:0:0:
256,192,185618,5,8,0:0:0:0:
256,192,185710,5,8,0:0:0:0:
256,192,185801,5,8,0:0:0:0:
256,192,185893,5,0,0:0:0:0:
256,192,185984,5,8,0:0:0:0:
256,192,186167,5,0,0:0:0:0:
256,192,186259,5,8,0:0:0:0:
256,192,186442,5,8,0:0:0:0:
256,192,186533,5,0,0:0:0:0:
256,192,186716,5,8,0:0:0:0:
256,192,186899,5,0,0:0:0:0:
256,192,186990,5,0,0:0:0:0:
256,192,187082,5,8,0:0:0:0:
256,192,187173,5,8,0:0:0:0:
256,192,187265,5,8,0:0:0:0:
256,192,187356,5,8,0:0:0:0:
256,192,187448,5,0,0:0:0:0:
256,192,187539,5,0,0:0:0:0:
256,192,187631,5,8,0:0:0:0:
256,192,187814,5,0,0:0:0:0:
256,192,187905,5,8,0:0:0:0:
256,192,188088,5,0,0:0:0:0:
256,192,188179,5,8,0:0:0:0:
256,192,188362,5,8,0:0:0:0:
256,192,188454,5,0,0:0:0:0:
256,192,188637,5,0,0:0:0:0:
256,192,188728,5,0,0:0:0:0:
256,192,188820,5,8,0:0:0:0:
256,192,188911,5,0,0:0:0:0:
256,192,189003,5,0,0:0:0:0:
256,192,189094,5,8,0:0:0:0:
256,192,189277,5,0,0:0:0:0:
256,192,189368,5,8,0:0:0:0:
256,192,189551,5,0,0:0:0:0:
256,192,189643,5,8,0:0:0:0:
256,192,189826,5,8,0:0:0:0:
256,192,189917,5,0,0:0:0:0:
256,192,190100,5,0,0:0:0:0:
256,192,190192,5,8,0:0:0:0:
256,192,190283,5,8,0:0:0:0:
256,192,190375,5,0,0:0:0:0:
256,192,190466,5,0,0:0:0:0:
256,192,190557,5,8,0:0:0:0:
256,192,190740,5,0,0:0:0:0:
256,192,190832,5,8,0:0:0:0:
256,192,191015,5,0,0:0:0:0:
256,192,191106,5,8,0:0:0:0:
256,192,191289,5,8,0:0:0:0:
256,192,191381,5,0,0:0:0:0:
256,192,191564,5,0,0:0:0:0:
256,192,191655,5,0,0:0:0:0:
256,192,191746,5,8,0:0:0:0:
256,192,191838,5,8,0:0:0:0:
256,192,191929,5,0,0:0:0:0:
256,192,192021,5,8,0:0:0:0:
256,192,192204,5,8,0:0:0:0:
256,192,192295,5,8,0:0:0:0:
256,192,192478,5,8,0:0:0:0:
256,192,192570,5,0,0:0:0:0:
256,192,192753,5,0,0:0:0:0:
256,192,192844,5,0,0:0:0:0:
256,192,192935,5,8,0:0:0:0:
256,192,193027,5,0,0:0:0:0:
256,192,193118,5,8,0:0:0:0:
256,192,193210,5,8,0:0:0:0:
256,192,193301,5,0,0:0:0:0:
256,192,193393,5,0,0:0:0:0:
256,192,193484,5,8,0:0:0:0:
256,192,193667,5,0,0:0:0:0:
256,192,193759,5,8,0:0:0:0:
256,192,193942,5,0,0:0:0:0:
256,192,194033,5,8,0:0:0:0:
256,192,194216,5,8,0:0:0:0:
256,192,194307,5,0,0:0:0:0:
256,192,194490,5,0,0:0:0:0:
256,192,194582,5,8,0:0:0:0:
256,192,194673,5,0,0:0:0:0:
256,192,194765,5,0,0:0:0:0:
256,192,194856,5,0,0:0:0:0:
256,192,194948,5,8,0:0:0:0:
256,192,195131,5,0,0:0:0:0:
256,192,195222,5,8,0:0:0:0:
256,192,195405,5,0,0:0:0:0:
256,192,195496,5,8,0:0:0:0:
256,192,195679,5,8,0:0:0:0:
256,192,195771,5,0,0:0:0:0:
256,192,195954,5,0,0:0:0:0:
256,192,196045,5,8,0:0:0:0:
256,192,196137,5,8,0:0:0:0:
256,192,196228,5,0,0:0:0:0:
256,192,196320,5,0,0:0:0:0:
256,192,196411,5,8,0:0:0:0:
256,192,196594,5,0,0:0:0:0:
256,192,196685,5,8,0:0:0:0:
256,192,196868,5,0,0:0:0:0:
256,192,196960,5,8,0:0:0:0:
256,192,197143,5,8,0:0:0:0:
256,192,197234,5,0,0:0:0:0:
256,192,197417,5,0,0:0:0:0:
256,192,197509,5,8,0:0:0:0:
256,192,197600,5,8,0:0:0:0:
256,192,197692,5,8,0:0:0:0:
256,192,197783,5,0,0:0:0:0:
256,192,197875,5,8,0:0:0:0:
256,192,198057,5,8,0:0:0:0:
256,192,198149,5,8,0:0:0:0:
256,192,198332,5,0,0:0:0:0:
256,192,198423,5,8,0:0:0:0:
256,192,198606,5,0,0:0:0:0:
256,192,198698,5,0,0:0:0:0:
256,192,198789,5,8,0:0:0:0:
256,192,198881,5,8,0:0:0:0:
256,192,198972,5,8,0:0:0:0:
256,192,199064,5,0,0:0:0:0:
256,192,199155,5,8,0:0:0:0:
256,192,199338,5,0,0:0:0:0:
256,192,199521,5,0,0:0:0:0:
256,192,199612,5,0,0:0:0:0:
256,192,199704,5,8,0:0:0:0:
256,192,199887,5,0,0:0:0:0:
256,192,200070,5,8,0:0:0:0:
256,192,200161,5,0,0:0:0:0:
256,192,200344,5,0,0:0:0:0:
256,192,200435,5,8,0:0:0:0:
256,192,200618,5,0,0:0:0:0:
256,192,200801,5,8,0:0:0:0:
256,192,200984,5,8,0:0:0:0:
256,192,201076,5,8,0:0:0:0:
256,192,201167,5,0,0:0:0:0:
256,192,201350,5,8,0:0:0:0:
256,192,201533,5,8,0:0:0:0:
256,192,201625,5,0,0:0:0:0:
256,192,201807,5,0,0:0:0:0:
256,192,201899,5,8,0:0:0:0:
256,192,202082,5,12,0:0:0:0:
256,192,202265,5,8,0:0:0:0:
256,192,202448,5,0,0:0:0:0:
256,192,202539,5,0,0:0:0:0:
256,192,202631,5,8,0:0:0:0:
256,192,202814,5,4,0:0:0:0:
256,192,202996,5,8,0:0:0:0:
256,192,203088,5,0,0:0:0:0:
256,192,203271,5,0,0:0:0:0:
256,192,203362,5,8,0:0:0:0:
256,192,203545,5,4,0:0:0:0:
256,192,203728,5,8,0:0:0:0:
256,192,203911,5,0,0:0:0:0:
256,192,204003,5,0,0:0:0:0:
256,192,204094,5,8,0:0:0:0:
256,192,204277,5,0,0:0:0:0:
256,192,204460,5,8,0:0:0:0:
256,192,204551,5,0,0:0:0:0:
256,192,204734,5,0,0:0:0:0:
256,192,204826,5,8,0:0:0:0:
256,192,205009,5,12,0:0:0:0:
256,192,205192,5,8,0:0:0:0:
256,192,205375,5,0,0:0:0:0:
256,192,205466,5,0,0:0:0:0:
256,192,205557,5,8,0:0:0:0:
256,192,205740,5,0,0:0:0:0:
256,192,205923,5,8,0:0:0:0:
256,192,206015,5,0,0:0:0:0:
256,192,206198,5,0,0:0:0:0:
256,192,206289,5,8,0:0:0:0:
256,192,206472,5,4,0:0:0:0:
256,192,206655,5,8,0:0:0:0:
256,192,206838,5,8,0:0:0:0:
256,192,206929,5,8,0:0:0:0:
256,192,207021,5,0,0:0:0:0:
256,192,207204,5,0,0:0:0:0:
256,192,207387,5,8,0:0:0:0:
256,192,207478,5,0,0:0:0:0:
256,192,207661,5,0,0:0:0:0:
256,192,207753,5,8,0:0:0:0:
256,192,207935,5,12,0:0:0:0:
256,192,208118,5,8,0:0:0:0:
256,192,208301,5,0,0:0:0:0:
256,192,208393,5,0,0:0:0:0:
256,192,208484,5,8,0:0:0:0:
256,192,208667,5,4,0:0:0:0:
256,192,208850,5,8,0:0:0:0:
256,192,208942,5,0,0:0:0:0:
256,192,209125,5,0,0:0:0:0:
256,192,209216,5,8,0:0:0:0:
256,192,209399,5,0,0:0:0:0:
256,192,209490,5,0,0:0:0:0:
256,192,209582,5,8,0:0:0:0:
256,192,209765,5,8,0:0:0:0:
256,192,209948,5,0,0:0:0:0:
256,192,210039,5,0,0:0:0:0:
256,192,210131,5,8,0:0:0:0:
256,192,210222,5,8,0:0:0:0:
256,192,210314,5,8,0:0:0:0:
256,192,210405,5,0,0:0:0:0:
256,192,210496,5,8,0:0:0:0:
256,192,210588,5,8,0:0:0:0:
256,192,210679,5,0,0:0:0:0:
256,192,210862,5,8,0:0:0:0:
256,192,210954,5,8,0:0:0:0:
256,192,211045,5,0,0:0:0:0:
256,192,211137,5,0,0:0:0:0:
256,192,211228,5,8,0:0:0:0:
256,192,211320,5,0,0:0:0:0:
256,192,211411,5,8,0:0:0:0:
256,192,211503,5,8,0:0:0:0:
256,192,211594,5,0,0:0:0:0:
256,192,211685,5,0,0:0:0:0:
256,192,211777,5,8,0:0:0:0:
256,192,211868,5,0,0:0:0:0:
256,192,211960,5,8,0:0:0:0:
256,192,212051,5,0,0:0:0:0:
256,192,212143,5,8,0:0:0:0:
256,192,212234,5,0,0:0:0:0:
256,192,212326,5,8,0:0:0:0:
256,192,212417,5,8,0:0:0:0:
256,192,212509,5,0,0:0:0:0:
256,192,212600,5,0,0:0:0:0:
256,192,212692,5,8,0:0:0:0:
256,192,212783,5,8,0:0:0:0:
256,192,212875,5,8,0:0:0:0:
256,192,212966,5,8,0:0:0:0:
256,192,213057,5,0,0:0:0:0:
256,192,213149,5,0,0:0:0:0:
256,192,213240,5,0,0:0:0:0:
256,192,213332,5,0,0:0:0:0:
256,192,213423,5,8,0:0:0:0:
256,192,213515,5,8,0:0:0:0:
256,192,213606,5,0,0:0:0:0:
256,192,213698,5,0,0:0:0:0:
256,192,213789,5,8,0:0:0:0:
256,192,213881,5,8,0:0:0:0:
256,192,213972,5,8,0:0:0:0:
256,192,214064,5,8,0:0:0:0:
256,192,214155,5,0,0:0:0:0:
256,192,214246,5,0,0:0:0:0:
256,192,214338,5,8,0:0:0:0:
256,192,214429,5,8,0:0:0:0:
256,192,214521,5,0,0:0:0:0:
256,192,214612,5,0,0:0:0:0:
256,192,214704,5,8,0:0:0:0:
256,192,214795,5,0,0:0:0:0:
256,192,214887,5,8,0:0:0:0:
256,192,214978,5,0,0:0:0:0:
256,192,215070,5,8,0:0:0:0:
256,192,215161,5,8,0:0:0:0:
256,192,215253,5,0,0:0:0:0:
256,192,215344,5,0,0:0:0:0:
256,192,215435,5,8,0:0:0:0:
256,192,215527,5,0,0:0:0:0:
256,192,215618,5,8,0:0:0:0:
256,192,215710,5,8,0:0:0:0:
256,192,215801,5,8,0:0:0:0:
256,192,215893,5,0,0:0:0:0:
256,192,215984,5,8,0:0:0:0:
256,192,216076,5,0,0:0:0:0:
256,192,216167,5,8,0:0:0:0:
256,192,216259,5,8,0:0:0:0:
256,192,216350,5,0,0:0:0:0:
256,192,216442,5,0,0:0:0:0:
256,192,216533,5,8,0:0:0:0:
256,192,216716,5,8,0:0:0:0:
256,192,216807,5,8,0:0:0:0:
256,192,216899,5,0,0:0:0:0:
256,192,216990,5,0,0:0:0:0:
256,192,217082,5,8,0:0:0:0:
256,192,217173,5,0,0:0:0:0:
256,192,217265,5,8,0:0:0:0:
256,192,217356,5,8,0:0:0:0:
256,192,217448,5,0,0:0:0:0:
256,192,217539,5,0,0:0:0:0:
256,192,217631,5,8,0:0:0:0:
256,192,217722,5,0,0:0:0:0:
256,192,217814,5,8,0:0:0:0:
256,192,217905,5,8,0:0:0:0:
256,192,217996,5,8,0:0:0:0:
256,192,218088,5,0,0:0:0:0:
256,192,218179,5,8,0:0:0:0:
256,192,218271,5,8,0:0:0:0:
256,192,218362,5,0,0:0:0:0:
256,192,218454,5,0,0:0:0:0:
256,192,218545,5,8,0:0:0:0:
256,192,218637,5,8,0:0:0:0:
256,192,218728,5,0,0:0:0:0:
256,192,218820,5,0,0:0:0:0:
256,192,218911,5,8,0:0:0:0:
256,192,219003,5,8,0:0:0:0:
256,192,219094,5,8,0:0:0:0:
256,192,219185,5,8,0:0:0:0:
256,192,219277,5,0,0:0:0:0:
256,192,219368,5,0,0:0:0:0:
256,192,219460,5,0,0:0:0:0:
256,192,219551,5,0,0:0:0:0:
256,192,219643,5,8,0:0:0:0:
256,192,219734,5,8,0:0:0:0:
256,192,219826,5,0,0:0:0:0:
256,192,219917,5,0,0:0:0:0:
256,192,220009,5,8,0:0:0:0:
256,192,220100,5,0,0:0:0:0:
256,192,220192,5,8,0:0:0:0:
256,192,220283,5,8,0:0:0:0:
256,192,220375,5,0,0:0:0:0:
256,192,220466,5,0,0:0:0:0:
256,192,220557,5,8,0:0:0:0:
256,192,220649,5,0,0:0:0:0:
256,192,220740,5,8,0:0:0:0:
256,192,220832,5,8,0:0:0:0:
256,192,220923,5,8,0:0:0:0:
256,192,221015,5,0,0:0:0:0:
256,192,221106,5,8,0:0:0:0:
256,192,221198,5,0,0:0:0:0:
256,192,221289,5,0,0:0:0:0:
256,192,221381,5,0,0:0:0:0:
256,192,221472,5,8,0:0:0:0:
256,192,221655,5,0,0:0:0:0:
256,192,221746,5,0,0:0:0:0:
256,192,221838,5,8,0:0:0:0:
256,192,222021,5,8,0:0:0:0:
256,192,222112,5,8,0:0:0:0:
256,192,222204,5,0,0:0:0:0:
256,192,222295,5,0,0:0:0:0:
256,192,222387,5,8,0:0:0:0:
256,192,222570,5,12,0:0:0:0:
256,192,223118,5,0,0:0:0:0:
256,192,223301,5,12,0:0:0:0:
256,192,223484,5,0,0:0:0:0:
256,192,223667,5,0,0:0:0:0:
256,192,223850,5,8,0:0:0:0:
256,192,224033,5,4,0:0:0:0:
256,192,224216,5,0,0:0:0:0:
256,192,224582,5,0,0:0:0:0:
256,192,224765,5,12,0:0:0:0:
256,192,224948,5,0,0:0:0:0:
256,192,225314,5,0,0:0:0:0:
256,192,225496,5,12,0:0:0:0:
256,192,225679,5,0,0:0:0:0:
256,192,225862,5,8,0:0:0:0:
256,192,226045,5,0,0:0:0:0:
256,192,226228,5,12,0:0:0:0:
256,192,226411,5,0,0:0:0:0:
256,192,226594,5,8,0:0:0:0:
256,192,226777,5,8,0:0:0:0:
256,192,226960,5,4,0:0:0:0:
256,192,227143,5,0,0:0:0:0:
256,192,227509,5,0,0:0:0:0:
256,192,227600,5,0,0:0:0:0:
256,192,227692,5,12,0:0:0:0:
256,192,227875,5,0,0:0:0:0:
256,192,228057,5,0,0:0:0:0:
256,192,228240,5,8,0:0:0:0:
256,192,228423,5,12,0:0:0:0:
256,192,228789,5,0,0:0:0:0:
256,192,228972,5,0,0:0:0:0:
256,192,229155,5,12,0:0:0:0:
256,192,229338,5,0,0:0:0:0:
256,192,229521,5,8,0:0:0:0:
256,192,229704,5,8,0:0:0:0:
256,192,229887,5,4,0:0:0:0:
256,192,230070,5,0,0:0:0:0:
256,192,230435,5,0,0:0:0:0:
256,192,230527,5,0,0:0:0:0:
256,192,230618,5,12,0:0:0:0:
256,192,230801,5,0,0:0:0:0:
256,192,230984,5,0,0:0:0:0:
256,192,231167,5,8,0:0:0:0:
256,192,231350,5,12,0:0:0:0:
256,192,231533,5,0,0:0:0:0:
256,192,231716,5,0,0:0:0:0:
256,192,231899,5,8,0:0:0:0:
256,192,232082,5,12,0:0:0:0:
256,192,232265,5,8,0:0:0:0:
256,192,232448,5,0,0:0:0:0:
256,192,232631,5,8,0:0:0:0:
256,192,232814,5,4,0:0:0:0:
256,192,232996,5,0,0:0:0:0:
256,192,233179,5,8,0:0:0:0:
256,192,233362,5,0,0:0:0:0:
256,192,233454,5,0,0:0:0:0:
256,192,233545,5,8,0:0:0:0:
256,192,233728,5,0,0:0:0:0:
256,192,233820,5,0,0:0:0:0:
256,192,233911,5,8,0:0:0:0:
256,192,234003,5,0,0:0:0:0:
256,192,234094,5,8,0:0:0:0:
256,192,234185,5,8,0:0:0:0:
256,192,234277,5,4,0:0:0:0:
256,192,234643,5,8,0:0:0:0:
256,192,234826,5,8,0:0:0:0:
256,192,235009,5,0,0:0:0:0:
256,192,235192,5,0,0:0:0:0:
256,192,235284,5,0,0:0:0:0:
256,192,235375,5,8,0:0:0:0:
256,192,235557,5,8,0:0:0:0:
256,192,235740,5,4,0:0:0:0:
256,192,236106,5,8,0:0:0:0:
256,192,236289,5,8,0:0:0:0:
256,192,236472,5,0,0:0:0:0:
256,192,236655,5,0,0:0:0:0:
256,192,236746,5,0,0:0:0:0:
256,192,236838,5,8,0:0:0:0:
256,192,237021,5,0,0:0:0:0:
256,192,237204,5,12,0:0:0:0:
256,192,237387,5,0,0:0:0:0:
256,192,237570,5,8,0:0:0:0:
256,192,237753,5,0,0:0:0:0:
256,192,237935,5,12,0:0:0:0:
256,192,238118,5,0,0:0:0:0:
256,192,238210,5,0,0:0:0:0:
256,192,238301,5,8,0:0:0:0:
256,192,238484,5,8,0:0:0:0:
256,192,238667,5,4,0:0:0:0:
256,192,239033,5,8,0:0:0:0:
256,192,239216,5,8,0:0:0:0:
256,192,239399,5,0,0:0:0:0:
256,192,239582,5,8,0:0:0:0:
256,192,239765,5,0,0:0:0:0:
256,192,239948,5,8,0:0:0:0:
256,192,240039,5,8,0:0:0:0:
256,192,240131,5,4,0:0:0:0:
256,192,240496,5,8,0:0:0:0:
256,192,240679,5,8,0:0:0:0:
256,192,240862,5,0,0:0:0:0:
256,192,241045,5,8,0:0:0:0:
256,192,241137,5,0,0:0:0:0:
256,192,241228,5,8,0:0:0:0:
256,192,241411,5,0,0:0:0:0:
256,192,241594,5,4,0:0:0:0:
256,192,241960,5,8,0:0:0:0:
256,192,242143,5,8,0:0:0:0:
256,192,242326,5,0,0:0:0:0:
256,192,242509,5,0,0:0:0:0:
256,192,242600,5,0,0:0:0:0:
256,192,242692,5,8,0:0:0:0:
256,192,242875,5,8,0:0:0:0:
256,192,243057,5,12,0:0:0:0:
256,192,243240,5,0,0:0:0:0:
256,192,243423,5,0,0:0:0:0:
256,192,243606,5,8,0:0:0:0:
256,192,243789,5,12,0:0:0:0:
256,192,243972,5,0,0:0:0:0:
256,192,244155,5,0,0:0:0:0:
256,192,244338,5,8,0:0:0:0:
256,192,244521,5,4,0:0:0:0:
256,192,244887,5,0,0:0:0:0:
256,192,245070,5,0,0:0:0:0:
256,192,245253,5,8,0:0:0:0:
256,192,245344,5,8,0:0:0:0:
256,192,245435,5,8,0:0:0:0:
256,192,245527,5,8,0:0:0:0:
256,192,245618,5,0,0:0:0:0:
256,192,245801,5,8,0:0:0:0:
256,192,245893,5,8,0:0:0:0:
256,192,245984,5,0,0:0:0:0:
256,192,246167,5,0,0:0:0:0:
256,192,246350,5,8,0:0:0:0:
256,192,246442,5,8,0:0:0:0:
256,192,246533,5,0,0:0:0:0:
256,192,246625,5,8,0:0:0:0:
256,192,246716,5,8,0:0:0:0:
256,192,246899,5,8,0:0:0:0:
256,192,247082,5,8,0:0:0:0:
256,192,247173,5,8,0:0:0:0:
256,192,247265,5,8,0:0:0:0:
256,192,247448,5,8,0:0:0:0:
256,192,247539,5,8,0:0:0:0:
256,192,247631,5,8,0:0:0:0:
256,192,247722,5,8,0:0:0:0:
256,192,247814,5,0,0:0:0:0:
256,192,247905,5,0,0:0:0:0:
256,192,247996,5,8,0:0:0:0:
256,192,248088,5,8,0:0:0:0:
256,192,248179,5,8,0:0:0:0:
256,192,248271,5,8,0:0:0:0:
256,192,248362,5,0,0:0:0:0:
256,192,248454,5,0,0:0:0:0:
256,192,248545,5,8,0:0:0:0:
256,192,248637,5,8,0:0:0:0:
256,192,248728,5,0,0:0:0:0:
256,192,248820,5,0,0:0:0:0:
256,192,248911,5,8,0:0:0:0:
256,192,249003,5,8,0:0:0:0:
256,192,249094,5,8,0:0:0:0:
256,192,249185,5,8,0:0:0:0:
256,192,249277,5,0,0:0:0:0:
256,192,249368,5,0,0:0:0:0:
256,192,249460,5,8,0:0:0:0:
256,192,249551,5,8,0:0:0:0:
256,192,249643,5,8,0:0:0:0:
256,192,249734,5,8,0:0:0:0:
256,192,249826,5,0,0:0:0:0:
256,192,249917,5,0,0:0:0:0:
256,192,250009,5,8,0:0:0:0:
256,192,250100,5,8,0:0:0:0:
256,192,250192,5,8,0:0:0:0:
256,192,250283,5,0,0:0:0:0:
256,192,250375,5,8,0:0:0:0:
256,192,250466,5,8,0:0:0:0:
256,192,250557,5,0,0:0:0:0:
256,192,250649,5,0,0:0:0:0:
256,192,250740,5,8,0:0:0:0:
256,192,250832,5,8,0:0:0:0:
256,192,250923,5,0,0:0:0:0:
256,192,251015,5,0,0:0:0:0:
256,192,251106,5,8,0:0:0:0:
256,192,251198,5,8,0:0:0:0:
256,192,251289,5,8,0:0:0:0:
256,192,251381,5,0,0:0:0:0:
256,192,251472,5,8,0:0:0:0:
256,192,251564,5,8,0:0:0:0:
256,192,251655,5,8,0:0:0:0:
256,192,251746,5,0,0:0:0:0:
256,192,251838,5,8,0:0:0:0:
256,192,251929,5,0,0:0:0:0:
256,192,252021,5,8,0:0:0:0:
256,192,252112,5,8,0:0:0:0:
256,192,252204,5,0,0:0:0:0:
256,192,252295,5,8,0:0:0:0:
256,192,252387,5,8,0:0:0:0:
256,192,252478,5,0,0:0:0:0:
256,192,252570,5,8,0:0:0:0:
256,192,252661,5,8,0:0:0:0:
256,192,252753,5,8,0:0:0:0:
256,192,252844,5,0,0:0:0:0:
256,192,252935,5,8,0:0:0:0:
256,192,253118,5,0,0:0:0:0:
256,192,253301,5,8,0:0:0:0:
256,192,253393,5,8,0:0:0:0:
256,192,253484,5,8,0:0:0:0:
256,192,253576,5,8,0:0:0:0:
256,192,253667,5,0,0:0:0:0:
256,192,253759,5,0,0:0:0:0:
256,192,253850,5,8,0:0:0:0:
256,192,253942,5,8,0:0:0:0:
256,192,254033,5,8,0:0:0:0:
256,192,254125,5,8,0:0:0:0:
256,192,254216,5,0,0:0:0:0:
256,192,254307,5,0,0:0:0:0:
256,192,254399,5,8,0:0:0:0:
256,192,254490,5,8,0:0:0:0:
256,192,254582,5,8,0:0:0:0:
256,192,254673,5,0,0:0:0:0:
256,192,254765,5,8,0:0:0:0:
256,192,254856,5,8,0:0:0:0:
256,192,254948,5,8,0:0:0:0:
256,192,255039,5,8,0:0:0:0:
256,192,255131,5,0,0:0:0:0:
256,192,255222,5,0,0:0:0:0:
256,192,255314,5,8,0:0:0:0:
256,192,255405,5,8,0:0:0:0:
256,192,255496,5,8,0:0:0:0:
256,192,255588,5,8,0:0:0:0:
256,192,255679,5,0,0:0:0:0:
256,192,255771,5,0,0:0:0:0:
256,192,255862,5,8,0:0:0:0:
256,192,255954,5,8,0:0:0:0:
256,192,256045,5,0,0:0:0:0:
256,192,256137,5,0,0:0:0:0:
256,192,256228,5,8,0:0:0:0:
256,192,256320,5,8,0:0:0:0:
256,192,256411,5,8,0:0:0:0:
256,192,256503,5,0,0:0:0:0:
256,192,256594,5,8,0:0:0:0:
256,192,256685,5,8,0:0:0:0:
256,192,256777,5,0,0:0:0:0:
256,192,256868,5,0,0:0:0:0:
256,192,256960,5,8,0:0:0:0:
256,192,257051,5,8,0:0:0:0:
256,192,257143,5,8,0:0:0:0:
256,192,257234,5,0,0:0:0:0:
256,192,257326,5,8,0:0:0:0:
256,192,257417,5,8,0:0:0:0:
256,192,257509,5,8,0:0:0:0:
256,192,257600,5,0,0:0:0:0:
256,192,257692,5,8,0:0:0:0:
256,192,257783,5,0,0:0:0:0:
256,192,257875,5,8,0:0:0:0:
256,192,257966,5,8,0:0:0:0:
256,192,258057,5,0,0:0:0:0:
256,192,258149,5,8,0:0:0:0:
256,192,258240,5,8,0:0:0:0:
256,192,258332,5,0,0:0:0:0:
256,192,258423,5,8,0:0:0:0:
256,192,258606,5,0,0:0:0:0:
256,192,258789,5,8,0:0:0:0:
256,192,258881,5,0,0:0:0:0:
256,192,258972,5,8,0:0:0:0:
256,192,259155,5,8,0:0:0:0:
256,192,259246,5,8,0:0:0:0:
256,192,259338,5,8,0:0:0:0:
256,192,259429,5,8,0:0:0:0:
256,192,259521,5,0,0:0:0:0:
256,192,259612,5,0,0:0:0:0:
256,192,259704,5,8,0:0:0:0:
256,192,259795,5,8,0:0:0:0:
256,192,259887,5,8,0:0:0:0:
256,192,259978,5,8,0:0:0:0:
256,192,260070,5,0,0:0:0:0:
256,192,260161,5,0,0:0:0:0:
256,192,260253,5,8,0:0:0:0:
256,192,260344,5,8,0:0:0:0:
256,192,260435,5,8,0:0:0:0:
256,192,260527,5,0,0:0:0:0:
256,192,260618,5,8,0:0:0:0:
256,192,260710,5,8,0:0:0:0:
256,192,260801,5,8,0:0:0:0:
256,192,260893,5,8,0:0:0:0:
256,192,260984,5,0,0:0:0:0:
256,192,261076,5,0,0:0:0:0:
256,192,261167,5,8,0:0:0:0:
256,192,261259,5,8,0:0:0:0:
256,192,261350,5,8,0:0:0:0:
256,192,261442,5,8,0:0:0:0:
256,192,261533,5,0,0:0:0:0:
256,192,261625,5,0,0:0:0:0:
256,192,261716,5,8,0:0:0:0:
256,192,261807,5,8,0:0:0:0:
256,192,261899,5,0,0:0:0:0:
256,192,261990,5,0,0:0:0:0:
256,192,262082,5,8,0:0:0:0:
256,192,262173,5,8,0:0:0:0:
256,192,262265,5,0,0:0:0:0:
256,192,262356,5,0,0:0:0:0:
256,192,262448,5,8,0:0:0:0:
256,192,262539,5,8,0:0:0:0:
256,192,262631,5,0,0:0:0:0:
256,192,262722,5,0,0:0:0:0:
256,192,262814,5,8,0:0:0:0:
256,192,262905,5,8,0:0:0:0:
256,192,262996,5,8,0:0:0:0:
256,192,263088,5,0,0:0:0:0:
256,192,263179,5,8,0:0:0:0:
256,192,263271,5,8,0:0:0:0:
256,192,263362,5,8,0:0:0:0:
256,192,263454,5,0,0:0:0:0:
256,192,263545,5,8,0:0:0:0:
256,192,263637,5,0,0:0:0:0:
256,192,263728,5,8,0:0:0:0:
256,192,263820,5,8,0:0:0:0:
256,192,263911,5,0,0:0:0:0:
256,192,264003,5,8,0:0:0:0:
256,192,264094,5,8,0:0:0:0:
256,192,264185,5,0,0:0:0:0:
256,192,264277,5,8,0:0:0:0:
256,192,264368,5,8,0:0:0:0:
256,192,264460,5,8,0:0:0:0:
256,192,264551,5,0,0:0:0:0:
256,192,264643,5,8,0:0:0:0:
256,192,264826,5,0,0:0:0:0:
256,192,265009,5,8,0:0:0:0:
256,192,265100,5,8,0:0:0:0:
256,192,265192,5,8,0:0:0:0:
256,192,265283,5,8,0:0:0:0:
256,192,265375,5,0,0:0:0:0:
256,192,265466,5,0,0:0:0:0:
256,192,265557,5,8,0:0:0:0:
256,192,265649,5,8,0:0:0:0:
256,192,265740,5,8,0:0:0:0:
256,192,265832,5,8,0:0:0:0:
256,192,265923,5,0,0:0:0:0:
256,192,266015,5,0,0:0:0:0:
256,192,266106,5,8,0:0:0:0:
256,192,266198,5,8,0:0:0:0:
256,192,266289,5,0,0:0:0:0:
256,192,266381,5,0,0:0:0:0:
256,192,266472,5,8,0:0:0:0:
256,192,266564,5,8,0:0:0:0:
256,192,266655,5,8,0:0:0:0:
256,192,266746,5,8,0:0:0:0:
256,192,266838,5,0,0:0:0:0:
256,192,266929,5,0,0:0:0:0:
256,192,267021,5,8,0:0:0:0:
256,192,267112,5,8,0:0:0:0:
256,192,267204,5,8,0:0:0:0:
256,192,267295,5,8,0:0:0:0:
256,192,267387,5,0,0:0:0:0:
256,192,267478,5,0,0:0:0:0:
256,192,267570,5,8,0:0:0:0:
256,192,267661,5,8,0:0:0:0:
256,192,267753,5,8,0:0:0:0:
256,192,267844,5,0,0:0:0:0:
256,192,267935,5,8,0:0:0:0:
256,192,268027,5,8,0:0:0:0:
256,192,268118,5,8,0:0:0:0:
256,192,268210,5,0,0:0:0:0:
256,192,268301,5,8,0:0:0:0:
256,192,268393,5,8,0:0:0:0:
256,192,268484,5,0,0:0:0:0:
256,192,268576,5,0,0:0:0:0:
256,192,268667,5,8,0:0:0:0:
256,192,268759,5,8,0:0:0:0:
256,192,268850,5,8,0:0:0:0:
256,192,268942,5,0,0:0:0:0:
256,192,269033,5,8,0:0:0:0:
256,192,269125,5,8,0:0:0:0:
256,192,269216,5,0,0:0:0:0:
256,192,269307,5,0,0:0:0:0:
256,192,269399,5,8,0:0:0:0:
256,192,269490,5,0,0:0:0:0:
256,192,269582,5,8,0:0:0:0:
256,192,269673,5,8,0:0:0:0:
256,192,269765,5,0,0:0:0:0:
256,192,269856,5,8,0:0:0:0:
256,192,269948,5,8,0:0:0:0:
256,192,270131,5,8,0:0:0:0:
256,192,270253,5,8,0:0:0:0:
256,192,270375,5,0,0:0:0:0:
256,192,270496,5,8,0:0:0:0:
256,192,270618,5,0,0:0:0:0:
256,192,270740,5,0,0:0:0:0:
256,192,270862,5,12,0:0:0:0:
256,192,271228,5,8,0:0:0:0:
256,192,271411,5,0,0:0:0:0:
256,192,271594,5,8,0:0:0:0:
256,192,271960,5,0,0:0:0:0:
256,192,272326,5,0,0:0:0:0:
256,192,272509,5,0,0:0:0:0:
256,192,272692,5,8,0:0:0:0:
256,192,273057,5,0,0:0:0:0:
256,192,273423,5,8,0:0:0:0:
256,192,273789,5,0,0:0:0:0:
256,192,274155,5,8,0:0:0:0:
256,192,274338,5,0,0:0:0:0:
256,192,274521,5,8,0:0:0:0:
256,192,274887,5,0,0:0:0:0:
256,192,275070,5,8,0:0:0:0:
256,192,275435,5,0,0:0:0:0:
256,192,275618,5,8,0:0:0:0:
256,192,275801,5,8,0:0:0:0:
256,192,275984,5,0,0:0:0:0:
256,192,276167,5,8,0:0:0:0:
256,192,276259,5,0,0:0:0:0:
256,192,276350,5,8,0:0:0:0:
256,192,276533,5,8,0:0:0:0:
256,192,276625,5,8,0:0:0:0:
256,192,276716,5,0,0:0:0:0:
256,192,277082,5,8,0:0:0:0:
256,192,277265,5,0,0:0:0:0:
256,192,277448,5,8,0:0:0:0:
256,192,277814,5,0,0:0:0:0:
256,192,277996,5,8,0:0:0:0:
256,192,278179,5,0,0:0:0:0:
256,192,278362,5,8,0:0:0:0:
256,192,278545,5,8,0:0:0:0:
256,192,278820,5,0,0:0:0:0:
256,192,278911,5,8,0:0:0:0:
256,192,279094,5,8,0:0:0:0:
256,192,279185,5,8,0:0:0:0:
256,192,279277,5,0,0:0:0:0:
256,192,279368,5,8,0:0:0:0:
256,192,279551,5,8,0:0:0:0:
256,192,279643,5,0,0:0:0:0:
256,192,280009,5,8,0:0:0:0:
256,192,280192,5,0,0:0:0:0:
256,192,280375,5,8,0:0:0:0:
256,192,280557,5,8,0:0:0:0:
256,192,280740,5,8,0:0:0:0:
256,192,280923,5,8,0:0:0:0:
256,192,281106,5,8,0:0:0:0:
256,192,281289,5,0,0:0:0:0:
256,192,281472,5,8,0:0:0:0:
256,192,281564,5,8,0:0:0:0:
256,192,281655,5,8,0:0:0:0:
256,192,281838,5,8,0:0:0:0:
256,192,282021,5,0,0:0:0:0:
256,192,282204,5,8,0:0:0:0:
256,192,282295,5,8,0:0:0:0:
256,192,282387,5,0,0:0:0:0:
256,192,282570,5,0,0:0:0:0:
256,192,282844,5,0,0:0:0:0:
256,192,282935,5,8,0:0:0:0:
256,192,283118,5,0,0:0:0:0:
256,192,283301,5,0,0:0:0:0:
256,192,283393,5,8,0:0:0:0:
256,192,283576,5,8,0:0:0:0:
256,192,283667,5,0,0:0:0:0:
256,192,283850,5,8,0:0:0:0:
256,192,284033,5,0,0:0:0:0:
256,192,284307,5,0,0:0:0:0:
256,192,284399,5,8,0:0:0:0:
256,192,284582,5,0,0:0:0:0:
256,192,284765,5,0,0:0:0:0:
256,192,284856,5,8,0:0:0:0:
256,192,285039,5,8,0:0:0:0:
256,192,285131,5,0,0:0:0:0:
256,192,285496,5,8,0:0:0:0:
256,192,285771,5,0,0:0:0:0:
256,192,285862,5,8,0:0:0:0:
256,192,286045,5,0,0:0:0:0:
256,192,286228,5,0,0:0:0:0:
256,192,286320,5,8,0:0:0:0:
256,192,286503,5,8,0:0:0:0:
256,192,286594,5,0,0:0:0:0:
256,192,286777,5,8,0:0:0:0:
256,192,286868,5,8,0:0:0:0:
256,192,286960,5,0,0:0:0:0:
256,192,287234,5,0,0:0:0:0:
256,192,287326,5,8,0:0:0:0:
256,192,287509,5,0,0:0:0:0:
256,192,287692,5,8,0:0:0:0:
256,192,287783,5,8,0:0:0:0:
256,192,287966,5,8,0:0:0:0:
256,192,288057,5,0,0:0:0:0:
256,192,288240,5,8,0:0:0:0:
256,192,288332,5,8,0:0:0:0:
256,192,288423,5,0,0:0:0:0:
256,192,288698,5,0,0:0:0:0:
256,192,288789,5,8,0:0:0:0:
256,192,288972,5,0,0:0:0:0:
256,192,289155,5,0,0:0:0:0:
256,192,289246,5,8,0:0:0:0:
256,192,289429,5,8,0:0:0:0:
256,192,289521,5,0,0:0:0:0:
256,192,289704,5,0,0:0:0:0:
256,192,289887,5,8,0:0:0:0:
256,192,290161,5,0,0:0:0:0:
256,192,290253,5,8,0:0:0:0:
256,192,290435,5,0,0:0:0:0:
256,192,290618,5,8,0:0:0:0:
256,192,290710,5,8,0:0:0:0:
256,192,290893,5,8,0:0:0:0:
256,192,290984,5,8,0:0:0:0:
256,192,291167,5,0,0:0:0:0:
256,192,291350,5,8,0:0:0:0:
256,192,291625,5,0,0:0:0:0:
256,192,291716,5,8,0:0:0:0:
256,192,291899,5,0,0:0:0:0:
256,192,292082,5,8,0:0:0:0:
256,192,292173,5,8,0:0:0:0:
256,192,292356,5,8,0:0:0:0:
256,192,292448,5,0,0:0:0:0:
256,192,292631,5,8,0:0:0:0:
256,192,292722,5,8,0:0:0:0:
256,192,292814,5,0,0:0:0:0:
256,192,292905,5,0,0:0:0:0:
256,192,292996,5,8,0:0:0:0:
256,192,293088,5,0,0:0:0:0:
256,192,293179,5,8,0:0:0:0:
256,192,293362,5,0,0:0:0:0:
256,192,293454,5,0,0:0:0:0:
256,192,293545,5,8,0:0:0:0:
256,192,293728,5,0,0:0:0:0:
256,192,293820,5,0,0:0:0:0:
256,192,293911,5,8,0:0:0:0:
256,192,294003,5,8,0:0:0:0:
256,192,294094,5,8,0:0:0:0:
256,192,294185,5,8,0:0:0:0:
256,192,294277,5,0,0:0:0:0:
256,192,294460,5,0,0:0:0:0:
256,192,294551,5,0,0:0:0:0:
256,192,294643,5,8,0:0:0:0:
256,192,294826,5,0,0:0:0:0:
256,192,295009,5,8,0:0:0:0:
256,192,295100,5,8,0:0:0:0:
256,192,295192,5,0,0:0:0:0:
256,192,295375,5,8,0:0:0:0:
256,192,295557,5,0,0:0:0:0:
256,192,295649,5,0,0:0:0:0:
256,192,295740,5,8,0:0:0:0:
256,192,295923,5,0,0:0:0:0:
256,192,296015,5,0,0:0:0:0:
256,192,296106,5,8,0:0:0:0:
256,192,296289,5,0,0:0:0:0:
256,192,296472,5,8,0:0:0:0:
256,192,296564,5,8,0:0:0:0:
256,192,296655,5,0,0:0:0:0:
256,192,296838,5,8,0:0:0:0:
256,192,297021,5,8,0:0:0:0:
256,192,297112,5,0,0:0:0:0:
256,192,297204,5,8,0:0:0:0:
256,192,297387,5,0,0:0:0:0:
256,192,297478,5,0,0:0:0:0:
256,192,297570,5,8,0:0:0:0:
256,192,297753,5,0,0:0:0:0:
256,192,297935,5,8,0:0:0:0:
256,192,298027,5,8,0:0:0:0:
256,192,298118,5,0,0:0:0:0:
256,192,298210,5,0,0:0:0:0:
256,192,298301,5,8,0:0:0:0:
256,192,298484,5,0,0:0:0:0:
256,192,298667,5,8,0:0:0:0:
256,192,298850,5,8,0:0:0:0:
256,192,298942,5,0,0:0:0:0:
256,192,299033,5,8,0:0:0:0:
256,192,299216,5,0,0:0:0:0:
256,192,299399,5,8,0:0:0:0:
256,192,299490,5,8,0:0:0:0:
256,192,299582,5,0,0:0:0:0:
256,192,299765,5,8,0:0:0:0:
256,192,299948,5,8,0:0:0:0:
256,192,300039,5,8,0:0:0:0:
256,192,300131,5,0,0:0:0:0:
256,192,300314,5,0,0:0:0:0:
256,192,300405,5,0,0:0:0:0:
256,192,300496,5,8,0:0:0:0:
256,192,300679,5,0,0:0:0:0:
256,192,300862,5,8,0:0:0:0:
256,192,300954,5,8,0:0:0:0:
256,192,301045,5,0,0:0:0:0:
256,192,301228,5,8,0:0:0:0:
256,192,301411,5,8,0:0:0:0:
256,192,301503,5,8,0:0:0:0:
256,192,301594,5,0,0:0:0:0:
256,192,301777,5,0,0:0:0:0:
256,192,301868,5,0,0:0:0:0:
256,192,301960,5,8,0:0:0:0:
256,192,302143,5,0,0:0:0:0:
256,192,302326,5,8,0:0:0:0:
256,192,302417,5,0,0:0:0:0:
256,192,302509,5,8,0:0:0:0:
256,192,302692,5,0,0:0:0:0:
256,192,302875,5,8,0:0:0:0:
256,192,302966,5,0,0:0:0:0:
256,192,303057,5,8,0:0:0:0:
256,192,303240,5,0,0:0:0:0:
256,192,303332,5,0,0:0:0:0:
256,192,303423,5,8,0:0:0:0:
256,192,303606,5,0,0:0:0:0:
256,192,303789,5,8,0:0:0:0:
256,192,303881,5,8,0:0:0:0:
256,192,303972,5,0,0:0:0:0:
256,192,304064,5,0,0:0:0:0:
256,192,304155,5,8,0:0:0:0:
256,192,304338,5,8,0:0:0:0:
256,192,304429,5,0,0:0:0:0:
256,192,304521,5,8,0:0:0:0:
256,192,304704,5,0,0:0:0:0:
256,192,304795,5,0,0:0:0:0:
256,192,304887,5,8,0:0:0:0:
256,192,305070,5,0,0:0:0:0:
256,192,305253,5,8,0:0:0:0:
256,192,305344,5,8,0:0:0:0:
256,192,305435,5,0,0:0:0:0:
256,192,305618,5,8,0:0:0:0:
256,192,305801,5,8,0:0:0:0:
256,192,305893,5,8,0:0:0:0:
256,192,305984,5,0,0:0:0:0:
256,192,306167,5,8,0:0:0:0:
256,192,306259,5,8,0:0:0:0:
256,192,306350,5,0,0:0:0:0:
256,192,306442,5,0,0:0:0:0:
256,192,306533,5,8,0:0:0:0:
256,192,306625,5,0,0:0:0:0:
256,192,306716,5,8,0:0:0:0:
256,192,306807,5,0,0:0:0:0:
256,192,306899,5,8,0:0:0:0:
256,192,306990,5,8,0:0:0:0:
256,192,307082,5,0,0:0:0:0:
256,192,307265,5,8,0:0:0:0:
256,192,307356,5,0,0:0:0:0:
256,192,307448,5,8,0:0:0:0:
256,192,307631,5,0,0:0:0:0:
256,192,307814,5,8,0:0:0:0:
256,192,307905,5,8,0:0:0:0:
256,192,307996,5,0,0:0:0:0:
256,192,308179,5,8,0:0:0:0:
256,192,308362,5,0,0:0:0:0:
256,192,308454,5,0,0:0:0:0:
256,192,308545,5,8,0:0:0:0:
256,192,308637,5,8,0:0:0:0:
256,192,308728,5,0,0:0:0:0:
256,192,308911,5,0,0:0:0:0:
256,192,309094,5,8,0:0:0:0:
256,192,309185,5,0,0:0:0:0:
256,192,309277,5,8,0:0:0:0:
256,192,309368,5,8,0:0:0:0:
256,192,309460,5,0,0:0:0:0:
256,192,309643,5,8,0:0:0:0:
256,192,309734,5,8,0:0:0:0:
256,192,309826,5,0,0:0:0:0:
256,192,309917,5,0,0:0:0:0:
256,192,310009,5,8,0:0:0:0:
256,192,310100,5,8,0:0:0:0:
256,192,310192,5,0,0:0:0:0:
256,192,310284,5,0,0:0:0:0:
256,192,310375,5,8,0:0:0:0:
256,192,310557,5,0,0:0:0:0:
256,192,310649,5,8,0:0:0:0:
256,192,310832,5,0,0:0:0:0:
256,192,310923,5,8,0:0:0:0:
256,192,311106,5,8,0:0:0:0:
256,192,311197,5,8,0:0:0:0:
256,192,311289,5,8,0:0:0:0:
256,192,311380,5,0,0:0:0:0:
256,192,311472,5,0,0:0:0:0:
256,192,311563,5,0,0:0:0:0:
256,192,311655,5,8,0:0:0:0:
256,192,311838,5,8,0:0:0:0:
256,192,311929,5,8,0:0:0:0:
256,192,312021,5,8,0:0:0:0:
256,192,312112,5,0,0:0:0:0:
256,192,312204,5,8,0:0:0:0:
256,192,312295,5,8,0:0:0:0:
256,192,312387,5,0,0:0:0:0:
256,192,312478,5,0,0:0:0:0:
256,192,312570,5,8,0:0:0:0:
256,192,312661,5,0,0:0:0:0:
256,192,312753,5,8,0:0:0:0:
256,192,312844,5,8,0:0:0:0:
256,192,312935,5,0,0:0:0:0:
256,192,313027,5,8,0:0:0:0:
256,192,313118,5,8,0:0:0:0:
256,192,313210,5,8,0:0:0:0:
256,192,313301,5,0,0:0:0:0:
256,192,313393,5,8,0:0:0:0:
256,192,313484,5,8,0:0:0:0:
256,192,313576,5,0,0:0:0:0:
256,192,313667,5,8,0:0:0:0:
256,192,313759,5,0,0:0:0:0:
256,192,313850,5,8,0:0:0:0:
256,192,313942,5,8,0:0:0:0:
256,192,314033,5,0,0:0:0:0:
256,192,314125,5,8,0:0:0:0:
256,192,314216,5,0,0:0:0:0:
256,192,314307,5,8,0:0:0:0:
256,192,314399,5,8,0:0:0:0:
256,192,314490,5,0,0:0:0:0:
256,192,314582,5,8,0:0:0:0:
256,192,314673,5,0,0:0:0:0:
256,192,314765,5,8,0:0:0:0:
256,192,314948,5,8,0:0:0:0:
256,192,315039,5,8,0:0:0:0:
256,192,315131,5,0,0:0:0:0:
256,192,315222,5,0,0:0:0:0:
256,192,315314,5,8,0:0:0:0:
256,192,315496,5,8,0:0:0:0:
256,192,315679,5,8,0:0:0:0:
256,192,315771,5,0,0:0:0:0:
256,192,315862,5,0,0:0:0:0:
256,192,315954,5,0,0:0:0:0:
256,192,316045,5,8,0:0:0:0:
256,192,316228,5,8,0:0:0:0:
256,192,316320,5,0,0:0:0:0:
256,192,316411,5,8,0:0:0:0:
256,192,316503,5,8,0:0:0:0:
256,192,316594,5,0,0:0:0:0:
256,192,316685,5,8,0:0:0:0:
256,192,316777,5,8,0:0:0:0:
256,192,316868,5,0,0:0:0:0:
256,192,316960,5,8,0:0:0:0:
256,192,317051,5,0,0:0:0:0:
256,192,317143,5,8,0:0:0:0:
256,192,317234,5,8,0:0:0:0:
256,192,317326,5,0,0:0:0:0:
256,192,317417,5,8,0:0:0:0:
256,192,317509,5,8,0:0:0:0:
256,192,317600,5,0,0:0:0:0:
256,192,317692,5,8,0:0:0:0:
256,192,317875,5,0,0:0:0:0:
256,192,317966,5,8,0:0:0:0:
256,192,318149,5,8,0:0:0:0:
256,192,318240,5,0,0:0:0:0:
256,192,318423,5,8,0:0:0:0:
256,192,318606,5,0,0:0:0:0:
256,192,318698,5,8,0:0:0:0:
256,192,318789,5,0,0:0:0:0:
256,192,318881,5,8,0:0:0:0:
256,192,318972,5,8,0:0:0:0:
256,192,319064,5,0,0:0:0:0:
256,192,319155,5,8,0:0:0:0:
256,192,319246,5,0,0:0:0:0:
256,192,319338,5,8,0:0:0:0:
256,192,319521,5,8,0:0:0:0:
256,192,319612,5,8,0:0:0:0:
256,192,319704,5,0,0:0:0:0:
256,192,319887,5,0,0:0:0:0:
256,192,319978,5,0,0:0:0:0:
256,192,320070,5,8,0:0:0:0:
256,192,320161,5,8,0:0:0:0:
256,192,320253,5,0,0:0:0:0:
256,192,320344,5,0,0:0:0:0:
256,192,320435,5,8,0:0:0:0:
256,192,320527,5,0,0:0:0:0:
256,192,320618,5,8,0:0:0:0:
256,192,320801,5,8,0:0:0:0:
256,192,320893,5,8,0:0:0:0:
256,192,320984,5,0,0:0:0:0:
256,192,321076,5,0,0:0:0:0:
256,192,321167,5,8,0:0:0:0:
256,192,321350,5,8,0:0:0:0:
256,192,321442,5,0,0:0:0:0:
256,192,321533,5,8,0:0:0:0:
256,192,321625,5,8,0:0:0:0:
256,192,321716,5,0,0:0:0:0:
256,192,321807,5,0,0:0:0:0:
256,192,321899,5,8,0:0:0:0:
256,192,321990,5,0,0:0:0:0:
256,192,322082,5,8,0:0:0:0:
256,192,322265,5,8,0:0:0:0:
256,192,322356,5,8,0:0:0:0:
256,192,322448,5,0,0:0:0:0:
256,192,322539,5,8,0:0:0:0:
256,192,322631,5,0,0:0:0:0:
256,192,322814,5,0,0:0:0:0:
256,192,322875,5,0,0:0:0:0:
256,192,322935,5,0,0:0:0:0:
256,192,322996,5,8,0:0:0:0:
256,192,323179,5,0,0:0:0:0:
256,192,323240,5,0,0:0:0:0:
256,192,323301,5,0,0:0:0:0:
256,192,323362,5,8,0:0:0:0:
256,192,323545,5,0,0:0:0:0:
256,192,323637,5,0,0:0:0:0:
256,192,323728,5,8,0:0:0:0:
256,192,323820,5,0,0:0:0:0:
256,192,324003,5,0,0:0:0:0:
256,192,324094,5,8,0:0:0:0:
256,192,324277,5,8,0:0:0:0:
256,192,324368,5,0,0:0:0:0:
256,192,324460,5,8,0:0:0:0:
256,192,324551,5,8,0:0:0:0:
256,192,324643,5,0,0:0:0:0:
256,192,324734,5,8,0:0:0:0:
256,192,324826,5,8,0:0:0:0:
256,192,324917,5,0,0:0:0:0:
256,192,325009,5,8,0:0:0:0:
256,192,325100,5,0,0:0:0:0:
256,192,325192,5,0,0:0:0:0:
256,192,325283,5,8,0:0:0:0:
256,192,325375,5,8,0:0:0:0:
256,192,325466,5,0,0:0:0:0:
256,192,325557,5,8,0:0:0:0:
256,192,325649,5,0,0:0:0:0:
256,192,325740,5,8,0:0:0:0:
256,192,325923,5,0,0:0:0:0:
256,192,326015,5,0,0:0:0:0:
256,192,326106,5,8,0:0:0:0:
256,192,326198,5,8,0:0:0:0:
256,192,326289,5,8,0:0:0:0:
256,192,326381,5,8,0:0:0:0:
256,192,326472,5,4,0:0:0:0:
256,192,326746,5,4,0:0:0:0:
256,192,327021,5,12,0:0:0:0:
256,192,327204,5,4,0:0:0:0:
256,192,327478,5,12,0:0:0:0:
256,192,327753,5,12,0:0:0:0:
256,192,327935,5,4,0:0:0:0:
256,192,328210,5,12,0:0:0:0:
256,192,328484,5,12,0:0:0:0:
256,192,328667,5,4,0:0:0:0:
256,192,328942,5,12,0:0:0:0:
256,192,329216,5,12,0:0:0:0:
256,192,329399,5,8,0:0:0:0:
256,192,329490,5,8,0:0:0:0:
256,192,329582,5,0,0:0:0:0:
256,192,329673,5,0,0:0:0:0:
256,192,329765,5,8,0:0:0:0:
256,192,329856,5,0,0:0:0:0:
256,192,329948,5,8,0:0:0:0:
256,192,330039,5,8,0:0:0:0:
256,192,330131,5,0,0:0:0:0:
256,192,330222,5,0,0:0:0:0:
256,192,330314,5,8,0:0:0:0:
256,192,330405,5,8,0:0:0:0:
256,192,330496,5,0,0:0:0:0:
256,192,330588,5,8,0:0:0:0:
256,192,330679,5,8,0:0:0:0:
256,192,330771,5,8,0:0:0:0:
256,192,330862,5,0,0:0:0:0:
256,192,330954,5,8,0:0:0:0:
256,192,331045,5,8,0:0:0:0:
256,192,331137,5,0,0:0:0:0:
256,192,331228,5,8,0:0:0:0:
256,192,331320,5,0,0:0:0:0:
256,192,331411,5,8,0:0:0:0:
256,192,331503,5,8,0:0:0:0:
256,192,331594,5,0,0:0:0:0:
256,192,331685,5,0,0:0:0:0:
256,192,331777,5,8,0:0:0:0:
256,192,331868,5,8,0:0:0:0:
256,192,331960,5,0,0:0:0:0:
256,192,332051,5,0,0:0:0:0:
256,192,332143,5,8,0:0:0:0:
256,192,332234,5,8,0:0:0:0:
256,192,332326,5,0,0:0:0:0:
256,192,332417,5,0,0:0:0:0:
256,192,332509,5,8,0:0:0:0:
256,192,332600,5,0,0:0:0:0:
256,192,332692,5,8,0:0:0:0:
256,192,332783,5,0,0:0:0:0:
256,192,332875,5,8,0:0:0:0:
256,192,332966,5,8,0:0:0:0:
256,192,333057,5,0,0:0:0:0:
256,192,333149,5,8,0:0:0:0:
256,192,333240,5,8,0:0:0:0:
256,192,333332,5,0,0:0:0:0:
256,192,333423,5,8,0:0:0:0:
256,192,333515,5,0,0:0:0:0:
256,192,333606,5,8,0:0:0:0:
256,192,333698,5,8,0:0:0:0:
256,192,333789,5,0,0:0:0:0:
256,192,333881,5,0,0:0:0:0:
256,192,333972,5,8,0:0:0:0:
256,192,334064,5,0,0:0:0:0:
256,192,334155,5,8,0:0:0:0:
256,192,334246,5,8,0:0:0:0:
256,192,334338,5,0,0:0:0:0:
256,192,334429,5,8,0:0:0:0:
256,192,334521,5,8,0:0:0:0:
256,192,334612,5,0,0:0:0:0:
256,192,334704,5,8,0:0:0:0:
256,192,334795,5,8,0:0:0:0:
256,192,334887,5,0,0:0:0:0:
256,192,334978,5,0,0:0:0:0:
256,192,335070,5,8,0:0:0:0:
256,192,335161,5,8,0:0:0:0:
256,192,335253,5,0,0:0:0:0:
256,192,335344,5,8,0:0:0:0:
256,192,335435,5,8,0:0:0:0:
256,192,335527,5,8,0:0:0:0:
256,192,335618,5,0,0:0:0:0:
256,192,335710,5,0,0:0:0:0:
256,192,335801,5,8,0:0:0:0:
256,192,335893,5,8,0:0:0:0:
256,192,335984,5,0,0:0:0:0:
256,192,336076,5,0,0:0:0:0:
256,192,336167,5,8,0:0:0:0:
256,192,336259,5,8,0:0:0:0:
256,192,336350,5,0,0:0:0:0:
256,192,336442,5,0,0:0:0:0:
256,192,336533,5,8,0:0:0:0:
256,192,336625,5,0,0:0:0:0:
256,192,336716,5,8,0:0:0:0:
256,192,336807,5,0,0:0:0:0:
256,192,336899,5,8,0:0:0:0:
256,192,336990,5,0,0:0:0:0:
256,192,337082,5,8,0:0:0:0:
256,192,337173,5,8,0:0:0:0:
256,192,337265,5,0,0:0:0:0:
256,192,337356,5,8,0:0:0:0:
256,192,337448,5,8,0:0:0:0:
256,192,337539,5,0,0:0:0:0:
256,192,337631,5,8,0:0:0:0:
256,192,337722,5,8,0:0:0:0:
256,192,337814,5,0,0:0:0:0:
256,192,337905,5,0,0:0:0:0:
256,192,337996,5,8,0:0:0:0:
256,192,338088,5,8,0:0:0:0:
256,192,338179,5,0,0:0:0:0:
256,192,338271,5,8,0:0:0:0:
256,192,338362,5,8,0:0:0:0:
256,192,338454,5,8,0:0:0:0:
256,192,338545,5,0,0:0:0:0:
256,192,338637,5,8,0:0:0:0:
256,192,338728,5,8,0:0:0:0:
256,192,338820,5,8,0:0:0:0:
256,192,338911,5,0,0:0:0:0:
256,192,339003,5,0,0:0:0:0:
256,192,339094,5,8,0:0:0:0:
256,192,339185,5,8,0:0:0:0:
256,192,339277,5,0,0:0:0:0:
256,192,339368,5,0,0:0:0:0:
256,192,339460,5,8,0:0:0:0:
256,192,339551,5,8,0:0:0:0:
256,192,339643,5,0,0:0:0:0:
256,192,339734,5,8,0:0:0:0:
256,192,339826,5,0,0:0:0:0:
256,192,339917,5,8,0:0:0:0:
256,192,340100,5,0,0:0:0:0:
256,192,340192,5,8,0:0:0:0:
256,192,340375,5,0,0:0:0:0:
256,192,340466,5,8,0:0:0:0:
256,192,340649,5,0,0:0:0:0:
256,192,340740,5,8,0:0:0:0:
256,192,340831,5,0,0:0:0:0:
256,192,340923,5,8,0:0:0:0:
256,192,341106,5,0,0:0:0:0:
256,192,341198,5,0,0:0:0:0:
256,192,341289,5,8,0:0:0:0:
256,192,341381,5,8,0:0:0:0:
256,192,341472,5,0,0:0:0:0:
256,192,341564,5,0,0:0:0:0:
256,192,341655,5,8,0:0:0:0:
256,192,341746,5,0,0:0:0:0:
256,192,341838,5,8,0:0:0:0:
256,192,341929,5,0,0:0:0:0:
256,192,342021,5,8,0:0:0:0:
256,192,342112,5,8,0:0:0:0:
256,192,342204,5,0,0:0:0:0:
256,192,342295,5,0,0:0:0:0:
256,192,342387,5,8,0:0:0:0:
256,192,342478,5,8,0:0:0:0:
256,192,342570,5,0,0:0:0:0:
256,192,342661,5,8,0:0:0:0:
256,192,342753,5,8,0:0:0:0:
256,192,342844,5,8,0:0:0:0:
256,192,342935,5,0,0:0:0:0:
256,192,343027,5,8,0:0:0:0:
256,192,343118,5,8,0:0:0:0:
256,192,343210,5,8,0:0:0:0:
256,192,343301,5,0,0:0:0:0:
256,192,343393,5,0,0:0:0:0:
256,192,343484,5,8,0:0:0:0:
256,192,343576,5,8,0:0:0:0:
256,192,343667,5,0,0:0:0:0:
256,192,343759,5,0,0:0:0:0:
256,192,343850,5,8,0:0:0:0:
256,192,343942,5,8,0:0:0:0:
256,192,344033,5,0,0:0:0:0:
256,192,344125,5,0,0:0:0:0:
256,192,344216,5,8,0:0:0:0:
256,192,344307,5,0,0:0:0:0:
256,192,344399,5,8,0:0:0:0:
256,192,344490,5,0,0:0:0:0:
256,192,344582,5,8,0:0:0:0:
256,192,344673,5,8,0:0:0:0:
256,192,344765,5,0,0:0:0:0:
256,192,344856,5,0,0:0:0:0:
256,192,344948,5,8,0:0:0:0:
256,192,345039,5,8,0:0:0:0:
256,192,345131,5,0,0:0:0:0:
256,192,345222,5,0,0:0:0:0:
256,192,345314,5,8,0:0:0:0:
256,192,345405,5,8,0:0:0:0:
256,192,345496,5,0,0:0:0:0:
256,192,345588,5,8,0:0:0:0:
256,192,345679,5,8,0:0:0:0:
256,192,345771,5,8,0:0:0:0:
256,192,345862,5,0,0:0:0:0:
256,192,345954,5,8,0:0:0:0:
256,192,346045,5,8,0:0:0:0:
256,192,346137,5,8,0:0:0:0:
256,192,346228,5,0,0:0:0:0:
256,192,346320,5,0,0:0:0:0:
256,192,346411,5,8,0:0:0:0:
256,192,346503,5,8,0:0:0:0:
256,192,346594,5,0,0:0:0:0:
256,192,346685,5,0,0:0:0:0:
256,192,346777,5,8,0:0:0:0:
256,192,346868,5,8,0:0:0:0:
256,192,346960,5,0,0:0:0:0:
256,192,347051,5,8,0:0:0:0:
256,192,347143,5,8,0:0:0:0:
256,192,347234,5,8,0:0:0:0:
256,192,347326,5,0,0:0:0:0:
256,192,347417,5,8,0:0:0:0:
256,192,347509,5,8,0:0:0:0:
256,192,347600,5,8,0:0:0:0:
256,192,347692,5,0,0:0:0:0:
256,192,347783,5,0,0:0:0:0:
256,192,347875,5,8,0:0:0:0:
256,192,347966,5,8,0:0:0:0:
256,192,348057,5,0,0:0:0:0:
256,192,348149,5,0,0:0:0:0:
256,192,348240,5,8,0:0:0:0:
256,192,348332,5,8,0:0:0:0:
256,192,348423,5,0,0:0:0:0:
256,192,348515,5,0,0:0:0:0:
256,192,348606,5,8,0:0:0:0:
256,192,348698,5,0,0:0:0:0:
256,192,348789,5,8,0:0:0:0:
256,192,348881,5,0,0:0:0:0:
256,192,348972,5,8,0:0:0:0:
256,192,349064,5,8,0:0:0:0:
256,192,349155,5,0,0:0:0:0:
256,192,349246,5,0,0:0:0:0:
256,192,349338,5,8,0:0:0:0:
256,192,349429,5,0,0:0:0:0:
256,192,349521,5,8,0:0:0:0:
256,192,349612,5,0,0:0:0:0:
256,192,349704,5,8,0:0:0:0:
256,192,349795,5,8,0:0:0:0:
256,192,349887,5,0,0:0:0:0:
256,192,349978,5,8,0:0:0:0:
256,192,350070,5,0,0:0:0:0:
256,192,350161,5,8,0:0:0:0:
256,192,350253,5,8,0:0:0:0:
256,192,350344,5,0,0:0:0:0:
256,192,350435,5,8,0:0:0:0:
256,192,350527,5,0,0:0:0:0:
256,192,350618,5,8,0:0:0:0:
256,192,350710,5,8,0:0:0:0:
256,192,350801,5,0,0:0:0:0:
256,192,350893,5,8,0:0:0:0:
256,192,350984,5,8,0:0:0:0:
256,192,351076,5,8,0:0:0:0:
256,192,351167,5,0,0:0:0:0:
256,192,351259,5,8,0:0:0:0:
256,192,351350,5,8,0:0:0:0:
256,192,351442,5,0,0:0:0:0:
256,192,351533,5,8,0:0:0:0:
256,192,351625,5,0,0:0:0:0:
256,192,351716,5,8,0:0:0:0:
256,192,351807,5,8,0:0:0:0:
256,192,351899,5,8,0:0:0:0:
256,192,351990,5,8,0:0:0:0:
256,192,352082,5,0,0:0:0:0:
256,192,352173,5,0,0:0:0:0:
256,192,352265,5,8,0:0:0:0:
256,192,352356,5,0,0:0:0:0:
256,192,352448,5,8,0:0:0:0:
256,192,352539,5,8,0:0:0:0:
256,192,352631,5,8,0:0:0:0:
256,192,352722,5,8,0:0:0:0:
256,192,352814,5,4,0:0:0:0:
256,192,353179,5,8,0:0:0:0:
256,192,353271,5,0,0:0:0:0:
256,192,353454,5,0,0:0:0:0:
256,192,353545,5,8,0:0:0:0:
256,192,353728,5,0,0:0:0:0:
256,192,353820,5,0,0:0:0:0:
256,192,353911,5,8,0:0:0:0:
256,192,354003,5,8,0:0:0:0:
256,192,354094,5,0,0:0:0:0:
256,192,354185,5,8,0:0:0:0:
256,192,354277,5,8,0:0:0:0:
256,192,354368,5,0,0:0:0:0:
256,192,354460,5,8,0:0:0:0:
256,192,354551,5,0,0:0:0:0:
256,192,354643,5,8,0:0:0:0:
256,192,354734,5,8,0:0:0:0:
256,192,354826,5,8,0:0:0:0:
256,192,354917,5,0,0:0:0:0:
256,192,355009,5,8,0:0:0:0:
256,192,355100,5,8,0:0:0:0:
256,192,355192,5,0,0:0:0:0:
256,192,355283,5,8,0:0:0:0:
256,192,355375,5,8,0:0:0:0:
256,192,355466,5,0,0:0:0:0:
256,192,355557,5,8,0:0:0:0:
256,192,355649,5,0,0:0:0:0:
256,192,355740,5,12,0:0:0:0:
256,192,355923,5,0,0:0:0:0:
256,192,356015,5,0,0:0:0:0:
256,192,356106,5,8,0:0:0:0:
256,192,356198,5,8,0:0:0:0:
256,192,356289,5,8,0:0:0:0:
256,192,356381,5,0,0:0:0:0:
256,192,356472,5,8,0:0:0:0:
256,192,356655,5,0,0:0:0:0:
256,192,356746,5,8,0:0:0:0:
256,192,356929,5,0,0:0:0:0:
256,192,357021,5,8,0:0:0:0:
256,192,357204,5,8,0:0:0:0:
256,192,357295,5,8,0:0:0:0:
256,192,357387,5,0,0:0:0:0:
256,192,357570,5,0,0:0:0:0:
256,192,357661,5,8,0:0:0:0:
256,192,357844,5,0,0:0:0:0:
256,192,357935,5,12,0:0:0:0:
256,192,358118,5,0,0:0:0:0:
256,192,358210,5,12,0:0:0:0:
256,192,358393,5,0,0:0:0:0:
256,192,358484,5,12,0:0:0:0:
256,192,358667,5,0,0:0:0:0:
256,192,358759,5,8,0:0:0:0:
256,192,358850,5,8,0:0:0:0:
256,192,358942,5,0,0:0:0:0:
256,192,359033,5,8,0:0:0:0:
256,192,359216,5,0,0:0:0:0:
256,192,359307,5,0,0:0:0:0:
256,192,359399,5,8,0:0:0:0:
256,192,359490,5,8,0:0:0:0:
256,192,359582,5,0,0:0:0:0:
256,192,359765,5,12,0:0:0:0:
256,192,359948,5,0,0:0:0:0:
256,192,360039,5,0,0:0:0:0:
256,192,360131,5,8,0:0:0:0:
256,192,360222,5,8,0:0:0:0:
256,192,360314,5,8,0:0:0:0:
256,192,360405,5,8,0:0:0:0:
256,192,360496,5,0,0:0:0:0:
256,192,360679,5,0,0:0:0:0:
256,192,360771,5,0,0:0:0:0:
256,192,360862,5,8,0:0:0:0:
256,192,360984,5,8,0:0:0:0:
256,192,361106,5,0,0:0:0:0:
256,192,361228,5,8,0:0:0:0:
256,192,361350,5,8,0:0:0:0:
256,192,361472,5,0,0:0:0:0:
256,192,361594,5,8,0:0:0:0:
256,192,361655,5,8,0:0:0:0:
256,192,361716,5,8,0:0:0:0:
256,192,361777,5,0,0:0:0:0:
256,192,361868,5,0,0:0:0:0:
256,192,361960,5,8,0:0:0:0:
256,192,362204,5,8,0:0:0:0:
256,192,362265,5,8,0:0:0:0:
256,192,362326,5,0,0:0:0:0:
256,192,362448,5,0,0:0:0:0:
256,192,362570,5,0,0:0:0:0:
256,192,362692,5,8,0:0:0:0:
256,192,362875,5,0,0:0:0:0:
256,192,362966,5,0,0:0:0:0:
256,192,363057,5,8,0:0:0:0:
256,192,363149,5,8,0:0:0:0:
256,192,363240,5,8,0:0:0:0:
256,192,363332,5,0,0:0:0:0:
256,192,363423,5,12,0:0:0:0:
256,192,363789,5,8,0:0:0:0:
256,192,364033,5,0,0:0:0:0:
256,192,364155,5,8,0:0:0:0:
256,192,364277,5,0,0:0:0:0:
256,192,364399,5,0,0:0:0:0:
256,192,364521,5,8,0:0:0:0:
256,192,364887,5,0,0:0:0:0:
256,192,365070,5,0,0:0:0:0:
256,192,365253,5,12,0:0:0:0:
256,192,365618,5,0,0:0:0:0:
256,192,365801,5,8,0:0:0:0:
256,192,365984,5,0,0:0:0:0:
256,192,366167,5,0,0:0:0:0:
256,192,366533,5,0,0:0:0:0:
256,192,366716,5,8,0:0:0:0:
256,192,366899,5,0,0:0:0:0:
256,192,367082,5,0,0:0:0:0:
256,192,367265,5,8,0:0:0:0:
256,192,367448,5,12,0:0:0:0:
256,192,367631,5,0,0:0:0:0:
256,192,367814,5,8,0:0:0:0:
256,192,367996,5,0,0:0:0:0:
256,192,368179,5,8,0:0:0:0:
256,192,368362,5,0,0:0:0:0:
256,192,368545,5,8,0:0:0:0:
256,192,368728,5,8,0:0:0:0:
256,192,368911,5,0,0:0:0:0:
256,192,369094,5,0,0:0:0:0:
256,192,369460,5,0,0:0:0:0:
256,192,369551,5,0,0:0:0:0:
256,192,369643,5,12,0:0:0:0:
256,192,369826,5,0,0:0:0:0:
256,192,370009,5,0,0:0:0:0:
256,192,370192,5,8,0:0:0:0:
256,192,370375,5,4,0:0:0:0:
256,192,370740,5,8,0:0:0:0:
256,192,370923,5,8,0:0:0:0:
256,192,371106,5,0,0:0:0:0:
256,192,371289,5,8,0:0:0:0:
256,192,371472,5,8,0:0:0:0:
256,192,371655,5,8,0:0:0:0:
256,192,371838,5,0,0:0:0:0:
256,192,372021,5,0,0:0:0:0:
256,192,372387,5,0,0:0:0:0:
256,192,372570,5,8,0:0:0:0:
256,192,372753,5,0,0:0:0:0:
256,192,372935,5,8,0:0:0:0:
256,192,373118,5,0,0:0:0:0:
256,192,373301,5,8,0:0:0:0:
256,192,373576,5,12,0:0:0:0:
256,192,373850,5,12,0:0:0:0:
256,192,374033,5,8,0:0:0:0:
256,192,374307,5,12,0:0:0:0:
256,192,374582,5,12,0:0:0:0:
256,192,374765,5,8,0:0:0:0:
256,192,375009,5,8,0:0:0:0:
256,192,375131,5,0,0:0:0:0:
256,192,375253,5,8,0:0:0:0:
256,192,375375,5,8,0:0:0:0:
256,192,375496,5,0,0:0:0:0:
256,192,375618,5,8,0:0:0:0:
256,192,375740,5,0,0:0:0:0:
256,192,375862,5,8,0:0:0:0:
256,192,375984,5,8,0:0:0:0:
256,192,376106,5,8,0:0:0:0:
256,192,376228,5,4,0:0:0:0:
256,192,376594,5,0,0:0:0:0:
256,192,376777,5,0,0:0:0:0:
256,192,376960,5,12,0:0:0:0:
256,192,377326,5,0,0:0:0:0:
256,192,377509,5,8,0:0:0:0:
256,192,377692,5,0,0:0:0:0:
256,192,377875,5,0,0:0:0:0:
256,192,378240,5,0,0:0:0:0:
256,192,378423,5,8,0:0:0:0:
256,192,378606,5,0,0:0:0:0:
256,192,378789,5,8,0:0:0:0:
256,192,378972,5,8,0:0:0:0:
256,192,379155,5,12,0:0:0:0:
256,192,379521,5,0,0:0:0:0:
256,192,379704,5,8,0:0:0:0:
256,192,379887,5,4,0:0:0:0:
256,192,380161,5,8,0:0:0:0:
256,192,380435,5,8,0:0:0:0:
256,192,380618,5,4,0:0:0:0:
256,192,380801,5,0,0:0:0:0:
256,192,380984,5,8,0:0:0:0:
256,192,381167,5,0,0:0:0:0:
256,192,381350,5,12,0:0:0:0:
256,192,381533,5,0,0:0:0:0:
256,192,381625,5,0,0:0:0:0:
256,192,381716,5,8,0:0:0:0:
256,192,381899,5,8,0:0:0:0:
256,192,382082,5,0,0:0:0:0:
256,192,382173,5,0,0:0:0:0:
256,192,382265,5,8,0:0:0:0:
256,192,382356,5,8,0:0:0:0:
256,192,382448,5,0,0:0:0:0:
256,192,382539,5,0,0:0:0:0:
256,192,382631,5,8,0:0:0:0:
256,192,382722,5,8,0:0:0:0:
256,192,382814,5,0,0:0:0:0:
256,192,382905,5,0,0:0:0:0:
256,192,382996,5,8,0:0:0:0:
256,192,383088,5,0,0:0:0:0:
256,192,383179,5,8,0:0:0:0:
256,192,383271,5,0,0:0:0:0:
256,192,383362,5,8,0:0:0:0:
256,192,383545,5,8,0:0:0:0:
256,192,383637,5,0,0:0:0:0:
256,192,383728,5,8,0:0:0:0:
256,192,383820,5,8,0:0:0:0:
256,192,383911,5,0,0:0:0:0:
256,192,384003,5,0,0:0:0:0:
256,192,384094,5,8,0:0:0:0:
256,192,384185,5,0,0:0:0:0:
256,192,384277,5,8,0:0:0:0:
256,192,384368,5,8,0:0:0:0:
256,192,384460,5,0,0:0:0:0:
256,192,384551,5,0,0:0:0:0:
256,192,384643,5,8,0:0:0:0:
256,192,384734,5,0,0:0:0:0:
256,192,384826,5,8,0:0:0:0:
256,192,385009,5,0,0:0:0:0:
256,192,385192,5,0,0:0:0:0:
256,192,385283,5,8,0:0:0:0:
256,192,385466,5,8,0:0:0:0:
256,192,385557,5,0,0:0:0:0:
256,192,385740,5,8,0:0:0:0:
256,192,385923,5,8,0:0:0:0:
256,192,386015,5,0,0:0:0:0:
256,192,386198,5,0,0:0:0:0:
256,192,386289,5,8,0:0:0:0:
256,192,386472,5,0,0:0:0:0:
256,192,386564,5,8,0:0:0:0:
256,192,386655,5,8,0:0:0:0:
256,192,386746,5,0,0:0:0:0:
256,192,386838,5,0,0:0:0:0:
256,192,386929,5,8,0:0:0:0:
256,192,387021,5,8,0:0:0:0:
256,192,387112,5,0,0:0:0:0:
256,192,387204,5,0,0:0:0:0:
256,192,387295,5,8,0:0:0:0:
256,192,387387,5,8,0:0:0:0:
256,192,387478,5,0,0:0:0:0:
256,192,387570,5,8,0:0:0:0:
256,192,387661,5,8,0:0:0:0:
256,192,387753,5,0,0:0:0:0:
256,192,387935,5,12,0:0:0:0:
256,192,388118,5,0,0:0:0:0:
256,192,388210,5,0,0:0:0:0:
256,192,388301,5,12,0:0:0:0:
256,192,388484,5,0,0:0:0:0:
256,192,388576,5,0,0:0:0:0:
256,192,388667,5,12,0:0:0:0:
256,192,388850,5,8,0:0:0:0:
256,192,388942,5,8,0:0:0:0:
256,192,389033,5,0,0:0:0:0:
256,192,389216,5,0,0:0:0:0:
256,192,389399,5,12,0:0:0:0:
256,192,389582,5,0,0:0:0:0:
256,192,389673,5,0,0:0:0:0:
256,192,389765,5,12,0:0:0:0:
256,192,389948,5,0,0:0:0:0:
256,192,390039,5,0,0:0:0:0:
256,192,390131,5,12,0:0:0:0:
256,192,390314,5,8,0:0:0:0:
256,192,390405,5,8,0:0:0:0:
256,192,390496,5,0,0:0:0:0:
256,192,390679,5,8,0:0:0:0:
256,192,390862,5,8,0:0:0:0:
256,192,390954,5,8,0:0:0:0:
256,192,391045,5,0,0:0:0:0:
256,192,391137,5,0,0:0:0:0:
256,192,391228,5,8,0:0:0:0:
256,192,391411,5,0,0:0:0:0:
256,192,391503,5,0,0:0:0:0:
256,192,391594,5,8,0:0:0:0:
256,192,391777,5,8,0:0:0:0:
256,192,391868,5,8,0:0:0:0:
256,192,391960,5,0,0:0:0:0:
256,192,392143,5,8,0:0:0:0:
256,192,392326,5,8,0:0:0:0:
256,192,392417,5,8,0:0:0:0:
256,192,392509,5,0,0:0:0:0:
256,192,392600,5,0,0:0:0:0:
256,192,392692,5,8,0:0:0:0:
256,192,392875,5,0,0:0:0:0:
256,192,392966,5,0,0:0:0:0:
256,192,393057,5,8,0:0:0:0:
256,192,393240,5,8,0:0:0:0:
256,192,393332,5,8,0:0:0:0:
256,192,393423,5,0,0:0:0:0:
256,192,393606,5,0,0:0:0:0:
256,192,393789,5,12,0:0:0:0:
256,192,393972,5,0,0:0:0:0:
256,192,394064,5,0,0:0:0:0:
256,192,394155,5,12,0:0:0:0:
256,192,394338,5,0,0:0:0:0:
256,192,394429,5,0,0:0:0:0:
256,192,394521,5,12,0:0:0:0:
256,192,394704,5,8,0:0:0:0:
256,192,394795,5,8,0:0:0:0:
256,192,394887,5,0,0:0:0:0:
256,192,395070,5,0,0:0:0:0:
256,192,395253,5,12,0:0:0:0:
256,192,395435,5,0,0:0:0:0:
256,192,395527,5,0,0:0:0:0:
256,192,395618,5,12,0:0:0:0:
256,192,395801,5,0,0:0:0:0:
256,192,395893,5,0,0:0:0:0:
256,192,395984,5,12,0:0:0:0:
256,192,396167,5,8,0:0:0:0:
256,192,396259,5,8,0:0:0:0:
256,192,396350,5,0,0:0:0:0:
256,192,396533,5,0,0:0:0:0:
256,192,396716,5,8,0:0:0:0:
256,192,396807,5,8,0:0:0:0:
256,192,396899,5,0,0:0:0:0:
256,192,396990,5,0,0:0:0:0:
256,192,397082,5,8,0:0:0:0:
256,192,397265,5,8,0:0:0:0:
256,192,397356,5,8,0:0:0:0:
256,192,397448,5,0,0:0:0:0:
256,192,397631,5,0,0:0:0:0:
256,192,397722,5,0,0:0:0:0:
256,192,397814,5,8,0:0:0:0:
256,192,397905,5,8,0:0:0:0:
256,192,397996,5,0,0:0:0:0:
256,192,398179,5,8,0:0:0:0:
256,192,398271,5,8,0:0:0:0:
256,192,398362,5,0,0:0:0:0:
256,192,398454,5,0,0:0:0:0:
256,192,398545,5,8,0:0:0:0:
256,192,398637,5,8,0:0:0:0:
256,192,398728,5,8,0:0:0:0:
256,192,398820,5,0,0:0:0:0:
256,192,398911,5,8,0:0:0:0:
256,192,399003,5,0,0:0:0:0:
256,192,399094,5,8,0:0:0:0:
256,192,399185,5,0,0:0:0:0:
256,192,399277,5,8,0:0:0:0:
256,192,399460,5,8,0:0:0:0:
256,192,399643,5,12,0:0:0:0:
256,192,399826,5,0,0:0:0:0:
256,192,400009,5,12,0:0:0:0:
256,192,400192,5,0,0:0:0:0:
256,192,400375,5,12,0:0:0:0:
256,192,400557,5,0,0:0:0:0:
256,192,400740,5,8,0:0:0:0:
256,192,400923,5,0,0:0:0:0:
256,192,401015,5,0,0:0:0:0:
256,192,401106,5,12,0:0:0:0:
256,192,401289,5,0,0:0:0:0:
256,192,401472,5,12,0:0:0:0:
256,192,401655,5,0,0:0:0:0:
256,192,401838,5,12,0:0:0:0:
256,192,402021,5,0,0:0:0:0:
256,192,402204,5,8,0:0:0:0:
256,192,402387,5,0,0:0:0:0:
256,192,402478,5,0,0:0:0:0:
256,192,402570,5,8,0:0:0:0:
256,192,402753,5,8,0:0:0:0:
256,192,402844,5,8,0:0:0:0:
256,192,402935,5,0,0:0:0:0:
256,192,403118,5,8,0:0:0:0:
256,192,403301,5,8,0:0:0:0:
256,192,403393,5,0,0:0:0:0:
256,192,403484,5,8,0:0:0:0:
256,192,403667,5,8,0:0:0:0:
256,192,403850,5,0,0:0:0:0:
256,192,404033,5,8,0:0:0:0:
256,192,404125,5,8,0:0:0:0:
256,192,404216,5,0,0:0:0:0:
256,192,404399,5,8,0:0:0:0:
256,192,404490,5,8,0:0:0:0:
256,192,404582,5,0,0:0:0:0:
256,192,404765,5,8,0:0:0:0:
256,192,404948,5,0,0:0:0:0:
256,192,405131,5,0,0:0:0:0:
256,192,405222,5,0,0:0:0:0:
256,192,405314,5,8,0:0:0:0:
256,192,405496,5,12,0:0:0:0:
256,192,405679,5,0,0:0:0:0:
256,192,405862,5,12,0:0:0:0:
256,192,406045,5,0,0:0:0:0:
256,192,406228,5,12,0:0:0:0:
256,192,406411,5,0,0:0:0:0:
256,192,406594,5,0,0:0:0:0:
256,192,406777,5,0,0:0:0:0:
256,192,406868,5,0,0:0:0:0:
256,192,406960,5,12,0:0:0:0:
256,192,407143,5,0,0:0:0:0:
256,192,407326,5,12,0:0:0:0:
256,192,407509,5,0,0:0:0:0:
256,192,407692,5,12,0:0:0:0:
256,192,407875,5,0,0:0:0:0:
256,192,408057,5,8,0:0:0:0:
256,192,408149,5,0,0:0:0:0:
256,192,408240,5,8,0:0:0:0:
256,192,408423,5,8,0:0:0:0:
256,192,408606,5,8,0:0:0:0:
256,192,408698,5,8,0:0:0:0:
256,192,408789,5,0,0:0:0:0:
256,192,408972,5,8,0:0:0:0:
256,192,409155,5,8,0:0:0:0:
256,192,409246,5,0,0:0:0:0:
256,192,409338,5,8,0:0:0:0:
256,192,409521,5,0,0:0:0:0:
256,192,409612,5,0,0:0:0:0:
256,192,409704,5,8,0:0:0:0:
256,192,409887,5,8,0:0:0:0:
256,192,409978,5,8,0:0:0:0:
256,192,410070,5,0,0:0:0:0:
256,192,410253,5,8,0:0:0:0:
256,192,410435,5,0,0:0:0:0:
256,192,410527,5,0,0:0:0:0:
256,192,410618,5,8,0:0:0:0:
256,192,410801,5,0,0:0:0:0:
256,192,410984,5,8,0:0:0:0:
256,192,411076,5,8,0:0:0:0:
256,192,411167,5,8,0:0:0:0:
256,192,411259,5,8,0:0:0:0:
256,192,411350,5,0,0:0:0:0:
256,192,411533,5,0,0:0:0:0:
256,192,411625,5,0,0:0:0:0:
256,192,411716,5,8,0:0:0:0:
256,192,411899,5,8,0:0:0:0:
256,192,411990,5,0,0:0:0:0:
256,192,412082,5,8,0:0:0:0:
256,192,412265,5,0,0:0:0:0:
256,192,412356,5,0,0:0:0:0:
256,192,412448,5,8,0:0:0:0:
256,192,412631,5,0,0:0:0:0:
256,192,412814,5,8,0:0:0:0:
256,192,412996,5,8,0:0:0:0:
256,192,413088,5,8,0:0:0:0:
256,192,413179,5,0,0:0:0:0:
256,192,413362,5,0,0:0:0:0:
256,192,413454,5,0,0:0:0:0:
256,192,413545,5,8,0:0:0:0:
256,192,413637,5,8,0:0:0:0:
256,192,413728,5,0,0:0:0:0:
256,192,413911,5,8,0:0:0:0:
256,192,414094,5,0,0:0:0:0:
256,192,414185,5,0,0:0:0:0:
256,192,414277,5,8,0:0:0:0:
256,192,414368,5,8,0:0:0:0:
256,192,414460,5,8,0:0:0:0:
256,192,414551,5,8,0:0:0:0:
256,192,414643,5,0,0:0:0:0:
256,192,414734,5,0,0:0:0:0:
256,192,414826,5,8,0:0:0:0:
256,192,414917,5,0,0:0:0:0:
256,192,415009,5,8,0:0:0:0:
256,192,415100,5,8,0:0:0:0:
256,192,415192,5,8,0:0:0:0:
256,192,415283,5,8,0:0:0:0:
256,192,415375,5,0,0:0:0:0:
256,192,415466,5,0,0:0:0:0:
256,192,415557,5,8,0:0:0:0:
256,192,415649,5,0,0:0:0:0:
256,192,415740,5,12,0:0:0:0:
256,192,416106,5,0,0:0:0:0:
256,192,416289,5,0,0:0:0:0:
256,192,416472,5,8,0:0:0:0:
256,192,416655,5,8,0:0:0:0:
256,192,416838,5,8,0:0:0:0:
256,192,416929,5,8,0:0:0:0:
256,192,417021,5,0,0:0:0:0:
256,192,417204,5,8,0:0:0:0:
256,192,417295,5,8,0:0:0:0:
256,192,417387,5,8,0:0:0:0:
256,192,417478,5,8,0:0:0:0:
256,192,417570,5,8,0:0:0:0:
256,192,417661,5,8,0:0:0:0:
256,192,417753,5,0,0:0:0:0:
256,192,417844,5,0,0:0:0:0:
256,192,417935,5,0,0:0:0:0:
256,192,418027,5,0,0:0:0:0:
256,192,418118,5,0,0:0:0:0:
256,192,418210,5,0,0:0:0:0:
256,192,418301,5,8,0:0:0:0:
256,192,418393,5,8,0:0:0:0:
256,192,418484,5,0,0:0:0:0:
256,192,418576,5,0,0:0:0:0:
256,192,418667,5,8,0:0:0:0:
256,192,418759,5,8,0:0:0:0:
256,192,418850,5,8,0:0:0:0:
256,192,418942,5,8,0:0:0:0:
256,192,419033,5,8,0:0:0:0:
256,192,419125,5,8,0:0:0:0:
256,192,419216,5,0,0:0:0:0:
256,192,419307,5,0,0:0:0:0:
256,192,419399,5,0,0:0:0:0:
256,192,419490,5,0,0:0:0:0:
256,192,419582,5,0,0:0:0:0:
256,192,419673,5,0,0:0:0:0:
256,192,419765,5,8,0:0:0:0:
256,192,419856,5,8,0:0:0:0:
256,192,419948,5,8,0:0:0:0:
256,192,420039,5,0,0:0:0:0:
256,192,420131,5,8,0:0:0:0:
256,192,420222,5,8,0:0:0:0:
256,192,420314,5,8,0:0:0:0:
256,192,420405,5,8,0:0:0:0:
256,192,420496,5,0,0:0:0:0:
256,192,420588,5,0,0:0:0:0:
256,192,420679,5,0,0:0:0:0:
256,192,420771,5,0,0:0:0:0:
256,192,420862,5,8,0:0:0:0:
256,192,420954,5,8,0:0:0:0:
256,192,421045,5,8,0:0:0:0:
256,192,421137,5,0,0:0:0:0:
256,192,421228,5,8,0:0:0:0:
256,192,421320,5,8,0:0:0:0:
256,192,421411,5,0,0:0:0:0:
256,192,421503,5,0,0:0:0:0:
256,192,421594,5,8,0:0:0:0:
256,192,421685,5,0,0:0:0:0:
256,192,421777,5,8,0:0:0:0:
256,192,421868,5,8,0:0:0:0:
256,192,421960,5,0,0:0:0:0:
256,192,422051,5,8,0:0:0:0:
256,192,422143,5,8,0:0:0:0:
256,192,422234,5,0,0:0:0:0:
256,192,422326,5,8,0:0:0:0:
256,192,422417,5,8,0:0:0:0:
256,192,422509,5,8,0:0:0:0:
256,192,422600,5,0,0:0:0:0:
256,192,422692,5,8,0:0:0:0:
256,192,422875,5,0,0:0:0:0:
256,192,423057,5,8,0:0:0:0:
256,192,423149,5,8,0:0:0:0:
256,192,423240,5,8,0:0:0:0:
256,192,423332,5,0,0:0:0:0:
256,192,423423,5,0,0:0:0:0:
256,192,423515,5,0,0:0:0:0:
256,192,423606,5,8,0:0:0:0:
256,192,423698,5,8,0:0:0:0:
256,192,423789,5,8,0:0:0:0:
256,192,423881,5,8,0:0:0:0:
256,192,423972,5,8,0:0:0:0:
256,192,424064,5,0,0:0:0:0:
256,192,424155,5,8,0:0:0:0:
256,192,424246,5,0,0:0:0:0:
256,192,424338,5,0,0:0:0:0:
256,192,424429,5,0,0:0:0:0:
256,192,424521,5,8,0:0:0:0:
256,192,424612,5,8,0:0:0:0:
256,192,424704,5,8,0:0:0:0:
256,192,424795,5,0,0:0:0:0:
256,192,424887,5,0,0:0:0:0:
256,192,424978,5,0,0:0:0:0:
256,192,425070,5,8,0:0:0:0:
256,192,425161,5,8,0:0:0:0:
256,192,425253,5,8,0:0:0:0:
256,192,425344,5,8,0:0:0:0:
256,192,425435,5,8,0:0:0:0:
256,192,425527,5,0,0:0:0:0:
256,192,425618,5,8,0:0:0:0:
256,192,425710,5,0,0:0:0:0:
256,192,425801,5,0,0:0:0:0:
256,192,425893,5,0,0:0:0:0:
256,192,425984,5,8,0:0:0:0:
256,192,426076,5,8,0:0:0:0:
256,192,426167,5,8,0:0:0:0:
256,192,426259,5,8,0:0:0:0:
256,192,426350,5,0,0:0:0:0:
256,192,426442,5,0,0:0:0:0:
256,192,426533,5,0,0:0:0:0:
256,192,426625,5,0,0:0:0:0:
256,192,426716,5,8,0:0:0:0:
256,192,426807,5,8,0:0:0:0:
256,192,426899,5,0,0:0:0:0:
256,192,426990,5,0,0:0:0:0:
256,192,427082,5,8,0:0:0:0:
256,192,427173,5,8,0:0:0:0:
256,192,427265,5,0,0:0:0:0:
256,192,427356,5,0,0:0:0:0:
256,192,427448,5,8,0:0:0:0:
256,192,427539,5,0,0:0:0:0:
256,192,427631,5,8,0:0:0:0:
256,192,427722,5,8,0:0:0:0:
256,192,427814,5,0,0:0:0:0:
256,192,427905,5,8,0:0:0:0:
256,192,427996,5,8,0:0:0:0:
256,192,428088,5,0,0:0:0:0:
256,192,428179,5,8,0:0:0:0:
256,192,428362,5,0,0:0:0:0:
256,192,428545,5,8,0:0:0:0:
256,192,428637,5,8,0:0:0:0:
256,192,428728,5,0,0:0:0:0:
256,192,428911,5,8,0:0:0:0:
256,192,429003,5,8,0:0:0:0:
256,192,429094,5,8,0:0:0:0:
256,192,429185,5,8,0:0:0:0:
256,192,429277,5,8,0:0:0:0:
256,192,429368,5,8,0:0:0:0:
256,192,429460,5,0,0:0:0:0:
256,192,429551,5,0,0:0:0:0:
256,192,429643,5,0,0:0:0:0:
256,192,429734,5,0,0:0:0:0:
256,192,429826,5,0,0:0:0:0:
256,192,429917,5,0,0:0:0:0:
256,192,430009,5,8,0:0:0:0:
256,192,430100,5,8,0:0:0:0:
256,192,430192,5,8,0:0:0:0:
256,192,430283,5,0,0:0:0:0:
256,192,430375,5,8,0:0:0:0:
256,192,430466,5,8,0:0:0:0:
256,192,430557,5,8,0:0:0:0:
256,192,430649,5,8,0:0:0:0:
256,192,430740,5,8,0:0:0:0:
256,192,430832,5,8,0:0:0:0:
256,192,430923,5,0,0:0:0:0:
256,192,431015,5,0,0:0:0:0:
256,192,431106,5,0,0:0:0:0:
256,192,431198,5,0,0:0:0:0:
256,192,431289,5,0,0:0:0:0:
256,192,431381,5,0,0:0:0:0:
256,192,431472,5,8,0:0:0:0:
256,192,431564,5,8,0:0:0:0:
256,192,431655,5,0,0:0:0:0:
256,192,431746,5,0,0:0:0:0:
256,192,431838,5,8,0:0:0:0:
256,192,431929,5,8,0:0:0:0:
256,192,432021,5,8,0:0:0:0:
256,192,432112,5,8,0:0:0:0:
256,192,432204,5,0,0:0:0:0:
256,192,432295,5,0,0:0:0:0:
256,192,432387,5,0,0:0:0:0:
256,192,432478,5,0,0:0:0:0:
256,192,432570,5,8,0:0:0:0:
256,192,432661,5,8,0:0:0:0:
256,192,432753,5,0,0:0:0:0:
256,192,432844,5,0,0:0:0:0:
256,192,432935,5,8,0:0:0:0:
256,192,433027,5,8,0:0:0:0:
256,192,433118,5,8,0:0:0:0:
256,192,433210,5,8,0:0:0:0:
256,192,433301,5,0,0:0:0:0:
256,192,433393,5,0,0:0:0:0:
256,192,433484,5,8,0:0:0:0:
256,192,433576,5,8,0:0:0:0:
256,192,433667,5,0,0:0:0:0:
256,192,433759,5,8,0:0:0:0:
256,192,433850,5,8,0:0:0:0:
256,192,433942,5,0,0:0:0:0:
256,192,434033,5,8,0:0:0:0:
256,192,434125,5,8,0:0:0:0:
256,192,434216,5,8,0:0:0:0:
256,192,434307,5,0,0:0:0:0:
256,192,434399,5,8,0:0:0:0:
256,192,434582,5,0,0:0:0:0:
256,192,434765,5,8,0:0:0:0:
256,192,434856,5,8,0:0:0:0:
256,192,434948,5,8,0:0:0:0:
256,192,435039,5,0,0:0:0:0:
256,192,435131,5,0,0:0:0:0:
256,192,435222,5,0,0:0:0:0:
256,192,435314,5,8,0:0:0:0:
256,192,435405,5,8,0:0:0:0:
256,192,435496,5,8,0:0:0:0:
256,192,435588,5,8,0:0:0:0:
256,192,435679,5,0,0:0:0:0:
256,192,435771,5,0,0:0:0:0:
256,192,435862,5,8,0:0:0:0:
256,192,436045,5,0,0:0:0:0:
256,192,436228,5,8,0:0:0:0:
256,192,436320,5,8,0:0:0:0:
256,192,436411,5,8,0:0:0:0:
256,192,436503,5,8,0:0:0:0:
256,192,436594,5,0,0:0:0:0:
256,192,436685,5,0,0:0:0:0:
256,192,436777,5,8,0:0:0:0:
256,192,436868,5,8,0:0:0:0:
256,192,436960,5,8,0:0:0:0:
256,192,437051,5,0,0:0:0:0:
256,192,437143,5,0,0:0:0:0:
256,192,437234,5,0,0:0:0:0:
256,192,437326,5,8,0:0:0:0:
256,192,437509,5,0,0:0:0:0:
256,192,437692,5,8,0:0:0:0:
256,192,437783,5,0,0:0:0:0:
256,192,437875,5,8,0:0:0:0:
256,192,437966,5,0,0:0:0:0:
256,192,438057,5,8,0:0:0:0:
256,192,438149,5,8,0:0:0:0:
256,192,438240,5,0,0:0:0:0:
256,192,438332,5,0,0:0:0:0:
256,192,438423,5,8,0:0:0:0:
256,192,438515,5,8,0:0:0:0:
256,192,438606,5,8,0:0:0:0:
256,192,438698,5,8,0:0:0:0:
256,192,438789,5,0,0:0:0:0:
256,192,438881,5,0,0:0:0:0:
256,192,438972,5,0,0:0:0:0:
256,192,439064,5,0,0:0:0:0:
256,192,439155,5,8,0:0:0:0:
256,192,439246,5,8,0:0:0:0:
256,192,439338,5,0,0:0:0:0:
256,192,439429,5,8,0:0:0:0:
256,192,439612,5,0,0:0:0:0:
256,192,439704,5,8,0:0:0:0:
256,192,439887,5,0,0:0:0:0:
256,192,439978,5,0,0:0:0:0:
256,192,440070,5,8,0:0:0:0:
256,192,440161,5,8,0:0:0:0:
256,192,440253,5,8,0:0:0:0:
256,192,440344,5,0,0:0:0:0:
256,192,440435,5,8,0:0:0:0:
256,192,440618,5,8,0:0:0:0:
256,192,440710,5,8,0:0:0:0:
256,192,440801,5,8,0:0:0:0:
256,192,440893,5,8,0:0:0:0:
256,192,440984,5,0,0:0:0:0:
256,192,441076,5,0,0:0:0:0:
256,192,441167,5,8,0:0:0:0:
256,192,441259,5,8,0:0:0:0:
256,192,441350,5,8,0:0:0:0:
256,192,441442,5,8,0:0:0:0:
256,192,441533,5,8,0:0:0:0:
256,192,441625,5,8,0:0:0:0:
256,192,441716,5,0,0:0:0:0:
256,192,441807,5,0,0:0:0:0:
256,192,441899,5,0,0:0:0:0:
256,192,441990,5,0,0:0:0:0:
256,192,442082,5,8,0:0:0:0:
256,192,442173,5,8,0:0:0:0:
256,192,442265,5,8,0:0:0:0:
256,192,442356,5,0,0:0:0:0:
256,192,442448,5,0,0:0:0:0:
256,192,442539,5,0,0:0:0:0:
256,192,442631,5,8,0:0:0:0:
256,192,442722,5,8,0:0:0:0:
256,192,442814,5,8,0:0:0:0:
256,192,442905,5,8,0:0:0:0:
256,192,442996,5,8,0:0:0:0:
256,192,443088,5,0,0:0:0:0:
256,192,443179,5,8,0:0:0:0:
256,192,443271,5,0,0:0:0:0:
256,192,443362,5,0,0:0:0:0:
256,192,443454,5,0,0:0:0:0:
256,192,443545,5,8,0:0:0:0:
256,192,443637,5,8,0:0:0:0:
256,192,443728,5,0,0:0:0:0:
256,192,443820,5,0,0:0:0:0:
256,192,443911,5,8,0:0:0:0:
256,192,444003,5,8,0:0:0:0:
256,192,444094,5,0,0:0:0:0:
256,192,444185,5,0,0:0:0:0:
256,192,444277,5,8,0:0:0:0:
256,192,444368,5,8,0:0:0:0:
256,192,444460,5,8,0:0:0:0:
256,192,444551,5,0,0:0:0:0:
256,192,444643,5,8,0:0:0:0:
256,192,444734,5,8,0:0:0:0:
256,192,444826,5,8,0:0:0:0:
256,192,444917,5,0,0:0:0:0:
256,192,445009,5,8,0:0:0:0:
256,192,445100,5,0,0:0:0:0:
256,192,445192,5,8,0:0:0:0:
256,192,445283,5,0,0:0:0:0:
256,192,445375,5,8,0:0:0:0:
256,192,445466,5,8,0:0:0:0:
256,192,445557,5,0,0:0:0:0:
256,192,445649,5,0,0:0:0:0:
256,192,445740,5,8,0:0:0:0:
256,192,445832,5,8,0:0:0:0:
256,192,445923,5,8,0:0:0:0:
256,192,446015,5,0,0:0:0:0:
256,192,446106,5,8,0:0:0:0:
256,192,446289,5,0,0:0:0:0:
256,192,446472,5,8,0:0:0:0:
256,192,446564,5,8,0:0:0:0:
256,192,446655,5,8,0:0:0:0:
256,192,446746,5,8,0:0:0:0:
256,192,446838,5,8,0:0:0:0:
256,192,446929,5,8,0:0:0:0:
256,192,447021,5,0,0:0:0:0:
256,192,447112,5,0,0:0:0:0:
256,192,447204,5,0,0:0:0:0:
256,192,447295,5,0,0:0:0:0:
256,192,447387,5,0,0:0:0:0:
256,192,447478,5,0,0:0:0:0:
256,192,447570,5,8,0:0:0:0:
256,192,447661,5,8,0:0:0:0:
256,192,447753,5,8,0:0:0:0:
256,192,447844,5,0,0:0:0:0:
256,192,447935,5,8,0:0:0:0:
256,192,448027,5,8,0:0:0:0:
256,192,448118,5,8,0:0:0:0:
256,192,448210,5,8,0:0:0:0:
256,192,448301,5,0,0:0:0:0:
256,192,448393,5,0,0:0:0:0:
256,192,448484,5,8,0:0:0:0:
256,192,448576,5,8,0:0:0:0:
256,192,448667,5,8,0:0:0:0:
256,192,448759,5,8,0:0:0:0:
256,192,448850,5,8,0:0:0:0:
256,192,448942,5,8,0:0:0:0:
256,192,449033,5,0,0:0:0:0:
256,192,449125,5,0,0:0:0:0:
256,192,449216,5,0,0:0:0:0:
256,192,449307,5,0,0:0:0:0:
256,192,449399,5,8,0:0:0:0:
256,192,449490,5,8,0:0:0:0:
256,192,449582,5,0,0:0:0:0:
256,192,449673,5,0,0:0:0:0:
256,192,449765,5,8,0:0:0:0:
256,192,449856,5,8,0:0:0:0:
256,192,449948,5,0,0:0:0:0:
256,192,450039,5,0,0:0:0:0:
256,192,450131,5,8,0:0:0:0:
256,192,450222,5,8,0:0:0:0:
256,192,450314,5,8,0:0:0:0:
256,192,450405,5,0,0:0:0:0:
256,192,450496,5,8,0:0:0:0:
256,192,450588,5,8,0:0:0:0:
256,192,450679,5,8,0:0:0:0:
256,192,450771,5,0,0:0:0:0:
256,192,450862,5,8,0:0:0:0:
256,192,450954,5,0,0:0:0:0:
256,192,451045,5,8,0:0:0:0:
256,192,451137,5,8,0:0:0:0:
256,192,451228,5,0,0:0:0:0:
256,192,451320,5,8,0:0:0:0:
256,192,451411,5,8,0:0:0:0:
256,192,451503,5,0,0:0:0:0:
256,192,451594,5,8,0:0:0:0:
256,192,451777,5,0,0:0:0:0:
256,192,451960,5,8,0:0:0:0:
256,192,452051,5,8,0:0:0:0:
256,192,452143,5,0,0:0:0:0:
256,192,452326,5,8,0:0:0:0:
256,192,452417,5,8,0:0:0:0:
256,192,452509,5,8,0:0:0:0:
256,192,452600,5,0,0:0:0:0:
256,192,452692,5,0,0:0:0:0:
256,192,452783,5,0,0:0:0:0:
256,192,452875,5,8,0:0:0:0:
256,192,452966,5,8,0:0:0:0:
256,192,453057,5,8,0:0:0:0:
256,192,453149,5,8,0:0:0:0:
256,192,453240,5,8,0:0:0:0:
256,192,453332,5,0,0:0:0:0:
256,192,453423,5,8,0:0:0:0:
256,192,453515,5,0,0:0:0:0:
256,192,453606,5,0,0:0:0:0:
256,192,453698,5,0,0:0:0:0:
256,192,453789,5,8,0:0:0:0:
256,192,453881,5,8,0:0:0:0:
256,192,453972,5,8,0:0:0:0:
256,192,454064,5,8,0:0:0:0:
256,192,454155,5,8,0:0:0:0:
256,192,454246,5,8,0:0:0:0:
256,192,454338,5,0,0:0:0:0:
256,192,454429,5,0,0:0:0:0:
256,192,454521,5,0,0:0:0:0:
256,192,454612,5,0,0:0:0:0:
256,192,454704,5,0,0:0:0:0:
256,192,454795,5,0,0:0:0:0:
256,192,454887,5,8,0:0:0:0:
256,192,454978,5,8,0:0:0:0:
256,192,455070,5,0,0:0:0:0:
256,192,455161,5,0,0:0:0:0:
256,192,455253,5,8,0:0:0:0:
256,192,455344,5,8,0:0:0:0:
256,192,455435,5,8,0:0:0:0:
256,192,455527,5,0,0:0:0:0:
256,192,455618,5,8,0:0:0:0:
256,192,455710,5,0,0:0:0:0:
256,192,455801,5,0,0:0:0:0:
256,192,455893,5,0,0:0:0:0:
256,192,455984,5,8,0:0:0:0:
256,192,456076,5,8,0:0:0:0:
256,192,456167,5,8,0:0:0:0:
256,192,456259,5,0,0:0:0:0:
256,192,456350,5,8,0:0:0:0:
256,192,456442,5,8,0:0:0:0:
256,192,456533,5,8,0:0:0:0:
256,192,456625,5,8,0:0:0:0:
256,192,456716,5,0,0:0:0:0:
256,192,456807,5,0,0:0:0:0:
256,192,456899,5,8,0:0:0:0:
256,192,456990,5,8,0:0:0:0:
256,192,457082,5,0,0:0:0:0:
256,192,457173,5,8,0:0:0:0:
256,192,457265,5,8,0:0:0:0:
256,192,457356,5,0,0:0:0:0:
256,192,457448,5,8,0:0:0:0:
256,192,457539,5,8,0:0:0:0:
256,192,457631,5,8,0:0:0:0:
256,192,457722,5,0,0:0:0:0:
256,192,457814,5,8,0:0:0:0:
256,192,457996,5,0,0:0:0:0:
256,192,458179,5,8,0:0:0:0:
256,192,458271,5,8,0:0:0:0:
256,192,458362,5,8,0:0:0:0:
256,192,458454,5,8,0:0:0:0:
256,192,458545,5,0,0:0:0:0:
256,192,458637,5,0,0:0:0:0:
256,192,458728,5,8,0:0:0:0:
256,192,458820,5,8,0:0:0:0:
256,192,458911,5,8,0:0:0:0:
256,192,459003,5,8,0:0:0:0:
256,192,459094,5,0,0:0:0:0:
256,192,459185,5,0,0:0:0:0:
256,192,459277,5,8,0:0:0:0:
256,192,459368,5,8,0:0:0:0:
256,192,459460,5,8,0:0:0:0:
256,192,459551,5,0,0:0:0:0:
256,192,459643,5,8,0:0:0:0:
256,192,459734,5,8,0:0:0:0:
256,192,459826,5,8,0:0:0:0:
256,192,459917,5,8,0:0:0:0:
256,192,460009,5,0,0:0:0:0:
256,192,460100,5,0,0:0:0:0:
256,192,460192,5,8,0:0:0:0:
256,192,460283,5,8,0:0:0:0:
256,192,460375,5,8,0:0:0:0:
256,192,460466,5,8,0:0:0:0:
256,192,460557,5,0,0:0:0:0:
256,192,460649,5,0,0:0:0:0:
256,192,460740,5,8,0:0:0:0:
256,192,460832,5,8,0:0:0:0:
256,192,460923,5,0,0:0:0:0:
256,192,461015,5,0,0:0:0:0:
256,192,461106,5,8,0:0:0:0:
256,192,461198,5,8,0:0:0:0:
256,192,461289,5,0,0:0:0:0:
256,192,461381,5,0,0:0:0:0:
256,192,461472,5,8,0:0:0:0:
256,192,461564,5,8,0:0:0:0:
256,192,461655,5,8,0:0:0:0:
256,192,461746,5,0,0:0:0:0:
256,192,461838,5,8,0:0:0:0:
256,192,461929,5,0,0:0:0:0:
256,192,462021,5,0,0:0:0:0:
256,192,462112,5,0,0:0:0:0:
256,192,462204,5,8,0:0:0:0:
256,192,462295,5,8,0:0:0:0:
256,192,462387,5,8,0:0:0:0:
256,192,462478,5,0,0:0:0:0:
256,192,462570,5,8,0:0:0:0:
256,192,462661,5,0,0:0:0:0:
256,192,462753,5,0,0:0:0:0:
256,192,462844,5,8,0:0:0:0:
256,192,463027,5,0,0:0:0:0:
256,192,463118,5,8,0:0:0:0:
256,192,463301,5,0,0:0:0:0:
256,192,463393,5,8,0:0:0:0:
256,192,463484,5,8,0:0:0:0:
256,192,463576,5,0,0:0:0:0:
256,192,463667,5,8,0:0:0:0:
256,192,463759,5,8,0:0:0:0:
256,192,463850,5,0,0:0:0:0:
256,192,463942,5,0,0:0:0:0:
256,192,464033,5,8,0:0:0:0:
256,192,464125,5,0,0:0:0:0:
256,192,464216,5,8,0:0:0:0:
256,192,464399,5,0,0:0:0:0:
256,192,464490,5,8,0:0:0:0:
256,192,464673,5,0,0:0:0:0:
256,192,464765,5,8,0:0:0:0:
256,192,464948,5,8,0:0:0:0:
256,192,465039,5,0,0:0:0:0:
256,192,465222,5,0,0:0:0:0:
256,192,465314,5,8,0:0:0:0:
256,192,465405,5,8,0:0:0:0:
256,192,465496,5,0,0:0:0:0:
256,192,465588,5,0,0:0:0:0:
256,192,465679,5,8,0:0:0:0:
256,192,465862,5,0,0:0:0:0:
256,192,465954,5,8,0:0:0:0:
256,192,466137,5,0,0:0:0:0:
256,192,466228,5,8,0:0:0:0:
256,192,466411,5,8,0:0:0:0:
256,192,466503,5,0,0:0:0:0:
256,192,466685,5,0,0:0:0:0:
256,192,466777,5,0,0:0:0:0:
256,192,466868,5,8,0:0:0:0:
256,192,466960,5,0,0:0:0:0:
256,192,467051,5,0,0:0:0:0:
256,192,467143,5,8,0:0:0:0:
256,192,467326,5,0,0:0:0:0:
256,192,467417,5,8,0:0:0:0:
256,192,467600,5,0,0:0:0:0:
256,192,467692,5,8,0:0:0:0:
256,192,467875,5,8,0:0:0:0:
256,192,467966,5,0,0:0:0:0:
256,192,468149,5,0,0:0:0:0:
256,192,468240,5,8,0:0:0:0:
256,192,468332,5,8,0:0:0:0:
256,192,468423,5,0,0:0:0:0:
256,192,468515,5,0,0:0:0:0:
256,192,468606,5,8,0:0:0:0:
256,192,468789,5,8,0:0:0:0:
256,192,468881,5,8,0:0:0:0:
256,192,469064,5,8,0:0:0:0:
256,192,469155,5,0,0:0:0:0:
256,192,469338,5,8,0:0:0:0:
256,192,469429,5,8,0:0:0:0:
256,192,469521,5,0,0:0:0:0:
256,192,469704,5,8,0:0:0:0:
256,192,469887,5,0,0:0:0:0:
256,192,469978,5,0,0:0:0:0:
256,192,470070,5,8,0:0:0:0:
256,192,470253,5,0,0:0:0:0:
256,192,470344,5,8,0:0:0:0:
256,192,470527,5,0,0:0:0:0:
256,192,470618,5,8,0:0:0:0:
256,192,470801,5,8,0:0:0:0:
256,192,470893,5,0,0:0:0:0:
256,192,471076,5,0,0:0:0:0:
256,192,471167,5,8,0:0:0:0:
256,192,471259,5,0,0:0:0:0:
256,192,471350,5,0,0:0:0:0:
256,192,471442,5,0,0:0:0:0:
256,192,471533,5,8,0:0:0:0:
256,192,471716,5,0,0:0:0:0:
256,192,471807,5,8,0:0:0:0:
256,192,471990,5,0,0:0:0:0:
256,192,472082,5,8,0:0:0:0:
256,192,472265,5,8,0:0:0:0:
256,192,472356,5,0,0:0:0:0:
256,192,472539,5,0,0:0:0:0:
256,192,472631,5,8,0:0:0:0:
256,192,472722,5,8,0:0:0:0:
256,192,472814,5,0,0:0:0:0:
256,192,472905,5,0,0:0:0:0:
256,192,472996,5,8,0:0:0:0:
256,192,473179,5,0,0:0:0:0:
256,192,473271,5,8,0:0:0:0:
256,192,473454,5,0,0:0:0:0:
256,192,473545,5,8,0:0:0:0:
256,192,473728,5,8,0:0:0:0:
256,192,473820,5,0,0:0:0:0:
256,192,474003,5,0,0:0:0:0:
256,192,474094,5,8,0:0:0:0:
256,192,474185,5,8,0:0:0:0:
256,192,474277,5,8,0:0:0:0:
256,192,474368,5,0,0:0:0:0:
256,192,474460,5,8,0:0:0:0:
256,192,474643,5,8,0:0:0:0:
256,192,474734,5,8,0:0:0:0:
256,192,474917,5,0,0:0:0:0:
256,192,475009,5,8,0:0:0:0:
256,192,475253,5,0,0:0:0:0:
256,192,475375,5,8,0:0:0:0:
256,192,475496,5,0,0:0:0:0:
256,192,475618,5,0,0:0:0:0:
256,192,475740,5,12,0:0:0:0:
256,192,476563,5,0,0:0:0:0:
256,192,477386,5,8,0:0:0:0:
256,192,477934,5,4,0:0:0:0:
256,192,478758,5,0,0:0:0:0:
256,192,479581,5,8,0:0:0:0:
256,192,480129,5,12,0:0:0:0:
256,192,480678,5,0,0:0:0:0:
256,192,481227,5,12,0:0:0:0:
256,192,481776,5,0,0:0:0:0:
256,192,482324,5,12,0:0:0:0:
256,192,484519,5,4,0:0:0:0:
256,192,485343,5,8,0:0:0:0:
256,192,486166,5,8,0:0:0:0:
256,192,486714,5,4,0:0:0:0:
256,192,487538,5,8,0:0:0:0:
256,192,488361,5,8,0:0:0:0:
256,192,488909,5,12,0:0:0:0:
256,192,489458,5,0,0:0:0:0:
256,192,490007,5,12,0:0:0:0:
256,192,490556,5,8,0:0:0:0:
256,192,491104,5,4,0:0:0:0:
256,192,492202,5,8,0:0:0:0:
256,192,492339,5,0,0:0:0:0:
256,192,492613,5,0,0:0:0:0:
256,192,492751,5,8,0:0:0:0:
256,192,493025,5,8,0:0:0:0:
256,192,493162,5,8,0:0:0:0:
256,192,493299,5,4,0:0:0:0:
256,192,493848,5,0,0:0:0:0:
256,192,494123,5,8,0:0:0:0:
256,192,494397,5,4,0:0:0:0:
256,192,494946,5,8,0:0:0:0:
256,192,495220,5,0,0:0:0:0:
256,192,495494,5,0,0:0:0:0:
256,192,495769,5,0,0:0:0:0:
256,192,496043,5,8,0:0:0:0:
256,192,496318,5,8,0:0:0:0:
256,192,496455,5,8,0:0:0:0:
256,192,496592,5,4,0:0:0:0:
256,192,496866,5,0,0:0:0:0:
256,192,497141,5,8,0:0:0:0:
256,192,497415,5,8,0:0:0:0:
256,192,497689,5,4,0:0:0:0:
256,192,498238,5,8,0:0:0:0:
256,192,498513,5,8,0:0:0:0:
256,192,498787,5,4,0:0:0:0:
256,192,499336,5,8,0:0:0:0:
256,192,499610,5,0,0:0:0:0:
256,192,499884,5,4,0:0:0:0:
256,192,500159,5,0,0:0:0:0:
256,192,500433,5,8,0:0:0:0:
256,192,500707,5,0,0:0:0:0:
256,192,500845,5,0,0:0:0:0:
256,192,500982,5,8,0:0:0:0:
256,192,501256,5,12,0:0:0:0:
256,192,501531,5,12,0:0:0:0:
256,192,501805,5,12,0:0:0:0:
256,192,502079,5,4,0:0:0:0:
256,192,502628,5,0,0:0:0:0:
256,192,502902,5,8,0:0:0:0:
256,192,503177,5,4,0:0:0:0:
256,192,503726,5,8,0:0:0:0:
256,192,504000,5,0,0:0:0:0:
256,192,504274,5,12,0:0:0:0:
256,192,504549,5,0,0:0:0:0:
256,192,504823,5,0,0:0:0:0:
256,192,505097,5,8,0:0:0:0:
256,192,505189,5,0,0:0:0:0:
256,192,505280,5,0,0:0:0:0:
256,192,505372,5,12,0:0:0:0:
256,192,505646,5,0,0:0:0:0:
256,192,505921,5,8,0:0:0:0:
256,192,506195,5,8,0:0:0:0:
256,192,506469,5,4,0:0:0:0:
256,192,506828,5,0,0:0:0:0:
256,192,507189,5,8,0:0:0:0:
256,192,507564,5,8,0:0:0:0:
256,192,507939,5,4,0:0:0:0:
256,192,508302,5,0,0:0:0:0:
256,192,508393,5,0,0:0:0:0:
256,192,508484,5,0,0:0:0:0:
256,192,508666,5,8,0:0:0:0:
256,192,508848,5,0,0:0:0:0:
256,192,509395,5,12,0:0:0:0:
256,192,509601,12,0,515987,0:0:0:0:
