osu file format v14

[General]
AudioFilename: audio.mp3
AudioLeadIn: 0
PreviewTime: 72224
Countdown: 0
SampleSet: None
StackLeniency: 0.5
Mode: 0
LetterboxInBreaks: 0
WidescreenStoryboard: 1

[Editor]
Bookmarks: 19767,23211,26878,30434,33989,41100,55323,73100,87323,101545,115767,144211,151321,161989,179767,208210,222432,233099
DistanceSpacing: 0.1
BeatDivisor: 4
GridSize: 16
TimelineZoom: 1.7

[Metadata]
Title:Phantom Blood
TitleUnicode:Phantom Blood
Artist:Unlucky Morpheus
ArtistUnicode:Unlucky Morpheus
Creator:IsomirDiAngelo
Version:I grabbed the mask, and sat on the throne
Source:
Tags:seto kousuke atalanta azzedd 天外冬黄 fuki commune fuyuki tenge dojin metal japanese rock vampir
BeatmapID:1850085
BeatmapSetID:885158

[Difficulty]
HPDrainRate:5
CircleSize:4
OverallDifficulty:9
ApproachRate:9.7
SliderMultiplier:1.9
SliderTickRate:1

[Events]
//Background and Video events
0,0,"bg.jpg",0,0
//Break Periods
//Storyboard Layer 0 (Background)
//Storyboard Layer 1 (Fail)
//Storyboard Layer 2 (Pass)
//Storyboard Layer 3 (Foreground)
//Storyboard Layer 4 (Overlay)
//Storyboard Sound Samples

[TimingPoints]
225,222.222222222222,4,3,66,70,1,0
225,-83.3333333333333,4,3,66,70,0,0
891,-100,4,3,66,70,0,0
2002,-83.3333333333333,4,3,66,70,0,0
3669,-100,4,3,66,70,0,0
10447,-100,4,3,66,85,0,0
10558,-100,4,3,66,70,0,0
17558,-100,4,3,66,85,0,0
17669,-100,4,3,66,70,0,0
17891,-125,4,3,66,70,0,0
19113,214.285714285714,4,3,66,70,1,0
19113,-125,4,3,66,70,0,0
19327,200,4,3,66,70,1,0
19527,243.90243902439,4,3,66,70,1,0
19648,-100,4,3,66,70,0,0
19995,222.222222222222,4,3,66,70,1,0
19995,-125,4,3,66,70,0,0
20661,222.222222222222,4,3,66,70,1,0
20661,-125,4,3,66,70,0,0
21439,-83.3333333333333,4,3,66,70,0,0
21766,222.222222222222,4,3,66,70,1,0
21766,-125,4,3,66,70,0,0
23224,222.222222222222,4,3,66,70,1,0
23224,-100,4,3,66,70,0,0
23335,222.222222222222,4,3,66,70,1,0
27112,-125,4,3,66,70,0,0
28557,-83.3333333333333,4,3,66,70,0,0
28890,-125,4,3,66,70,0,0
29780,-125,4,3,1,70,0,0
29891,-125,4,3,66,70,0,0
30002,-125,4,3,2,70,0,0
30224,-125,4,3,66,80,0,0
30334,-100,4,3,66,70,0,0
33224,-100,4,3,2,70,0,0
33336,-100,4,3,66,70,0,0
40336,-100,4,3,2,50,0,0
40447,-100,4,3,66,70,0,0
55334,-200,4,3,66,70,0,0
56222,-90.9090909090909,4,3,66,70,0,0
57111,-200,4,3,66,70,0,0
58000,-90.9090909090909,4,3,66,70,0,0
58889,-200,4,3,66,70,0,0
59778,-90.9090909090909,4,3,66,70,0,0
60667,-200,4,3,66,70,0,0
61556,-90.909090909091,4,3,66,70,0,0
61889,-200,4,3,1,70,0,0
62224,-200,4,3,2,70,0,0
62447,-200,4,3,66,70,0,0
63332,-90.909090909091,4,3,66,70,0,0
64222,-200,4,3,66,70,0,0
65112,-90.909090909091,4,3,66,70,0,0
66000,-200,4,3,66,70,0,0
66890,-111.111111111111,4,3,66,70,0,0
67779,-200,4,3,66,70,0,0
68668,-100,4,3,66,70,0,0
68834,-100,4,3,66,5,0,0
68890,-100,4,3,66,70,0,0
69557,-83.3333333333333,4,3,66,70,0,0
71336,-100,4,3,66,70,0,0
72224,-166.666666666667,4,3,66,70,0,0
73112,-83.3333333333333,4,3,66,70,0,1
80223,-71.4285714285714,4,3,66,70,0,1
80890,-83.3333333333333,4,3,66,70,0,1
82001,-76.9230769230769,4,3,66,70,0,1
82668,-90.9090909090909,4,3,66,70,0,1
83779,-83.3333333333333,4,3,66,70,0,1
94446,-71.4285714285714,4,3,66,70,0,1
95112,-83.3333333333333,4,3,66,70,0,1
96223,-76.9230769230769,4,3,66,70,0,1
96890,-90.9090909090909,4,3,66,70,0,1
98001,-83.3333333333333,4,3,66,70,0,1
100668,-90.9090909090909,4,3,66,70,0,1
101557,-333.333333333333,4,3,1,70,0,0
107780,-333.333333333333,4,3,3,70,0,0
108224,-333.333333333333,4,3,2,70,0,0
108669,-333.333333333333,4,3,1,70,0,0
115113,-333.333333333333,4,3,66,70,0,0
115779,-83.3333333333333,4,3,66,70,0,1
144223,-100,4,3,66,70,0,0
145336,-100,4,3,1,70,0,0
145558,-100,4,3,2,70,0,0
146002,-100,4,3,66,70,0,0
146890,-125,4,3,66,70,0,0
147112,-125,4,3,2,70,0,0
147777,-125,4,3,66,70,0,0
147778,-100,4,3,66,70,0,0
149556,-166.666666666667,4,3,66,70,0,0
151334,-90.9090909090909,4,3,66,70,0,0
158445,-100,4,3,66,70,0,0
159557,-100,4,3,1,70,0,0
160223,-76.9230769230769,4,3,66,70,0,0
160446,-100,4,3,2,70,0,0
160668,-100,4,3,66,70,0,0
161112,-100,4,3,2,70,0,0
161557,-100,4,3,66,70,0,0
162001,-200,4,3,66,70,0,0
162890,-90.9090909090909,4,3,66,70,0,0
163778,-200,4,3,66,70,0,0
164667,-90.9090909090909,4,3,66,70,0,0
165556,-200,4,3,66,70,0,0
166445,-90.9090909090909,4,3,66,70,0,0
167334,-200,4,3,66,70,0,0
168223,-90.9090909090909,4,3,66,70,0,0
168446,-90.9090909090909,4,3,1,70,0,0
168666,-90.9090909090909,4,3,66,70,0,0
168667,-200,4,3,66,70,0,0
170001,-90.9090909090909,4,3,66,70,0,0
170890,-200,4,3,66,70,0,0
171778,-90.9090909090909,4,3,66,70,0,0
172667,-200,4,3,66,70,0,0
173556,-90.9090909090909,4,3,66,70,0,0
174445,-200,4,3,66,70,0,0
175334,-90.9090909090909,4,3,66,70,0,0
176223,-83.3333333333333,4,3,66,70,0,0
179779,-83.3333333333333,4,3,66,70,0,1
186890,-71.4285714285714,4,3,66,70,0,1
187557,-83.3333333333333,4,3,66,70,0,1
188668,-76.9230769230769,4,3,66,70,0,1
189334,-90.9090909090909,4,3,66,70,0,1
190446,-83.3333333333333,4,3,66,70,0,1
193113,219.378427787934,4,3,66,70,1,1
193113,-83.3333333333333,4,3,66,70,0,1
193990,222.222222222222,4,3,66,70,1,1
193990,-83.3333333333333,4,3,66,70,0,1
199321,225.563909774436,4,3,66,70,1,1
199321,-83.3333333333333,4,3,66,70,0,1
200224,222.222222222222,4,3,66,70,1,1
200224,-83.3333333333333,4,3,66,70,0,1
201112,-71.4285714285714,4,3,66,70,0,1
201779,-83.3333333333333,4,3,66,70,0,1
202890,-76.9230769230769,4,3,66,70,0,1
203557,-90.9090909090909,4,3,66,70,0,1
204668,-83.3333333333333,4,3,66,70,0,1
206890,-71.4285714285714,4,3,66,70,0,1
207002,-71.4285714285714,4,3,3,70,0,1
207335,-100,4,3,3,70,0,1
207336,-100,4,3,1,70,0,1
207447,-100,4,3,66,70,0,1
208224,-100,4,3,66,70,0,0
220208,222.222222222222,4,3,66,70,1,0
220668,222.222222222222,4,3,66,70,1,0
221279,-100,4,3,66,5,0,0
221336,-100,4,3,1,70,0,0
222445,-100,4,3,66,70,0,0
222446,-166.666666666667,4,3,66,70,0,0
231335,-111.111111111111,4,3,66,70,0,0
233112,-83.3333333333334,4,3,66,70,0,0

[Colours]
Combo1 : 139,139,139
Combo2 : 207,27,58
Combo3 : 242,174,47
Combo4 : 83,40,162

[HitObjects]
110,59,225,6,0,P|26:149|87:235,1,227.999993041992,8|2,0:0|0:0,0:0:0:0:
337,170,558,2,0,B|218:197|237:107|90:155,1,227.999993041992,8|0,0:0|0:0,0:0:0:0:
436,48,891,6,0,B|419:127|419:127|434:156|434:156|419:232,1,190,8|2,0:0|0:0,0:0:0:0:
139,285,1224,2,0,B|187:249|187:249|339:267,1,190,8|0,0:0|0:0,0:0:0:0:
331,73,1558,6,0,L|229:56,1,95,8|0,0:0|0:0,0:0:0:0:
417,230,1780,2,0,L|512:217,1,95,10|0,0:0|0:0,0:0:0:0:
194,207,2002,5,12,0:0:0:0:
194,207,2113,2,0,B|218:255|218:255|221:345,1,113.999996520996,0|0,0:0|0:0,0:0:0:0:
331,73,2336,1,12,0:0:0:0:
331,73,2447,2,0,B|307:121|307:121|304:181,1,113.999996520996,0|0,0:0|0:0,0:0:0:0:
448,333,2669,5,2,0:0:0:0:
465,319,3002,5,2,0:0:0:0:
485,302,3336,5,8,0:0:0:0:
453,151,3447,1,8,0:0:0:0:
341,263,3558,1,8,0:0:0:0:
475,226,3669,6,0,B|356:185|356:185|327:127,1,190,6|0,0:0|0:0,0:0:0:0:
180,91,4002,2,0,P|176:146|199:195,1,95,8|0,0:0|0:0,0:0:0:0:
136,359,4224,1,0,0:0:0:0:
59,339,4336,1,0,0:0:0:0:
20,270,4447,2,0,P|33:219|25:174,1,95,8|0,0:0|0:0,0:0:0:0:
227,275,4669,6,0,L|111:253,1,95,0|0,0:0|0:0,0:0:0:0:
87,109,4891,2,0,L|203:87,1,95,8|0,0:0|0:0,0:0:0:0:
372,117,5113,1,0,0:0:0:0:
337,187,5224,1,0,0:0:0:0:
256,198,5336,1,8,0:0:0:0:
365,30,5447,6,0,B|349:83|349:83|385:244,1,190,4|0,0:0|0:0,0:0:0:0:
496,370,5780,2,0,P|478:319|502:244,1,95,8|0,0:0|0:0,0:0:0:0:
308,272,6002,1,0,0:0:0:0:
271,345,6113,1,0,0:0:0:0:
197,371,6224,2,0,P|146:352|104:285,1,95,8|0,0:0|0:0,0:0:0:0:
259,155,6447,6,0,L|207:263,1,95,2|0,0:1|0:0,0:0:0:0:
31,309,6669,2,0,L|83:201,1,95,10|0,0:1|0:0,0:0:0:0:
65,27,6891,1,2,0:1:0:0:
6,117,7002,1,2,0:1:0:0:
50,209,7113,1,10,0:1:0:0:
188,94,7224,6,0,B|95:63|96:145|-2:114,1,190,6|0,0:0|0:0,0:0:0:0:
244,251,7558,2,0,P|306:246|350:203,1,95,8|0,0:0|0:0,0:0:0:0:
475,81,7780,1,0,0:0:0:0:
426,22,7891,1,0,0:0:0:0:
351,17,8002,2,0,P|289:22|245:65,1,95,8|0,0:0|0:0,0:0:0:0:
442,270,8224,6,0,L|423:165,1,95,0|0,0:0|0:0,0:0:0:0:
244,251,8447,2,0,L|223:373,1,95,8|0,0:0|0:0,0:0:0:0:
0,234,8669,1,0,0:0:0:0:
44,166,8780,1,0,0:0:0:0:
123,153,8891,1,8,0:0:0:0:
29,308,9002,6,0,B|4:249|4:249|38:96,1,190,6|0,0:0|0:0,0:0:0:0:
249,58,9336,2,0,L|226:169,1,95,8|0,0:0|0:0,0:0:0:0:
446,251,9558,1,0,0:0:0:0:
438,227,9669,1,0,0:0:0:0:
420,153,9780,1,8,0:0:0:0:
402,76,9891,1,0,0:0:0:0:
346,243,10002,6,0,B|383:227|383:227|458:226,1,95,2|0,0:1|0:0,0:0:0:0:
184,366,10224,2,0,B|146:381|146:381|71:382,1,95,10|0,0:1|0:0,0:0:0:0:
0,153,10447,1,10,0:1:0:0:
168,176,10558,1,2,0:1:0:0:
183,193,10780,6,0,P|109:175|113:54,1,190,6|0,0:0|0:0,0:0:0:0:
344,73,11113,2,0,P|338:131|281:161,1,95,8|0,0:0|0:0,0:0:0:0:
157,280,11336,1,0,0:0:0:0:
202,346,11447,1,0,0:0:0:0:
278,368,11558,2,0,P|308:333|307:286,1,95,8|0,0:0|0:0,0:0:0:0:
62,289,11780,6,0,L|185:276,1,95,0|0,0:0|0:0,0:0:0:0:
169,94,12002,2,0,L|46:81,1,95,8|0,0:0|0:0,0:0:0:0:
272,212,12224,1,0,0:0:0:0:
336,167,12336,1,0,0:0:0:0:
348,90,12447,1,8,0:0:0:0:
193,180,12558,6,0,B|265:188|265:188|297:211|297:211|384:221,1,190,4|0,0:0|0:0,0:0:0:0:
492,377,12891,2,0,L|377:362,1,95,8|0,0:0|0:0,0:0:0:0:
206,258,13113,1,0,0:0:0:0:
193,180,13224,1,0,0:0:0:0:
227,107,13336,2,0,L|335:118,1,95,8|0,0:0|0:0,0:0:0:0:
150,331,13558,6,0,P|120:280|116:237,1,95,2|0,0:1|0:0,0:0:0:0:
328,195,13780,2,0,P|319:241|294:281,1,95,10|0,0:1|0:0,0:0:0:0:
141,107,14002,1,2,0:1:0:0:
190,30,14113,1,2,0:1:0:0:
284,35,14224,1,10,0:1:0:0:
134,133,14336,6,0,P|60:50|-14:92,1,190,6|0,0:0|0:0,0:0:0:0:
100,338,14669,2,0,L|115:244,1,95,8|0,0:0|0:0,0:0:0:0:
270,120,14891,1,0,0:0:0:0:
321,179,15002,1,0,0:0:0:0:
338,255,15113,2,0,L|353:348,1,95,8|0,0:0|0:0,0:0:0:0:
476,133,15336,6,0,P|420:112|360:137,1,95,0|0,0:0|0:0,0:0:0:0:
248,241,15558,2,0,P|303:261|363:236,1,95,8|0,0:0|0:0,0:0:0:0:
169,65,15780,1,0,0:0:0:0:
140,136,15891,1,0,0:0:0:0:
175,208,16002,1,8,0:0:0:0:
256,39,16113,6,0,B|158:75|171:-10|67:14,1,190,4|0,0:0|0:0,0:0:0:0:
341,148,16447,2,0,P|380:113|387:30,1,95,8|0,0:0|0:0,0:0:0:0:
439,314,16669,1,2,0:1:0:0:
417,331,16780,1,0,0:0:0:0:
338,348,16891,1,8,0:0:0:0:
261,325,17002,1,0,0:0:0:0:
172,175,17113,6,0,L|201:55,1,95,2|0,0:1|0:0,0:0:0:0:
46,292,17336,2,0,L|75:412,1,95,10|0,0:1|0:0,0:0:0:0:
76,70,17558,1,10,0:1:0:0:
132,262,17669,1,2,0:1:0:0:
144,284,17891,6,0,B|183:250|183:250|313:270,1,152,4|0,0:0|0:0,0:0:0:0:
413,106,18224,2,0,B|374:140|374:140|244:120,2,152,2|2|2,0:0|0:0|0:0,0:0:0:0:
431,338,18891,5,8,0:0:0:0:
434,336,18947,1,0,0:0:0:0:
437,334,19002,1,0,0:0:0:0:
440,332,19058,1,0,0:0:0:0:
443,330,19113,2,0,L|469:250,2,50.6666666666667,0|0|0,0:0|0:0|0:0,0:0:0:0:
294,328,19327,5,8,0:0:0:0:
220,170,19427,1,8,0:0:0:0:
120,308,19527,1,8,0:0:0:0:
210,268,19648,6,0,B|245:232|285:231|285:231|321:261|389:246,1,190,4|0,0:0|0:0,0:0:0:0:
354,39,19995,6,0,B|340:72|340:72|348:123,1,76,8|0,0:0|0:0,0:0:0:0:
216,35,20217,2,0,B|208:70|208:70|226:118,1,76,8|0,0:0|0:0,0:0:0:0:
71,68,20439,1,8,0:0:0:0:
71,68,20550,2,0,B|70:103|70:103|96:148,2,76,0|8|0,0:0|0:0|0:0,0:0:0:0:
125,228,20883,6,0,P|88:235|51:226,1,76,8|0,0:0|0:0,0:0:0:0:
117,374,21106,1,8,0:0:0:0:
117,374,21217,2,0,P|79:367|48:346,1,76,0|8,0:0|0:0,0:0:0:0:
246,163,21439,6,0,B|224:224|254:276|254:276|234:301|228:321|228:321|246:353|237:401,1,227.999993041992,4|0,0:0|0:0,0:0:0:0:
378,361,21766,6,0,L|489:348,1,76,8|0,0:0|0:0,0:0:0:0:
344,213,21988,1,8,0:0:0:0:
344,213,22099,2,0,L|444:182,1,76,0|8,0:0|0:0,0:0:0:0:
448,23,22321,1,0,0:0:0:0:
448,23,22432,1,8,0:0:0:0:
508,128,22543,1,0,0:0:0:0:
362,112,22654,6,0,L|281:100,1,76,8|0,0:0|0:0,0:0:0:0:
158,41,22877,1,8,0:0:0:0:
150,133,22988,1,0,0:0:0:0:
139,225,23099,1,8,0:0:0:0:
186,60,23224,6,0,B|85:45|101:132|-22:116,1,190,4|0,0:0|0:0,0:0:0:0:
44,317,23557,1,8,0:0:0:0:
111,366,23668,1,0,0:0:0:0:
189,340,23779,1,0,0:0:0:0:
158,150,23890,2,0,P|143:201|164:251,1,95,0|8,0:0|0:0,0:0:0:0:
365,100,24112,2,0,B|286:92|286:92|257:66|257:66|157:56,1,190,0|0,0:0|0:0,0:0:0:0:
458,57,24446,6,0,P|462:120|438:166,1,95,8|0,0:0|0:0,0:0:0:0:
303,295,24668,1,0,0:0:0:0:
384,355,24779,1,0,0:0:0:0:
475,323,24890,1,8,0:0:0:0:
303,190,25001,2,0,P|199:258|201:337,1,190,4|0,0:0|0:0,0:0:0:0:
39,164,25335,6,0,P|100:185|126:244,1,95,8|0,0:0|0:0,0:0:0:0:
294,111,25557,1,0,0:0:0:0:
243,53,25668,1,0,0:0:0:0:
165,40,25779,2,0,P|104:61|78:120,1,95,8|0,0:0|0:0,0:0:0:0:
194,314,26001,6,0,L|210:207,1,95,0|0,0:0|0:0,0:0:0:0:
389,95,26223,2,0,B|373:138|373:138|405:257,1,142.5,8|0,0:0|0:0,0:0:0:0:
419,262,26446,1,0,0:0:0:0:
374,333,26557,1,0,0:0:0:0:
292,352,26668,1,8,0:0:0:0:
127,234,26779,2,0,B|206:223|206:223|242:241|242:241|319:228,1,190,4|0,0:0|0:0,0:0:0:0:
192,28,27112,6,0,L|174:120,1,76,8|0,0:0|0:0,0:0:0:0:
14,17,27334,2,0,L|29:92,1,76,8|0,0:0|0:0,0:0:0:0:
199,120,27557,1,8,0:0:0:0:
199,120,27668,2,0,L|213:45,1,76,0|8,0:0|0:0,0:0:0:0:
315,6,27890,1,0,0:0:0:0:
372,145,28001,6,0,P|329:148|275:116,1,76,8|0,0:0|0:0,0:0:0:0:
390,251,28223,1,8,0:0:0:0:
390,251,28334,2,0,P|352:270|289:262,1,76,0|8,0:0|0:0,0:0:0:0:
72,384,28557,6,0,B|94:342|159:339|159:339|184:377|228:375|228:375|261:356|294:372,1,227.999993041992,4|0,0:0|0:0,0:0:0:0:
60,219,28890,6,0,P|97:227|137:257,1,76,8|0,0:0|0:0,0:0:0:0:
60,86,29112,1,8,0:0:0:0:
60,86,29223,2,0,P|98:82|134:93,1,76,0|8,0:0|0:0,0:0:0:0:
299,24,29446,2,0,P|265:22|218:1,2,76,0|8|0,0:0|0:0|0:0,0:0:0:0:
254,140,29779,5,10,0:0:0:0:
266,155,29834,2,0,L|271:192,2,38,2|0|0,0:0|0:0|0:0,0:0:0:0:
408,80,30001,5,10,0:0:0:0:
418,96,30057,2,0,L|427:26,2,38,2|0|0,0:0|0:0|0:0,0:0:0:0:
503,270,30223,5,8,0:0:0:0:
509,134,30334,2,0,P|404:184|334:135,1,190,4|0,0:0|0:0,0:0:0:0:
199,341,30668,6,0,L|306:324,1,95,8|0,0:0|0:0,0:0:0:0:
73,183,30890,1,0,0:0:0:0:
141,224,31001,1,0,0:0:0:0:
214,197,31112,1,8,0:0:0:0:
35,111,31223,2,0,B|15:165|15:165|64:321,1,190,0|0,0:0|0:0,0:0:0:0:
187,28,31557,6,0,L|156:122,1,95,8|0,0:0|0:0,0:0:0:0:
308,286,31779,1,0,0:0:0:0:
338,189,31890,1,0,0:0:0:0:
270,107,32001,1,8,0:0:0:0:
220,330,32112,2,0,P|279:310|438:345,1,190,4|0,0:0|0:0,0:0:0:0:
507,126,32446,6,0,P|439:120|397:147,1,95,8|0,0:0|0:0,0:0:0:0:
217,224,32668,1,0,0:0:0:0:
168,162,32779,1,0,0:0:0:0:
186,87,32890,2,0,P|253:81|296:108,1,95,8|0,0:0|0:0,0:0:0:0:
142,271,33112,5,0,0:0:0:0:
58,205,33223,1,8,0:0:0:0:
211,99,33334,5,8,0:0:0:0:
170,281,33446,1,8,0:0:0:0:
47,181,33557,5,8,0:0:0:0:
241,210,33668,1,8,0:0:0:0:
104,106,33779,5,8,0:0:0:0:
64,294,33890,2,0,B|162:278|144:361|284:346,1,190,6|0,0:0|0:0,0:0:0:0:
474,255,34223,6,0,L|454:348,1,95,8|0,0:0|0:0,0:0:0:0:
290,132,34446,1,0,0:0:0:0:
355,91,34557,1,0,0:0:0:0:
431,110,34668,2,0,P|478:143|492:185,1,95,8|0,0:0|0:0,0:0:0:0:
263,210,34890,6,0,L|154:189,1,95,0|0,0:0|0:0,0:0:0:0:
73,24,35112,2,0,L|182:3,1,95,8|0,0:0|0:0,0:0:0:0:
102,241,35334,1,0,0:0:0:0:
35,200,35446,1,0,0:0:0:0:
28,124,35557,1,8,0:0:0:0:
187,247,35668,6,0,B|250:260|250:260|281:290|281:290|374:308,1,190,4|0,0:0|0:0,0:0:0:0:
45,376,36001,2,0,L|27:274,1,95,8|0,0:0|0:0,0:0:0:0:
99,77,36223,1,0,0:0:0:0:
174,51,36334,1,0,0:0:0:0:
247,83,36446,2,0,L|230:176,1,95,8|0,0:0|0:0,0:0:0:0:
344,383,36668,6,0,P|399:379|445:340,1,95,2|0,0:1|0:0,0:0:0:0:
422,162,36890,2,0,P|381:137|334:136,1,95,10|0,0:1|0:0,0:0:0:0:
185,342,37112,1,2,0:1:0:0:
141,260,37223,1,2,0:1:0:0:
186,172,37334,1,10,0:1:0:0:
340,257,37446,6,0,B|236:287|255:214|131:250,1,190,6|0,0:0|0:0,0:0:0:0:
23,49,37779,2,0,P|82:48|138:73,1,95,8|0,0:0|0:0,0:0:0:0:
289,175,38001,1,0,0:0:0:0:
366,155,38112,1,0,0:0:0:0:
423,102,38223,2,0,P|436:44|423:-15,1,95,8|0,0:0|0:0,0:0:0:0:
340,257,38446,6,0,L|449:282,1,95,0|0,0:0|0:0,0:0:0:0:
302,91,38668,2,0,L|193:116,1,95,8|0,0:0|0:0,0:0:0:0:
41,229,38890,1,0,0:0:0:0:
10,159,39001,1,0,0:0:0:0:
26,82,39112,1,8,0:0:0:0:
110,264,39223,6,0,P|1:300|-2:400,1,190,6|0,0:0|0:0,0:0:0:0:
294,324,39557,2,0,P|309:270|301:217,1,95,8|0,0:0|0:0,0:0:0:0:
122,139,39779,1,2,0:1:0:0:
139,155,39890,1,0,0:0:0:0:
216,171,40001,1,8,0:0:0:0:
291,139,40112,1,0,0:0:0:0:
86,54,40223,5,2,0:1:0:0:
211,255,40334,1,8,0:0:0:0:
320,57,40446,2,0,L|413:42,1,95,10|0,0:1|0:0,0:0:0:0:
102,239,40668,1,10,0:1:0:0:
310,240,40779,1,2,0:1:0:0:
318,212,41001,6,0,B|375:277|325:310|393:390,1,190,0|0,0:0|0:0,0:0:0:0:
150,336,41334,2,0,P|176:288|185:212,1,95,8|0,0:0|0:0,0:0:0:0:
43,137,41557,1,0,0:0:0:0:
15,317,41668,2,0,P|61:287|105:225,1,95,0|8,0:0|0:0,0:0:0:0:
254,126,41890,6,0,P|152:53|66:87,1,190,0|0,0:0|0:0,0:0:0:0:
263,320,42223,2,0,P|309:308|370:310,1,95,8|0,0:0|0:0,0:0:0:0:
352,126,42446,1,0,0:0:0:0:
455,283,42557,1,0,0:0:0:0:
455,283,42668,1,8,0:0:0:0:
507,80,42779,6,0,B|419:40|414:121|311:66,1,190,4|0,0:0|0:0,0:0:0:0:
194,269,43112,2,0,L|215:377,1,95,8|0,0:0|0:0,0:0:0:0:
91,219,43334,2,0,L|68:326,1,95,0|0,0:0|0:0,0:0:0:0:
50,90,43557,2,0,L|-8:183,1,95,8|0,0:0|0:0,0:0:0:0:
300,210,43779,6,0,P|286:111|223:77,1,142.5,0|0,0:0|0:0,0:0:0:0:
180,68,44001,2,0,P|232:56|261:18,1,95,8|0,0:0|0:0,0:0:0:0:
458,27,44223,1,0,0:0:0:0:
480,100,44334,1,0,0:0:0:0:
449,168,44446,1,8,0:0:0:0:
313,317,44557,6,0,P|222:286|118:330,1,190,4|0,0:0|0:0,0:0:0:0:
405,384,44890,2,0,P|424:337|418:267,1,95,8|0,0:0|0:0,0:0:0:0:
324,166,45112,1,0,0:0:0:0:
495,239,45223,2,0,P|481:190|433:138,1,95,0|8,0:0|0:0,0:0:0:0:
261,94,45446,2,0,B|353:44|352:119|444:67,1,190,0|0,0:0|0:0,0:0:0:0:
186,35,45779,6,0,P|166:99|184:151,1,95,8|0,0:0|0:0,0:0:0:0:
307,192,46001,1,0,0:0:0:0:
106,236,46112,1,0,0:0:0:0:
106,236,46223,1,8,0:0:0:0:
247,384,46334,2,0,B|270:277|188:298|210:167,1,190,4|0,0:0|0:0,0:0:0:0:
454,170,46668,6,0,L|336:149,1,95,8|0,0:0|0:0,0:0:0:0:
141,145,46890,1,0,0:0:0:0:
136,67,47001,1,0,0:0:0:0:
194,16,47112,2,0,P|259:6|319:82,1,142.5,8|0,0:0|0:0,0:0:0:0:
345,62,47334,6,0,L|314:218,1,142.5,0|0,0:0|0:0,0:0:0:0:
339,291,47557,1,8,0:0:0:0:
361,47,47779,6,0,L|330:203,1,142.5
360,276,48001,1,8,0:0:0:0:
360,276,48112,6,0,P|259:254|218:330,1,190,4|0,0:0|0:0,0:0:0:0:
112,122,48446,6,0,P|128:197|161:251,1,95,8|0,0:0|0:0,0:0:0:0:
159,33,48668,1,0,0:0:0:0:
361,47,48779,2,0,P|342:120|348:183,1,95,0|8,0:0|0:0,0:0:0:0:
477,313,49001,6,0,P|370:276|286:316,1,190,0|0,0:0|0:0,0:0:0:0:
50,349,49334,2,0,L|73:224,1,95,8|0,0:0|0:0,0:0:0:0:
175,91,49557,1,0,0:0:0:0:
205,278,49668,1,0,0:0:0:0:
205,278,49779,1,8,0:0:0:0:
22,161,49890,6,0,B|120:131|118:211|221:175,1,190,4|0,0:0|0:0,0:0:0:0:
420,86,50223,2,0,L|512:105,1,95,8|0,0:0|0:0,0:0:0:0:
348,217,50446,2,0,L|440:193,1,95,0|0,0:0|0:0,0:0:0:0:
347,358,50668,2,0,L|424:303,1,95,8|0,0:0|0:0,0:0:0:0:
284,119,50890,5,8,0:0:0:0:
209,277,51001,1,0,0:0:0:0:
157,133,51112,5,8,0:0:0:0:
249,291,51223,1,0,0:0:0:0:
69,266,51334,5,8,0:0:0:0:
219,193,51446,1,0,0:0:0:0:
80,93,51557,1,8,0:0:0:0:
32,346,51668,6,0,B|132:377|121:288|236:324,1,190,4|0,0:0|0:0,0:0:0:0:
400,378,52001,2,0,P|408:323|401:282,1,95,8|0,0:0|0:0,0:0:0:0:
266,200,52223,1,0,0:0:0:0:
463,210,52334,2,0,P|442:161|408:124,1,95,0|8,0:0|0:0,0:0:0:0:
190,40,52557,6,0,P|252:71|370:46,1,190,0|0,0:0|0:0,0:0:0:0:
146,176,52890,2,0,P|98:178|58:202,1,95,8|0,0:0|0:0,0:0:0:0:
298,280,53112,1,0,0:0:0:0:
132,274,53223,1,0,0:0:0:0:
132,274,53334,1,8,0:0:0:0:
289,378,53446,6,0,P|376:344|374:219,1,190,4|0,0:0|0:0,0:0:0:0:
224,105,53779,2,0,P|230:161|255:232,1,95,8|0,0:0|0:0,0:0:0:0:
285,20,54001,1,0,0:0:0:0:
410,163,54112,2,0,P|404:219|379:290,1,95,8|0,0:0|0:0,0:0:0:0:
190,353,54334,1,0,0:0:0:0:
189,345,54390,1,0,0:0:0:0:
189,337,54446,5,8,0:0:0:0:
35,15,54668,1,8,0:0:0:0:
10,131,54779,1,0,0:0:0:0:
62,218,54890,1,0,0:0:0:0:
150,236,55001,1,0,0:0:0:0:
200,223,55112,1,0,0:0:0:0:
224,199,55223,1,0,0:0:0:0:
230,180,55334,6,0,L|236:132,3,47.5,0|0|0|0,0:0|0:0|0:0|0:0,0:0:0:0:
326,303,55779,1,4,0:0:0:0:
326,303,55890,1,0,0:0:0:0:
326,303,56001,2,0,L|333:356,1,47.5,0|0,0:0|0:0,0:0:0:0:
460,44,56223,6,0,B|539:121|505:200|438:236|373:228|314:165|323:106|377:42|377:42|268:85|275:-1|168:38,1,627.000019134522,14|0,0:0|0:0,0:0:0:0:
57,313,57112,6,0,L|65:267,3,47.5,4|0|0|0,0:0|0:0|0:0|0:0,0:0:0:0:
54,96,57557,1,4,0:0:0:0:
54,96,57668,1,0,0:0:0:0:
54,96,57779,2,0,L|63:153,1,47.5,0|0,0:0|0:0,0:0:0:0:
219,340,58001,6,0,B|150:277|217:266|198:199|198:199|239:255|297:207|292:321,2,313.500009567261,14|0|0,0:0|0:0|0:0,0:0:0:0:
455,365,58890,6,0,L|396:354,3,47.5,4|0|0|0,0:0|0:0|0:0|0:0,0:0:0:0:
464,244,59334,1,4,0:0:0:0:
464,244,59446,1,0,0:0:0:0:
464,244,59557,2,0,L|523:233,1,47.5,0|0,0:0|0:0,0:0:0:0:
488,10,59779,6,0,B|417:-24|348:-17|237:40|282:119|302:160|218:212|167:202|120:179|137:153,1,418.000012756348,14|4,0:0|0:0,0:0:0:0:
417,132,60446,1,0,0:0:0:0:
334,258,60668,6,0,L|325:193,3,47.5,4|0|0|0,0:0|0:0|0:0|0:0,0:0:0:0:
215,327,61112,1,4,0:0:0:0:
215,327,61223,1,0,0:0:0:0:
215,327,61334,2,0,L|206:392,1,47.5,0|0,0:0|0:0,0:0:0:0:
288,81,61557,6,0,B|185:106|190:18|74:48|74:48|118:92,1,261.250007972718,14|0,0:0|0:0,0:0:0:0:
140,146,61890,1,2,0:0:0:0:
130,173,62001,2,0,L|119:234,1,47.5,2|0,0:0|0:0,0:0:0:0:
223,306,62223,2,0,L|234:367,1,47.5,2|0,0:0|0:0,0:0:0:0:
389,106,62446,6,0,L|377:39,3,47.5,4|0|0|0,0:0|0:0|0:0|0:0,0:0:0:0:
390,239,62890,1,4,0:0:0:0:
390,239,63001,1,0,0:0:0:0:
390,239,63112,2,0,L|381:285,1,47.5,0|0,0:0|0:0,0:0:0:0:
159,56,63334,6,0,B|105:108|155:184|155:184|258:186|290:294|290:294|237:355|157:377|101:326|101:326|128:274|196:269,1,627.000019134522,14|0,0:0|0:0,0:0:0:0:
292,95,64223,6,0,L|352:85,3,47.5,4|0|0|0,0:0|0:0|0:0|0:0,0:0:0:0:
250,220,64668,1,4,0:0:0:0:
250,220,64779,1,0,0:0:0:0:
250,220,64890,2,0,L|190:210,1,47.5,0|0,0:0|0:0,0:0:0:0:
466,75,65112,6,0,B|404:143|462:203|462:203|430:227|430:227|501:284|431:380,2,313.500009567261,14|0|0,0:0|0:0|0:0,0:0:0:0:
353,290,66001,6,0,L|295:284,3,47.5,4|0|0|0,0:0|0:0|0:0|0:0,0:0:0:0:
170,361,66446,1,4,0:0:0:0:
170,361,66557,1,0,0:0:0:0:
170,361,66668,2,0,L|218:356,1,47.5,0|0,0:0|0:0,0:0:0:0:
311,154,66890,6,0,P|171:63|15:144,1,341.999989562989,14|4,0:0|0:0,0:0:0:0:
168,225,67557,1,0,0:0:0:0:
404,275,67779,6,0,L|413:321,3,47.5,4|0|0|0,0:0|0:0|0:0|0:0,0:0:0:0:
264,366,68223,1,4,0:0:0:0:
264,366,68334,1,0,0:0:0:0:
264,366,68446,2,0,L|273:319,1,47.5,0|0,0:0|0:0,0:0:0:0:
114,144,68668,6,0,B|152:158|152:158|272:133,1,142.5,14|0,0:0|0:0,0:0:0:0:
273,105,68890,1,2,0:0:0:0:
302,214,69001,1,2,0:0:0:0:
342,40,69112,5,8,0:0:0:0:
330,197,69223,1,8,0:0:0:0:
437,98,69334,2,0,P|415:139|404:202,1,95,0|0,0:0|0:0,0:0:0:0:
30,133,69557,6,0,B|110:96|110:96|171:101|171:101|267:64,1,227.999993041992,8|2,0:0|0:0,0:0:0:0:
386,268,69890,2,0,B|306:231|306:231|245:236|245:236|149:199,1,227.999993041992,8|0,0:0|0:0,0:0:0:0:
506,54,70223,2,0,P|441:103|462:-2,1,227.999993041992,8|2,0:0|0:0,0:0:0:0:
502,287,70557,2,0,P|437:238|458:343,1,227.999993041992,8|0,0:0|0:0,0:0:0:0:
210,373,70890,6,0,B|223:328|223:328|205:239,1,113.999996520996,8|0,0:0|0:0,0:0:0:0:
326,86,71112,2,0,B|313:131|313:131|331:220,1,113.999996520996,10|0,0:0|0:0,0:0:0:0:
139,18,71334,5,4,0:0:0:0:
4,276,71557,1,0,0:0:0:0:
3,224,71668,1,0,0:0:0:0:
33,171,71779,1,0,0:0:0:0:
108,154,71890,1,0,0:0:0:0:
185,206,72001,1,0,0:0:0:0:
187,304,72112,1,0,0:0:0:0:
25,359,72223,5,4,0:0:0:0:
187,304,72557,5,0,0:0:0:0:
360,248,72890,5,0,0:0:0:0:
493,185,73112,6,0,B|405:207|416:130|299:163,1,170.999994781494,4|0,0:0|0:0,0:0:0:0:
279,218,73334,2,0,P|295:149|267:93,1,113.999996520996,8|0,0:0|0:0,0:0:0:0:
87,28,73557,1,0,0:0:0:0:
19,86,73668,1,0,0:0:0:0:
0,177,73779,1,8,0:0:0:0:
38,254,73890,1,0,0:0:0:0:
177,363,74001,5,2,0:2:0:0:
177,363,74112,2,0,L|60:385,1,113.999996520996,0|8,0:2|0:0,0:0:0:0:
185,169,74334,1,2,0:2:0:0:
185,169,74446,2,0,L|305:197,1,113.999996520996,0|0,0:0|0:0,0:0:0:0:
417,369,74668,1,10,0:2:0:0:
417,369,74779,1,0,0:0:0:0:
495,174,74890,6,0,P|414:83|312:123,1,227.999993041992,4|8,0:0|0:0,0:0:0:0:
252,306,75223,1,0,0:0:0:0:
164,323,75334,1,0,0:0:0:0:
92,271,75446,1,0,0:0:0:0:
85,177,75557,2,0,L|208:207,1,113.999996520996,8|0,0:0|0:0,0:0:0:0:
373,0,75779,6,0,B|394:40|394:40|362:146,1,113.999996520996,2|0,0:2|0:0,0:0:0:0:
278,133,76001,1,8,0:0:0:0:
489,130,76112,2,0,B|449:151|449:151|416:257,1,113.999996520996,2|0,0:2|0:0,0:0:0:0:
469,313,76334,1,0,0:0:0:0:
347,190,76446,2,0,L|305:302,1,113.999996520996,10|0,0:2|0:0,0:0:0:0:
0,305,76668,6,0,L|171:275,1,170.999994781494,4|0,0:0|0:0,0:0:0:0:
187,241,76890,1,8,0:0:0:0:
203,145,77001,1,0,0:0:0:0:
162,57,77112,1,0,0:0:0:0:
78,26,77223,1,0,0:0:0:0:
0,207,77334,6,0,B|54:213|54:213|135:181,1,113.999996520996,10|0,0:2|0:0,0:0:0:0:
382,192,77557,2,0,B|328:186|328:186|246:217,1,113.999996520996,2|0,0:2|0:0,0:0:0:0:
242,384,77779,1,8,0:0:0:0:
461,244,77890,1,2,0:2:0:0:
460,244,78001,2,0,P|473:189|456:135,1,113.999996520996,0|0,0:0|0:0,0:0:0:0:
266,0,78223,2,0,P|255:71|306:141,1,113.999996520996,10|0,0:2|0:0,0:0:0:0:
511,66,78446,6,0,B|432:19|415:92|333:46,1,170.999994781494,4|0,0:0|0:0,0:0:0:0:
319,77,78668,1,8,0:0:0:0:
255,133,78779,1,0,0:0:0:0:
241,217,78890,1,0,0:0:0:0:
288,293,79001,1,0,0:0:0:0:
372,314,79112,2,0,P|428:302|481:262,1,113.999996520996,8|0,0:0|0:0,0:0:0:0:
175,160,79334,5,2,0:2:0:0:
175,160,79446,2,0,L|163:305,1,113.999996520996,0|8,0:0|0:0,0:0:0:0:
0,114,79668,5,2,0:2:0:0:
71,43,79779,1,0,0:0:0:0:
162,62,79891,1,0,0:0:0:0:
22,219,80001,5,10,0:2:0:0:
8,100,80112,1,0,0:0:0:0:
279,27,80223,6,0,B|321:99|277:196|277:196|265:125|250:79|200:36|119:16|65:96|33:145|55:217|99:256|197:226|168:146,1,664.999979705811,4|0,0:0|0:0,0:0:0:0:
187,299,80890,2,0,P|133:315|79:299,1,113.999996520996,8|0,0:0|0:0,0:0:0:0:
357,224,81112,5,2,0:2:0:0:
497,378,81223,1,0,0:2:0:0:
344,362,81334,1,8,0:2:0:0:
511,233,81446,2,0,B|523:191|523:191|501:102,1,113.999996520996,2|0,0:2|0:2,0:0:0:0:
426,299,81668,1,0,0:0:0:0:
476,103,81779,2,0,B|493:170|493:170|480:211,1,113.999996520996,10|0,0:2|0:0,0:0:0:0:
184,361,82001,6,0,B|98:305|92:199|151:118|202:94|256:82|356:118|356:118|254:138|233:219|279:267,1,617.499971733095,4|0,0:0|0:0,0:0:0:0:
68,120,82668,2,0,P|99:69|171:38,1,104.500003189087,8|0,0:0|0:0,0:0:0:0:
388,0,82890,5,2,0:2:0:0:
348,129,83001,1,0,0:0:0:0:
300,45,83112,1,8,0:0:0:0:
435,83,83223,2,0,P|419:126|410:183,1,104.500003189087,2|0,0:2|0:2,0:0:0:0:
368,65,83446,1,0,0:0:0:0:
435,178,83557,2,0,P|442:126|459:76,1,104.500003189087,10|0,0:2|0:0,0:0:0:0:
166,8,83779,6,0,B|236:99|122:139|230:255,1,227.999993041992,4|8,0:0|0:0,0:0:0:0:
291,382,84112,1,0,0:0:0:0:
291,382,84223,2,0,P|308:340|297:254,1,113.999996520996,0|0,0:0|0:0,0:0:0:0:
77,339,84446,2,0,L|204:321,1,113.999996520996,10|0,0:2|0:0,0:0:0:0:
324,123,84668,5,2,0:2:0:0:
270,56,84779,1,0,0:0:0:0:
184,34,84890,2,0,L|59:45,1,113.999996520996,8|0,0:0|0:0,0:0:0:0:
362,214,85112,2,0,P|403:169|405:73,1,113.999996520996,2|0,0:2|0:0,0:0:0:0:
149,123,85334,2,0,L|165:249,1,113.999996520996,8|0,0:0|0:0,0:0:0:0:
432,295,85557,6,0,B|328:368|315:248|179:346,1,227.999993041992,4|8,0:0|0:0,0:0:0:0:
3,384,85890,1,0,0:0:0:0:
3,384,86001,2,0,P|21:319|9:258,1,113.999996520996,0|0,0:0|0:0,0:0:0:0:
0,52,86223,1,8,0:0:0:0:
0,52,86334,1,0,0:0:0:0:
88,197,86446,6,0,B|160:212|160:212|199:198,1,113.999996520996,0|0,0:2|0:0,0:0:0:0:
380,12,86668,2,0,B|351:53|351:53|352:175,1,170.999994781494,8|0,0:0|0:0,0:0:0:0:
373,200,86890,5,8,0:0:0:0:
492,79,87001,1,8,0:0:0:0:
467,251,87112,1,8,0:0:0:0:
470,50,87223,1,8,0:0:0:0:
370,309,87334,6,0,P|267:321|198:234,1,170.999994781494,4|0,0:0|0:0,0:0:0:0:
189,204,87557,2,0,P|168:274|107:309,1,113.999996520996,8|0,0:0|0:0,0:0:0:0:
9,121,87779,1,0,0:0:0:0:
43,38,87890,1,0,0:0:0:0:
124,0,88001,1,8,0:0:0:0:
209,14,88112,1,0,0:0:0:0:
103,219,88223,5,2,0:2:0:0:
103,219,88334,2,0,B|84:172|84:172|98:98,1,113.999996520996,0|8,0:0|0:0,0:0:0:0:
289,62,88557,1,2,0:2:0:0:
289,62,88668,2,0,B|308:109|308:109|294:183,1,113.999996520996,0|0,0:0|0:0,0:0:0:0:
470,263,88890,1,10,0:2:0:0:
470,263,89001,1,0,0:0:0:0:
293,337,89112,6,0,B|397:287|412:394|539:345,1,227.999993041992,4|8,0:0|0:0,0:0:0:0:
182,173,89446,1,0,0:0:0:0:
139,254,89557,1,0,0:0:0:0:
181,334,89668,1,0,0:0:0:0:
268,349,89779,2,0,P|318:314|391:328,1,113.999996520996,8|0,0:0|0:0,0:0:0:0:
512,94,90001,6,0,L|491:219,1,113.999996520996,2|0,0:2|0:0,0:0:0:0:
375,315,90223,1,8,0:0:0:0:
404,115,90334,2,0,L|383:240,1,113.999996520996,2|0,0:2|0:0,0:0:0:0:
268,349,90557,1,0,0:0:0:0:
299,137,90668,2,0,L|318:24,1,113.999996520996,10|0,0:2|0:0,0:0:0:0:
44,219,90890,6,0,L|82:9,1,170.999994781494,4|0,0:0|0:0,0:0:0:0:
68,24,91112,1,8,0:0:0:0:
146,63,91223,1,0,0:0:0:0:
188,134,91334,1,0,0:0:0:0:
186,224,91446,1,0,0:0:0:0:
65,311,91557,6,0,B|132:299|132:299|177:310,1,113.999996520996,10|0,0:2|0:0,0:0:0:0:
268,183,91779,2,0,B|313:194|313:194|394:179,1,113.999996520996,2|0,0:2|0:0,0:0:0:0:
455,251,92001,1,8,0:0:0:0:
313,0,92112,1,2,0:2:0:0:
313,0,92223,2,0,B|292:40|292:40|311:118,1,113.999996520996,0|0,0:0|0:0,0:0:0:0:
455,251,92446,2,0,B|476:211|476:211|457:133,1,113.999996520996,10|0,0:2|0:0,0:0:0:0:
263,378,92668,6,0,P|165:332|171:224,1,227.999993041992,4|8,0:0|0:0,0:0:0:0:
88,26,93001,1,0,0:0:0:0:
7,70,93112,1,0,0:0:0:0:
1,156,93223,1,0,0:0:0:0:
66,217,93334,2,0,P|122:239|192:202,1,113.999996520996,8|0,0:0|0:0,0:0:0:0:
288,36,93557,5,2,0:2:0:0:
288,36,93668,2,0,L|134:72,1,113.999996520996,0|8,0:0|0:0,0:0:0:0:
362,210,93890,5,2,0:2:0:0:
405,115,94001,1,0,0:0:0:0:
309,124,94112,1,0,0:0:0:0:
504,129,94223,5,10,0:2:0:0:
461,28,94334,1,0,0:0:0:0:
295,292,94446,6,0,B|196:306|172:168|172:168|76:142|-40:169|-83:407|73:407|174:370|140:269|85:255,1,664.999979705811,4|0,0:0|0:0,0:0:0:0:
283,82,95112,2,0,P|294:173|256:224,1,113.999996520996,8|0,0:0|0:0,0:0:0:0:
401,341,95334,5,2,0:2:0:0:
391,130,95446,1,0,0:0:0:0:
497,240,95557,1,8,0:0:0:0:
289,230,95668,2,0,B|252:254|252:254|212:337,1,113.999996520996,2|0,0:2|0:2,0:0:0:0:
388,232,95890,1,0,0:0:0:0:
231,355,96001,2,0,B|261:292|261:292|297:268,1,113.999996520996,10|0,0:2|0:0,0:0:0:0:
116,22,96223,6,0,B|36:166|195:181|147:277|152:320|83:371|83:371|-22:292|7:228|46:140,1,617.499971733095,4|0,0:0|0:0,0:0:0:0:
290,80,96890,2,0,P|215:80|163:114,1,104.500003189087,8|0,0:0|0:0,0:0:0:0:
225,238,97112,5,2,0:2:0:0:
353,278,97223,1,0,0:0:0:0:
269,326,97334,1,8,0:0:0:0:
307,191,97446,2,0,P|350:207|407:216,1,104.500003189087,2|0,0:2|0:0,0:0:0:0:
289,258,97668,1,0,0:0:0:0:
402,191,97779,2,0,P|350:184|300:167,1,104.500003189087,10|0,0:2|0:0,0:0:0:0:
49,323,98001,6,0,B|142:375|166:278|268:325,1,227.999993041992,4|8,0:0|0:0,0:0:0:0:
131,138,98334,1,0,0:0:0:0:
131,138,98446,2,0,P|105:193|118:282,1,113.999996520996,0|0,0:0|0:0,0:0:0:0:
217,45,98668,2,0,L|88:37,1,113.999996520996,10|0,0:2|0:0,0:0:0:0:
272,173,98890,6,0,B|368:179|368:179|396:160|396:160|507:168,1,227.999993041992,2|8,0:2|0:0,0:0:0:0:
368,368,99223,1,2,0:2:0:0:
368,368,99334,2,0,B|339:333|339:333|324:221,1,113.999996520996,0|0,0:0|0:0,0:0:0:0:
449,58,99557,2,0,B|423:92|423:92|436:169,1,113.999996520996,10|0,0:2|0:0,0:0:0:0:
116,54,99779,6,0,B|155:32|155:32|308:40,1,170.999994781494,4|0,0:0|0:0,0:0:0:0:
341,87,100001,2,0,L|227:79,1,113.999996520996,8|0,0:0|0:0,0:0:0:0:
162,163,100223,1,0,0:0:0:0:
376,176,100334,1,8,0:0:0:0:
306,263,100446,1,0,0:0:0:0:
206,257,100557,1,0,0:0:0:0:
410,272,100668,6,0,P|408:372|312:361,1,209.000006378174,8|0,0:0|0:0,0:0:0:0:
267,170,101001,1,8,0:0:0:0:
238,352,101112,1,8,0:0:0:0:
104,245,101223,1,8,0:0:0:0:
104,245,101334,2,0,L|-25:215,1,104.500003189087,4|0,0:0|0:0,0:0:0:0:
54,35,101557,5,8,0:0:0:0:
2,221,101779,1,2,0:0:0:0:
8,258,101890,1,2,0:0:0:0:
15,292,102001,1,2,0:0:0:0:
137,87,102223,5,8,0:0:0:0:
104,245,102446,1,2,0:0:0:0:
109,273,102557,1,2,0:0:0:0:
114,302,102668,1,2,0:0:0:0:
322,207,102890,6,0,B|296:198|296:198|259:197|259:197|226:186,1,99.7499969558717,8|0,0:0|0:0,0:0:0:0:
226,186,103334,5,8,0:0:0:0:
365,121,103557,1,2,0:0:0:0:
382,113,103668,1,2,0:0:0:0:
399,105,103779,1,2,0:0:0:0:
207,101,104001,5,8,0:0:0:0:
299,59,104223,1,2,0:0:0:0:
313,54,104334,1,2,0:0:0:0:
327,49,104446,1,2,0:0:0:0:
328,207,104668,6,0,B|326:247|326:247|312:271|312:271|310:308,1,99.7499969558717,8|0,0:0|0:0,0:0:0:0:
310,302,105112,5,8,0:0:0:0:
114,215,105334,1,2,0:0:0:0:
79,198,105446,1,2,0:0:0:0:
50,182,105557,1,2,0:0:0:0:
242,384,105779,5,8,0:0:0:0:
101,321,106001,1,2,0:0:0:0:
75,306,106112,1,2,0:0:0:0:
49,292,106223,1,2,0:0:0:0:
212,259,106446,5,8,0:0:0:0:
212,259,106668,1,0,0:0:0:0:
223,103,106890,5,8,0:0:0:0:
111,27,107112,1,2,0:0:0:0:
94,35,107223,1,2,0:0:0:0:
77,43,107334,1,2,0:0:0:0:
206,2,107557,5,8,0:0:0:0:
133,110,107779,1,2,0:0:0:0:
133,111,107834,1,2,0:0:0:0:
133,112,107890,2,0,L|144:129,2,14.2499995651245,2|2|2,0:0|0:0|0:0,0:0:0:0:
31,192,108223,1,2,0:0:0:0:
31,193,108278,1,2,0:0:0:0:
31,194,108334,2,0,L|20:211,2,14.2499995651245,2|2|2,0:0|0:0|0:0,0:0:0:0:
139,335,108668,5,8,0:0:0:0:
365,302,108890,1,2,0:0:0:0:
402,296,109001,1,2,0:0:0:0:
435,290,109112,1,2,0:0:0:0:
155,231,109334,5,8,0:0:0:0:
307,211,109557,1,2,0:0:0:0:
336,204,109668,1,2,0:0:0:0:
365,199,109779,1,2,0:0:0:0:
228,37,110001,6,0,B|207:66|207:66|210:142,1,99.7499969558717,8|0,0:0|0:0,0:0:0:0:
210,129,110446,5,8,0:0:0:0:
324,22,110668,1,2,0:0:0:0:
341,30,110779,1,2,0:0:0:0:
358,38,110890,1,2,0:0:0:0:
300,174,111112,5,8,0:0:0:0:
372,115,111334,1,2,0:0:0:0:
386,120,111446,1,2,0:0:0:0:
400,125,111557,1,2,0:0:0:0:
221,249,111779,6,0,L|221:220,1,28.4999991302491,8|0,0:0|0:0,0:0:0:0:
28,107,112001,2,0,L|32:135,1,28.4999991302491,8|0,0:0|0:0,0:0:0:0:
260,24,112223,5,8,0:0:0:0:
221,249,112446,1,2,0:0:0:0:
215,286,112557,1,2,0:0:0:0:
210,318,112668,1,2,0:0:0:0:
353,71,112890,5,8,0:0:0:0:
326,222,113112,1,2,0:0:0:0:
323,251,113223,1,2,0:0:0:0:
319,280,113334,1,2,0:0:0:0:
159,135,113557,6,0,P|191:126|223:127,1,56.9999982604981,8|0,0:0|0:0,0:0:0:0:
450,22,114001,5,8,0:0:0:0:
421,277,114223,1,8,0:0:0:0:
214,125,114446,1,8,0:0:0:0:
467,159,114668,5,8,0:0:0:0:
483,172,114779,1,0,0:0:0:0:
498,186,114890,1,0,0:0:0:0:
304,40,115112,5,8,0:0:0:0:
267,12,115223,1,8,0:0:0:0:
212,4,115334,1,8,0:0:0:0:
141,29,115446,1,8,0:0:0:0:
105,103,115557,1,8,0:0:0:0:
128,196,115668,1,8,0:0:0:0:
219,232,115779,6,0,B|244:269|251:340|194:403|94:393|21:323|72:172|197:136|197:136|276:167|375:118|379:11|379:11|264:4|255:119,1,911.99997216797,6|0,0:0|0:0,0:0:0:0:
380,374,116890,2,0,P|451:227|342:104,1,341.999989562989,10|0,0:0|0:0,0:0:0:0:
114,375,117334,2,0,P|78:329|107:247,1,113.999996520996,10|0,0:0|0:0,0:0:0:0:
87,27,117557,6,0,B|131:4|226:6|226:6|279:94|394:137|494:36|494:36|435:61|377:16,1,569.999982604981,6|0,0:0|0:0,0:0:0:0:
440,308,118223,1,10,0:0:0:0:
414,311,118297,1,0,0:0:0:0:
391,317,118372,1,0,0:0:0:0:
359,338,118446,6,0,P|255:287|231:391,1,227.999993041992,2|8,0:0|0:0,0:0:0:0:
372,92,118779,2,0,P|476:41|500:145,1,227.999993041992,2|0,0:0|0:0,0:0:0:0:
240,104,119112,2,0,P|183:63|133:90,1,113.999996520996,8|0,0:0|0:0,0:0:0:0:
146,350,119334,6,0,B|171:314|161:267|161:267|122:209,1,113.999996520996,6|0,0:0|0:0,0:0:0:0:
31,84,119557,1,10,0:0:0:0:
31,84,119668,1,0,0:0:0:0:
52,299,119779,2,0,B|36:275|36:275|26:228|51:193,1,113.999996520996,0|0,0:0|0:0,0:0:0:0:
240,227,120001,1,10,0:0:0:0:
145,244,120112,1,0,0:0:0:0:
299,118,120223,5,0,0:0:0:0:
329,292,120334,1,0,0:0:0:0:
467,181,120446,1,10,0:0:0:0:
299,118,120557,1,0,0:0:0:0:
368,207,120668,5,0,0:0:0:0:
368,248,120742,1,0,0:0:0:0:
368,290,120816,1,0,0:0:0:0:
367,334,120890,1,10,0:0:0:0:
512,269,121001,1,0,0:0:0:0:
391,74,121112,6,0,B|362:-5|225:-2|201:46|173:124|223:196|223:196|173:146|112:157,1,455.999986083985,6|0,0:0|0:0,0:0:0:0:
29,324,121668,1,0,0:0:0:0:
121,355,121779,2,0,P|147:305|139:249,1,113.999996520996,10|0,0:0|0:0,0:0:0:0:
299,118,122001,6,0,B|379:97|451:171|393:229|412:282|495:294|495:294|426:201|459:163|499:140,1,455.999986083985,2|2,0:0|0:0,0:0:0:0:
318,215,122557,1,0,0:0:0:0:
221,216,122668,1,8,0:0:0:0:
118,217,122779,1,0,0:0:0:0:
77,122,122890,6,0,B|34:126|34:126|-22:103,3,75.9999976806641,6|0|0|8,0:0|0:0|0:0|0:0,0:0:0:0:
221,216,123223,1,0,0:0:0:0:
221,216,123334,1,0,0:0:0:0:
69,309,123446,1,0,0:0:0:0:
77,122,123557,1,8,0:0:0:0:
221,216,123668,1,0,0:0:0:0:
221,216,123779,6,0,B|262:199|295:210|295:210|314:230|346:231,1,113.999996520996,2|0,0:0|0:0,0:0:0:0:
387,68,124001,2,0,B|428:79|448:108|448:108|450:135|475:156,1,113.999996520996,8|0,0:0|0:0,0:0:0:0:
373,370,124223,5,0,0:0:0:0:
373,370,124334,1,0,0:0:0:0:
366,154,124446,1,8,0:0:0:0:
373,370,124557,1,0,0:0:0:0:
177,316,124668,6,0,B|150:328|150:328|93:303|93:303|57:312,1,113.999996520996,6|0,0:0|0:0,0:0:0:0:
177,68,124890,2,0,B|150:56|150:56|93:81|93:81|71:75,2,113.999996520996,8|0|0,0:0|0:0|0:0,0:0:0:0:
274,284,125223,5,0,0:0:0:0:
270,106,125334,1,8,0:0:0:0:
274,284,125446,1,0,0:0:0:0:
353,50,125557,5,2,0:0:0:0:
273,200,125668,1,0,0:0:0:0:
177,68,125779,1,8,0:0:0:0:
370,38,125890,5,0,0:0:0:0:
254,214,126001,1,0,0:0:0:0:
182,38,126112,1,0,0:0:0:0:
390,151,126223,5,8,0:0:0:0:
147,138,126334,1,0,0:0:0:0:
274,312,126446,6,0,B|278:339|278:339|256:383,2,75.9999976806641,6|0|0,0:0|0:0|0:0,0:0:0:0:
50,351,126668,2,0,B|28:307|28:307|34:266,2,75.9999976806641,8|0|0,0:0|0:0|0:0,0:0:0:0:
179,238,126890,5,2,0:0:0:0:
214,208,126964,1,0,0:0:0:0:
260,207,127038,1,0,0:0:0:0:
303,223,127112,1,8,0:0:0:0:
348,223,127186,1,0,0:0:0:0:
384,193,127260,1,0,0:0:0:0:
397,148,127334,5,2,0:0:0:0:
353,176,127409,1,0,0:0:0:0:
348,223,127483,1,0,0:0:0:0:
367,272,127557,1,8,0:0:0:0:
362,319,127631,1,0,0:0:0:0:
318,347,127705,1,0,0:0:0:0:
268,330,127779,5,2,0:0:0:0:
322,298,127853,1,0,0:0:0:0:
383,305,127927,1,0,0:0:0:0:
442,318,128001,1,8,0:0:0:0:
498,292,128075,1,0,0:0:0:0:
512,234,128149,1,0,0:0:0:0:
502,178,128223,6,0,B|489:124|411:102|325:126|369:158|334:199|272:206|219:181|219:181|172:95|216:2|325:48|312:113|255:133,1,569.999982604981,6|0,0:0|0:0,0:0:0:0:
389,337,128890,2,0,L|416:226,1,113.999996520996,8|0,0:0|0:0,0:0:0:0:
107,158,129112,6,0,L|124:382,1,170.999994781494,2|0,0:0|0:0,0:0:0:0:
123,363,129334,1,8,0:0:0:0:
91,143,129557,1,8,0:0:0:0:
107,351,129668,1,8,0:0:0:0:
59,255,129779,2,0,B|107:253|107:253|134:236|134:236|167:236,1,113.999996520996,2|0,0:0|0:0,0:0:0:0:
397,130,130001,6,0,B|297:155|143:66|194:-73|300:-51|350:-25|417:19|284:156|237:163|113:91|124:1,1,569.999982604981,6|0,0:0|0:0,0:0:0:0:
62,261,130668,2,0,P|120:278|183:272,1,113.999996520996,8|0,0:0|0:0,0:0:0:0:
397,130,130890,5,2,0:0:0:0:
397,130,131001,2,0,B|430:153|430:153|414:190|450:270,1,113.999996520996,0|8,0:0|0:0,0:0:0:0:
201,177,131223,1,2,0:0:0:0:
201,177,131334,2,0,B|204:136|204:136|244:132|295:61,1,113.999996520996,0|0,0:0|0:0,0:0:0:0:
338,308,131557,2,0,B|301:325|301:325|277:292|190:283,1,113.999996520996,10|0,0:0|0:0,0:0:0:0:
93,71,131779,6,0,B|126:25|174:4|252:22|252:22|248:124|346:193|464:104|468:15|400:-34|336:-17|322:8|337:68,1,569.999982604981,6|0,0:0|0:0,0:0:0:0:
310,210,132446,2,0,P|313:266|335:344,1,113.999996520996,8|0,0:0|0:0,0:0:0:0:
53,336,132668,5,2,0:0:0:0:
53,336,132779,2,0,B|54:289|88:254|88:254|114:267|134:302,1,113.999996520996,0|8,0:0|0:0,0:0:0:0:
93,71,133001,1,2,0:0:0:0:
93,71,133112,2,0,B|133:95|146:142|146:142|122:158|81:158,1,113.999996520996,0|0,0:0|0:0,0:0:0:0:
298,239,133334,2,0,B|256:261|209:249|209:249|207:220|228:185,1,113.999996520996,10|0,0:0|0:0,0:0:0:0:
435,7,133557,6,0,B|388:62|381:116|408:146|440:177|437:224|399:306|399:306|458:232|526:232|559:312|521:361|490:361|466:347,1,569.999982604981,6|0,0:0|0:0,0:0:0:0:
487,99,134223,2,0,B|443:96|417:118|417:118|396:122|373:113,1,113.999996520996,10|0,0:0|0:0,0:0:0:0:
146,140,134446,5,6,0:0:0:0:
189,58,134557,2,0,B|233:55|259:77|259:77|280:81|302:72,1,113.999996520996,0|8,0:0|0:0,0:0:0:0:
126,230,134779,2,0,B|79:284|59:250|23:265|23:265|37:225|-8:198|76:150,1,227.999993041992,2|0,0:0|0:0,0:0:0:0:
298,63,135112,2,0,B|254:60|228:82|228:82|207:86|185:77,1,113.999996520996,10|0,0:0|0:0,0:0:0:0:
103,361,135334,6,0,B|171:362|202:331|202:331|241:333|241:333|246:295|289:255|289:255|280:346|310:377|379:413|438:377|455:312|435:272|410:249|380:223|358:309,1,569.999982604981,2|0,0:0|0:0,0:0:0:0:
189,58,136001,2,0,B|221:83|255:79|255:79|276:66|297:68,1,113.999996520996,10|0,0:0|0:0,0:0:0:0:
511,34,136223,6,0,B|479:2|407:19|383:64|383:64|335:30|328:-4|328:-4|299:60|279:86|227:94|192:87|151:39|151:39|220:53|262:18,1,569.999982604981,6|0,0:0|0:0,0:0:0:0:
466,120,136890,2,0,B|443:161|455:205|455:205|449:237|425:250,1,113.999996520996,10|0,0:0|0:0,0:0:0:0:
259,384,137112,5,2,0:0:0:0:
234,362,137186,2,0,P|241:324|229:278,1,75.9999976806641,0|0,0:0|0:0,0:0:0:0:
82,334,137334,5,10,0:0:0:0:
80,313,137409,2,0,P|111:291|135:250,1,75.9999976806641,0|0,0:0|0:0,0:0:0:0:
39,168,137557,5,2,0:0:0:0:
45,160,137631,2,0,P|82:167|128:155,1,75.9999976806641,0|0,0:0|0:0,0:0:0:0:
102,26,137779,5,10,0:0:0:0:
107,22,137853,2,0,P|128:53|169:77,1,75.9999976806641,0|0,0:0|0:0,0:0:0:0:
337,74,138001,6,0,P|368:53|389:21,2,75.9999976806641,6|0|0,0:0|0:0|0:0,0:0:0:0:
490,168,138223,2,0,P|458:147|437:115,2,75.9999976806641,10|0|0,0:0|0:0|0:0,0:0:0:0:
287,161,138446,6,0,B|266:166|266:166|243:163|243:163|216:170,3,56.9999982604981
372,253,138668,2,0,L|453:263,2,75.9999976806641,8|0|0,0:0|0:0|0:0,0:0:0:0:
240,286,138890,6,0,P|236:222|276:285,1,170.999994781494,2|0,0:0|0:0,0:0:0:0:
142,320,139112,5,8,0:0:0:0:
100,318,139186,1,0,0:0:0:0:
79,300,139260,1,0,0:0:0:0:
71,278,139334,1,0,0:0:0:0:
70,260,139409,2,0,L|82:347,1,75.9999976806641
144,92,139557,5,8,0:0:0:0:
104,61,139631,1,0,0:0:0:0:
57,63,139705,1,0,0:0:0:0:
10,83,139779,5,6,0:0:0:0:
43,107,139853,1,0,0:0:0:0:
84,112,139927,1,0,0:0:0:0:
115,100,140001,1,8,0:0:0:0:
139,86,140075,1,0,0:0:0:0:
165,82,140149,1,0,0:0:0:0:
195,86,140223,1,0,0:0:0:0:
212,95,140297,1,0,0:0:0:0:
222,103,140372,1,0,0:0:0:0:
228,109,140446,2,0,L|252:35,2,75.9999976806641,8|0|0,0:0|0:0|0:0,0:0:0:0:
215,243,140668,5,2,0:0:0:0:
355,327,140779,1,0,0:0:0:0:
366,161,140890,1,8,0:0:0:0:
206,214,141001,5,0,0:0:0:0:
334,367,141112,1,2,0:0:0:0:
401,173,141223,1,0,0:0:0:0:
138,357,141334,2,0,B|162:255|83:280|112:177,1,170.999994781494,8|0,0:0|0:0,0:0:0:0:
8,170,141557,5,6,0:0:0:0:
206,214,141668,1,0,0:0:0:0:
45,330,141779,1,8,0:0:0:0:
256,312,141890,5,0,0:0:0:0:
4,198,142001,1,2,0:0:0:0:
268,126,142112,1,0,0:0:0:0:
154,377,142223,5,8,0:0:0:0:
108,77,142334,1,0,0:0:0:0:
298,240,142446,6,0,B|355:194|425:189|425:189|469:223|525:218,1,227.999993041992,10|0,0:0|0:0,0:0:0:0:
380,39,142779,2,0,B|322:-7|252:-12|252:-12|208:22|152:17,1,227.999993041992,8|0,0:0|0:0,0:0:0:0:
304,264,143112,2,0,P|352:224|439:213,1,113.999996520996,8|0,0:0|0:0,0:0:0:0:
30,170,143334,5,8,0:0:0:0:
472,89,143557,1,8,0:0:0:0:
30,170,143779,5,8,0:0:0:0:
177,384,143890,1,8,0:0:0:0:
155,86,144001,1,8,0:0:0:0:
42,326,144112,1,8,0:0:0:0:
166,230,144223,5,6,0:0:0:0:
443,325,145112,6,0,P|443:272|468:213,1,95,8|8,0:0|0:0,0:0:0:0:
371,76,145334,2,0,P|371:129|346:188,1,95,2|2,0:0|0:0,0:0:0:0:
281,302,145557,1,2,0:0:0:0:
190,270,145668,1,2,0:0:0:0:
163,181,145779,1,2,0:0:0:0:
163,181,145890,1,2,0:0:0:0:
126,334,146001,5,6,0:0:0:0:
79,16,146890,6,0,P|121:13|168:-2,1,76,8|8,0:0|0:0,0:0:0:0:
229,85,147112,2,0,P|271:88|318:103,1,76,2|2,0:0|0:0,0:0:0:0:
430,58,147334,1,2,0:0:0:0:
438,132,147446,1,2,0:0:0:0:
374,174,147557,1,2,0:0:0:0:
374,174,147668,1,2,0:0:0:0:
453,293,147779,5,6,0:0:0:0:
88,347,148223,1,8,0:0:0:0:
114,271,148334,1,8,0:0:0:0:
189,241,148446,1,8,0:0:0:0:
269,257,148557,1,8,0:0:0:0:
318,319,148668,1,0,0:0:0:0:
66,23,149112,5,8,0:0:0:0:
92,99,149223,1,8,0:0:0:0:
168,130,149334,1,8,0:0:0:0:
247,113,149446,1,8,0:0:0:0:
296,51,149557,6,0,P|299:93|290:126,1,56.9999982604981,0|0,0:0|0:0,0:0:0:0:
387,144,149779,2,0,P|384:186|393:219,1,56.9999982604981,0|0,0:0|0:0,0:0:0:0:
306,255,150001,1,4,0:0:0:0:
306,255,150112,1,0,0:0:0:0:
306,255,150223,2,0,P|309:297|300:330,1,56.9999982604981,0|0,0:0|0:0,0:0:0:0:
69,345,150446,5,4,0:0:0:0:
69,345,150557,1,0,0:0:0:0:
69,345,150668,1,0,0:0:0:0:
69,345,150779,1,0,0:0:0:0:
69,345,150890,5,8,0:0:0:0:
133,298,151001,1,8,0:0:0:0:
159,220,151112,1,8,0:0:0:0:
144,143,151223,1,8,0:0:0:0:
108,76,151334,6,0,B|66:85|66:85|35:74|35:74|-16:81,2,104.500003189087,2|0|8,0:0|0:0|0:0,0:0:0:0:
248,179,151668,1,0,0:0:0:0:
251,20,151779,1,2,0:0:0:0:
262,207,151890,1,0,0:0:0:0:
276,0,152001,2,0,B|318:9|318:9|349:-2|349:-2|400:5,1,104.500003189087,8|0,0:0|0:0,0:0:0:0:
507,273,152223,5,2,0:0:0:0:
461,345,152334,1,0,0:0:0:0:
386,357,152446,1,8,0:0:0:0:
334,340,152557,1,0,0:0:0:0:
306,300,152668,1,2,0:0:0:0:
295,264,152779,1,0,0:0:0:0:
297,234,152890,1,8,0:0:0:0:
302,213,153001,1,0,0:0:0:0:
309,109,153112,6,0,B|351:118|351:118|382:107|382:107|433:114,2,104.500003189087,2|0|8,0:0|0:0|0:0,0:0:0:0:
158,197,153446,1,0,0:0:0:0:
155,38,153557,1,2,0:0:0:0:
144,225,153668,1,0,0:0:0:0:
130,18,153779,2,0,B|88:27|88:27|57:16|57:16|6:23,1,104.500003189087,8|0,0:0|0:0,0:0:0:0:
5,273,154001,5,2,0:0:0:0:
51,345,154112,1,0,0:0:0:0:
126,357,154223,1,8,0:0:0:0:
178,340,154334,1,0,0:0:0:0:
206,300,154446,1,2,0:0:0:0:
217,264,154557,1,0,0:0:0:0:
215,234,154668,1,8,0:0:0:0:
210,213,154779,1,4,0:0:0:0:
128,138,154890,6,0,P|115:186|109:244,1,104.500003189087,2|0,0:0|0:0,0:0:0:0:
300,163,155112,2,0,P|294:111|281:60,1,104.500003189087,8|0,0:0|0:0,0:0:0:0:
418,307,155334,2,0,P|367:305|299:242,1,104.500003189087,2|0,0:0|0:0,0:0:0:0:
386,100,155557,1,8,0:0:0:0:
386,100,155668,1,0,0:0:0:0:
386,100,155779,6,0,P|437:102|481:128,1,104.500003189087,2|0,0:0|0:0,0:0:0:0:
322,277,156001,2,0,L|305:331,2,52.2500015945435,8|0|0,0:0|0:0|0:0,0:0:0:0:
205,111,156223,2,0,B|112:51|91:148|-24:75,1,209.000006378174,2|8,0:0|0:0,0:0:0:0:
62,3,156557,1,0,0:0:0:0:
137,199,156668,6,0,P|119:282|32:302,1,156.750004783631,6|0,0:0|0:0,0:0:0:0:
4,369,156890,2,0,P|29:313|10:243,1,104.500003189087,8|0,0:0|0:0,0:0:0:0:
238,218,157112,1,2,0:0:0:0:
25,181,157223,1,0,0:0:0:0:
172,295,157334,1,8,0:0:0:0:
172,295,157446,1,0,0:0:0:0:
278,125,157557,6,0,B|255:173|255:173|273:312,1,156.750004783631,8|0,0:0|0:0,0:0:0:0:
289,299,157779,1,8,0:0:0:0:
423,40,158001,1,8,0:0:0:0:
441,215,158112,2,0,B|436:160|455:124|455:124|438:89|438:89|462:44|462:-12,1,209.000006378174,8|0,0:0|0:0,0:0:0:0:
254,35,158446,6,0,L|131:19,1,95,4|0,0:0|0:0,0:0:0:0:
68,259,158668,2,0,L|191:243,1,95,8|0,0:0|0:0,0:0:0:0:
226,156,158890,1,8,0:0:0:0:
226,156,159001,2,0,L|349:172,1,95,0|0,0:0|0:0,0:0:0:0:
433,332,159223,1,0,0:0:0:0:
497,209,159334,6,0,P|420:210|371:278,1,142.5,8|0,0:0|0:0,0:0:0:0:
334,336,159557,2,0,P|349:276|331:234,1,95,2|2,0:0|0:0,0:0:0:0:
129,170,159779,1,2,0:0:0:0:
114,252,159890,1,2,0:0:0:0:
169,318,160001,2,0,L|274:287,1,95,2|2,0:0|0:0,0:0:0:0:
190,102,160223,6,0,B|172:47|113:17|113:17|76:36|24:14,1,185.249991519928,10|0,0:0|0:0,0:0:0:0:
50,53,160446,1,2,0:0:0:0:
51,57,160501,1,2,0:0:0:0:
53,61,160557,2,0,L|37:114,2,47.5,2|0|4,0:0|0:0|0:0,0:0:0:0:
275,44,160890,5,8,0:0:0:0:
275,48,160946,1,8,0:0:0:0:
274,52,161001,1,8,0:0:0:0:
273,56,161057,1,8,0:0:0:0:
273,60,161112,2,0,L|289:113,1,47.5,2|2,0:0|0:0,0:0:0:0:
374,97,161223,2,0,L|360:51,1,47.5,2|2,0:0|0:0,0:0:0:0:
269,192,161334,2,0,L|285:245,1,47.5,2|2,0:0|0:0,0:0:0:0:
371,224,161446,2,0,L|357:178,1,47.5,2|2,0:0|0:0,0:0:0:0:
461,140,161557,6,0,P|481:175|480:252,1,95,4|0,0:0|0:0,0:0:0:0:
481,353,161779,1,0,0:0:0:0:
481,353,161890,1,0,0:0:0:0:
481,353,162001,6,0,L|496:291,3,47.5,0|0|0|0,0:0|0:0|0:0|0:0,0:0:0:0:
465,144,162446,1,4,0:0:0:0:
465,144,162557,1,0,0:0:0:0:
465,144,162668,2,0,L|480:206,1,47.5,0|0,0:0|0:0,0:0:0:0:
159,219,162890,6,0,B|211:168|278:186|278:186|358:144|377:18|235:-15|131:38|131:38|166:124|264:94,1,627.000019134522,14|0,0:0|0:0,0:0:0:0:
149,324,163779,6,0,L|101:317,3,47.5,4|0|0|0,0:0|0:0|0:0|0:0,0:0:0:0:
65,178,164223,1,4,0:0:0:0:
65,178,164334,1,0,0:0:0:0:
65,178,164446,2,0,L|17:184,1,47.5,0|0,0:0|0:0,0:0:0:0:
297,286,164668,6,0,B|340:271|388:213|388:213|368:313|479:401,2,313.500009567261,14|0|0,0:0|0:0|0:0,0:0:0:0:
507,167,165557,6,0,P|497:194|494:232,3,47.5,4|0|0|0,0:0|0:0|0:0|0:0,0:0:0:0:
441,44,166001,1,4,0:0:0:0:
441,44,166112,1,0,0:0:0:0:
441,44,166223,2,0,P|451:71|454:109,1,47.5,0|0,0:0|0:0,0:0:0:0:
180,281,166446,6,0,P|136:147|370:103,1,418.000012756348,14|4,0:0|0:0,0:0:0:0:
291,286,167112,1,0,0:0:0:0:
183,378,167334,6,0,L|130:368,3,47.5,4|0|0|0,0:0|0:0|0:0|0:0,0:0:0:0:
12,297,167779,1,4,0:0:0:0:
12,297,167890,1,0,0:0:0:0:
12,297,168001,2,0,L|65:287,1,47.5,0|0,0:0|0:0,0:0:0:0:
256,177,168223,6,0,P|354:211|426:191,1,139.333337585449,14|0,0:0|0:0,0:0:0:0:
482,163,168446,1,2,0:0:0:0:
475,177,168520,1,2,0:0:0:0:
472,193,168594,1,2,0:0:0:0:
473,208,168668,6,0,P|482:240|505:267,1,47.5,0|0,0:0|0:0,0:0:0:0:
361,65,168890,2,0,P|351:97|328:124,1,47.5,8|0,0:0|0:0,0:0:0:0:
163,195,169112,6,0,L|106:186,3,47.5,4|0|0|0,0:0|0:0|0:0|0:0,0:0:0:0:
175,65,169557,1,4,0:0:0:0:
175,65,169668,1,0,0:0:0:0:
175,65,169779,2,0,L|232:56,1,47.5,0|0,0:0|0:0,0:0:0:0:
46,333,170001,6,0,B|87:298|156:307|156:307|192:348|243:377|345:372|391:236|320:155|236:134|164:196|164:196|208:231|263:224,1,627.000019134522,14|0,0:0|0:0,0:0:0:0:
441,324,170890,6,0,P|430:349|405:380,3,47.5,4|0|0|0,0:0|0:0|0:0|0:0,0:0:0:0:
426,175,171334,1,4,0:0:0:0:
426,175,171446,1,0,0:0:0:0:
426,175,171557,2,0,P|429:202|444:239,1,47.5,0|0,0:0|0:0,0:0:0:0:
225,54,171779,6,0,B|256:86|312:85|312:85|331:23|392:1|392:1|462:1|496:52,2,313.500009567261,14|0|0,0:0|0:0|0:0,0:0:0:0:
11,161,172668,6,0,L|-1:108,3,47.5,4|0|0|0,0:0|0:0|0:0|0:0,0:0:0:0:
83,264,173112,1,4,0:0:0:0:
83,264,173223,1,0,0:0:0:0:
83,264,173334,2,0,L|95:211,1,47.5,0|0,0:0|0:0,0:0:0:0:
392,268,173557,6,0,P|234:182|203:358,1,418.000012756348,14|4,0:0|0:0,0:0:0:0:
377,369,174223,1,0,0:0:0:0:
464,191,174446,6,0,L|471:124,3,47.5,4|0|0|0,0:0|0:0|0:0|0:0,0:0:0:0:
359,40,174890,1,4,0:0:0:0:
359,40,175001,1,0,0:0:0:0:
359,40,175112,2,0,L|363:87,1,47.5,0|0,0:0|0:0,0:0:0:0:
207,308,175334,5,14,0:0:0:0:
188,169,175446,1,8,0:0:0:0:
170,32,175557,1,4,0:0:0:0:
163,45,175779,5,8,0:0:0:0:
181,182,175890,1,8,0:0:0:0:
200,321,176002,1,4,0:0:0:0:
462,18,176223,6,0,B|460:106|460:106|429:159|429:159|420:261,1,227.999993041992,8|2,0:0|0:0,0:0:0:0:
244,372,176557,2,0,B|257:294|257:294|293:244|293:244|301:154,1,227.999993041992,8|0,0:0|0:0,0:0:0:0:
49,84,176890,2,0,P|99:128|104:26,1,227.999993041992,8|2,0:0|0:0,0:0:0:0:
39,279,177223,2,0,P|89:235|94:337,1,227.999993041992,8|0,0:0|0:0,0:0:0:0:
248,72,177557,6,0,B|264:116|264:116|252:206,1,113.999996520996,8|0,0:0|0:0,0:0:0:0:
363,331,177779,2,0,B|346:287|346:287|358:196,1,113.999996520996,10|0,0:0|0:0,0:0:0:0:
506,156,178001,5,0,0:0:0:0:
505,161,178056,1,0,0:0:0:0:
504,167,178112,1,0,0:0:0:0:
504,172,178167,1,0,0:0:0:0:
503,178,178223,6,0,L|483:298,1,113.999996520996
355,220,178446,2,0,L|373:102,1,113.999996520996,8|8,0:0|0:0,0:0:0:0:
132,32,178668,1,8,0:0:0:0:
163,261,178779,1,8,0:0:0:0:
232,132,178890,5,4,0:0:0:0:
163,261,179223,5,0,0:0:0:0:
256,384,179557,5,0,0:0:0:0:
105,352,179779,6,0,P|57:250|110:167,1,170.999994781494,4|0,0:0|0:0,0:0:0:0:
141,154,180001,2,0,P|76:158|10:126,1,113.999996520996,8|0,0:0|0:0,0:0:0:0:
234,40,180223,1,0,0:0:0:0:
296,102,180334,1,0,0:0:0:0:
299,185,180446,1,8,0:0:0:0:
247,250,180557,1,0,0:0:0:0:
432,343,180668,5,2,0:2:0:0:
432,343,180779,2,0,B|461:311|461:311|466:220,1,113.999996520996,0|8,0:0|0:0,0:0:0:0:
416,45,181001,1,2,0:2:0:0:
416,45,181112,2,0,B|387:77|387:77|382:168,1,113.999996520996,0|0,0:0|0:0,0:0:0:0:
260,284,181334,1,10,0:2:0:0:
260,284,181446,1,0,0:0:0:0:
93,127,181557,6,0,B|221:101|181:212|332:180,1,227.999993041992,4|8,0:0|0:0,0:0:0:0:
203,369,181890,1,0,0:0:0:0:
114,379,182001,1,0,0:0:0:0:
41,330,182112,1,0,0:0:0:0:
23,246,182223,2,0,L|139:211,1,113.999996520996,8|0,0:0|0:0,0:0:0:0:
388,136,182446,6,0,B|399:178|399:178|369:249,1,113.999996520996,2|0,0:2|0:0,0:0:0:0:
304,180,182668,1,8,0:0:0:0:
447,29,182779,2,0,L|485:147,1,113.999996520996,2|0,0:2|0:0,0:0:0:0:
355,43,183001,1,0,0:0:0:0:
371,243,183112,2,0,L|262:277,1,113.999996520996,10|0,0:2|0:0,0:0:0:0:
0,123,183334,6,0,L|184:63,1,170.999994781494,4|0,0:0|0:0,0:0:0:0:
187,95,183557,1,8,0:0:0:0:
271,133,183668,1,0,0:0:0:0:
282,226,183779,1,0,0:0:0:0:
233,299,183890,1,0,0:0:0:0:
33,232,184001,6,0,P|11:288|27:353,1,113.999996520996,10|0,0:2|0:0,0:0:0:0:
175,128,184223,2,0,P|183:72|161:20,1,113.999996520996,2|0,0:2|0:0,0:0:0:0:
24,0,184446,1,8,0:0:0:0:
146,233,184557,1,2,0:2:0:0:
146,233,184668,2,0,L|277:216,1,113.999996520996,0|0,0:0|0:0,0:0:0:0:
380,23,184890,2,0,L|249:40,1,113.999996520996,10|0,0:2|0:0,0:0:0:0:
449,246,185112,6,0,P|498:165|451:80,1,170.999994781494,4|0,0:0|0:0,0:0:0:0:
441,96,185334,1,8,0:0:0:0:
373,149,185446,1,0,0:0:0:0:
280,155,185557,1,0,0:0:0:0:
204,109,185668,1,0,0:0:0:0:
177,25,185779,2,0,L|302:15,1,113.999996520996,8|0,0:0|0:0,0:0:0:0:
32,165,186001,5,2,0:2:0:0:
32,165,186112,2,0,L|8:39,1,113.999996520996,0|8,0:0|0:0,0:0:0:0:
179,249,186334,5,2,0:2:0:0:
118,139,186446,1,0,0:0:0:0:
58,253,186557,1,0,0:0:0:0:
261,189,186668,5,10,0:2:0:0:
236,334,186779,1,0,0:0:0:0:
460,179,186890,6,0,B|474:102|474:102|463:81|463:81|480:-2|480:-2|405:73|312:57|353:45|234:-2|167:36|171:163|245:210|286:176|336:183|349:89,1,664.999979705811,4|0,0:0|0:0,0:0:0:0:
132,85,187557,2,0,P|127:144|153:192,1,113.999996520996,8|0,0:0|0:0,0:0:0:0:
44,383,187779,5,2,0:2:0:0:
178,220,187890,1,0,0:0:0:0:
196,364,188001,1,8,0:0:0:0:
30,241,188112,2,0,B|33:198|33:198|-9:116,1,113.999996520996,2|0,0:2|0:2,0:0:0:0:
110,304,188334,1,0,0:0:0:0:
27,117,188446,2,0,B|59:179|59:179|56:222,1,113.999996520996,10|0,0:2|0:0,0:0:0:0:
307,351,188668,6,0,B|324:381|402:416|465:356|468:276|431:217|357:215|318:242|318:242|360:178|348:109|299:40|299:40|313:80|292:126,1,617.499971733095,4|0,0:0|0:0,0:0:0:0:
27,117,189334,2,0,P|76:130|127:119,1,104.500003189087,8|0,0:0|0:0,0:0:0:0:
136,376,189557,5,2,0:2:0:0:
96,247,189668,1,0,0:0:0:0:
48,332,189779,1,8,0:0:0:0:
183,293,189890,2,0,P|167:250|158:193,1,104.500003189087,2|0,0:2|0:2,0:0:0:0:
116,311,190112,1,0,0:0:0:0:
184,198,190223,2,0,P|190:250|207:300,1,104.500003189087,10|0,0:2|0:0,0:0:0:0:
401,113,190446,6,0,P|274:123|223:30,1,227.999993041992,4|8,0:0|0:0,0:0:0:0:
500,62,190779,1,0,0:0:0:0:
500,62,190890,2,0,L|484:181,1,113.999996520996,0|0,0:0|0:0,0:0:0:0:
310,232,191112,2,0,L|325:351,1,113.999996520996,10|0,0:2|0:0,0:0:0:0:
54,356,191334,5,2,0:2:0:0:
20,275,191446,1,0,0:0:0:0:
53,196,191557,2,0,P|110:184|181:215,1,113.999996520996,8|0,0:0|0:0,0:0:0:0:
244,45,191779,2,0,P|190:61|134:49,1,113.999996520996,2|0,0:2|0:0,0:0:0:0:
374,156,192001,1,8,0:0:0:0:
374,156,192112,1,0,0:0:0:0:
299,330,192223,6,0,L|257:175,1,113.999996520996,4|0,0:0|0:0,0:0:0:0:
507,92,192446,2,0,B|493:157|493:157|504:198|504:198|487:291,1,170.999994781494,8|0,0:0|0:0,0:0:0:0:
455,333,192668,2,0,B|469:268|469:268|458:227|458:227|475:134,1,170.999994781494,8|0,0:0|0:0,0:0:0:0:
414,66,192890,1,8,0:0:0:0:
378,275,193001,1,8,0:0:0:0:
293,98,193113,6,0,P|203:41|111:52,1,170.999994781494
55,69,193332,1,8,0:0:0:0:
223,179,193442,2,0,P|119:161|38:207,1,170.999994781494,8|0,0:0|0:0,0:0:0:0:
16,265,193661,1,0,0:0:0:0:
160,122,193771,1,8,0:0:0:0:
163,334,193880,1,8,0:0:0:0:
375,181,193990,6,0,P|441:236|358:259,1,170.999994781494,4|0,0:0|0:0,0:0:0:0:
333,323,194212,2,0,P|400:313|442:338,1,113.999996520996,8|0,0:0|0:0,0:0:0:0:
497,133,194434,1,0,0:0:0:0:
429,79,194545,1,0,0:0:0:0:
341,80,194656,1,8,0:0:0:0:
283,143,194767,1,0,0:0:0:0:
122,41,194878,5,2,0:2:0:0:
122,41,194990,2,0,L|257:26,1,113.999996520996,0|8,0:0|0:0,0:0:0:0:
113,207,195212,1,2,0:2:0:0:
113,207,195323,2,0,L|-22:192,1,113.999996520996,0|0,0:0|0:0,0:0:0:0:
131,360,195545,1,10,0:2:0:0:
131,360,195656,1,0,0:0:0:0:
395,283,195767,6,0,B|275:221|283:338|130:243,1,227.999993041992,4|8,0:0|0:0,0:0:0:0:
333,359,196101,1,0,0:0:0:0:
420,374,196212,1,0,0:0:0:0:
484,313,196323,1,0,0:0:0:0:
468,225,196434,2,0,P|405:184|347:182,1,113.999996520996,8|0,0:0|0:0,0:0:0:0:
187,61,196656,6,0,L|330:47,1,113.999996520996,2|0,0:2|0:0,0:0:0:0:
232,188,196878,1,8,0:0:0:0:
90,62,196990,2,0,B|120:27|120:27|230:16,1,113.999996520996,2|0,0:2|0:0,0:0:0:0:
214,202,197212,1,0,0:0:0:0:
15,121,197323,2,0,L|5:-2,1,113.999996520996,10|0,0:2|0:0,0:0:0:0:
165,300,197545,6,0,P|118:255|123:148,1,170.999994781494,4|0,0:0|0:0,0:0:0:0:
147,147,197767,1,8,0:0:0:0:
226,108,197878,1,0,0:0:0:0:
303,149,197990,1,0,0:0:0:0:
320,235,198101,1,0,0:0:0:0:
172,323,198212,6,0,L|12:348,1,113.999996520996,10|0,0:2|0:0,0:0:0:0:
338,249,198434,2,0,L|498:274,1,113.999996520996,2|0,0:2|0:0,0:0:0:0:
388,175,198656,1,8,0:0:0:0:
150,237,198767,1,2,0:2:0:0:
150,237,198878,2,0,P|131:164|161:101,1,113.999996520996,0|0,0:0|0:0,0:0:0:0:
353,262,199101,2,0,P|363:317|344:370,1,113.999996520996,10|0,0:2|0:0,0:0:0:0:
272,73,199321,6,0,L|475:47,1,170.999994781494,4|0,0:0|0:0,0:0:0:0:
454,26,199546,1,8,0:0:0:0:
504,98,199659,1,0,0:0:0:0:
489,181,199772,1,0,0:0:0:0:
437,257,199884,1,0,0:0:0:0:
344,265,199997,2,0,P|308:204|330:139,1,113.999996520996,8|0,0:0|0:0,0:0:0:0:
90,42,200223,5,2,0:2:0:0:
90,42,200335,2,0,L|231:23,1,113.999996520996,0|8,0:0|0:0,0:0:0:0:
86,283,200557,5,2,0:2:0:0:
4,173,200668,1,0,0:0:0:0:
86,283,200779,1,0,0:0:0:0:
227,127,200890,5,10,0:2:0:0:
202,266,201001,1,0,0:0:0:0:
467,135,201112,6,0,B|444:61|347:22|347:22|361:144|285:229|192:234|114:152|114:152|143:168|231:153|237:101,1,664.999979705811,4|0,0:0|0:0,0:0:0:0:
348,23,201779,2,0,L|235:7,1,113.999996520996,8|0,0:0|0:0,0:0:0:0:
40,162,202001,5,2,0:2:0:0:
250,132,202112,1,0,0:0:0:0:
122,48,202224,1,8,0:0:0:0:
164,271,202335,2,0,B|125:291|125:291|33:286,1,113.999996520996,2|0,0:2|0:2,0:0:0:0:
146,149,202557,1,0,0:0:0:0:
33,262,202668,2,0,B|102:265|102:265|141:245,1,113.999996520996,10|0,0:2|0:0,0:0:0:0:
457,176,202890,6,0,B|403:203|400:264|443:318|443:318|377:350|326:349|262:327|172:214|225:93|354:121|334:243,1,617.499971733095,4|0,0:0|0:0,0:0:0:0:
484,79,203557,2,0,P|432:91|355:48,1,104.500003189087,8|0,0:0|0:0,0:0:0:0:
194,55,203779,5,2,0:2:0:0:
167,186,203890,1,0,0:0:0:0:
111,107,204001,1,8,0:0:0:0:
249,131,204112,2,0,P|237:175|234:233,1,104.500003189087,2|0,0:2|0:2,0:0:0:0:
182,120,204335,1,0,0:0:0:0:
265,239,204446,2,0,P|266:186|278:135,1,104.500003189087,10|0,0:2|0:0,0:0:0:0:
117,344,204668,6,0,B|215:278|247:388|362:284,1,227.999993041992,4|8,0:0|0:0,0:0:0:0:
504,384,205001,1,0,0:0:0:0:
504,384,205112,2,0,L|366:368,1,113.999996520996,0|0,0:0|0:0,0:0:0:0:
391,174,205335,2,0,L|529:158,1,113.999996520996,8|0,0:0|0:0,0:0:0:0:
278,352,205557,6,0,L|264:238,1,113.999996520996,0|0,0:0|0:0,0:0:0:0:
289,86,205779,1,8,0:0:0:0:
134,204,205890,2,0,L|147:317,1,113.999996520996,0|0,0:0|0:0,0:0:0:0:
269,113,206112,1,0,0:0:0:0:
35,88,206224,2,0,L|21:201,1,113.999996520996,8|0,0:0|0:0,0:0:0:0:
269,12,206446,6,0,B|196:15|196:15|167:37|167:37|57:43,1,170.999994781494,4|0,0:0|0:0,0:0:0:0:
13,5,206668,2,0,L|131:0,1,113.999996520996,8|0,0:0|0:0,0:0:0:0:
249,208,206890,6,0,B|213:190|213:190|109:197,1,132.999995941162
268,372,207112,1,2,0:0:0:0:
402,275,207224,1,2,0:0:0:0:
387,111,207335,5,0,0:0:0:0:
385,258,207446,1,0,0:0:0:0:
387,262,207501,1,0,0:0:0:0:
390,265,207557,2,0,L|380:323,2,47.5,0|0|0,0:0|0:0|0:0,0:0:0:0:
249,208,207779,5,0,0:0:0:0:
291,127,207890,1,0,0:0:0:0:
378,107,208001,1,4,0:0:0:0:
454,155,208112,1,0,0:0:0:0:
477,333,208224,6,0,P|430:312|358:322,2,95,2|0|0,0:0|0:0|0:0,0:0:0:0:
205,337,208557,1,2,0:0:0:0:
205,337,208668,2,0,P|255:347|324:323,1,95,8|0,0:0|0:0,0:0:0:0:
76,371,208890,2,0,L|94:247,1,95,2|0,0:0|0:0,0:0:0:0:
109,72,209112,5,2,0:0:0:0:
109,72,209224,2,0,L|-19:54,1,95,8|0,0:0|0:0,0:0:0:0:
258,203,209446,1,2,0:0:0:0:
258,203,209557,2,0,L|163:216,1,95,8|0,0:0|0:0,0:0:0:0:
335,114,209779,2,0,P|360:156|355:237,1,95,2|0,0:0|0:0,0:0:0:0:
192,380,210001,6,0,B|286:325|304:427|407:364,1,190,2|0,0:0|0:0,0:0:0:0:
481,323,210335,1,0,0:0:0:0:
345,293,210446,2,0,P|361:247|364:191,1,95,8|0,0:0|0:0,0:0:0:0:
481,167,210668,2,0,P|465:121|462:65,1,95,0|0,0:0|0:0,0:0:0:0:
237,91,210890,5,2,0:0:0:0:
237,91,211001,2,0,P|302:106|350:71,1,95,8|0,0:0|0:0,0:0:0:0:
109,15,211224,1,2,0:0:0:0:
109,15,211335,2,0,P|44:30|-4:-5,1,95,8|0,0:0|0:0,0:0:0:0:
103,157,211557,2,0,L|61:251,1,95,2|0,0:0|0:0,0:0:0:0:
228,369,211779,6,0,P|192:320|192:247,2,95,2|0|0,0:0|0:0|0:0,0:0:0:0:
333,204,212112,1,2,0:0:0:0:
333,204,212224,2,0,P|321:249|290:285,1,95,8|0,0:0|0:0,0:0:0:0:
264,112,212446,2,0,L|376:99,1,95,2|0,0:0|0:0,0:0:0:0:
505,10,212668,5,2,0:0:0:0:
505,10,212779,2,0,L|393:-3,1,95,8|0,0:0|0:0,0:0:0:0:
512,165,213001,1,2,0:0:0:0:
512,165,213112,2,0,L|400:178,1,95,8|0,0:0|0:0,0:0:0:0:
475,345,213335,2,0,P|509:297|505:232,1,95,2|0,0:0|0:0,0:0:0:0:
291,380,213557,6,0,P|288:281|219:221,1,190,2|0,0:0|0:0,0:0:0:0:
142,285,213890,1,0,0:0:0:0:
125,140,214001,2,0,P|70:138|17:116,1,95,8|0,0:0|0:0,0:0:0:0:
197,75,214224,2,0,P|216:114|210:170,2,63.3333333333333,0|8|0,0:0|0:0|0:0,0:0:0:0:
119,34,214446,5,2,0:0:0:0:
119,34,214557,2,0,L|266:16,1,95,8|0,0:0|0:0,0:0:0:0:
310,143,214779,1,2,0:0:0:0:
411,71,214890,2,0,L|316:59,1,95,8|0,0:0|0:0,0:0:0:0:
501,81,215112,1,8,0:0:0:0:
461,0,215224,1,8,0:0:0:0:
399,160,215335,6,0,P|370:209|314:236,2,95,2|0|0,0:0|0:0|0:0,0:0:0:0:
453,313,215668,1,2,0:0:0:0:
453,313,215779,2,0,P|481:263|537:236,1,95,8|0,0:0|0:0,0:0:0:0:
384,370,216001,2,0,L|254:359,1,95,2|0,0:0|0:0,0:0:0:0:
120,251,216224,5,2,0:0:0:0:
120,251,216335,2,0,P|131:301|118:354,1,95,8|0,0:0|0:0,0:0:0:0:
266,140,216557,1,2,0:0:0:0:
266,140,216668,2,0,P|246:187|250:241,1,95,8|0,0:0|0:0,0:0:0:0:
157,62,216890,2,0,L|258:43,1,95,2|0,0:0|0:0,0:0:0:0:
493,10,217112,6,0,B|437:93|530:104|461:210,1,190,2|0,0:0|0:0,0:0:0:0:
430,297,217446,1,0,0:0:0:0:
396,138,217557,2,0,P|309:115|205:180,1,190,8|2,0:0|0:0,0:0:0:0:
128,227,217890,1,0,0:0:0:0:
128,222,217946,1,0,0:0:0:0:
129,217,218001,6,0,P|113:178|121:118,2,95,2|8|0,0:0|0:0|0:0,0:0:0:0:
259,273,218335,1,2,0:0:0:0:
259,273,218446,2,0,P|259:315|230:368,1,95,8|0,0:0|0:0,0:0:0:0:
64,374,218668,2,0,L|23:249,1,95,2|0,0:0|0:0,0:0:0:0:
205,166,218890,5,2,0:0:0:0:
240,86,219001,1,8,0:0:0:0:
324,66,219112,2,0,P|377:94|394:143,1,95,0|0,0:0|0:0,0:0:0:0:
446,306,219335,2,0,P|462:171|531:134,1,190,12|0,0:0|0:0,0:0:0:0:
359,363,219668,1,0,0:0:0:0:
359,363,219779,6,0,L|246:380,1,95,2|8,0:0|0:0,0:0:0:0:
86,366,220001,1,0,0:0:0:0:
181,341,220112,1,2,0:0:0:0:
13,311,220208,2,0,P|40:254|33:165,1,142.5,8|0,0:0|0:0,0:0:0:0:
12,147,220430,1,10,0:0:0:0:
126,178,220541,1,8,0:0:0:0:
92,92,220668,5,2,0:0:0:0:
421,23,220890,2,0,P|378:86|396:180,1,142.5,8|0,0:0|0:0,0:0:0:0:
282,152,221112,2,0,P|282:81|241:25,1,142.5,8|0,0:0|0:0,0:0:0:0:
194,110,221335,5,2,0:0:0:0:
194,110,221409,1,2,0:0:0:0:
194,110,221483,1,2,0:0:0:0:
194,110,221557,5,0,0:0:0:0:
478,221,221890,5,2,0:0:0:0:
334,274,222223,5,2,0:0:0:0:
227,263,222446,6,0,L|60:217,1,170.999994781494,4|0,0:0|0:0,0:0:0:0:
201,360,222890,2,0,L|261:377,1,56.9999982604981,2|0,0:0|0:0,0:0:0:0:
261,177,223112,2,0,B|259:175|217:169,2,28.4999991302491,0|0|0,0:0|0:0|0:0,0:0:0:0:
157,33,223335,6,0,P|258:69|261:177,1,227.999993041992,14|2,0:0|0:0,0:0:0:0:
385,120,224001,1,0,0:0:0:0:
508,8,224223,6,0,P|487:57|494:128,1,113.999996520996,0|0,0:0|0:0,0:0:0:0:
392,266,224668,2,0,P|399:227|389:196,1,56.9999982604981,0|0,0:0|0:0,0:0:0:0:
311,320,224890,2,0,L|314:358,2,28.4999991302491,0|0|0,0:0|0:0|0:0,0:0:0:0:
214,251,225112,5,14,0:0:0:0:
211,245,225335,1,0,0:0:0:0:
60,127,225557,2,0,L|50:192,1,56.9999982604981,0|0,0:0|0:0,0:0:0:0:
92,267,225779,2,0,L|102:335,1,56.9999982604981,0|0,0:0|0:0,0:0:0:0:
199,93,226001,6,0,B|154:100|132:74|128:68|122:58|101:35|29:42,1,170.999994781494,4|0,0:0|0:0,0:0:0:0:
191,8,226446,2,0,L|259:-2,1,56.9999982604981,2|0,0:0|0:0,0:0:0:0:
218,179,226668,2,0,B|214:177|174:186,2,28.4999991302491,0|0|0,0:0|0:0|0:0,0:0:0:0:
304,153,226890,6,0,P|284:245|218:179,1,227.999993041992,14|2,0:0|0:0,0:0:0:0:
454,14,227557,2,0,P|436:48|440:82,1,56.9999982604981,0|0,0:0|0:0,0:0:0:0:
467,142,227779,5,0,0:0:0:0:
472,152,228001,1,0,0:0:0:0:
445,340,228223,2,0,L|434:262,1,56.9999982604981,0|0,0:0|0:0,0:0:0:0:
366,211,228446,2,0,L|356:280,1,56.9999982604981,0|0,0:0|0:0,0:0:0:0:
273,357,228668,5,14,0:0:0:0:
273,357,228723,2,0,L|262:316,1,28.4999991302491,8|0,0:0|0:0,0:0:0:0:
183,301,228890,1,4,0:0:0:0:
113,190,229112,2,0,L|101:247,1,56.9999982604981,4|0,0:0|0:0,0:0:0:0:
26,315,229335,2,0,L|14:259,1,56.9999982604981,4|0,0:0|0:0,0:0:0:0:
67,100,229557,6,0,B|169:62|170:158|286:108,1,227.999993041992,4|2,0:0|0:0,0:0:0:0:
457,51,230223,2,0,L|440:0,1,37.9999988403321,0|0,0:0|0:0,0:0:0:0:
379,83,230372,1,0,0:0:0:0:
379,83,230446,6,0,L|410:195,1,113.999996520996,14|0,0:0|0:0,0:0:0:0:
347,363,230890,2,0,P|304:353|269:355,1,56.9999982604981,2|0,0:0|0:0,0:0:0:0:
209,313,231112,1,0,0:0:0:0:
209,313,231186,1,0,0:0:0:0:
209,313,231261,1,0,0:0:0:0:
209,313,231335,6,0,L|101:295,1,85.4999973907472,0|0,0:0|0:0,0:0:0:0:
87,106,231557,2,0,L|71:248,1,128.249996086121,8|0,0:0|0:0,0:0:0:0:
35,301,231779,2,0,L|49:173,1,128.249996086121,8|0,0:0|0:0,0:0:0:0:
4,98,232001,2,0,L|16:6,1,85.4999973907472,8|0,0:0|0:0,0:0:0:0:
164,34,232223,6,0,P|189:96|152:173,1,128.249996086121,6|0,0:0|0:0,0:0:0:0:
146,166,232446,1,8,0:0:0:0:
194,243,232557,1,8,0:0:0:0:
281,263,232668,1,8,0:0:0:0:
356,226,232779,1,8,0:0:0:0:
388,143,232890,2,0,P|368:100|381:41,1,85.4999973907472,6|0,0:0|0:0,0:0:0:0:
449,352,233112,6,0,B|352:340|352:340|318:355|318:355|214:344,1,227.999993041992,8|0,0:0|0:0,0:0:0:0:
50,238,233446,2,0,B|147:250|147:250|181:235|181:235|285:246,1,227.999993041992,8|0,0:0|0:0,0:0:0:0:
474,118,233779,6,0,P|375:194|441:276,1,227.999993041992,8|2,0:0|0:0,0:0:0:0:
270,0,234112,2,0,P|302:99|209:147,1,227.999993041992,8|0,0:0|0:0,0:0:0:0:
21,333,234446,6,0,L|156:350,1,113.999996520996,8|0,0:0|0:0,0:0:0:0:
113,136,234668,2,0,L|-22:153,1,113.999996520996,10|0,0:0|0:0,0:0:0:0:
272,371,234890,5,12,0:0:0:0:
272,371,235001,2,0,B|247:337|247:337|257:212,1,113.999996520996,0|0,0:0|0:0,0:0:0:0:
205,64,235223,1,12,0:0:0:0:
205,64,235335,2,0,B|230:98|230:98|220:223,1,113.999996520996,0|0,0:0|0:0,0:0:0:0:
391,304,235557,5,2,0:0:0:0:
77,233,235890,5,2,0:0:0:0:
501,55,236223,5,8,0:0:0:0:
362,315,236335,1,8,0:0:0:0:
205,64,236446,1,8,0:0:0:0:
358,141,236557,5,6,0:0:0:0:
