osu file format v14

[General]
AudioFilename: audio.mp3
AudioLeadIn: 0
PreviewTime: 34793
Countdown: 0
SampleSet: Soft
StackLeniency: 0.4
Mode: 0
LetterboxInBreaks: 0
WidescreenStoryboard: 0

[Editor]
Bookmarks: 65940,68058,96999
DistanceSpacing: 0.5
BeatDivisor: 4
GridSize: 32
TimelineZoom: 1.5

[Metadata]
Title:Majotachi no Shanikusai
TitleUnicode:魔女達の謝肉祭
Artist:Unlucky Morpheus
ArtistUnicode:Unlucky Morpheus
Creator:gazimal
Version:Unending Sorceress
Source:秋霜玉
Tags:Xi yuki 瞬殺サレ道? AdveNt DirtyDevil pnky Stompy_ Instrumental Metal Unbeatable Accomplice 魔女達の舞踏会 ~ Magus 天外冬黄 Witches' Carnival AQUAELIE Shuusou Gyoku 霧雨魔理沙 Marisa Kirisame Extra Boss Stage Theme Touhou Kouroumu 5 東方紅楼夢 東方Project Touhou TH
BeatmapID:3895384
BeatmapSetID:1890758

[Difficulty]
HPDrainRate:5
CircleSize:4.5
OverallDifficulty:9
ApproachRate:9.6
SliderMultiplier:1.8
SliderTickRate:1

[Events]
//Background and Video events
0,0,"222.png",0,0
//Break Periods
2,91552,96474
//Storyboard Layer 0 (Background)
//Storyboard Layer 1 (Fail)
//Storyboard Layer 2 (Pass)
//Storyboard Layer 3 (Foreground)
//Storyboard Layer 4 (Overlay)
//Storyboard Sound Samples

[TimingPoints]
-412,352.941176470588,4,2,1,100,1,0
999,-100,4,2,1,40,0,0
6999,-1000,4,2,1,60,0,0
10705,-133.333333333333,4,2,1,60,0,0
10882,-66.6666666666667,4,2,1,60,0,0
11058,-66.6666666666667,4,2,1,5,0,0
11146,-66.6666666666667,4,2,1,60,0,0
11323,-66.6666666666667,4,2,1,5,0,0
11411,-66.6666666666667,4,2,1,60,0,0
11587,-133.333333333333,4,2,1,60,0,0
12293,-133.333333333333,4,3,1,65,0,0
17940,-133.333333333333,4,3,1,70,0,0
18999,-100,4,3,1,70,0,0
23587,-333.333333333333,4,2,1,55,0,0
23852,-66.6666666666667,4,2,1,5,0,0
23940,-66.6666666666667,4,2,1,55,0,0
24293,-333.333333333333,4,2,1,55,0,0
24558,-66.6666666666667,4,2,1,5,0,0
24646,-66.6666666666667,4,2,1,55,0,0
24999,-333.333333333333,4,2,1,55,0,0
25264,-66.6666666666667,4,2,1,5,0,0
25352,-66.6666666666667,4,2,1,55,0,0
25705,-333.333333333333,4,2,1,55,0,0
25970,-66.6666666666667,4,2,1,5,0,0
26058,-66.6666666666667,4,2,1,55,0,0
28705,-200,4,2,1,55,0,0
29235,-100,4,2,1,65,0,0
34882,-100,4,2,1,75,0,0
42646,-133.333333333333,4,2,1,75,0,0
42999,-100,4,2,1,75,0,0
57470,-100,4,3,2,80,0,1
61705,-66.6666666666667,4,3,2,80,0,1
61970,-58.8235294117647,4,3,2,80,0,1
63117,-66.6666666666667,4,3,2,80,0,1
68058,-66.6666666666667,4,3,1,80,0,1
68764,-66.6666666666667,4,2,1,65,0,0
80058,-66.6666666666667,4,3,1,75,0,0
88529,-66.6666666666667,4,3,1,80,0,0
91440,-66.6666666666667,4,2,1,40,0,0
96999,-200,4,2,1,55,0,0
98411,-133.333333333333,4,2,1,55,0,0
99823,-100,4,2,1,55,0,0
101235,-80,4,2,1,55,0,0
102293,-200,4,2,1,55,0,0
102646,-66.6666666666667,4,2,1,65,0,0
107940,-200,4,2,1,65,0,0
108293,-66.6666666666667,4,2,1,75,0,0
109352,-100,4,2,1,75,0,0
109705,-66.6666666666667,4,2,1,75,0,0
109837,-66.6666666666667,4,2,1,5,0,0
109882,-100,4,2,1,75,0,0
110411,-55.5555555555556,4,2,1,75,0,0
110764,-100,4,2,1,75,0,0
111117,-66.6666666666667,4,2,1,75,0,0
112882,-55.5555555555556,4,2,1,75,0,0
113940,-66.6666666666667,4,2,1,75,0,0
114999,-100,4,2,1,75,0,0
115352,-66.6666666666667,4,2,1,75,0,0
115485,-66.6666666666667,4,2,1,5,0,0
115529,-100,4,2,1,75,0,0
116058,-55.5555555555556,4,2,1,75,0,0
116764,-66.6666666666667,4,2,1,75,0,0
118529,-133.333333333333,4,2,1,75,0,0
118882,-66.6666666666667,4,2,1,75,0,0
119235,-133.333333333333,4,2,1,75,0,0
119587,-58.8235294117647,4,2,1,75,0,0
120646,-100,4,2,1,75,0,0
120999,-66.6666666666667,4,2,1,75,0,0
121132,-66.6666666666667,4,2,1,5,0,0
121176,-100,4,2,1,75,0,0
121705,-66.6666666666667,4,2,1,75,0,0
124882,-100,4,2,1,75,0,0
125235,-66.6666666666667,4,2,1,75,0,0
126293,-100,4,2,1,75,0,0
126646,-66.6666666666667,4,2,1,75,0,0
126779,-66.6666666666667,4,2,1,5,0,0
126823,-100,4,2,1,75,0,0
128058,-58.8235294117647,4,2,1,75,0,0
129823,-100,4,2,1,75,0,0
130176,-83.3333333333333,4,2,1,75,0,0
130882,-83.3333333333333,4,3,1,85,0,1
131940,-100,4,3,1,85,0,1
135646,-83.3333333333333,4,3,1,85,0,1
137587,-100,4,3,1,85,0,1
141293,-83.3333333333333,4,3,1,85,0,1
143235,-100,4,3,1,85,0,1
146411,-45.4545454545455,4,3,1,85,0,1
147823,-45.4545454545455,4,3,1,85,0,0

[Colours]
Combo1 : 192,192,192
Combo2 : 255,236,0

[HitObjects]
63,361,1000,5,2,0:0:0:0:
115,307,1175,1,2,0:3:0:0:
188,326,1352,5,2,0:0:0:0:
115,307,1528,1,2,0:3:0:0:
95,235,1705,5,2,0:0:0:0:
115,307,1881,1,2,0:3:0:0:
63,361,2058,5,2,0:0:0:0:
188,326,2235,1,2,0:3:0:0:
419,160,2587,5,2,0:0:0:0:
387,34,2764,1,2,0:3:0:0:
294,125,2939,1,2,0:0:0:0:
419,160,3117,5,2,0:0:0:0:
367,106,3293,1,2,0:3:0:0:
294,125,3470,5,2,0:0:0:0:
387,34,3645,1,2,0:3:0:0:
64,126,3823,5,2,0:3:0:0:
102,192,3999,1,2,0:0:0:0:
179,192,4176,1,2,0:3:0:0:
102,59,4352,1,2,0:0:0:0:
217,126,4529,1,2,0:3:0:0:
179,59,4705,1,2,0:0:0:0:
102,59,4882,1,2,0:3:0:0:
179,192,5058,1,2,0:0:0:0:
301,265,5235,5,2,0:0:0:0:
339,331,5411,1,2,0:3:0:0:
454,265,5587,1,2,0:0:0:0:
416,198,5763,1,2,0:3:0:0:
301,265,5940,5,2,0:0:0:0:
339,198,6117,1,2,0:3:0:0:
454,265,6293,1,2,0:0:0:0:
416,331,6470,1,2,0:3:0:0:
256,192,6646,5,6,3:2:0:0:
256,192,6999,2,0,L|263:157,2,36,4|4|4,3:3|3:3|3:3,0:0:0:0:
455,349,9117,5,4,3:2:0:0:
455,349,9205,1,4,2:3:0:0:
455,349,9293,1,4,2:3:0:0:
455,349,9382,1,4,2:3:0:0:
455,349,9470,1,4,3:2:0:0:
455,349,9823,6,0,L|447:314,1,36,4|4,3:3|3:3,0:0:0:0:
490,183,10705,6,0,L|494:160,2,22.5000008583069,0|0|0,3:3|3:0|3:0,0:0:0:0:
427,225,10882,6,0,B|417:213|415:194|415:194|295:168,1,135.000005149842,12|0,3:2|0:0,0:0:0:0:
320,96,11146,2,0,B|304:98|287:90|287:90|205:181,1,135.000005149842,12|0,3:2|0:0,0:0:0:0:
135,157,11411,2,0,L|154:223,1,67.5000025749208,12|0,3:2|0:0,0:0:0:0:
196,355,11587,5,0,1:0:0:0:
196,355,11676,1,0,1:0:0:0:
196,355,11764,2,0,L|160:347,1,33.7500012874604,8|0,0:0|0:0,0:0:0:0:
299,299,11940,5,8,3:3:0:0:
315,295,12028,1,8,3:3:0:0:
332,291,12116,1,4,3:3:0:0:
348,288,12204,1,4,3:3:0:0:
365,284,12292,5,6,3:2:0:0:
397,255,12382,1,0,0:0:0:0:
398,209,12470,1,8,0:2:0:0:
361,178,12558,1,0,0:0:0:0:
315,181,12646,1,2,0:2:0:0:
295,178,12735,1,0,0:0:0:0:
286,166,12823,1,8,0:2:0:0:
286,150,12911,1,0,0:0:0:0:
293,139,13000,5,2,0:2:0:0:
259,146,13088,1,0,0:0:0:0:
226,153,13176,1,8,0:2:0:0:
193,160,13264,1,0,0:0:0:0:
160,167,13352,6,0,L|167:130,1,33.7500012874604,2|0,0:2|0:0,0:0:0:0:
77,195,13529,2,0,L|84:158,1,33.7500012874604,10|0,0:2|0:0,0:0:0:0:
12,24,13705,6,0,L|19:61,1,33.7500012874604,2|0,0:2|0:0,0:0:0:0:
103,78,13882,2,0,L|96:41,1,33.7500012874604,10|0,0:2|0:0,0:0:0:0:
186,0,14058,5,2,0:0:0:0:
179,33,14146,1,2,0:0:0:0:
249,67,14235,5,8,0:2:0:0:
256,34,14323,1,2,0:0:0:0:
334,20,14411,6,0,L|327:57,1,33.7500012874604,2|0,0:2|0:0,0:0:0:0:
396,98,14587,2,0,L|403:61,1,33.7500012874604,10|0,0:2|0:0,0:0:0:0:
512,29,14764,5,2,0:2:0:0:
506,53,14852,1,0,0:0:0:0:
501,78,14940,1,8,0:2:0:0:
496,103,15028,1,0,0:0:0:0:
490,128,15117,5,6,0:2:0:0:
445,105,15205,1,0,0:0:0:0:
396,98,15293,1,8,0:2:0:0:
347,116,15382,1,0,0:0:0:0:
315,157,15470,1,2,0:2:0:0:
300,165,15558,1,0,0:0:0:0:
286,167,15646,1,8,0:2:0:0:
273,165,15735,1,0,0:0:0:0:
262,159,15824,5,2,0:2:0:0:
269,192,15912,1,0,0:0:0:0:
276,225,16000,1,8,0:2:0:0:
283,258,16088,1,0,0:0:0:0:
316,280,16176,5,2,0:0:0:0:
311,293,16264,1,2,0:0:0:0:
270,325,16352,1,8,0:2:0:0:
275,338,16440,1,2,0:0:0:0:
316,370,16529,5,2,0:2:0:0:
324,366,16617,1,0,0:0:0:0:
332,362,16705,1,8,0:2:0:0:
365,338,16793,5,2,0:2:0:0:
398,344,16882,1,0,0:0:0:0:
431,350,16970,1,0,0:0:0:0:
464,382,17058,5,10,0:2:0:0:
481,378,17146,1,0,0:0:0:0:
496,375,17235,5,2,0:2:0:0:
481,361,17323,1,2,0:2:0:0:
462,329,17411,1,10,0:2:0:0:
463,281,17499,1,2,0:2:0:0:
502,240,17587,1,10,0:2:0:0:
475,177,17676,1,10,0:2:0:0:
411,144,17764,1,10,0:2:0:0:
342,158,17852,1,10,0:2:0:0:
311,220,17940,5,6,3:2:0:0:
287,234,18029,1,0,0:0:0:0:
254,233,18117,1,8,0:2:0:0:
224,219,18205,1,0,0:0:0:0:
211,190,18293,1,2,0:2:0:0:
177,145,18382,1,0,0:0:0:0:
121,130,18470,1,8,0:2:0:0:
66,149,18558,1,0,0:0:0:0:
45,202,18647,5,2,0:2:0:0:
34,151,18735,1,0,0:0:0:0:
23,102,18823,1,8,0:2:0:0:
12,53,18911,1,0,0:0:0:0:
1,2,18999,6,0,L|53:13,1,45,2|0,0:2|0:0,0:0:0:0:
165,72,19176,2,0,L|209:62,1,45,10|0,0:2|0:0,0:0:0:0:
406,1,19352,6,0,L|395:51,1,45,2|0,0:2|0:0,0:0:0:0:
465,108,19529,2,0,L|476:57,1,45,10|0,0:2|0:0,0:0:0:0:
328,13,19705,5,2,0:0:0:0:
284,22,19793,1,2,0:0:0:0:
283,100,19882,5,8,0:2:0:0:
326,90,19970,1,2,0:0:0:0:
389,149,20058,6,0,L|378:199,1,45,2|0,0:2|0:0,0:0:0:0:
448,256,20235,2,0,L|459:205,1,45,10|0,0:2|0:0,0:0:0:0:
288,208,20411,5,2,0:2:0:0:
297,252,20499,1,0,0:0:0:0:
306,296,20587,1,8,0:2:0:0:
316,340,20675,1,0,0:0:0:0:
325,384,20763,5,6,0:2:0:0:
280,355,20852,1,0,0:0:0:0:
229,339,20940,1,8,0:2:0:0:
177,347,21029,1,0,0:0:0:0:
134,380,21117,1,2,0:2:0:0:
116,382,21205,1,0,0:0:0:0:
105,375,21293,1,8,0:2:0:0:
99,363,21382,1,0,0:0:0:0:
101,350,21470,5,2,0:2:0:0:
53,348,21558,1,0,0:0:0:0:
11,320,21646,1,8,0:2:0:0:
4,271,21735,1,0,0:0:0:0:
50,210,21823,5,2,0:0:0:0:
80,224,21911,1,2,0:0:0:0:
143,263,21999,1,8,0:2:0:0:
173,249,22087,1,2,0:0:0:0:
232,199,22176,5,2,0:2:0:0:
237,214,22264,1,0,0:0:0:0:
242,229,22352,1,8,0:2:0:0:
314,246,22440,5,2,0:2:0:0:
308,273,22529,1,0,0:0:0:0:
302,300,22617,1,0,0:0:0:0:
241,342,22705,5,10,0:2:0:0:
246,355,22793,1,0,0:0:0:0:
251,368,22882,5,2,0:2:0:0:
297,348,22970,1,0,0:0:0:0:
348,344,23058,1,12,0:2:0:0:
398,354,23146,1,0,0:0:0:0:
428,374,23235,1,8,0:0:0:0:
446,382,23323,1,8,0:0:0:0:
464,382,23411,1,4,0:0:0:0:
479,378,23499,1,4,0:0:0:0:
488,369,23587,6,0,L|479:329,1,40.4999987640381,4|0,3:2|0:0,0:0:0:0:
423,279,23940,2,0,L|456:122,1,135.000005149842,2|0,3:2|0:0,0:0:0:0:
309,24,24293,6,0,L|317:63,1,40.4999987640381,0|0,3:2|0:0,0:0:0:0:
374,114,24646,2,0,L|345:246,1,135.000005149842,2|0,3:2|0:0,0:0:0:0:
24,369,24999,6,0,L|32:329,1,40.4999987640381,0|0,3:2|0:0,0:0:0:0:
89,279,25352,2,0,L|55:122,1,135.000005149842,2|0,3:2|0:0,0:0:0:0:
203,24,25705,6,0,L|194:63,1,40.4999987640381,0|0,3:2|0:0,0:0:0:0:
138,114,26058,2,0,L|166:246,1,135.000005149842,2|0,3:2|0:0,0:0:0:0:
488,369,26411,5,4,3:2:0:0:
479,329,26587,1,0,0:0:0:0:
451,146,26764,1,2,3:2:0:0:
423,279,26940,1,0,0:0:0:0:
309,24,27117,5,0,3:2:0:0:
317,63,27293,1,0,0:0:0:0:
345,246,27470,1,2,3:2:0:0:
374,114,27646,1,0,0:0:0:0:
203,24,27823,5,0,3:2:0:0:
194,63,27999,1,0,0:0:0:0:
166,246,28176,1,2,3:2:0:0:
138,114,28352,1,0,0:0:0:0:
24,369,28529,5,0,3:2:0:0:
32,329,28705,6,0,L|28:310,2,15,0|0|0,3:2|3:2|3:2,0:0:0:0:
89,279,28882,5,10,3:3:0:0:
75,212,28970,1,4,0:3:0:0:
60,146,29058,1,6,3:2:0:0:
240,237,29235,6,0,L|302:223,1,45,6|0,3:2|0:0,0:0:0:0:
272,147,29411,2,0,L|209:160,1,45,8|0,0:3|0:0,0:0:0:0:
367,264,29587,5,8,3:3:0:0:
360,234,29675,1,8,0:3:0:0:
354,205,29763,1,4,0:3:0:0:
348,175,29851,1,4,0:3:0:0:
272,147,29940,6,0,L|209:160,1,45,6|0,3:2|0:0,0:0:0:0:
240,237,30117,2,0,L|302:223,1,45,8|0,0:3|0:0,0:0:0:0:
145,120,30294,5,8,3:3:0:0:
152,150,30382,1,8,0:3:0:0:
158,179,30470,1,4,0:3:0:0:
164,209,30558,1,4,0:3:0:0:
240,237,30646,6,0,L|302:223,1,45,6|0,3:2|0:0,0:0:0:0:
272,147,30822,2,0,L|209:160,1,45,8|0,0:3|0:0,0:0:0:0:
193,320,30999,5,8,3:3:0:0:
223,313,31087,1,8,0:3:0:0:
252,307,31175,1,4,0:3:0:0:
282,301,31263,1,4,0:3:0:0:
283,227,31352,6,0,L|240:237,1,45,6|0,3:2|0:0,0:0:0:0:
227,156,31528,2,0,L|272:147,1,45,8|0,0:3|0:0,0:0:0:0:
319,64,31705,5,8,3:3:0:0:
289,71,31793,1,8,0:3:0:0:
260,77,31881,1,4,0:3:0:0:
230,83,31969,1,4,0:3:0:0:
227,156,32058,6,0,L|272:147,1,45,14|0,3:2|0:0,0:0:0:0:
446,91,32235,1,8,0:0:0:0:
453,104,32323,1,8,0:0:0:0:
459,116,32411,2,0,L|414:106,1,45,0|0,3:2|3:2,0:0:0:0:
399,5,32587,2,0,L|444:15,1,45,8|0,0:0|0:0,0:0:0:0:
326,71,32764,1,8,0:0:0:0:
326,71,32852,1,8,0:0:0:0:
326,71,32940,1,0,3:2:0:0:
489,198,33117,6,0,L|477:251,1,45,8|0,0:0|0:0,0:0:0:0:
344,346,33293,1,8,0:0:0:0:
341,333,33382,1,8,0:0:0:0:
338,319,33470,1,4,3:2:0:0:
397,267,33558,6,0,L|416:360,1,90,8|0,0:0|1:2,0:0:0:0:
344,346,33823,5,8,0:0:0:0:
302,326,33911,1,8,0:0:0:0:
254,322,33999,1,8,0:0:0:0:
209,344,34087,1,8,0:0:0:0:
182,384,34176,1,8,0:0:0:0:
109,378,34264,1,8,0:0:0:0:
73,314,34352,6,0,L|44:307,2,30,0|0|0,3:2|3:2|3:2,0:0:0:0:
170,225,34529,1,8,0:0:0:0:
170,225,34882,6,0,L|156:162,1,45,6|0,3:2|0:0,0:0:0:0:
242,187,35058,1,8,0:0:0:0:
93,127,35235,5,2,3:2:0:0:
90,138,35323,1,0,3:2:0:0:
88,149,35411,1,8,0:0:0:0:
211,108,35587,2,0,L|159:98,1,45,2|0,3:2|0:0,0:0:0:0:
213,29,35764,1,10,0:0:0:0:
359,246,35940,2,0,L|410:236,1,45,2|0,3:2|3:2,0:0:0:0:
408,158,36117,2,0,L|356:167,1,45,10|0,0:0|0:0,0:0:0:0:
476,207,36293,5,2,3:2:0:0:
294,198,36470,1,10,0:0:0:0:
469,310,36646,5,2,3:2:0:0:
464,287,36734,1,2,3:2:0:0:
395,317,36823,1,10,0:0:0:0:
400,340,36911,1,2,0:0:0:0:
327,384,36999,6,0,L|313:321,1,45,2|0,3:2|0:0,0:0:0:0:
236,325,37176,2,0,L|249:387,1,45,10|0,0:0|0:0,0:0:0:0:
162,354,37352,5,2,3:2:0:0:
128,346,37440,1,0,3:2:0:0:
95,339,37528,1,8,0:0:0:0:
62,332,37616,1,0,0:0:0:0:
29,325,37705,6,0,L|91:311,1,45,6|0,3:2|0:0,0:0:0:0:
208,182,37882,1,8,0:0:0:0:
197,254,38058,5,2,3:2:0:0:
186,251,38146,1,0,3:2:0:0:
175,249,38234,1,8,0:0:0:0:
79,198,38411,2,0,L|141:184,1,45,2|0,3:2|0:0,0:0:0:0:
158,101,38587,2,0,L|95:114,1,45,10|0,0:0|0:0,0:0:0:0:
0,42,38764,5,2,3:2:0:0:
39,0,38852,1,2,3:2:0:0:
90,2,38940,1,10,0:0:0:0:
108,23,39029,1,2,0:0:0:0:
114,37,39117,6,0,L|51:50,1,45,2|0,3:2|0:0,0:0:0:0:
235,40,39293,1,8,0:0:0:0:
235,40,39382,2,0,L|172:27,1,45,2|0,0:0|3:2,0:0:0:0:
356,37,39557,1,0,3:2:0:0:
356,37,39646,2,0,L|293:50,1,45,10|0,0:0|0:0,0:0:0:0:
495,147,39823,5,2,3:2:0:0:
507,144,39911,1,2,0:0:0:0:
512,127,39999,1,10,0:2:0:0:
492,112,40087,1,2,0:0:0:0:
467,120,40176,1,2,3:2:0:0:
400,157,40264,1,2,3:2:0:0:
339,111,40352,1,10,0:2:0:0:
356,37,40440,1,2,0:0:0:0:
427,22,40529,6,0,L|413:84,1,45,6|0,3:2|0:0,0:0:0:0:
279,58,40705,1,8,0:0:0:0:
394,187,40882,5,2,3:2:0:0:
397,172,40970,1,0,3:2:0:0:
400,157,41058,1,8,0:0:0:0:
277,297,41235,2,0,L|287:347,1,45,2|0,3:2|0:0,0:0:0:0:
336,242,41411,1,10,0:0:0:0:
132,291,41587,2,0,L|142:240,1,45,2|0,3:2|3:2,0:0:0:0:
67,196,41764,2,0,L|57:240,1,45,10|0,0:0|0:0,0:0:0:0:
152,157,41940,5,2,3:2:0:0:
46,327,42117,1,10,0:0:0:0:
46,115,42293,5,2,3:2:0:0:
77,108,42382,1,2,3:2:0:0:
160,68,42470,5,10,0:0:0:0:
138,44,42559,1,2,0:0:0:0:
76,0,42646,6,0,L|59:50,1,33.7500012874604,2|0,3:2|0:0,0:0:0:0:
0,196,42823,2,0,L|51:185,1,33.7500012874604,10|0,0:0|0:0,0:0:0:0:
233,116,42999,5,2,3:2:0:0:
266,123,43087,1,0,3:2:0:0:
299,130,43175,1,8,0:0:0:0:
332,137,43263,1,0,0:0:0:0:
365,144,43352,6,0,L|351:81,1,45,6|0,3:2|0:0,0:0:0:0:
441,107,43529,1,8,0:0:0:0:
290,51,43705,5,2,3:2:0:0:
293,36,43793,1,0,3:2:0:0:
296,21,43881,1,8,0:0:0:0:
503,55,44058,2,0,P|484:37|454:30,1,45,2|0,3:2|0:0,0:0:0:0:
461,183,44235,2,0,P|486:175|507:153,1,45,10|0,0:0|0:0,0:0:0:0:
355,100,44411,5,2,3:2:0:0:
365,144,44499,1,2,3:2:0:0:
285,176,44587,1,10,0:0:0:0:
275,132,44675,1,2,0:0:0:0:
215,79,44764,6,0,P|185:63|156:60,1,45,2|0,3:2|0:0,0:0:0:0:
76,164,44940,1,8,0:0:0:0:
76,164,45029,2,0,P|104:146|121:122,1,45,2|0,0:0|3:2,0:0:0:0:
72,1,45205,1,0,3:2:0:0:
72,1,45293,2,0,P|73:34|85:61,1,45,10|0,0:0|0:0,0:0:0:0:
209,200,45470,6,0,L|195:137,1,45,2|0,3:2|0:0,0:0:0:0:
119,243,45646,2,0,L|105:305,1,45,10|0,0:2|0:0,0:0:0:0:
29,384,45824,5,2,3:2:0:0:
21,350,45912,1,0,3:2:0:0:
14,317,46000,1,8,0:2:0:0:
7,284,46088,1,0,0:0:0:0:
0,251,46176,6,0,L|49:261,1,45,6|0,3:2|0:0,0:0:0:0:
234,350,46352,1,8,0:0:0:0:
164,380,46529,5,2,3:2:0:0:
161,365,46617,1,0,3:2:0:0:
158,350,46705,1,8,0:0:0:0:
270,272,46882,2,0,P|292:285|309:304,1,45,2|0,3:2|0:0,0:0:0:0:
186,274,47058,1,10,0:0:0:0:
334,374,47235,2,0,P|356:361|373:342,1,45,2|0,3:2|3:2,0:0:0:0:
480,350,47411,2,0,P|479:324|471:300,1,45,10|0,0:0|0:0,0:0:0:0:
303,152,47587,5,2,3:2:0:0:
498,171,47764,1,10,0:0:0:0:
383,119,47940,5,2,3:2:0:0:
428,110,48028,1,2,3:2:0:0:
416,196,48117,1,10,0:0:0:0:
371,205,48205,1,2,0:0:0:0:
303,152,48293,6,0,L|313:101,1,45,2|0,3:2|0:0,0:0:0:0:
498,171,48470,2,0,L|487:221,1,45,10|0,0:0|0:0,0:0:0:0:
360,15,48646,5,2,3:2:0:0:
393,22,48734,1,0,3:2:0:0:
426,29,48822,1,8,0:0:0:0:
459,36,48910,1,0,0:0:0:0:
492,43,48999,6,0,L|480:94,1,45,6|0,3:2|0:0,0:0:0:0:
256,28,49176,1,8,0:0:0:0:
371,205,49352,5,2,3:2:0:0:
373,190,49440,1,0,3:2:0:0:
376,175,49528,1,8,0:0:0:0:
268,251,49705,2,0,L|280:316,1,45,2|0,3:2|0:0,0:0:0:0:
174,384,49882,2,0,L|161:318,1,45,10|0,0:0|0:0,0:0:0:0:
76,204,50058,5,2,3:2:0:0:
31,195,50146,1,2,3:2:0:0:
43,281,50235,1,10,0:0:0:0:
88,290,50323,1,2,0:0:0:0:
153,238,50411,6,0,P|171:218|196:208,1,45,2|0,3:2|0:0,0:0:0:0:
108,87,50587,1,8,0:0:0:0:
108,87,50676,2,0,P|116:112|112:139,1,45,2|0,0:0|3:2,0:0:0:0:
261,123,50852,1,0,3:2:0:0:
261,123,50940,2,0,P|234:117|213:100,1,45,10|0,0:0|0:0,0:0:0:0:
2,5,51117,6,0,L|64:18,1,45,2|0,3:2|0:0,0:0:0:0:
44,128,51293,2,0,L|-18:114,1,45,10|0,0:2|0:0,0:0:0:0:
201,15,51470,5,2,3:2:0:0:
193,48,51558,1,0,3:2:0:0:
186,81,51646,1,8,0:2:0:0:
179,114,51734,1,0,0:0:0:0:
172,147,51823,6,0,L|234:133,1,45,6|0,3:2|0:0,0:0:0:0:
108,87,51999,1,8,0:0:0:0:
30,217,52176,5,2,3:2:0:0:
15,213,52264,1,0,3:2:0:0:
0,210,52352,1,8,0:0:0:0:
186,287,52529,6,0,L|248:273,1,45,2|0,3:2|0:0,0:0:0:0:
122,227,52705,1,10,0:0:0:0:
34,384,52882,2,0,P|12:370|-1:340,1,45,2|0,3:2|3:2,0:0:0:0:
61,281,53058,2,0,P|83:295|96:325,1,45,10|0,0:0|0:0,0:0:0:0:
256,384,53235,5,2,3:2:0:0:
474,269,53411,1,10,0:0:0:0:
348,382,53587,5,2,3:2:0:0:
325,342,53675,1,2,3:2:0:0:
380,268,53764,1,10,0:0:0:0:
402,307,53852,1,2,0:0:0:0:
425,377,53940,6,0,P|447:379|475:369,1,45,2|0,3:2|0:0,0:0:0:0:
300,268,54117,2,0,P|277:265|249:275,1,45,10|0,0:0|0:0,0:0:0:0:
34,384,54293,1,2,3:2:0:0:
21,353,54381,1,0,3:2:0:0:
32,322,54469,1,8,0:0:0:0:
60,305,54557,1,0,0:0:0:0:
93,311,54646,6,0,L|106:373,1,45,6|0,3:2|0:0,0:0:0:0:
256,192,54823,1,8,0:0:0:0:
183,151,54999,5,2,3:2:0:0:
178,173,55087,1,0,3:2:0:0:
173,195,55175,1,8,0:0:0:0:
48,127,55352,2,0,P|73:132|91:153,1,45,2|0,3:2|0:0,0:0:0:0:
53,231,55529,2,0,P|28:226|10:205,1,45,10|0,0:0|0:0,0:0:0:0:
0,57,55705,5,2,3:2:0:0:
9,12,55793,1,2,3:2:0:0:
98,0,55882,1,10,0:0:0:0:
89,45,55970,1,2,0:0:0:0:
159,90,56058,6,0,L|172:27,1,45,2|0,3:2|0:0,0:0:0:0:
259,14,56235,1,8,0:0:0:0:
259,14,56323,2,0,L|245:76,1,45,2|0,0:0|3:2,0:0:0:0:
452,87,56500,1,0,3:2:0:0:
452,87,56588,2,0,L|438:25,1,45,10|0,0:0|0:0,0:0:0:0:
352,11,56764,2,0,L|365:74,1,45,2|0,3:2|0:0,0:0:0:0:
416,297,56940,1,8,0:2:0:0:
479,149,57117,5,2,3:2:0:0:
423,160,57205,1,8,3:2:0:0:
368,172,57293,1,8,0:2:0:0:
313,184,57381,1,8,0:0:0:0:
258,195,57471,5,6,0:2:0:0:
261,185,57558,1,0,0:0:0:0:
264,175,57646,1,10,0:2:0:0:
267,165,57735,1,0,0:0:0:0:
197,142,57823,5,2,0:2:0:0:
193,156,57910,1,0,0:0:0:0:
188,169,57998,1,10,0:2:0:0:
184,183,58087,1,0,0:0:0:0:
113,242,58176,5,2,0:2:0:0:
108,225,58263,1,0,0:0:0:0:
102,209,58351,1,10,0:2:0:0:
97,192,58440,1,0,0:0:0:0:
15,195,58529,5,2,0:2:0:0:
23,222,58618,1,0,0:0:0:0:
32,247,58706,1,10,0:2:0:0:
40,275,58793,1,0,0:0:0:0:
23,364,58882,5,2,0:2:0:0:
67,354,58970,1,0,0:0:0:0:
111,345,59058,1,10,0:2:0:0:
155,335,59146,1,0,0:0:0:0:
230,308,59235,5,2,0:2:0:0:
233,322,59323,1,0,0:0:0:0:
236,337,59411,1,10,0:2:0:0:
239,352,59499,1,0,0:0:0:0:
311,309,59587,5,2,0:2:0:0:
308,295,59675,1,0,0:0:0:0:
305,280,59763,1,10,0:2:0:0:
302,265,59851,1,0,0:0:0:0:
374,231,59940,5,2,0:2:0:0:
418,241,60028,1,0,0:0:0:0:
462,250,60116,1,10,0:2:0:0:
506,260,60204,1,0,0:0:0:0:
486,339,60293,5,6,0:2:0:0:
428,341,60381,1,0,0:0:0:0:
395,293,60469,1,10,0:2:0:0:
417,240,60557,1,0,0:0:0:0:
450,209,60646,5,2,0:2:0:0:
458,204,60735,1,0,0:0:0:0:
454,197,60823,1,10,0:2:0:0:
446,200,60911,1,0,0:0:0:0:
489,166,60999,5,2,0:2:0:0:
511,113,61087,1,0,0:0:0:0:
478,65,61175,1,10,0:2:0:0:
421,68,61263,1,0,0:0:0:0:
385,112,61352,5,2,0:2:0:0:
380,103,61441,1,0,0:0:0:0:
389,99,61529,1,10,0:2:0:0:
392,107,61617,1,0,0:0:0:0:
347,182,61705,6,0,P|319:164|304:118,1,67.5000025749208,12|0,0:2|0:0,0:0:0:0:
293,0,61882,1,0,0:0:0:0:
319,63,61970,2,0,L|225:43,1,76.5000014591217,12|0,0:2|0:0,0:0:0:0:
26,115,62146,1,0,0:0:0:0:
0,178,62234,1,12,0:2:0:0:
24,172,62322,1,0,0:0:0:0:
49,167,62410,1,0,0:0:0:0:
74,162,62498,1,0,0:0:0:0:
129,90,62587,6,0,P|165:103|190:143,1,76.5000014591217,12|0,0:2|0:0,0:0:0:0:
304,133,62764,2,0,P|310:170|288:212,1,76.5000014591217,12|0,0:2|0:0,0:0:0:0:
354,306,62940,2,0,P|324:330|277:332,1,76.5000014591217,12|0,0:2|0:0,0:0:0:0:
67,334,63117,5,6,0:2:0:0:
72,269,63205,1,0,0:0:0:0:
129,238,63293,1,10,0:2:0:0:
187,268,63381,1,0,0:0:0:0:
175,342,63470,5,2,0:2:0:0:
158,339,63558,1,0,0:0:0:0:
142,346,63646,1,10,0:2:0:0:
134,360,63735,1,0,0:0:0:0:
67,334,63823,5,2,0:2:0:0:
72,269,63911,1,0,0:0:0:0:
129,238,63999,1,10,0:2:0:0:
187,268,64087,1,0,0:0:0:0:
287,334,64176,5,2,0:2:0:0:
345,364,64264,1,0,0:0:0:0:
402,333,64352,1,10,0:2:0:0:
407,268,64440,1,0,0:0:0:0:
340,242,64529,5,2,0:2:0:0:
332,256,64618,1,0,0:0:0:0:
316,263,64706,1,10,0:2:0:0:
299,260,64794,1,0,0:0:0:0:
239,219,64882,5,2,0:2:0:0:
270,184,64970,1,0,0:0:0:0:
281,141,65058,1,10,0:2:0:0:
321,167,65146,1,0,0:0:0:0:
366,177,65234,5,2,0:2:0:0:
411,187,65323,1,0,0:0:0:0:
451,213,65411,1,10,0:2:0:0:
462,170,65499,1,0,0:0:0:0:
493,135,65587,6,0,L|478:65,1,67.5000025749208,2|0,0:2|0:0,0:0:0:0:
372,20,65764,2,0,L|386:89,1,67.5000025749208,10|0,0:2|0:0,0:0:0:0:
280,311,65940,5,6,0:2:0:0:
214,296,66028,1,0,0:0:0:0:
148,282,66116,1,10,0:2:0:0:
82,267,66204,1,0,0:0:0:0:
97,194,66293,1,2,0:2:0:0:
101,171,66381,1,0,0:0:0:0:
106,149,66469,1,10,0:2:0:0:
111,127,66557,1,0,0:0:0:0:
131,54,66646,5,2,0:2:0:0:
197,69,66734,1,0,0:0:0:0:
263,83,66822,1,10,0:2:0:0:
329,98,66910,1,0,0:0:0:0:
314,171,66999,1,2,0:2:0:0:
310,194,67087,1,0,0:0:0:0:
305,216,67175,1,10,0:2:0:0:
300,238,67263,1,0,0:0:0:0:
237,227,67352,5,8,0:0:0:0:
200,218,67440,1,8,0:0:0:0:
164,210,67529,1,8,0:0:0:0:
172,174,67617,1,8,0:0:0:0:
181,137,67705,1,4,0:0:0:0:
218,146,67793,1,4,0:0:0:0:
255,155,67882,1,4,0:0:0:0:
247,191,67970,1,4,0:0:0:0:
203,187,68058,5,10,0:2:0:0:
275,246,68146,1,10,0:2:0:0:
335,172,68235,1,10,0:2:0:0:
260,115,68323,1,10,0:2:0:0:
185,58,68411,1,10,0:2:0:0:
128,133,68499,1,10,0:2:0:0:
71,208,68587,1,10,0:2:0:0:
146,265,68676,1,10,0:2:0:0:
221,322,68764,5,6,3:2:0:0:
335,172,68940,1,2,3:3:0:0:
391,228,69117,1,10,3:2:0:0:
319,55,69293,5,2,3:2:0:0:
391,228,69469,1,2,3:3:0:0:
315,249,69646,1,0,3:2:0:0:
501,274,69823,5,10,3:2:0:0:
315,249,69999,1,2,3:3:0:0:
334,173,70176,1,2,3:3:0:0:
391,228,70352,5,2,3:2:0:0:
315,249,70529,1,8,3:2:0:0:
334,173,70706,1,0,3:2:0:0:
374,309,70882,5,2,3:2:0:0:
374,309,71058,1,0,3:2:0:0:
221,322,71235,1,10,3:2:0:0:
183,308,71323,1,2,0:2:0:0:
152,301,71410,1,2,3:2:0:0:
152,301,71499,1,0,3:2:0:0:
152,301,71587,5,2,3:2:0:0:
100,366,71764,1,2,3:3:0:0:
35,314,71940,1,10,3:2:0:0:
173,219,72117,5,2,3:2:0:0:
238,167,72293,1,2,3:3:0:0:
290,232,72470,1,2,3:3:0:0:
35,314,72646,5,10,3:2:0:0:
4,236,72823,1,2,3:3:0:0:
82,206,72999,1,2,3:3:0:0:
290,232,73176,5,2,3:2:0:0:
321,310,73353,1,10,3:2:0:0:
243,340,73529,1,2,3:3:0:0:
100,366,73705,5,2,3:2:0:0:
173,219,73882,1,0,3:2:0:0:
246,72,74058,1,10,3:2:0:0:
287,80,74146,1,2,0:0:0:0:
335,95,74235,1,2,3:2:0:0:
335,95,74323,1,0,3:2:0:0:
335,95,74411,5,6,3:2:0:0:
400,25,74587,1,2,3:3:0:0:
512,93,74764,1,10,3:2:0:0:
447,163,74940,5,2,3:2:0:0:
335,95,75117,1,2,3:3:0:0:
270,165,75293,1,2,3:3:0:0:
64,71,75470,5,10,3:2:0:0:
176,3,75647,1,2,3:3:0:0:
241,73,75823,1,2,3:3:0:0:
0,140,75999,5,2,3:2:0:0:
112,208,76176,1,10,3:2:0:0:
177,138,76352,1,2,3:3:0:0:
0,233,76529,5,2,3:2:0:0:
64,71,76705,1,2,3:3:0:0:
142,296,76882,1,10,3:2:0:0:
7,147,77058,1,0,3:2:0:0:
7,147,77146,1,0,3:2:0:0:
7,147,77235,5,14,3:2:0:0:
83,174,77411,1,0,3:2:0:0:
159,201,77587,1,0,3:2:0:0:
0,233,77764,1,0,3:2:0:0:
166,115,77940,5,14,3:2:0:0:
242,142,78116,1,0,3:2:0:0:
318,169,78292,1,0,3:2:0:0:
159,201,78469,1,0,3:2:0:0:
325,83,78646,5,14,3:2:0:0:
401,110,78822,1,0,3:2:0:0:
477,137,78998,1,0,3:2:0:0:
318,169,79175,1,0,3:2:0:0:
0,233,79352,5,14,3:2:0:0:
159,201,79529,1,0,3:2:0:0:
73,384,79705,5,8,3:2:0:0:
53,339,79793,1,8,1:2:0:0:
81,299,79881,1,8,3:2:0:0:
129,301,79969,1,8,3:2:0:0:
153,343,80058,5,6,3:2:0:0:
182,375,80146,1,0,0:0:0:0:
226,378,80234,1,8,3:2:0:0:
260,350,80322,1,0,0:0:0:0:
266,306,80410,1,0,0:0:0:0:
239,271,80499,1,0,0:0:0:0:
198,266,80588,5,10,3:2:0:0:
223,299,80676,1,0,0:0:0:0:
266,306,80764,1,0,0:0:0:0:
302,282,80852,1,0,0:0:0:0:
313,239,80940,1,8,3:2:0:0:
289,200,81029,1,0,0:0:0:0:
248,195,81117,5,2,3:2:0:0:
270,229,81205,1,0,0:0:0:0:
313,239,81293,1,8,3:2:0:0:
350,218,81381,1,0,0:0:0:0:
364,176,81469,1,0,0:0:0:0:
343,135,81558,1,0,0:0:0:0:
303,128,81646,5,10,3:2:0:0:
322,163,81734,1,0,0:0:0:0:
364,176,81822,1,0,0:0:0:0:
403,158,81910,1,0,0:0:0:0:
420,117,81998,1,8,3:2:0:0:
401,74,82087,1,0,0:0:0:0:
361,56,82177,5,2,3:2:0:0:
387,50,82265,1,0,0:0:0:0:
413,44,82353,1,8,3:2:0:0:
440,39,82441,1,0,0:0:0:0:
466,33,82529,5,2,3:2:0:0:
423,85,82617,1,2,3:2:0:0:
361,56,82705,1,10,3:2:0:0:
348,50,82793,1,0,0:0:0:0:
288,14,82882,5,6,3:2:0:0:
231,5,82970,1,0,0:0:0:0:
192,40,83058,1,8,3:2:0:0:
180,79,83146,1,0,0:0:0:0:
149,104,83235,1,0,0:0:0:0:
115,111,83323,1,0,0:0:0:0:
90,104,83411,5,10,3:2:0:0:
147,95,83499,1,0,0:0:0:0:
186,130,83587,1,0,0:0:0:0:
198,169,83675,1,0,0:0:0:0:
229,194,83764,1,8,3:2:0:0:
263,201,83852,1,0,0:0:0:0:
288,194,83941,5,2,3:2:0:0:
231,185,84029,1,0,0:0:0:0:
192,220,84117,1,8,3:2:0:0:
180,259,84205,1,0,0:0:0:0:
149,284,84294,1,0,0:0:0:0:
115,291,84382,1,0,0:0:0:0:
90,284,84470,5,10,3:2:0:0:
147,275,84558,1,0,0:0:0:0:
186,310,84646,1,0,0:0:0:0:
198,349,84734,1,0,0:0:0:0:
229,374,84823,1,8,3:2:0:0:
263,381,84911,1,0,0:0:0:0:
288,374,84999,5,2,3:2:0:0:
278,365,85087,1,0,0:0:0:0:
277,350,85176,1,8,3:2:0:0:
285,337,85264,1,0,0:0:0:0:
300,332,85352,5,2,3:2:0:0:
259,269,85440,1,2,3:2:0:0:
182,285,85529,1,10,3:2:0:0:
166,293,85617,1,0,0:0:0:0:
95,322,85705,5,6,3:2:0:0:
123,272,85793,1,0,0:0:0:0:
110,223,85882,1,8,3:2:0:0:
78,201,85970,1,0,0:0:0:0:
51,182,86058,1,0,0:0:0:0:
46,158,86146,1,0,0:0:0:0:
59,137,86235,5,10,3:2:0:0:
88,169,86323,1,0,0:0:0:0:
132,172,86411,1,0,0:0:0:0:
166,144,86499,1,0,0:0:0:0:
172,100,86587,1,8,3:2:0:0:
145,65,86676,1,0,0:0:0:0:
97,60,86764,5,2,3:2:0:0:
147,88,86852,1,0,0:0:0:0:
196,75,86941,1,8,3:2:0:0:
218,43,87029,1,0,0:0:0:0:
237,16,87117,1,0,0:0:0:0:
261,11,87205,1,0,0:0:0:0:
282,24,87294,5,10,3:2:0:0:
250,53,87382,1,0,0:0:0:0:
247,97,87470,1,0,0:0:0:0:
275,131,87558,1,0,0:0:0:0:
319,137,87646,1,8,3:2:0:0:
354,110,87735,1,0,0:0:0:0:
391,71,87823,5,2,3:2:0:0:
395,92,87911,1,0,0:0:0:0:
399,113,87999,1,8,3:2:0:0:
403,134,88087,1,0,0:0:0:0:
465,168,88176,5,2,3:2:0:0:
454,217,88264,1,0,0:0:0:0:
443,267,88352,1,8,3:2:0:0:
433,316,88440,1,0,0:0:0:0:
459,380,88528,5,14,3:2:0:0:
393,358,88617,1,0,0:0:0:0:
327,336,88705,1,0,0:0:0:0:
261,314,88794,1,0,0:0:0:0:
274,240,88882,5,12,3:2:0:0:
208,262,88971,1,0,0:0:0:0:
142,284,89059,1,0,0:0:0:0:
76,306,89146,1,0,0:0:0:0:
0,371,89235,5,14,3:2:0:0:
17,318,89324,1,0,0:0:0:0:
35,265,89412,1,0,0:0:0:0:
52,212,89499,1,0,0:0:0:0:
112,223,89587,5,12,3:2:0:0:
94,170,89676,1,0,0:0:0:0:
76,117,89764,1,0,0:0:0:0:
59,64,89852,1,0,0:0:0:0:
33,0,89940,5,14,3:2:0:0:
99,22,90029,1,0,0:0:0:0:
165,44,90117,1,0,0:0:0:0:
231,66,90206,1,0,0:0:0:0:
218,140,90294,5,12,3:2:0:0:
284,118,90383,1,0,0:0:0:0:
350,96,90471,1,0,0:0:0:0:
416,74,90558,1,0,0:0:0:0:
492,9,90647,5,12,3:2:0:0:
475,62,90736,1,0,0:0:0:0:
457,115,90824,1,0,0:0:0:0:
440,168,90911,1,0,0:0:0:0:
380,157,90999,5,12,3:2:0:0:
398,210,91087,1,0,0:0:0:0:
416,263,91176,1,0,0:0:0:0:
433,316,91264,1,0,0:0:0:0:
462,384,91352,5,12,3:2:0:0:
302,203,96999,6,0,L|196:179,3,90,6|0|2|0,3:2|3:2|3:2|3:2,0:0:0:0:
324,179,98411,6,0,L|167:212,3,135.000005149842,2|0|2|0,3:2|3:2|3:2|3:2,0:0:0:0:
340,227,99823,6,0,L|164:148,3,180,6|0|2|0,3:2|3:2|3:2|3:2,0:0:0:0:
359,143,101235,6,0,L|154:234,2,225,2|0|2,3:2|3:2|3:2,0:0:0:0:
508,79,102117,5,0,3:2:0:0:
505,68,102176,5,0,3:2:0:0:
502,60,102235,5,0,3:2:0:0:
501,52,102293,6,0,L|494:20,1,22.5,8|4,3:3|3:3,0:0:0:0:
417,11,102470,2,0,L|423:42,1,22.5,6|0,3:2|3:2,0:0:0:0:
359,143,102646,6,0,P|324:143|298:115,1,67.5000025749208,6|0,3:2|0:0,0:0:0:0:
252,5,102823,2,0,P|217:4|191:33,1,67.5000025749208,8|0,0:3|0:0,0:0:0:0:
73,155,102999,5,8,3:3:0:0:
42,166,103087,1,8,0:3:0:0:
12,152,103175,1,4,0:3:0:0:
2,121,103263,1,4,0:3:0:0:
18,92,103352,6,0,L|111:111,1,67.5000025749208,6|0,3:2|0:0,0:0:0:0:
202,93,103529,2,0,L|232:183,1,67.5000025749208,8|0,0:3|0:0,0:0:0:0:
423,294,103705,1,8,3:3:0:0:
454,305,103793,1,8,0:3:0:0:
484,291,103881,1,4,0:3:0:0:
494,260,103969,1,4,0:3:0:0:
478,231,104058,6,0,L|385:250,1,67.5000025749208,6|0,3:2|0:0,0:0:0:0:
294,232,104235,2,0,L|263:322,1,67.5000025749208,8|4,0:3|0:3,0:0:0:0:
26,371,104411,5,8,3:3:0:0:
22,338,104499,1,8,0:3:0:0:
41,311,104587,1,4,0:3:0:0:
73,303,104675,1,4,0:3:0:0:
101,319,104763,6,0,P|136:319|162:291,1,67.5000025749208,6|0,3:2|3:2,0:0:0:0:
223,157,104940,2,0,P|258:156|284:185,1,67.5000025749208,8|0,0:3|0:0,0:0:0:0:
469,276,105117,5,8,3:3:0:0:
471,264,105205,1,8,0:3:0:0:
473,253,105293,1,4,0:3:0:0:
476,242,105381,1,4,0:3:0:0:
478,231,105470,6,0,L|384:250,1,67.5000025749208,14|0,3:2|0:0,0:0:0:0:
316,99,105646,5,8,0:0:0:0:
378,53,105735,1,8,0:0:0:0:
445,90,105823,1,0,3:2:0:0:
458,96,105911,1,0,3:2:0:0:
471,94,105999,2,0,P|435:107|423:145,1,67.5000025749208,8|0,0:0|0:0,0:0:0:0:
285,277,106176,5,8,0:0:0:0:
201,277,106264,1,8,0:0:0:0:
179,201,106352,1,0,3:2:0:0:
165,188,106440,1,0,3:2:0:0:
146,186,106529,2,0,L|223:168,1,67.5000025749208,8|0,0:0|0:0,0:0:0:0:
197,0,106705,5,8,0:0:0:0:
113,20,106793,1,8,0:0:0:0:
28,38,106882,5,4,3:2:0:0:
33,50,106970,1,8,0:0:0:0:
61,119,107058,5,0,1:2:0:0:
66,131,107146,1,0,1:2:0:0:
69,209,107235,5,8,0:0:0:0:
135,170,107323,1,8,0:0:0:0:
214,188,107411,1,8,0:0:0:0:
265,250,107499,1,8,0:0:0:0:
326,302,107587,1,8,0:0:0:0:
409,312,107676,1,8,0:0:0:0:
474,273,107764,2,0,L|459:202,1,67.5000025749208,4|0,3:2|3:2,0:0:0:0:
434,50,107940,6,0,L|427:18,3,22.5,8|2|2|2,0:0|0:3|0:3|0:3,0:0:0:0:
477,139,108293,6,0,B|412:125|412:125|406:117|406:117|329:101,1,135.000005149842,6|8,3:2|0:0,0:0:0:0:
142,62,108646,1,2,3:2:0:0:
146,48,108735,1,0,3:2:0:0:
149,35,108823,1,8,0:0:0:0:
265,250,108999,1,2,3:2:0:0:
4,189,109176,1,8,0:0:0:0:
220,140,109352,6,0,L|208:194,1,45,2|0,3:2|3:2,0:0:0:0:
124,219,109529,2,0,L|135:164,1,45,10|0,0:0|0:0,0:0:0:0:
11,8,109705,6,0,L|35:124,1,101.250003862381,2|0,3:2|0:0,0:0:0:0:
48,114,109882,2,0,L|36:59,1,45,10|0,0:0|0:0,0:0:0:0:
149,35,110058,5,2,3:2:0:0:
142,62,110146,1,2,3:2:0:0:
226,111,110235,1,10,0:0:0:0:
233,84,110323,1,2,0:0:0:0:
276,22,110411,6,0,B|297:22|315:11|315:11|305:29|306:49,1,80.9999975280763,2|0,3:2|0:0,0:0:0:0:
190,179,110587,2,0,B|169:179|150:189|150:189|161:172|159:151,1,80.9999975280763,10|0,0:0|0:0,0:0:0:0:
378,49,110764,5,2,3:2:0:0:
411,56,110852,1,0,3:2:0:0:
444,63,110940,1,8,0:0:0:0:
477,70,111028,1,0,0:0:0:0:
512,142,111117,6,0,B|522:185|485:204|485:204|442:209|444:245,1,135.000005149842,6|8,3:2|0:0,0:0:0:0:
462,381,111470,1,2,3:2:0:0:
486,379,111558,1,0,3:2:0:0:
503,361,111646,1,8,0:0:0:0:
339,156,111823,1,2,3:2:0:0:
223,384,111999,1,8,0:0:0:0:
385,326,112176,5,2,3:2:0:0:
379,298,112264,1,2,3:2:0:0:
281,290,112353,1,10,0:0:0:0:
287,318,112441,1,2,0:0:0:0:
223,384,112529,6,0,L|189:227,1,135.000005149842,2|8,3:2|0:0,0:0:0:0:
260,118,112793,1,2,0:0:0:0:
260,118,112882,2,0,B|269:92|294:91|294:91|276:100|268:115,1,80.9999975280763,0|0,3:2|3:2,0:0:0:0:
114,245,113058,2,0,B|86:250|73:229|73:229|90:240|107:239,1,80.9999975280763,10|0,0:0|0:0,0:0:0:0:
287,318,113235,5,2,3:2:0:0:
304,326,113323,1,2,0:0:0:0:
329,325,113411,1,10,0:2:0:0:
351,311,113499,1,2,0:0:0:0:
361,258,113587,1,2,3:2:0:0:
386,187,113676,1,2,3:2:0:0:
459,175,113764,1,10,0:2:0:0:
510,225,113852,1,2,0:0:0:0:
467,286,113940,6,0,B|451:274|444:255|444:255|340:233,1,135.000005149842,6|8,3:2|0:0,0:0:0:0:
186,384,114293,1,2,3:2:0:0:
202,380,114381,1,0,3:2:0:0:
219,376,114469,1,8,0:0:0:0:
180,152,114646,1,2,3:2:0:0:
31,379,114823,1,8,0:0:0:0:
281,243,114999,6,0,L|218:229,1,45,2|0,3:2|3:2,0:0:0:0:
155,317,115176,2,0,L|217:303,1,45,10|0,0:0|0:0,0:0:0:0:
430,186,115352,6,0,L|304:159,1,101.250003862381,2|0,3:2|0:0,0:0:0:0:
325,147,115529,2,0,L|375:157,1,45,10|0,0:0|0:0,0:0:0:0:
131,68,115705,5,2,3:2:0:0:
104,75,115793,1,2,3:2:0:0:
153,159,115882,1,10,0:0:0:0:
180,152,115970,1,2,0:0:0:0:
224,72,116058,6,0,B|227:44|199:31|199:31|213:51|209:66,1,80.9999975280763,2|0,3:2|0:0,0:0:0:0:
65,171,116235,2,0,B|62:199|89:211|89:211|76:192|80:177,1,80.9999975280763,10|0,0:0|0:0,0:0:0:0:
73,0,116411,5,2,3:2:0:0:
33,5,116499,1,0,3:2:0:0:
13,31,116587,1,8,0:0:0:0:
17,63,116676,1,0,0:0:0:0:
104,75,116764,6,0,L|291:35,1,135.000005149842,6|8,3:2|0:0,0:0:0:0:
402,163,117117,1,2,3:2:0:0:
386,159,117205,1,0,3:2:0:0:
369,155,117293,1,8,0:0:0:0:
506,75,117470,1,2,3:2:0:0:
429,325,117646,1,8,0:0:0:0:
240,160,117823,5,2,3:2:0:0:
267,153,117911,1,2,3:2:0:0:
316,237,118000,1,10,0:0:0:0:
289,244,118088,1,2,0:0:0:0:
206,252,118176,6,0,B|160:234|166:178|166:178|173:209|200:220,1,135.000005149842,2|8,3:2|0:0,0:0:0:0:
253,319,118440,1,2,0:0:0:0:
253,319,118529,2,0,P|231:332|208:338,1,33.7500012874604,0|0,3:2|3:2,0:0:0:0:
125,384,118705,2,0,P|102:372|85:354,1,33.7500012874604,10|0,0:0|0:0,0:0:0:0:
289,244,118882,6,0,L|445:277,1,135.000005149842,2|8,3:2|0:2,0:0:0:0:
267,153,119146,1,2,0:0:0:0:
267,153,119235,2,0,L|204:166,1,33.7500012874604,0|0,3:2|3:2,0:0:0:0:
403,66,119411,2,0,L|465:79,1,33.7500012874604,10|0,0:2|0:0,0:0:0:0:
189,214,119587,6,0,B|158:160|102:167|102:167|81:196|50:201,1,153.000002918243,6|8,3:2|0:0,0:0:0:0:
247,75,119940,1,2,3:2:0:0:
251,58,120028,1,0,3:2:0:0:
255,42,120116,1,8,0:0:0:0:
39,131,120293,1,2,3:2:0:0:
96,367,120470,1,8,0:0:0:0:
233,204,120646,2,0,L|170:217,1,45,2|0,3:2|3:2,0:0:0:0:
127,147,120823,2,0,L|189:133,1,45,10|0,0:0|0:0,0:0:0:0:
436,72,120999,6,0,L|409:197,1,101.250003862381,2|0,3:2|0:0,0:0:0:0:
394,178,121176,2,0,L|403:133,1,45,10|0,0:0|0:0,0:0:0:0:
255,42,121352,5,2,3:2:0:0:
247,75,121440,1,2,3:2:0:0:
150,74,121529,1,10,0:0:0:0:
158,41,121617,1,2,0:0:0:0:
88,9,121705,6,0,L|68:102,1,67.5000025749208,2|0,3:2|0:0,0:0:0:0:
317,107,121882,2,0,L|336:13,1,67.5000025749208,10|0,0:0|0:0,0:0:0:0:
127,147,122058,5,2,3:2:0:0:
134,180,122146,1,0,3:2:0:0:
141,213,122234,1,8,0:0:0:0:
148,246,122322,1,0,0:0:0:0:
133,324,122411,6,0,B|98:320|72:345|72:345|88:310|77:275,1,135.000005149842,6|8,3:2|0:0,0:0:0:0:
402,276,122764,1,2,3:2:0:0:
419,280,122852,1,0,3:2:0:0:
435,284,122940,1,8,0:0:0:0:
260,374,123117,1,2,3:2:0:0:
317,107,123293,1,8,0:0:0:0:
148,246,123470,5,2,3:2:0:0:
181,238,123558,1,2,3:2:0:0:
188,131,123646,1,10,0:0:0:0:
155,139,123734,1,2,0:0:0:0:
83,191,123823,6,0,B|54:171|18:178|18:178|50:161|59:118,1,135.000005149842,2|8,3:2|0:0,0:0:0:0:
85,44,124087,1,2,0:0:0:0:
85,44,124176,2,0,B|86:26|74:12|74:12|89:22|110:15,1,67.5000025749208,0|0,3:2|3:2,0:0:0:0:
211,8,124352,2,0,B|226:0|232:-16|232:-16|232:1|248:15,1,67.5000025749208,10|0,0:0|0:0,0:0:0:0:
255,161,124529,6,0,B|277:168|288:181|288:181|403:157,1,135.000005149842,2|8,3:2|0:2,0:0:0:0:
361,97,124793,1,2,0:0:0:0:
361,97,124882,2,0,L|298:110,1,45,0|0,3:2|3:2,0:0:0:0:
225,228,125058,2,0,L|162:241,1,45,10|0,0:2|0:0,0:0:0:0:
365,334,125235,6,0,B|422:345|422:345|428:353|428:353|493:367,1,135.000005149842,6|8,3:2|0:0,0:0:0:0:
295,258,125587,1,2,3:2:0:0:
291,274,125675,1,0,3:2:0:0:
287,291,125763,1,8,0:0:0:0:
239,84,125940,1,2,3:2:0:0:
510,162,126117,1,8,0:0:0:0:
351,52,126293,6,0,L|364:114,1,45,2|0,3:2|3:2,0:0:0:0:
446,117,126470,2,0,L|432:54,1,45,10|0,0:0|0:0,0:0:0:0:
176,0,126646,6,0,L|147:116,1,101.250003862381,2|0,3:2|0:0,0:0:0:0:
134,109,126823,2,0,L|147:46,1,45,8|0,0:0|0:0,0:0:0:0:
0,174,126999,5,2,3:2:0:0:
8,207,127087,1,2,3:2:0:0:
114,235,127176,1,10,0:0:0:0:
106,202,127264,1,2,0:0:0:0:
64,126,127352,6,0,P|48:109|23:99,1,45,2|0,3:2|0:0,0:0:0:0:
52,288,127529,2,0,P|67:304|92:314,1,45,10|0,0:0|0:0,0:0:0:0:
252,261,127705,5,2,3:2:0:0:
245,294,127793,1,0,3:2:0:0:
238,327,127881,1,8,0:0:0:0:
231,360,127969,1,0,0:0:0:0:
303,384,128058,6,0,B|320:336|392:332|392:332|407:359|447:369,1,153.000002918243,6|8,3:2|0:0,0:0:0:0:
162,306,128411,1,2,3:2:0:0:
158,322,128499,1,0,3:2:0:0:
154,339,128587,1,8,0:0:0:0:
191,182,128764,1,2,3:2:0:0:
455,297,128940,1,8,0:0:0:0:
231,360,129117,5,2,3:2:0:0:
238,327,129205,1,2,3:2:0:0:
391,314,129293,1,10,0:0:0:0:
384,347,129381,1,2,0:0:0:0:
303,384,129470,6,0,L|336:227,1,153.000002918243,2|8,3:2|0:0,0:0:0:0:
398,148,129735,1,2,0:0:0:0:
398,148,129823,2,0,L|408:193,1,45,0|0,3:2|3:2,0:0:0:0:
476,99,129999,2,0,L|485:143,1,45,10|0,0:0|0:0,0:0:0:0:
321,113,130176,6,0,P|335:88|369:75,1,53.9999983520508,2|0,3:2|0:0,0:0:0:0:
475,228,130352,2,0,P|461:253|427:266,1,53.9999983520508,8|0,0:2|0:0,0:0:0:0:
238,327,130529,5,6,3:2:0:0:
198,318,130617,1,8,3:2:0:0:
158,310,130705,1,8,0:2:0:0:
119,301,130793,1,8,0:0:0:0:
79,293,130881,5,2,0:2:0:0:
128,259,130970,1,0,0:0:0:0:
134,197,131058,1,8,0:2:0:0:
87,156,131146,1,0,0:0:0:0:
24,157,131235,5,2,0:2:0:0:
34,152,131323,1,0,0:0:0:0:
44,147,131411,1,8,0:2:0:0:
54,142,131499,1,0,0:0:0:0:
95,84,131587,5,2,0:2:0:0:
147,95,131675,1,0,0:0:0:0:
200,106,131763,1,8,0:2:0:0:
253,117,131851,1,0,0:0:0:0:
306,128,131940,6,0,L|292:65,1,45,2|0,0:2|0:0,0:0:0:0:
396,166,132117,2,0,L|382:103,1,45,10|0,0:2|0:0,0:0:0:0:
487,18,132293,6,0,L|473:81,1,45,2|0,0:2|0:0,0:0:0:0:
325,257,132470,2,0,L|311:194,1,45,10|0,0:2|0:0,0:0:0:0:
512,310,132646,5,2,0:2:0:0:
468,248,132734,1,2,0:2:0:0:
395,271,132822,1,10,0:2:0:0:
395,348,132910,1,2,0:2:0:0:
468,372,132999,5,2,0:2:0:0:
459,342,133087,1,0,0:0:0:0:
395,271,133176,1,10,0:2:0:0:
404,241,133264,1,0,0:0:0:0:
506,193,133352,5,2,0:2:0:0:
496,149,133440,1,0,0:0:0:0:
486,105,133528,1,8,0:2:0:0:
477,61,133616,1,0,0:0:0:0:
467,17,133704,5,6,0:2:0:0:
430,64,133793,1,0,0:0:0:0:
373,82,133882,1,8,0:2:0:0:
314,71,133970,1,0,0:0:0:0:
275,26,134058,5,2,0:2:0:0:
271,38,134146,1,0,0:0:0:0:
267,50,134235,1,8,0:2:0:0:
263,62,134322,1,0,0:0:0:0:
259,74,134411,5,2,0:2:0:0:
220,29,134499,1,0,0:0:0:0:
161,18,134587,1,8,0:2:0:0:
104,36,134676,1,0,0:0:0:0:
66,86,134764,5,2,0:2:0:0:
139,110,134853,1,2,0:2:0:0:
139,187,134941,1,10,0:2:0:0:
66,210,135029,1,0,0:2:0:0:
22,148,135117,5,2,0:2:0:0:
61,143,135205,1,0,0:0:0:0:
90,169,135293,1,8,0:2:0:0:
158,204,135382,5,2,0:2:0:0:
154,270,135470,1,0,0:0:0:0:
95,302,135558,1,0,0:0:0:0:
22,275,135646,6,0,P|35:251|60:234,1,53.9999983520508,10|0,0:2|0:0,0:0:0:0:
232,180,135823,5,2,0:2:0:0:
286,192,135911,1,0,0:0:0:0:
340,206,135999,1,8,0:2:0:0:
396,262,136087,5,2,0:2:0:0:
421,235,136175,1,0,0:0:0:0:
447,208,136263,1,0,0:2:0:0:
512,153,136352,6,0,L|490:88,1,53.9999983520508,10|0,0:2|0:0,0:0:0:0:
382,1,136529,5,6,0:2:0:0:
328,12,136617,1,0,0:0:0:0:
272,21,136705,1,8,0:2:0:0:
218,32,136794,1,0,0:0:0:0:
162,41,136882,5,2,0:2:0:0:
153,35,136970,1,0,0:0:0:0:
157,23,137058,1,8,0:2:0:0:
171,20,137146,1,0,0:0:0:0:
182,27,137234,5,2,0:2:0:0:
171,81,137322,1,0,0:0:0:0:
162,137,137410,1,8,0:2:0:0:
151,191,137499,1,0,0:0:0:0:
142,247,137587,2,0,L|87:235,1,45,2|0,0:2|0:0,0:0:0:0:
167,338,137764,2,0,L|112:326,1,45,10|0,0:2|0:0,0:0:0:0:
259,192,137940,6,0,L|313:180,1,45,2|0,0:2|0:0,0:0:0:0:
463,350,138117,2,0,L|408:338,1,45,10|0,0:2|0:0,0:0:0:0:
412,141,138293,5,2,0:2:0:0:
485,165,138382,1,2,0:2:0:0:
485,242,138470,1,10,0:2:0:0:
412,265,138558,1,2,0:2:0:0:
368,203,138646,5,2,0:2:0:0:
393,207,138735,1,0,0:0:0:0:
485,242,138823,1,10,0:2:0:0:
469,261,138912,1,0,0:0:0:0:
418,340,138999,5,2,0:2:0:0:
374,330,139087,1,0,0:0:0:0:
330,320,139175,1,8,0:2:0:0:
286,311,139263,1,0,0:0:0:0:
242,301,139351,5,6,0:2:0:0:
281,254,139440,1,0,0:0:0:0:
269,193,139529,1,8,0:2:0:0:
208,172,139617,1,0,0:0:0:0:
157,205,139705,5,2,0:2:0:0:
155,215,139793,1,0,0:0:0:0:
153,225,139882,1,8,0:2:0:0:
151,235,139969,1,0,0:0:0:0:
149,245,140057,5,2,0:2:0:0:
98,278,140145,1,0,0:0:0:0:
37,257,140235,1,8,0:2:0:0:
25,196,140322,1,0,0:0:0:0:
64,149,140411,5,2,0:2:0:0:
141,144,140500,1,2,0:2:0:0:
159,70,140588,1,10,0:2:0:0:
97,29,140676,1,2,0:2:0:0:
36,77,140764,5,2,0:2:0:0:
88,90,140852,1,0,0:0:0:0:
140,103,140940,1,8,0:2:0:0:
235,116,141029,5,2,0:2:0:0:
266,107,141117,1,0,0:0:0:0:
298,99,141205,1,0,0:2:0:0:
362,39,141293,6,0,L|418:51,1,53.9999983520508,10|0,0:2|0:0,0:0:0:0:
493,205,141470,5,2,0:2:0:0:
470,272,141558,1,0,0:0:0:0:
402,278,141646,1,8,0:2:0:0:
350,335,141735,5,2,0:2:0:0:
312,291,141823,1,0,0:0:0:0:
335,242,141911,1,0,0:0:0:0:
359,166,141999,6,0,P|383:175|405:204,1,53.9999983520508,10|0,0:2|0:0,0:0:0:0:
272,381,142176,5,6,0:2:0:0:
230,339,142264,1,0,0:0:0:0:
171,325,142352,1,8,0:2:0:0:
112,341,142440,1,0,0:0:0:0:
73,384,142529,5,2,0:2:0:0:
76,365,142617,1,0,0:0:0:0:
72,350,142705,1,8,0:2:0:0:
57,339,142793,1,0,0:0:0:0:
35,336,142882,5,2,0:2:0:0:
92,320,142970,1,0,0:0:0:0:
133,276,143058,1,8,0:2:0:0:
149,217,143146,1,0,0:0:0:0:
131,162,143235,6,0,L|68:148,1,45,2|0,0:2|0:0,0:0:0:0:
215,90,143411,2,0,L|152:76,1,45,10|0,0:2|0:0,0:0:0:0:
264,206,143587,6,0,L|327:192,1,45,2|0,0:2|0:0,0:0:0:0:
470,39,143764,2,0,L|407:53,1,45,10|0,0:2|0:0,0:0:0:0:
371,268,143940,5,2,0:2:0:0:
399,340,144028,1,2,0:2:0:0:
476,335,144117,1,10,0:2:0:0:
494,260,144205,1,2,0:2:0:0:
432,220,144293,5,2,0:2:0:0:
400,228,144382,1,0,0:0:0:0:
312,313,144470,1,10,0:2:0:0:
280,305,144559,1,0,0:0:0:0:
221,217,144646,5,2,0:2:0:0:
165,228,144734,1,0,0:0:0:0:
110,240,144822,1,8,0:2:0:0:
55,252,144910,1,0,0:0:0:0:
0,263,144998,5,6,0:2:0:0:
45,220,145087,1,0,0:0:0:0:
106,211,145176,1,8,0:2:0:0:
165,228,145264,1,0,0:0:0:0:
198,279,145352,5,2,0:2:0:0:
195,288,145440,1,0,0:0:0:0:
192,297,145529,1,8,0:2:0:0:
189,306,145616,1,0,0:0:0:0:
186,315,145705,5,2,0:2:0:0:
239,364,145793,1,0,0:0:0:0:
315,384,145882,1,8,0:2:0:0:
390,378,145970,1,0,0:0:0:0:
461,362,146058,5,2,0:2:0:0:
427,291,146146,5,2,0:2:0:0:
347,293,146235,5,10,0:2:0:0:
335,210,146323,5,2,0:2:0:0:
256,192,146411,6,0,B|194:227|194:227|163:294|163:294|73:314|73:314|24:363,2,297.000009063721,2|2|10,0:2|0:2|0:2,0:0:0:0:
118,144,147117,5,10,0:2:0:0:
159,238,147205,1,8,0:2:0:0:
200,332,147293,1,8,0:2:0:0:
294,291,147382,1,8,0:2:0:0:
388,250,147470,1,8,0:2:0:0:
347,156,147558,1,8,0:2:0:0:
306,62,147646,1,8,0:2:0:0:
212,103,147735,1,8,0:2:0:0:
256,192,147823,5,4,0:2:0:0:
