osu file format v14

[General]
AudioFilename: audio.mp3
AudioLeadIn: 0
PreviewTime: 14624
Countdown: 0
SampleSet: Normal
StackLeniency: 0.6
Mode: 0
LetterboxInBreaks: 0
WidescreenStoryboard: 1

[Editor]
Bookmarks: 33824
DistanceSpacing: 0.4
BeatDivisor: 4
GridSize: 32
TimelineZoom: 1.900001

[Metadata]
Title:FAITH
TitleUnicode:FAITH
Artist:Unlucky Morpheus
ArtistUnicode:Unlucky Morpheus
Creator:ailv
Version:dragon
Source:東方風神録 ~ Mountain of Faith.
Tags:aliv alvi anvil native faith ネイティブフェイス suwako moriya metal touhou 東方Project 洩矢 諏訪子 th10 REBIRTH Revisited c89 comiket 紫煉
BeatmapID:1918344
BeatmapSetID:918692

[Difficulty]
HPDrainRate:6.5
CircleSize:4.3
OverallDifficulty:9
ApproachRate:10
SliderMultiplier:2.1
SliderTickRate:1

[Events]
//Background and Video events
0,0,"cropped-1920-1080-791114.png",0,0
//Break Periods
//Storyboard Layer 0 (Background)
//Storyboard Layer 1 (Fail)
//Storyboard Layer 2 (Pass)
//Storyboard Layer 3 (Foreground)
//Storyboard Sound Samples

[TimingPoints]
224,300,4,2,1,100,1,0
4724,-100,4,2,1,90,0,0
5024,-76.9230769230769,4,2,1,90,0,0
9824,-76.9230769230769,4,1,1,90,0,0
23924,-76.9230769230769,4,1,1,50,0,0
24224,-76.9230769230769,4,1,1,90,0,0
32774,-125,4,1,1,90,0,0
33224,-125,4,1,1,50,0,0
33824,-76.9230769230769,4,2,1,90,0,0
38624,-76.9230769230769,4,1,1,90,0,0
53099,-76.9230769230769,4,1,1,70,0,0
53624,-76.9230769230769,4,1,1,60,0,0
54224,-76.9230769230769,4,1,1,50,0,0
54824,-76.9230769230769,4,1,1,40,0,0
55424,-76.9230769230769,4,1,1,30,0,0
56024,-76.9230769230769,4,1,1,20,0,0
56324,-76.9230769230769,4,1,1,10,0,0
56474,-76.9230769230769,4,1,1,5,0,0

[Colours]
Combo1 : 17,254,176
Combo2 : 173,255,95
Combo3 : 255,88,100
Combo4 : 255,94,55

[HitObjects]
127,306,224,5,4,1:2:0:0:
189,260,299,1,0,0:2:0:0:
264,264,374,1,0,0:2:0:0:
311,324,449,1,0,0:2:0:0:
243,346,524,5,2,0:2:0:0:
239,322,599,1,0,0:2:0:0:
246,297,674,2,0,P|247:265|238:228,1,52.5,2|0,0:2|0:2,0:2:0:0:
31,56,824,5,4,0:2:0:0:
111,49,899,1,0,0:2:0:0:
167,104,974,1,2,0:2:0:0:
170,183,1049,1,0,0:2:0:0:
108,150,1124,5,2,0:2:0:0:
118,130,1199,1,0,0:2:0:0:
142,116,1274,2,0,P|182:111|210:117,1,52.5,2|0,0:2|0:2,0:2:0:0:
327,255,1424,5,4,0:2:0:0:
403,265,1499,1,0,0:2:0:0:
463,213,1574,1,0,0:2:0:0:
447,139,1649,1,0,0:2:0:0:
380,170,1724,5,2,0:2:0:0:
388,187,1799,1,0,0:2:0:0:
403,204,1874,2,0,P|432:215|463:216,1,52.5,2|0,0:2|0:2,0:2:0:0:
333,25,2024,5,4,0:2:0:0:
255,25,2099,1,0,0:2:0:0:
189,70,2174,1,2,0:2:0:0:
185,150,2249,1,0,0:2:0:0:
260,174,2324,5,2,0:2:0:0:
264,149,2399,1,0,0:2:0:0:
257,121,2474,2,0,P|236:97|203:82,1,52.5,2|0,0:2|0:2,0:2:0:0:
43,277,2624,5,4,0:2:0:0:
105,323,2699,1,0,0:2:0:0:
180,319,2774,1,0,0:2:0:0:
227,259,2849,1,0,0:2:0:0:
154,239,2924,5,2,0:2:0:0:
150,263,2999,1,0,0:2:0:0:
157,288,3074,2,0,P|174:313|213:331,1,52.5,2|0,0:2|0:2,0:2:0:0:
422,157,3224,5,4,0:2:0:0:
410,237,3299,1,0,0:2:0:0:
344,279,3374,1,2,0:2:0:0:
266,264,3449,1,0,0:2:0:0:
313,211,3524,5,2,0:2:0:0:
330,226,3599,1,0,0:2:0:0:
338,252,3674,2,0,P|333:292|321:318,1,52.5,2|0,0:2|0:2,0:2:0:0:
72,153,3824,5,4,0:2:0:0:
88,227,3899,1,0,0:2:0:0:
157,266,3974,1,0,0:2:0:0:
222,226,4049,1,0,0:2:0:0:
170,173,4124,5,2,0:2:0:0:
156,187,4199,1,0,0:2:0:0:
145,206,4274,2,0,P|144:237|154:266,1,52.5,2|0,0:2|0:2,0:2:0:0:
403,124,4424,5,4,0:2:0:0:
374,54,4499,1,0,0:2:0:0:
299,31,4574,1,2,0:2:0:0:
229,60,4649,1,0,0:2:0:0:
304,156,4724,5,12,1:2:0:0:
320,134,4799,1,8,1:2:0:0:
300,120,4874,1,8,1:2:0:0:
285,140,4949,1,8,1:2:0:0:
384,247,5024,6,0,P|416:244|473:252,3,68.2499968757631,4|0|2|0,0:2|0:2|0:2|0:2,0:2:0:0:
215,383,5324,5,8,1:2:0:0:
257,319,5399,1,0,0:2:0:0:
237,244,5474,1,2,0:2:0:0:
164,217,5549,1,0,0:2:0:0:
105,323,5624,6,0,P|157:310|211:272,3,68.2499968757631,4|0|2|0,0:2|0:2|0:2|0:2,0:2:0:0:
57,184,5924,5,8,1:2:0:0:
15,120,5999,1,0,0:2:0:0:
35,45,6074,1,2,0:2:0:0:
108,18,6149,1,0,0:2:0:0:
167,124,6224,6,0,P|115:111|61:73,3,68.2499968757631,4|0|2|0,0:2|0:2|0:2|0:2,0:2:0:0:
328,188,6524,5,8,1:2:0:0:
401,215,6599,1,0,0:2:0:0:
470,176,6674,1,2,0:2:0:0:
476,98,6749,1,0,0:2:0:0:
359,66,6824,6,0,P|386:103|392:144,3,68.2499968757631,8|0|2|0,1:2|0:2|0:2|0:2,0:2:0:0:
270,374,7124,5,8,1:2:0:0:
240,304,7199,1,0,0:2:0:0:
271,231,7274,1,2,0:2:0:0:
348,214,7349,1,0,0:2:0:0:
401,308,7424,6,0,P|372:307|306:290,3,68.2499968757631,12|0|2|0,1:2|0:2|0:2|0:2,0:2:0:0:
338,63,7724,5,8,1:2:0:0:
413,52,7799,1,0,0:2:0:0:
475,100,7874,1,2,0:2:0:0:
472,179,7949,1,0,0:2:0:0:
367,206,8024,6,0,P|375:178|408:118,3,68.2499968757631,8|0|2|0,1:2|0:2|0:2|0:2,0:2:0:0:
130,292,8324,5,8,1:2:0:0:
205,303,8399,1,0,0:2:0:0:
267,255,8474,1,2,0:2:0:0:
264,176,8549,1,0,0:2:0:0:
159,149,8624,6,0,P|167:176|200:236,3,68.2499968757631,4|0|2|0,1:2|0:2|0:2|0:2,0:2:0:0:
344,80,8924,2,0,P|358:49|369:16,3,68.2499968757631,8|0|2|0,1:2|0:2|0:2|0:2,0:2:0:0:
431,312,9224,5,8,1:2:0:0:
491,264,9299,1,8,1:2:0:0:
485,190,9374,1,8,1:2:0:0:
436,130,9449,1,8,1:2:0:0:
358,164,9524,5,8,1:2:0:0:
284,153,9599,1,8,1:2:0:0:
192,188,9674,1,8,1:2:0:0:
84,148,9749,1,8,1:2:0:0:
6,238,9824,5,4,0:2:0:0:
84,279,9899,1,0,0:2:0:0:
153,266,9974,1,8,0:2:0:0:
181,221,10049,1,0,0:2:0:0:
166,187,10124,5,0,0:2:0:0:
141,217,10199,1,0,0:2:0:0:
141,274,10274,1,8,0:2:0:0:
179,348,10349,1,0,0:2:0:0:
305,373,10424,5,0,0:2:0:0:
392,357,10499,1,0,0:2:0:0:
450,303,10574,1,8,0:2:0:0:
465,252,10649,1,0,0:2:0:0:
450,212,10724,5,0,0:2:0:0:
417,241,10799,1,0,0:2:0:0:
413,305,10874,1,8,0:2:0:0:
470,365,10949,1,0,0:2:0:0:
508,284,11024,5,0,0:2:0:0:
427,247,11099,1,0,0:2:0:0:
356,273,11174,1,8,0:2:0:0:
326,320,11249,1,0,0:2:0:0:
319,363,11324,5,0,0:2:0:0:
374,333,11399,1,0,0:2:0:0:
392,258,11474,1,8,0:2:0:0:
370,177,11549,1,0,0:2:0:0:
219,235,11624,6,0,P|246:246|329:254,2,68.2499968757631,8|0|0,0:2|0:2|0:2,0:2:0:0:
52,349,11849,2,0,P|83:336|117:329,2,68.2499968757631,8|0|0,0:2|0:2|0:2,0:2:0:0:
86,103,12074,2,0,P|102:150|112:199,1,68.2499968757631,8|0,0:2|0:2,0:2:0:0:
303,358,12224,5,0,0:2:0:0:
386,326,12299,1,0,0:2:0:0:
414,258,12374,1,8,0:2:0:0:
403,203,12449,1,0,0:2:0:0:
372,177,12524,5,0,0:2:0:0:
356,226,12599,1,0,0:2:0:0:
385,280,12674,1,8,0:2:0:0:
472,313,12749,1,0,0:2:0:0:
476,201,12824,5,0,0:2:0:0:
412,131,12899,1,0,0:2:0:0:
332,128,12974,1,8,0:2:0:0:
281,154,13049,1,0,0:2:0:0:
257,193,13124,5,0,0:2:0:0:
320,189,13199,1,0,0:2:0:0:
365,135,13274,1,8,0:2:0:0:
357,49,13349,1,0,0:2:0:0:
222,56,13424,5,0,0:2:0:0:
173,131,13499,1,0,0:2:0:0:
186,200,13574,1,8,0:2:0:0:
231,248,13649,1,0,0:2:0:0:
279,266,13724,5,0,0:2:0:0:
279,213,13799,1,0,0:2:0:0:
227,155,13874,1,8,0:2:0:0:
137,151,13949,1,0,0:2:0:0:
33,227,14024,6,0,P|63:224|105:230,1,68.2499968757631,8|0,0:2|0:2,0:2:0:0:
179,269,14174,1,0,0:2:0:0:
185,284,14249,1,8,0:2:0:0:
223,360,14324,5,0,0:2:0:0:
210,305,14399,1,0,0:2:0:0:
222,231,14474,1,8,0:2:0:0:
268,163,14549,1,0,0:2:0:0:
308,255,14624,6,0,P|248:265|170:155,1,204.749990627289,4|0,0:1|0:2,0:2:0:0:
343,81,14924,1,0,0:2:0:0:
359,97,14999,1,0,0:2:0:0:
371,116,15074,2,0,P|378:160|373:207,1,68.2499968757631,8|0,0:2|0:2,0:2:0:0:
132,69,15224,2,0,B|243:51|231:130|333:92,1,204.749990627289,2|0,0:2|0:2,0:2:0:0:
450,250,15524,1,0,0:2:0:0:
408,271,15599,1,0,0:2:0:0:
367,280,15674,2,0,P|328:286|293:278,1,68.2499968757631,8|0,0:2|0:2,0:2:0:0:
20,156,15824,6,0,P|84:156|100:238,1,136.499993751526,2|0,0:2|0:2,0:2:0:0:
200,357,16049,2,0,P|264:356|289:297,1,136.499993751526,2|0,0:2|0:2,0:2:0:0:
20,328,16274,2,0,P|69:318|126:320,1,68.2499968757631,8|0,0:2|0:2,0:2:0:0:
344,165,16424,6,0,P|281:175|255:43,1,204.749990627289,4|0,0:2|0:2,0:2:0:0:
456,137,16724,2,0,P|460:184|449:215,1,68.2499968757631,4|0,0:2|0:2,0:2:0:0:
268,356,16874,2,0,P|261:322|266:289,1,68.2499968757631,8|0,0:2|0:2,0:2:0:0:
9,173,17024,6,0,B|114:161|89:235|201:225,1,204.749990627289,4|0,0:2|0:2,0:2:0:0:
326,62,17324,1,0,0:2:0:0:
284,43,17399,1,0,0:2:0:0:
241,44,17474,2,0,P|207:55|178:76,1,68.2499968757631,8|0,0:2|0:2,0:2:0:0:
303,328,17624,6,0,B|289:257|341:253|301:165,1,136.499993751526,2|0,0:2|0:2,0:2:0:0:
37,265,17849,2,0,P|27:300|132:344,1,136.499993751526,2|0,0:2|0:2,0:2:0:0:
152,113,18074,2,0,P|166:164|172:196,1,68.2499968757631,0|0,0:2|0:2,0:2:0:0:
509,90,18224,6,0,P|431:124|363:38,1,204.749990627289,2|0,0:1|0:2,0:2:0:0:
380,22,18524,5,0,0:2:0:0:
393,58,18599,1,0,0:2:0:0:
390,124,18674,1,8,0:2:0:0:
340,197,18749,1,0,0:2:0:0:
243,219,18824,5,0,0:2:0:0:
173,166,18899,1,0,0:2:0:0:
142,99,18974,1,8,0:2:0:0:
150,36,19049,1,8,0:2:0:0:
226,40,19124,5,0,0:2:0:0:
217,77,19199,1,0,0:2:0:0:
196,102,19274,2,0,P|171:111|123:114,1,68.2499968757631,8|0,0:2|0:2,0:2:0:0:
9,308,19424,6,0,P|95:277|216:316,1,204.749990627289,4|0,0:2|0:2,0:2:0:0:
329,373,19724,1,0,0:2:0:0:
348,350,19799,1,0,0:2:0:0:
350,320,19874,2,0,P|336:275|314:251,1,68.2499968757631,8|0,0:2|0:2,0:2:0:0:
86,70,20024,6,0,P|51:114|99:193,1,136.499993751526,2|0,0:2|0:2,0:2:0:0:
291,109,20249,2,0,P|276:45|214:25,1,136.499993751526,2|0,0:2|0:2,0:2:0:0:
226,268,20474,2,0,P|206:210|206:193,1,68.2499968757631,8|0,0:2|0:2,0:2:0:0:
506,231,20624,6,0,P|437:301|401:249,1,136.499993751526,2|0,0:2|0:2,0:2:0:0:
389,81,20849,2,0,P|484:105|457:162,1,136.499993751526,2|0,0:2|0:2,0:2:0:0:
318,202,21074,2,0,P|360:193|400:192,1,68.2499968757631,0|0,0:2|0:2,0:2:0:0:
130,374,21224,6,0,P|74:325|76:259,1,136.499993751526,2|0,0:2|0:2,0:2:0:0:
231,232,21449,2,0,P|254:302|220:358,1,136.499993751526,2|0,0:2|0:2,0:2:0:0:
128,164,21674,2,0,P|146:213|150:240,1,68.2499968757631,8|0,0:2|0:2,0:2:0:0:
459,126,21824,6,0,P|403:135|330:91,1,136.499993751526,8|8,0:2|0:2,0:2:0:0:
187,12,22049,1,0,0:2:0:0:
223,30,22124,2,0,P|243:91|250:246,1,204.749990627289,8|0,0:2|0:2,0:2:0:0:
72,353,22424,5,8,0:2:0:0:
45,273,22499,1,8,0:2:0:0:
79,194,22574,1,8,0:2:0:0:
157,163,22649,1,8,0:2:0:0:
314,332,22724,5,8,0:2:0:0:
239,356,22799,1,8,0:2:0:0:
161,335,22874,1,8,0:2:0:0:
139,263,22949,1,8,0:2:0:0:
325,242,23024,5,12,0:2:0:0:
352,235,23099,1,8,0:2:0:0:
409,180,23174,5,12,0:2:0:0:
423,204,23249,1,8,0:2:0:0:
501,231,23324,5,12,0:2:0:0:
494,256,23399,1,8,0:2:0:0:
512,333,23474,5,12,0:2:0:0:
485,333,23549,1,8,0:2:0:0:
423,282,23624,5,4,0:1:0:0:
438,297,23924,5,8,0:2:0:0:
438,297,23999,1,8,0:2:0:0:
438,297,24074,1,8,0:2:0:0:
438,297,24149,1,8,0:2:0:0:
503,224,24224,6,0,P|423:267|347:180,1,204.749990627289,4|0,0:1|0:2,0:2:0:0:
442,42,24524,1,0,0:2:0:0:
475,51,24599,1,0,0:2:0:0:
503,76,24674,2,0,P|516:117|518:156,1,68.2499968757631,8|0,0:2|0:2,0:2:0:0:
225,75,24824,6,0,B|318:63|307:143|435:112,1,204.749990627289,2|0,0:2|0:2,0:2:0:0:
177,173,25124,1,0,0:2:0:0:
146,155,25199,1,0,0:2:0:0:
133,120,25274,2,0,P|127:71|131:30,1,68.2499968757631,8|0,0:2|0:2,0:2:0:0:
260,208,25424,6,0,P|196:208|180:290,1,136.499993751526,2|0,0:2|0:2,0:2:0:0:
438,202,25649,2,0,P|405:147|341:154,1,136.499993751526,2|0,0:2|0:2,0:2:0:0:
348,360,25874,2,0,P|338:311|340:254,1,68.2499968757631,8|0,0:2|0:2,0:2:0:0:
73,272,26024,6,0,P|85:365|179:373,1,204.749990627289,4|0,0:2|0:2,0:2:0:0:
251,121,26324,2,0,P|255:168|244:199,1,68.2499968757631,4|0,0:2|0:2,0:2:0:0:
15,193,26474,2,0,P|8:159|13:126,1,68.2499968757631,8|0,0:2|0:2,0:2:0:0:
342,93,26624,6,0,B|230:103|255:29|150:41,1,204.749990627289,4|0,0:2|0:2,0:2:0:0:
153,240,26924,1,0,0:2:0:0:
181,261,26999,1,0,0:2:0:0:
218,270,27074,2,0,P|264:274|307:263,1,68.2499968757631,8|0,0:2|0:2,0:2:0:0:
457,37,27224,6,0,P|386:25|358:111,1,136.499993751526,2|0,0:2|0:2,0:2:0:0:
396,234,27449,2,0,P|467:246|495:160,1,136.499993751526,2|0,0:2|0:2,0:2:0:0:
293,172,27674,2,0,P|335:159|365:156,1,68.2499968757631,0|0,0:2|0:2,0:2:0:0:
230,301,27824,6,0,P|159:258|46:315,1,204.749990627289,2|0,0:1|0:2,0:2:0:0:
58,337,28124,5,0,0:2:0:0:
106,297,28199,1,0,0:2:0:0:
136,221,28274,1,8,0:2:0:0:
123,133,28349,1,0,0:2:0:0:
34,84,28424,5,0,0:2:0:0:
20,168,28499,1,0,0:2:0:0:
57,232,28574,1,8,0:2:0:0:
108,243,28649,1,8,0:2:0:0:
166,183,28724,6,0,P|134:165|87:165,1,68.2499968757631,0|0,0:2|0:2,0:2:0:0:
103,326,28874,2,0,P|136:322|165:304,1,68.2499968757631,8|0,0:2|0:2,0:2:0:0:
494,242,29024,6,0,B|393:203|410:291|266:232,1,204.749990627289,4|0,0:2|0:2,0:2:0:0:
406,44,29324,1,0,0:2:0:0:
439,64,29399,1,0,0:2:0:0:
466,83,29474,2,0,P|484:120|485:168,1,68.2499968757631,8|0,0:2|0:2,0:2:0:0:
164,115,29624,6,0,P|97:80|149:4,1,136.499993751526,2|0,0:2|0:2,0:2:0:0:
355,129,29849,2,0,P|354:193|294:215,1,136.499993751526,2|0,0:2|0:2,0:2:0:0:
263,0,30074,2,0,P|263:49|262:85,1,68.2499968757631,8|0,0:2|0:2,0:2:0:0:
192,333,30224,6,0,P|159:358|64:308,1,136.499993751526,2|0,0:2|0:2,0:2:0:0:
64,157,30449,2,0,P|97:132|192:182,1,136.499993751526,2|0,0:2|0:2,0:2:0:0:
4,252,30674,2,0,P|62:245|81:247,1,68.2499968757631,0|0,0:2|0:2,0:2:0:0:
287,364,30824,6,0,P|250:320|278:237,1,136.499993751526,2|0,0:2|0:2,0:2:0:0:
413,229,31049,2,0,P|450:273|422:356,1,136.499993751526,2|0,0:2|0:2,0:2:0:0:
329,155,31274,2,0,P|338:209|338:236,1,68.2499968757631,8|0,0:2|0:2,0:2:0:0:
172,362,31424,5,8,0:2:0:0:
110,317,31499,1,0,0:2:0:0:
95,242,31574,1,8,0:2:0:0:
141,178,31649,1,0,0:2:0:0:
215,237,31724,5,8,0:2:0:0:
132,266,31799,1,0,0:2:0:0:
56,212,31874,1,8,0:2:0:0:
63,127,31949,1,0,0:2:0:0:
194,52,32024,5,12,0:2:0:0:
244,117,32099,1,0,0:2:0:0:
237,200,32174,1,8,0:2:0:0:
169,150,32249,5,4,0:2:0:0:
273,120,32324,1,0,0:2:0:0:
349,186,32399,1,0,0:2:0:0:
238,308,32474,5,8,0:2:0:0:
225,224,32549,1,0,0:2:0:0:
304,256,32624,5,4,0:1:0:0:
360,313,32774,6,0,P|352:341|348:363,5,42,0|0|8|0|0|0,0:2|0:2|0:2|0:2|0:2|0:2,0:2:0:0:
438,314,33224,5,8,0:3:0:0:
435,303,33299,1,8,0:3:0:0:
433,293,33374,1,8,0:3:0:0:
431,283,33449,1,8,0:3:0:0:
469,214,33524,5,8,0:3:0:0:
471,203,33599,1,8,0:3:0:0:
473,193,33674,1,8,0:3:0:0:
475,183,33749,1,8,0:3:0:0:
405,53,33824,6,0,P|426:80|443:110,3,68.2499968757631,4|0|2|0,0:2|0:2|0:2|0:2,0:2:0:0:
236,242,34124,5,8,1:2:0:0:
218,165,34199,1,0,0:2:0:0:
273,110,34274,1,2,0:2:0:0:
351,122,34349,1,0,0:2:0:0:
349,237,34424,6,0,P|319:202|285:182,3,68.2499968757631,4|0|2|0,0:2|0:2|0:2|0:2,0:2:0:0:
238,357,34724,5,8,1:2:0:0:
160,369,34799,1,0,0:2:0:0:
105,314,34874,1,2,0:2:0:0:
123,237,34949,1,0,0:2:0:0:
236,242,35024,6,0,P|206:277|172:297,3,68.2499968757631,4|0|2|0,0:2|0:2|0:2|0:2,0:2:0:0:
153,44,35324,5,8,1:2:0:0:
80,69,35399,1,0,0:2:0:0:
64,143,35474,1,2,0:2:0:0:
117,202,35549,1,0,0:2:0:0:
216,148,35624,6,0,P|196:138|144:128,3,68.2499968757631,8|0|2|0,1:2|0:2|0:2|0:2,0:2:0:0:
445,236,35924,5,8,1:2:0:0:
496,180,35999,1,0,0:2:0:0:
483,102,36074,1,2,0:2:0:0:
419,61,36149,1,0,0:2:0:0:
344,154,36224,6,0,P|376:157|433:149,3,68.2499968757631,12|0|2|0,1:2|0:2|0:2|0:2,0:2:0:0:
215,1,36524,5,8,1:2:0:0:
257,65,36599,1,0,0:2:0:0:
237,140,36674,1,2,0:2:0:0:
164,167,36749,1,0,0:2:0:0:
105,61,36824,6,0,P|157:74|211:112,3,68.2499968757631,8|0|2|0,1:2|0:2|0:2|0:2,0:2:0:0:
57,200,37124,5,8,1:2:0:0:
15,264,37199,1,0,0:2:0:0:
35,339,37274,1,0,0:2:0:0:
108,366,37349,1,0,0:2:0:0:
167,260,37424,6,0,P|115:273|61:311,3,68.2499968757631,4|0|2|0,1:2|0:2|0:2|0:2,0:2:0:0:
328,196,37724,5,8,1:2:0:0:
401,169,37799,1,0,0:2:0:0:
470,208,37874,1,2,0:2:0:0:
476,286,37949,1,0,0:2:0:0:
359,318,38024,6,0,P|386:281|392:240,3,68.2499968757631,8|8|8|8,1:2|1:2|1:2|1:2,0:2:0:0:
270,10,38324,5,8,1:2:0:0:
240,80,38399,1,8,1:2:0:0:
271,153,38474,1,8,1:2:0:0:
348,170,38549,1,8,1:2:0:0:
377,83,38624,5,4,0:1:0:0:
306,47,38699,1,0,0:2:0:0:
207,39,38774,1,8,0:2:0:0:
115,98,38849,1,0,0:2:0:0:
82,199,38924,5,0,0:2:0:0:
111,281,38999,1,0,0:2:0:0:
191,305,39074,1,8,0:2:0:0:
263,268,39149,1,0,0:2:0:0:
193,203,39224,5,0,0:2:0:0:
157,275,39299,1,0,0:2:0:0:
188,355,39374,1,8,0:2:0:0:
294,371,39449,1,0,0:2:0:0:
393,320,39524,5,0,0:2:0:0:
415,228,39599,1,0,0:2:0:0:
379,155,39674,1,8,0:2:0:0:
310,122,39749,1,0,0:2:0:0:
313,209,39824,5,0,0:2:0:0:
383,176,39899,1,0,0:2:0:0:
392,88,39974,1,8,0:2:0:0:
325,24,40049,1,0,0:2:0:0:
228,22,40124,5,0,0:2:0:0:
173,99,40199,1,0,0:2:0:0:
173,178,40274,1,8,0:2:0:0:
214,215,40349,1,0,0:2:0:0:
253,137,40424,5,12,0:2:0:0:
208,127,40499,1,0,0:2:0:0:
164,146,40574,1,0,0:2:0:0:
176,292,40649,5,12,0:2:0:0:
221,302,40724,1,0,0:2:0:0:
265,283,40799,1,0,0:2:0:0:
214,215,40874,5,12,0:2:0:0:
136,222,40949,1,0,0:2:0:0:
76,284,41024,5,0,0:2:0:0:
50,203,41099,1,0,0:2:0:0:
98,118,41174,1,8,0:2:0:0:
201,87,41249,1,0,0:2:0:0:
294,138,41324,5,0,0:2:0:0:
326,220,41399,1,0,0:2:0:0:
312,298,41474,1,8,0:2:0:0:
267,340,41549,1,0,0:2:0:0:
214,264,41624,5,0,0:2:0:0:
295,239,41699,1,0,0:2:0:0:
402,267,41774,1,8,0:2:0:0:
472,359,41849,1,0,0:2:0:0:
387,366,41924,5,0,0:2:0:0:
388,265,41999,1,0,0:2:0:0:
437,202,42074,1,8,0:2:0:0:
503,188,42149,1,0,0:2:0:0:
492,288,42224,5,0,0:2:0:0:
445,232,42299,1,0,0:2:0:0:
419,145,42374,1,8,0:2:0:0:
480,46,42449,1,0,0:2:0:0:
501,124,42524,5,0,0:2:0:0:
409,157,42599,1,0,0:2:0:0:
339,125,42674,1,8,0:2:0:0:
332,75,42749,1,0,0:2:0:0:
419,64,42824,5,12,0:2:0:0:
415,110,42899,1,0,0:2:0:0:
385,145,42974,1,0,0:2:0:0:
241,85,43049,5,12,0:2:0:0:
245,39,43124,1,0,0:2:0:0:
275,4,43199,1,0,0:2:0:0:
332,75,43274,5,12,0:2:0:0:
298,149,43349,1,0,0:2:0:0:
264,227,43424,5,4,0:1:0:0:
297,313,43499,1,0,0:2:0:0:
406,354,43574,1,8,0:2:0:0:
511,289,43649,1,0,0:2:0:0:
420,216,43724,5,0,0:2:0:0:
319,189,43799,1,0,0:2:0:0:
237,241,43874,1,8,0:2:0:0:
165,209,43949,1,0,0:2:0:0:
159,299,44024,5,0,0:2:0:0:
238,262,44099,1,0,0:2:0:0:
271,150,44174,1,8,0:2:0:0:
200,26,44249,1,0,0:2:0:0:
117,81,44324,5,0,0:2:0:0:
226,114,44399,1,0,0:2:0:0:
316,72,44474,1,8,0:2:0:0:
387,104,44549,1,0,0:2:0:0:
501,50,44624,5,0,0:2:0:0:
407,20,44699,1,0,0:2:0:0:
292,53,44774,1,8,0:2:0:0:
245,173,44849,1,0,0:2:0:0:
335,267,44924,5,0,0:2:0:0:
377,152,44999,1,0,0:2:0:0:
319,80,45074,1,8,0:2:0:0:
355,4,45149,1,0,0:2:0:0:
421,71,45224,5,12,0:2:0:0:
325,116,45299,1,0,0:2:0:0:
222,85,45374,1,0,0:2:0:0:
164,7,45449,5,12,0:2:0:0:
128,101,45524,1,0,0:2:0:0:
164,194,45599,1,0,0:2:0:0:
137,325,45674,5,12,0:2:0:0:
219,324,45749,1,0,0:2:0:0:
304,351,45824,5,4,0:1:0:0:
279,251,45899,1,0,0:2:0:0:
170,204,45974,1,8,0:2:0:0:
25,239,46049,1,0,0:2:0:0:
101,288,46124,5,0,0:2:0:0:
212,260,46199,1,0,0:2:0:0:
266,168,46274,1,8,0:2:0:0:
262,86,46349,1,0,0:2:0:0:
155,105,46424,5,0,0:2:0:0:
232,171,46499,1,0,0:2:0:0:
370,191,46574,1,8,0:2:0:0:
510,121,46649,1,0,0:2:0:0:
465,37,46724,5,0,0:2:0:0:
422,162,46799,1,0,0:2:0:0:
480,237,46874,1,8,0:2:0:0:
441,316,46949,1,0,0:2:0:0:
511,366,47024,5,0,0:2:0:0:
500,267,47099,1,0,0:2:0:0:
382,224,47174,1,8,0:2:0:0:
245,291,47249,1,0,0:2:0:0:
332,376,47324,5,0,0:2:0:0:
364,264,47399,1,0,0:2:0:0:
309,187,47474,1,8,0:2:0:0:
227,171,47549,1,0,0:2:0:0:
211,279,47624,5,8,0:2:0:0:
329,222,47699,1,0,0:2:0:0:
343,92,47774,1,8,0:2:0:0:
237,21,47849,1,0,0:2:0:0:
10,122,47924,5,0,0:2:0:0:
104,192,47999,1,0,0:2:0:0:
217,162,48074,1,8,0:2:0:0:
232,43,48149,1,0,0:2:0:0:
114,95,48224,6,0,L|126:171,1,68.2499968757631,8|8,0:2|0:2,0:2:0:0:
263,388,48374,2,0,L|273:321,1,68.2499968757631,8|8,0:2|0:2,0:2:0:0:
388,129,48524,6,0,L|376:205,1,68.2499968757631,8|0,0:2|0:2,0:2:0:0:
170,370,48674,2,0,L|159:302,1,68.2499968757631,8|0,0:2|0:2,0:2:0:0:
316,31,48824,1,8,0:2:0:0:
316,31,48899,1,8,0:2:0:0:
315,30,48974,2,0,L|303:106,1,68.2499968757631,8|8,0:2|0:2,0:2:0:0:
111,117,49124,5,8,0:2:0:0:
130,208,49199,1,8,0:2:0:0:
208,235,49274,1,8,0:2:0:0:
285,217,49349,1,8,0:2:0:0:
356,196,49424,1,8,0:2:0:0:
423,209,49499,1,8,0:2:0:0:
465,240,49574,1,8,0:2:0:0:
491,278,49649,1,8,0:2:0:0:
498,335,49724,5,8,0:2:0:0:
454,314,49799,1,0,0:2:0:0:
402,314,49874,1,8,0:2:0:0:
354,334,49949,1,0,0:2:0:0:
322,374,50024,1,8,0:2:0:0:
322,374,50099,1,0,0:2:0:0:
322,374,50174,6,8,P|279:365|244:372,1,68.2499968757631,8|8,0:2|0:2,0:2:0:0:
38,287,50324,2,8,P|81:278|116:285,1,68.2499968757631,8|8,0:2|0:2,0:2:0:0:
247,183,50474,1,8,0:2:0:0:
247,183,50549,1,8,0:2:0:0:
247,183,50624,5,4,0:2:0:0:
161,157,50849,1,4,0:2:0:0:
96,212,51074,1,4,0:2:0:0:
116,294,51299,1,4,0:2:0:0:
194,323,51524,5,4,0:2:0:0:
259,286,51674,1,8,0:2:0:0:
276,367,51824,5,2,0:2:0:0:
336,326,51899,1,0,0:2:0:0:
348,271,51974,1,0,0:2:0:0:
313,215,52049,1,0,0:2:0:0:
285,170,52124,1,0,0:2:0:0:
300,130,52199,1,2,0:2:0:0:
342,111,52274,2,0,P|380:110|422:122,1,68.2499968757631,2|0,0:2|0:2,0:2:0:0:
501,323,52424,5,2,0:2:0:0:
444,370,52499,1,0,0:2:0:0:
380,348,52574,1,2,0:2:0:0:
357,300,52649,1,0,0:2:0:0:
369,259,52724,1,0,0:2:0:0:
416,194,52874,5,8,0:2:0:0:
409,116,53024,5,4,0:1:0:0:
256,192,53099,12,0,56474,2:2:0:0:
