osu file format v14

[General]
AudioFilename: audio.mp3
AudioLeadIn: 0
PreviewTime: 33674
Countdown: 0
SampleSet: Drum
StackLeniency: 0.5
Mode: 0
LetterboxInBreaks: 0
WidescreenStoryboard: 1

[Editor]
DistanceSpacing: 1
BeatDivisor: 4
GridSize: 8
TimelineZoom: 3.699999

[Metadata]
Title:FAITH
TitleUnicode:FAITH
Artist:Unlucky Morpheus
ArtistUnicode:Unlucky Morpheus
Creator:MakiDonalds
Version:MOUNTAIN OF FAITH
Source:東方風神録 ~ Mountain of Faith.
Tags:Suwako Moriya Touhou Video Game Instrumental Metal Native ネイティブフェイス 東方Project 洩矢 諏訪子 th10 REBIRTH Revisited c89 comiket 紫煉
BeatmapID:2924352
BeatmapSetID:1414107

[Difficulty]
HPDrainRate:6
CircleSize:4.3
OverallDifficulty:9.5
ApproachRate:9.7
SliderMultiplier:1.8
SliderTickRate:1

[Events]
//Background and Video events
0,0,"Moriya.Suwako.full.2107561.jpg",0,0
//Break Periods
//Storyboard Layer 0 (Background)
//Storyboard Layer 1 (Fail)
//Storyboard Layer 2 (Pass)
//Storyboard Layer 3 (Foreground)
//Storyboard Layer 4 (Overlay)
//Storyboard Sound Samples

[TimingPoints]
224,300,4,3,1,50,1,0
674,-90.9090909090909,4,3,1,50,0,0
5024,-90.9090909090909,4,3,1,60,0,0
8624,-90.9090909090909,4,3,1,70,0,0
9224,-90.9090909090909,4,3,1,50,0,0
9299,-90.9090909090909,4,3,1,53,0,0
9374,-90.9090909090909,4,3,1,56,0,0
9449,-90.9090909090909,4,3,1,59,0,0
9524,-90.9090909090909,4,3,1,62,0,0
9599,-90.9090909090909,4,3,1,65,0,0
9674,-90.9090909090909,4,3,1,68,0,0
9749,-90.9090909090909,4,3,1,70,0,0
9824,-90.9090909090909,4,3,1,70,0,0
11624,-80,4,3,1,80,0,0
12224,-80,4,3,1,70,0,0
14024,-80,4,3,1,60,0,0
14624,-100,4,3,1,60,0,0
18524,-80,4,3,1,70,0,0
19424,-100,4,3,1,60,0,0
23024,-100,4,3,1,70,0,0
23174,-90.9090909090909,4,3,1,60,0,0
23324,-83.3333333333333,4,3,1,70,0,0
23474,-76.9230769230769,4,3,1,60,0,0
23624,-100,4,3,1,70,0,0
23924,-100,4,3,1,70,0,0
23999,-100,4,3,1,60,0,0
24074,-100,4,3,1,50,0,0
24149,-100,4,3,1,40,0,0
24224,-100,4,3,1,60,0,0
28124,-80,4,3,1,70,0,0
29024,-100,4,3,1,60,0,0
32024,-80,4,3,1,70,0,0
32624,-80,4,3,1,50,0,0
32774,-100,4,3,1,50,0,0
32924,-100,4,3,1,50,0,0
33824,-100,4,3,1,60,0,0
34274,-90.9090909090909,4,3,1,60,0,0
37424,-90.9090909090909,4,3,1,50,0,0
37724,-90.9090909090909,4,3,1,60,0,0
38024,-90.9090909090909,4,3,1,50,0,0
38324,-90.9090909090909,4,3,1,60,0,0
38624,-90.9090909090909,4,3,1,80,0,0
40424,-80,4,3,1,80,0,0
41024,-80,4,3,1,80,0,0
42824,-80,4,3,1,80,0,0
47624,-80,4,3,1,70,0,0
48224,-90.9090909090909,4,3,1,70,0,0
56174,-90.9090909090909,4,3,1,5,0,0

[Colours]
Combo1 : 255,128,128
Combo2 : 128,255,255
Combo3 : 255,255,128
Combo4 : 23,180,255

[HitObjects]
391,95,224,5,6,3:0:0:0:
341,98,299,1,2,2:0:0:0:
305,133,374,1,2,2:0:0:0:
302,183,449,1,2,2:0:0:0:
332,223,524,1,2,2:0:0:0:
343,268,599,1,2,2:0:0:0:
327,312,674,2,0,L|278:318,1,49.5000015106202,2|2,2:0|2:0,2:0:0:0:
101,191,824,5,6,3:0:0:0:
76,224,899,1,2,2:0:0:0:
77,266,974,1,2,2:0:0:0:
103,299,1049,1,2,2:0:0:0:
143,311,1124,1,2,2:0:0:0:
182,298,1199,1,2,2:0:0:0:
207,264,1274,2,0,L|201:215,1,49.5000015106202,2|2,2:0|2:0,2:0:0:0:
205,63,1424,5,6,3:0:0:0:
206,100,1499,1,2,2:0:0:0:
229,129,1574,1,2,2:0:0:0:
264,141,1649,1,2,2:0:0:0:
299,133,1724,1,2,2:0:0:0:
336,139,1799,1,2,2:0:0:0:
363,163,1874,2,0,L|358:212,1,49.5000015106202,2|2,2:0|2:0,2:0:0:0:
194,258,2024,5,6,3:0:0:0:
163,245,2099,1,2,2:0:0:0:
140,222,2174,1,2,2:0:0:0:
126,193,2249,1,2,2:0:0:0:
124,161,2324,1,2,2:0:0:0:
134,130,2399,1,2,2:0:0:0:
157,106,2474,2,0,L|206:99,1,49.5000015106202,2|2,2:0|2:0,2:0:0:0:
407,235,2624,5,6,3:0:0:0:
443,200,2699,1,2,2:0:0:0:
448,151,2774,1,2,2:0:0:0:
417,111,2849,1,2,2:0:0:0:
368,104,2924,1,2,2:0:0:0:
327,132,2999,1,2,2:0:0:0:
315,181,3074,2,0,L|321:230,1,49.5000015106202,2|2,2:0|2:0,2:0:0:0:
287,68,3224,5,6,3:0:0:0:
245,54,3299,1,2,2:0:0:0:
205,63,3374,1,2,2:0:0:0:
172,91,3449,1,2,2:0:0:0:
157,131,3524,1,2,2:0:0:0:
126,160,3599,1,2,2:0:0:0:
84,170,3674,2,0,L|36:166,1,49.5000015106202,2|2,2:0|2:0,2:0:0:0:
63,25,3824,5,6,3:0:0:0:
99,19,3899,1,2,2:0:0:0:
134,31,3974,1,2,2:0:0:0:
159,56,4049,1,2,2:0:0:0:
172,91,4124,1,2,2:0:0:0:
198,114,4199,1,2,2:0:0:0:
233,123,4274,2,0,L|281:116,1,49.5000015106202,2|2,2:0|2:0,2:0:0:0:
314,37,4424,5,6,3:0:0:0:
287,39,4499,1,2,2:0:0:0:
260,43,4574,1,2,2:0:0:0:
233,45,4649,1,2,2:0:0:0:
207,48,4724,2,8,L|159:55,1,49.5000015106202,10|8,3:0|3:0,3:0:0:0:
45,174,4874,2,8,L|101:180,1,49.5,10|8,3:0|3:0,3:0:0:0:
302,239,5024,5,6,3:0:0:0:
302,239,5099,1,2,2:0:0:0:
302,239,5174,2,0,L|243:246,1,49.5,2|2,2:0|2:0,2:0:0:0:
49,331,5324,1,6,3:0:0:0:
49,331,5399,1,2,2:0:0:0:
49,331,5474,2,0,L|109:338,1,49.5,2|2,2:0|2:0,2:0:0:0:
220,181,5624,1,4,3:0:0:0:
220,181,5699,1,2,2:0:0:0:
220,181,5774,2,0,L|175:186,1,49.5,2|2,2:0|2:0,2:0:0:0:
30,249,5924,1,4,3:0:0:0:
30,249,5999,1,2,2:0:0:0:
30,249,6074,2,0,L|75:254,1,49.5,2|2,2:0|2:0,2:0:0:0:
305,362,6224,5,4,3:0:0:0:
305,362,6299,1,2,2:0:0:0:
305,362,6374,2,0,L|310:317,1,49.5,2|2,2:0|2:0,2:0:0:0:
373,172,6524,1,4,3:0:0:0:
373,172,6599,1,2,2:0:0:0:
373,172,6674,2,0,L|378:217,1,49.5,2|2,2:0|2:0,2:0:0:0:
190,328,6824,1,4,3:0:0:0:
190,328,6899,1,2,2:0:0:0:
190,328,6974,2,0,L|195:283,1,49.5,2|2,2:0|2:0,2:0:0:0:
254,160,7124,1,4,3:0:0:0:
254,160,7199,1,2,2:0:0:0:
254,160,7274,2,0,L|259:205,1,49.5,2|2,2:0|2:0,2:0:0:0:
440,296,7424,5,4,3:0:0:0:
440,296,7499,1,2,2:0:0:0:
440,296,7574,2,0,L|380:303,1,49.5,2|2,2:0|2:0,2:0:0:0:
204,154,7724,1,4,3:0:0:0:
204,154,7799,1,2,2:0:0:0:
204,154,7874,2,0,L|263:161,1,49.5,2|2,2:0|2:0,2:0:0:0:
336,370,8024,1,4,3:0:0:0:
336,370,8099,1,2,2:0:0:0:
336,370,8174,2,0,L|276:377,1,49.5,2|2,2:0|2:0,2:0:0:0:
341,218,8324,1,4,3:0:0:0:
341,218,8399,1,2,2:0:0:0:
341,218,8474,2,0,L|400:225,1,49.5,2|2,2:0|2:0,2:0:0:0:
142,320,8624,6,0,L|149:261,1,49.5,6|2,3:0|3:0,3:0:0:0:
198,118,8774,2,0,L|206:178,1,49.5,2|2,3:0|3:0,3:0:0:0:
272,350,8924,6,0,L|280:280,1,49.5,6|2,3:0|3:0,3:0:0:0:
341,97,9074,2,0,L|350:170,1,49.5,2|2,3:0|3:0,3:0:0:0:
400,360,9224,5,8,3:0:0:0:
423,373,9299,1,8,3:0:0:0:
454,370,9374,1,8,3:0:0:0:
485,352,9449,1,8,3:0:0:0:
499,314,9524,1,8,3:0:0:0:
486,270,9599,1,8,3:0:0:0:
441,248,9674,2,8,L|393:254,1,49.5,8|8,3:0|3:0,3:0:0:0:
152,303,9824,5,2,3:0:0:0:
204,330,9899,1,0,3:0:0:0:
261,318,9974,1,8,3:0:0:0:
298,271,10049,1,0,3:0:0:0:
295,212,10124,1,2,3:0:0:0:
263,161,10199,1,0,3:0:0:0:
271,102,10274,1,10,3:0:0:0:
315,62,10349,1,0,3:0:0:0:
374,61,10424,5,2,3:0:0:0:
362,109,10499,1,0,3:0:0:0:
315,125,10574,1,8,3:0:0:0:
271,102,10649,1,0,3:0:0:0:
221,95,10724,1,2,3:0:0:0:
171,111,10799,1,0,3:0:0:0:
137,150,10874,1,10,3:0:0:0:
125,202,10949,1,0,3:0:0:0:
142,251,11024,5,2,3:0:0:0:
190,245,11099,1,0,3:0:0:0:
238,239,11174,1,8,3:0:0:0:
286,233,11249,1,0,3:0:0:0:
334,227,11324,1,2,3:0:0:0:
378,244,11399,1,0,3:0:0:0:
401,286,11474,1,10,3:0:0:0:
389,332,11549,1,0,3:0:0:0:
350,359,11624,6,0,L|292:351,1,56.25,10|0,3:0|3:0,3:0:0:0:
164,228,11774,1,0,3:0:0:0:
190,245,11849,2,0,L|248:238,1,56.25,10|0,3:0|3:0,3:0:0:0:
358,108,11999,1,0,3:0:0:0:
332,125,12074,2,0,L|274:118,1,56.25,10|0,3:0|3:0,3:0:0:0:
83,81,12224,5,2,3:0:0:0:
46,128,12299,1,0,3:0:0:0:
43,188,12374,1,8,3:0:0:0:
76,238,12449,1,0,3:0:0:0:
131,259,12524,1,2,3:0:0:0:
190,245,12599,1,0,3:0:0:0:
233,203,12674,1,10,3:0:0:0:
291,194,12749,1,0,3:0:0:0:
345,221,12824,5,2,3:0:0:0:
303,251,12899,1,0,3:0:0:0:
252,254,12974,1,8,3:0:0:0:
207,228,13049,1,0,3:0:0:0:
184,181,13124,1,2,3:0:0:0:
191,130,13199,1,0,3:0:0:0:
225,90,13274,1,10,3:0:0:0:
274,77,13349,1,0,3:0:0:0:
324,92,13424,5,2,3:0:0:0:
339,50,13499,1,0,3:0:0:0:
373,21,13574,1,8,3:0:0:0:
417,13,13649,1,0,3:0:0:0:
459,28,13724,1,2,3:0:0:0:
488,61,13799,1,0,3:0:0:0:
497,105,13874,1,10,3:0:0:0:
483,147,13949,1,0,3:0:0:0:
450,178,14024,5,10,3:0:0:0:
292,110,14249,5,2,0:0:0:0:
54,13,14474,5,2,0:0:0:0:
119,317,14624,6,0,L|214:308,1,90,6|8,3:3|3:0,3:0:0:0:
300,196,14924,2,0,L|293:251,1,45,0|0,3:2|3:0,3:0:0:0:
347,315,15074,1,10,3:0:0:0:
411,128,15224,2,0,B|428:169|428:169|424:213,1,90,2|8,3:2|3:0,3:0:0:0:
492,333,15449,1,0,3:0:0:0:
474,357,15524,2,0,L|418:363,1,45,0|0,3:2|3:0,3:0:0:0:
347,315,15674,1,10,3:0:0:0:
132,384,15824,6,0,B|115:343|115:343|119:299,1,90,2|8,3:2|3:0,3:0:0:0:
188,245,16049,2,0,L|179:150,1,90,2|0,3:0|3:0,3:0:0:0:
123,89,16274,1,10,3:0:0:0:
32,284,16424,2,0,B|73:301|73:301|117:297,1,90,2|8,3:2|3:0,3:0:0:0:
188,245,16649,1,0,3:0:0:0:
206,269,16724,2,0,L|262:275,1,45,2|0,3:2|3:0,3:0:0:0:
333,227,16874,1,10,3:0:0:0:
419,354,17024,6,0,B|436:313|436:313|431:267,1,90,2|8,3:2|3:0,3:0:0:0:
375,100,17324,2,0,L|381:156,1,45,0|0,3:2|3:0,3:0:0:0:
333,227,17474,1,10,3:0:0:0:
168,157,17624,2,0,B|151:116|151:116|155:72,1,90,2|8,3:2|3:0,3:0:0:0:
240,24,17849,2,0,B|257:65|257:65|253:109,1,90,2|0,3:0|3:0,3:0:0:0:
185,184,18074,1,10,3:0:0:0:
53,34,18224,6,0,L|148:45,1,90,2|8,3:2|3:0,3:0:0:0:
333,227,18524,2,0,L|277:233,1,56.25,0|0,3:2|3:0,3:0:0:0:
167,347,18674,2,0,L|222:353,1,56.25,8|0,3:0|3:0,3:0:0:0:
427,322,18824,1,4,3:0:0:0:
427,322,18899,1,0,3:0:0:0:
427,322,18974,2,8,B|430:295|430:295|418:268,1,56.25,0|0,3:0|3:0,3:0:0:0:
177,130,19124,1,4,3:0:0:0:
177,130,19199,1,0,3:0:0:0:
177,130,19274,2,0,B|173:157|173:157|185:184,1,56.25,8|0,3:0|3:0,3:0:0:0:
443,157,19424,6,0,L|434:62,1,90,6|8,3:2|3:0,3:0:0:0:
301,42,19724,2,0,L|295:98,1,45,0|0,3:2|3:0,3:0:0:0:
343,169,19874,1,10,3:0:0:0:
223,321,20024,2,0,L|234:225,1,90,2|8,3:2|3:0,3:0:0:0:
165,170,20249,2,0,L|153:74,1,90,2|0,3:0|3:0,3:0:0:0:
205,16,20474,1,10,3:0:0:0:
383,100,20624,6,0,B|387:145|387:145|370:186,1,90,2|8,3:2|3:0,3:0:0:0:
320,264,20849,1,2,3:0:0:0:
338,288,20924,2,0,L|394:294,1,45,0|0,3:2|3:0,3:0:0:0:
465,246,21074,1,10,3:0:0:0:
306,129,21224,6,4,B|260:124|260:124|219:141,1,90,2|8,3:0|3:0,3:2:0:0:
136,187,21449,1,2,3:0:0:0:
112,169,21524,2,0,L|106:112,1,45,0|0,3:2|3:0,3:0:0:0:
154,42,21674,1,10,3:0:0:0:
390,96,21824,6,0,L|377:200,1,90,2|8,3:3|3:0,3:0:0:0:
264,256,22124,2,0,L|258:199,1,45,2|0,3:2|3:0,3:0:0:0:
306,129,22274,1,8,3:0:0:0:
374,312,22424,1,2,3:2:0:0:
374,312,22499,1,0,3:0:0:0:
374,312,22574,2,0,L|326:317,1,45,10|0,3:0|3:0,3:0:0:0:
214,205,22724,1,2,3:2:0:0:
214,205,22799,1,0,3:0:0:0:
214,205,22874,2,0,L|261:210,1,45,10|0,3:0|3:0,3:0:0:0:
457,169,23024,6,0,L|450:224,1,45,6|0,3:0|3:0,3:0:0:0:
249,343,23174,2,0,L|242:287,1,49.5,2|0,3:0|3:0,3:0:0:0:
311,84,23324,6,0,L|304:139,1,54,6|0,3:0|3:0,3:0:0:0:
108,261,23474,2,0,L|101:205,1,58.5,2|0,3:0|3:0,3:0:0:0:
279,14,23624,1,6,3:0:0:0:
279,14,23924,5,8,3:0:0:0:
320,41,23999,1,8,3:0:0:0:
331,79,24074,1,8,3:0:0:0:
321,108,24149,1,8,3:0:0:0:
305,123,24224,6,0,L|316:218,1,90,6|8,3:2|3:0,3:0:0:0:
448,328,24524,2,0,L|454:271,1,45,0|0,3:2|3:0,3:0:0:0:
406,201,24674,1,10,3:0:0:0:
203,355,24824,2,0,B|249:360|249:360|290:343,1,90,2|8,3:2|3:0,3:0:0:0:
291,239,25049,1,0,3:0:0:0:
273,215,25124,2,0,L|217:209,1,45,0|0,3:2|3:0,3:0:0:0:
146,257,25274,1,10,3:0:0:0:
20,74,25424,6,0,B|61:57|61:57|105:61,1,90,2|8,3:2|3:0,3:0:0:0:
167,135,25649,2,0,L|262:126,1,90,2|0,3:0|3:0,3:0:0:0:
323,70,25874,1,10,3:0:0:0:
371,301,26024,2,0,B|330:318|330:318|284:313,1,90,2|8,3:2|3:0,3:0:0:0:
152,286,26249,1,0,3:0:0:0:
128,268,26324,2,0,L|122:212,1,45,2|0,3:2|3:0,3:0:0:0:
167,135,26474,1,10,3:0:0:0:
284,313,26624,6,0,L|387:300,1,90,2|8,3:2|3:0,3:0:0:0:
508,161,26924,2,0,L|514:217,1,45,0|0,3:2|3:0,3:0:0:0:
463,289,27074,1,10,3:0:0:0:
317,174,27224,2,0,B|312:128|312:128|329:87,1,90,2|8,3:2|3:0,3:0:0:0:
414,134,27449,2,0,B|418:179|418:179|401:220,1,90,2|0,3:0|3:0,3:0:0:0:
346,60,27674,1,10,3:0:0:0:
241,227,27824,6,0,L|145:215,1,90,2|8,3:2|3:0,3:0:0:0:
279,319,28124,2,0,L|334:312,1,56.25,0|0,3:0|3:0,3:0:0:0:
456,227,28274,2,0,L|400:220,1,56.25,8|0,3:0|3:0,3:0:0:0:
198,309,28424,1,4,3:0:0:0:
198,309,28499,1,0,3:0:0:0:
198,309,28574,2,0,B|196:336|196:336|207:364,1,56.25,8|0,3:0|3:0,3:0:0:0:
378,147,28724,1,4,3:0:0:0:
378,147,28799,1,0,3:0:0:0:
378,147,28874,2,0,B|381:120|381:120|369:92,1,56.25,8|0,3:0|3:0,3:0:0:0:
88,236,29024,6,0,B|134:241|134:241|175:224,1,90,6|8,3:2|3:0,3:0:0:0:
242,108,29324,2,0,L|236:164,1,45,0|0,3:2|3:0,3:0:0:0:
287,236,29474,1,10,3:0:0:0:
116,340,29624,2,0,B|157:357|157:357|203:352,1,90,2|8,3:2|3:0,3:0:0:0:
251,282,29849,2,0,B|292:265|292:265|338:270,1,90,2|0,3:0|3:0,3:0:0:0:
394,337,30074,1,10,3:0:0:0:
470,194,30224,6,0,L|457:297,1,90,2|8,3:2|3:0,3:0:0:0:
337,269,30449,1,2,3:0:0:0:
313,251,30524,2,0,L|307:194,1,45,2|0,3:2|3:0,3:0:0:0:
355,124,30674,1,10,3:0:0:0:
252,27,30824,6,0,L|148:39,1,90,2|8,3:2|3:0,3:0:0:0:
61,4,31049,1,2,3:0:0:0:
37,22,31124,2,0,L|31:79,1,45,0|0,3:2|3:0,3:0:0:0:
79,149,31274,1,10,3:0:0:0:
237,109,31424,5,2,3:2:0:0:
237,109,31499,1,0,3:0:0:0:
237,109,31574,2,0,L|181:115,1,45,8|0,3:0|3:0,3:0:0:0:
308,206,31724,1,6,3:2:0:0:
133,280,31874,1,8,3:0:0:0:
133,280,31949,1,0,3:0:0:0:
133,280,32024,6,0,L|126:224,1,56.25,10|0,3:0|3:0,3:0:0:0:
55,166,32174,1,0,3:0:0:0:
31,183,32249,2,0,L|25:239,1,56.25,10|0,3:0|3:0,3:0:0:0:
207,327,32399,1,0,3:0:0:0:
226,304,32474,2,0,L|218:247,1,56.25,10|0,3:0|3:0,3:0:0:0:
79,149,32624,5,2,3:0:0:0:
312,161,32774,2,0,L|306:216,5,45,0|0|0|0|0|0,3:0|3:0|3:0|3:0|3:0|3:0,3:0:0:0:
363,315,33224,1,0,3:0:0:0:
363,315,33299,1,0,3:0:0:0:
363,315,33374,1,0,3:0:0:0:
363,315,33449,1,0,3:0:0:0:
363,315,33524,2,0,L|369:370,3,45,0|0|0|0,3:0|3:0|3:0|3:0,3:0:0:0:
193,182,33824,5,6,3:0:0:0:
216,129,33899,1,2,2:0:0:0:
267,103,33974,1,2,2:0:0:0:
324,115,34049,1,2,2:0:0:0:
360,160,34124,1,2,2:0:0:0:
416,171,34199,1,2,2:0:0:0:
467,145,34274,2,0,L|459:81,1,49.5,2|2,2:0|2:0,2:0:0:0:
279,190,34424,5,4,3:0:0:0:
261,240,34499,1,2,2:0:0:0:
271,292,34574,1,2,2:0:0:0:
307,332,34649,1,2,2:0:0:0:
358,348,34724,1,2,2:0:0:0:
410,335,34799,1,2,2:0:0:0:
448,298,34874,2,0,L|442:250,1,49.5,2|2,2:0|2:0,2:0:0:0:
335,92,35024,5,4,3:0:0:0:
287,78,35099,1,2,2:0:0:0:
239,84,35174,1,2,2:0:0:0:
197,110,35249,1,2,2:0:0:0:
169,150,35324,1,2,2:0:0:0:
124,171,35399,1,2,2:0:0:0:
75,172,35474,2,0,L|19:165,1,49.5,2|2,2:0|2:0,2:0:0:0:
182,20,35624,5,4,3:0:0:0:
215,46,35699,1,2,2:0:0:0:
239,84,35774,1,2,2:0:0:0:
246,128,35849,1,2,2:0:0:0:
237,172,35924,1,2,2:0:0:0:
213,209,35999,1,2,2:0:0:0:
176,234,36074,2,0,L|105:241,1,49.5,2|2,2:0|2:0,2:0:0:0:
60,45,36224,5,4,3:0:0:0:
60,45,36299,1,2,2:0:0:0:
60,45,36374,2,0,L|119:52,1,49.5,2|2,2:0|2:0,2:0:0:0:
317,103,36524,1,4,3:0:0:0:
317,103,36599,1,2,2:0:0:0:
317,103,36674,2,0,L|257:110,1,49.5,2|2,2:0|2:0,2:0:0:0:
101,160,36824,1,4,3:0:0:0:
101,160,36899,1,2,2:0:0:0:
101,160,36974,2,0,L|160:167,1,49.5,2|2,2:0|2:0,2:0:0:0:
305,216,37124,1,4,3:0:0:0:
305,216,37199,1,2,2:0:0:0:
305,216,37274,2,0,L|245:223,1,49.5,2|2,2:0|2:0,2:0:0:0:
70,242,37424,5,4,3:2:0:0:
73,265,37499,1,4,3:2:0:0:
76,287,37574,1,4,3:2:0:0:
79,309,37649,1,4,3:2:0:0:
83,330,37724,5,8,3:0:0:0:
130,356,37799,1,8,3:0:0:0:
182,357,37874,1,8,3:0:0:0:
231,334,37949,1,8,3:0:0:0:
262,290,38024,5,4,3:2:0:0:
265,313,38099,1,4,3:2:0:0:
268,335,38174,1,4,3:2:0:0:
271,357,38249,1,4,3:2:0:0:
276,380,38324,5,8,3:0:0:0:
330,383,38399,1,8,3:0:0:0:
377,356,38474,2,8,L|369:292,1,49.5,8|8,3:0|3:0,3:0:0:0:
152,84,38624,5,2,3:0:0:0:
135,141,38699,1,0,3:0:0:0:
159,196,38774,1,8,3:0:0:0:
210,226,38849,1,0,3:0:0:0:
269,218,38924,1,2,3:0:0:0:
312,176,38999,1,0,3:0:0:0:
368,160,39074,1,10,3:0:0:0:
423,182,39149,1,0,3:0:0:0:
453,235,39224,5,2,3:0:0:0:
411,270,39299,1,0,3:0:0:0:
357,278,39374,1,8,3:0:0:0:
303,262,39449,1,0,3:0:0:0:
268,218,39524,1,2,3:0:0:0:
262,163,39599,1,0,3:0:0:0:
285,111,39674,1,10,3:0:0:0:
330,80,39749,1,0,3:0:0:0:
384,81,39824,5,2,3:0:0:0:
366,130,39899,1,0,3:0:0:0:
327,163,39974,1,8,3:0:0:0:
275,171,40049,1,0,3:0:0:0:
227,151,40124,1,2,3:0:0:0:
194,111,40199,1,0,3:0:0:0:
146,91,40274,1,10,3:0:0:0:
95,99,40349,1,0,3:0:0:0:
54,132,40424,6,0,L|59:181,1,56.25,10|0,3:0|3:0,3:0:0:0:
155,313,40574,1,0,3:0:0:0:
177,294,40649,2,0,L|183:250,1,56.25,10|0,3:0|3:0,3:0:0:0:
298,82,40799,1,0,3:0:0:0:
320,101,40874,2,0,L|326:145,1,56.25,10|0,3:0|3:0,3:0:0:0:
315,342,41024,5,2,3:2:0:0:
270,304,41099,1,0,3:0:0:0:
256,245,41174,1,8,3:0:0:0:
277,190,41249,1,0,3:0:0:0:
328,157,41324,1,2,3:2:0:0:
387,160,41399,1,0,3:0:0:0:
435,196,41474,1,10,3:0:0:0:
452,253,41549,1,0,3:0:0:0:
433,310,41624,5,2,3:2:0:0:
376,303,41699,1,0,3:0:0:0:
331,268,41774,1,8,3:0:0:0:
318,212,41849,1,0,3:0:0:0:
328,157,41924,1,2,3:2:0:0:
319,101,41999,1,0,3:0:0:0:
278,60,42074,1,10,3:0:0:0:
222,53,42149,1,0,3:0:0:0:
170,78,42224,5,2,3:2:0:0:
194,120,42299,1,0,3:0:0:0:
236,143,42374,1,8,3:0:0:0:
284,134,42449,1,0,3:0:0:0:
319,101,42524,1,2,3:2:0:0:
365,89,42599,1,0,3:0:0:0:
411,105,42674,1,10,3:0:0:0:
436,146,42749,1,0,3:0:0:0:
436,194,42824,6,0,L|371:201,1,56.25,10|0,3:0|3:0,3:0:0:0:
170,78,42974,1,0,3:0:0:0:
193,61,43049,2,0,L|237:65,1,56.25,10|0,3:0|3:0,3:0:0:0:
265,268,43199,1,0,3:0:0:0:
242,285,43274,2,0,L|197:280,1,56.25,10|0,3:0|3:0,3:0:0:0:
425,90,43424,5,6,3:2:0:0:
452,151,43499,1,0,0:0:0:0:
441,217,43574,1,8,0:0:0:0:
397,268,43649,1,0,0:0:0:0:
331,284,43724,1,6,3:2:0:0:
265,268,43799,1,0,0:0:0:0:
231,209,43874,1,10,0:0:0:0:
238,141,43949,1,0,0:0:0:0:
279,87,44024,5,6,0:2:0:0:
326,126,44099,1,0,0:0:0:0:
343,185,44174,1,8,0:0:0:0:
320,242,44249,1,0,0:0:0:0:
265,268,44324,1,6,0:2:0:0:
203,264,44399,1,0,0:0:0:0:
158,220,44474,1,10,0:0:0:0:
150,158,44549,1,0,0:0:0:0:
174,101,44624,5,6,0:2:0:0:
226,121,44699,1,0,0:0:0:0:
250,171,44774,1,8,0:0:0:0:
243,226,44849,1,0,0:0:0:0:
203,264,44924,1,6,0:2:0:0:
194,319,44999,1,0,0:0:0:0:
224,366,45074,1,10,0:0:0:0:
279,376,45149,1,0,0:0:0:0:
329,351,45224,6,0,L|321:287,1,56.25,6|0,3:2|3:0,3:0:0:0:
256,111,45374,2,0,L|248:174,1,56.25,10|0,3:0|3:0,3:0:0:0:
337,359,45524,2,4,L|329:295,1,56.25,6|0,3:2|3:0,3:0:0:0:
248,103,45674,2,0,L|240:166,1,56.25,10|0,3:0|3:0,3:0:0:0:
173,336,45824,5,6,3:2:0:0:
111,359,45899,1,0,3:0:0:0:
48,337,45974,1,8,3:0:0:0:
15,280,46049,1,0,3:0:0:0:
34,215,46124,1,6,3:2:0:0:
89,176,46199,1,0,3:0:0:0:
119,116,46274,1,10,3:0:0:0:
109,49,46349,1,0,3:0:0:0:
54,9,46424,5,6,3:2:0:0:
34,68,46499,1,0,3:0:0:0:
47,129,46574,1,8,3:0:0:0:
89,176,46649,1,0,3:0:0:0:
151,186,46724,1,6,3:2:0:0:
208,159,46799,1,0,3:0:0:0:
270,169,46874,1,10,3:0:0:0:
313,214,46949,1,0,3:0:0:0:
313,277,47024,5,6,3:2:0:0:
255,263,47099,1,0,3:0:0:0:
215,219,47174,1,8,3:0:0:0:
208,159,47249,1,0,3:0:0:0:
230,106,47324,1,6,3:2:0:0:
278,73,47399,1,0,3:0:0:0:
337,71,47474,1,10,3:0:0:0:
386,102,47549,1,0,3:0:0:0:
408,155,47624,5,6,3:2:0:0:
361,176,47699,1,0,3:0:0:0:
310,170,47774,1,8,3:0:0:0:
280,128,47849,1,0,3:0:0:0:
278,73,47924,2,0,L|284:17,1,56.25,2|0,3:0|3:0,3:0:0:0:
444,125,48074,1,8,3:0:0:0:
444,125,48149,1,0,3:0:0:0:
444,125,48224,6,0,L|500:118,2,49.5,2|0|0,3:0|3:0|3:0,3:0:0:0:
419,56,48449,2,0,L|407:159,1,99,2|0,3:0|3:0,3:0:0:0:
290,182,48674,6,0,L|235:175,2,49.5,2|0|0,3:0|3:0|3:0,3:0:0:0:
315,113,48899,2,0,L|328:216,1,99,2|0,3:0|3:0,3:0:0:0:
449,321,49124,1,2,3:0:0:0:
449,321,49199,1,2,3:0:0:0:
449,321,49274,2,0,L|393:327,1,49.5,2|0,3:0|3:0,3:0:0:0:
230,314,49424,6,0,L|236:369,2,49.5,2|0|0,3:0|3:0|3:0,3:0:0:0:
299,289,49649,2,0,L|195:276,1,99,2|0,3:0|3:0,3:0:0:0:
147,168,49874,6,0,L|153:112,2,49.5,2|0|0,3:0|3:0|3:0,3:0:0:0:
216,193,50099,2,0,L|112:205,1,99,2|0,3:0|3:0,3:0:0:0:
36,273,50324,1,2,3:0:0:0:
39,297,50399,1,2,3:0:0:0:
42,322,50474,1,2,3:0:0:0:
45,346,50549,1,2,3:0:0:0:
48,371,50624,5,10,3:0:0:0:
398,285,50849,5,10,3:0:0:0:
72,138,51074,5,10,3:0:0:0:
448,25,51299,5,10,3:0:0:0:
273,354,51524,5,6,3:0:0:0:
423,271,51674,1,6,3:0:0:0:
189,308,51824,5,2,3:0:0:0:
189,308,51899,1,2,3:0:0:0:
189,308,51974,2,0,L|195:252,1,49.5,10|2,3:0|3:0,3:0:0:0:
309,113,52124,1,2,3:0:0:0:
309,113,52199,1,2,3:0:0:0:
309,113,52274,2,0,L|315:168,1,49.5,10|2,3:0|3:0,3:0:0:0:
492,349,52424,5,2,3:0:0:0:
494,331,52499,1,2,3:0:0:0:
496,314,52574,1,2,3:0:0:0:
497,296,52649,1,2,3:0:0:0:
499,278,52724,2,0,L|491:214,1,49.5,10|8,3:0|3:0,3:0:0:0:
226,75,52874,2,0,L|220:125,1,49.5,10|0,3:0|3:0,3:0:0:0:
434,33,53024,5,6,3:0:0:0:
256,192,53099,12,0,56174,3:0:0:0:
