osu file format v14

[General]
AudioFilename: audio.mp3
AudioLeadIn: 0
PreviewTime: 33674
Countdown: 0
SampleSet: Drum
StackLeniency: 0.4
Mode: 0
LetterboxInBreaks: 0
WidescreenStoryboard: 1

[Editor]
DistanceSpacing: 0.8
BeatDivisor: 4
GridSize: 8
TimelineZoom: 3.699998

[Metadata]
Title:FAITH
TitleUnicode:FAITH
Artist:Unlucky Morpheus
ArtistUnicode:Unlucky Morpheus
Creator:MakiDonalds
Version:LUNATIC
Source:東方風神録 ~ Mountain of Faith.
Tags:Suwako Moriya Touhou Video Game Instrumental Metal Native ネイティブフェイス 東方Project 洩矢 諏訪子 th10 REBIRTH Revisited c89 comiket 紫煉
BeatmapID:2921706
BeatmapSetID:1414107

[Difficulty]
HPDrainRate:6
CircleSize:4
OverallDifficulty:8
ApproachRate:9
SliderMultiplier:1.6
SliderTickRate:1

[Events]
//Background and Video events
0,0,"Moriya.Suwako.full.2107561.jpg",0,0
//Break Periods
//Storyboard Layer 0 (Background)
//Storyboard Layer 1 (Fail)
//Storyboard Layer 2 (Pass)
//Storyboard Layer 3 (Foreground)
//Storyboard Layer 4 (Overlay)
//Storyboard Sound Samples

[TimingPoints]
224,300,4,3,1,50,1,0
5024,-100,4,3,1,60,0,0
8624,-100,4,3,1,70,0,0
9224,-100,4,3,1,50,0,0
9299,-100,4,3,1,53,0,0
9374,-100,4,3,1,56,0,0
9449,-100,4,3,1,59,0,0
9524,-100,4,3,1,62,0,0
9599,-100,4,3,1,65,0,0
9674,-100,4,3,1,68,0,0
9749,-100,4,3,1,70,0,0
9824,-90.9090909090909,4,3,1,70,0,0
11624,-90.9090909090909,4,3,1,80,0,0
12224,-90.9090909090909,4,3,1,70,0,0
14024,-90.9090909090909,4,3,1,60,0,0
14624,-100,4,3,1,60,0,0
18524,-100,4,3,1,70,0,0
19424,-100,4,3,1,60,0,0
23024,-100,4,3,1,70,0,0
23174,-100,4,3,1,60,0,0
23324,-100,4,3,1,70,0,0
23474,-100,4,3,1,60,0,0
23624,-100,4,3,1,70,0,0
23999,-100,4,3,1,60,0,0
24074,-100,4,3,1,50,0,0
24149,-100,4,3,1,40,0,0
24224,-100,4,3,1,60,0,0
28124,-100,4,3,1,70,0,0
29024,-100,4,3,1,60,0,0
32024,-100,4,3,1,70,0,0
32624,-100,4,3,1,50,0,0
33824,-100,4,3,1,60,0,0
37424,-100,4,3,1,50,0,0
37724,-100,4,3,1,60,0,0
38024,-100,4,3,1,50,0,0
38324,-100,4,3,1,60,0,0
38624,-90.9090909090909,4,3,1,80,0,0
40424,-90.9090909090909,4,3,1,80,0,0
41024,-90.9090909090909,4,3,1,80,0,0
42824,-90.9090909090909,4,3,1,80,0,0
47624,-90.9090909090909,4,3,1,70,0,0
48224,-100,4,3,1,70,0,0
56174,-100,4,3,1,5,0,0

[Colours]
Combo1 : 255,128,128
Combo2 : 128,255,255
Combo3 : 255,255,128
Combo4 : 23,180,255

[HitObjects]
60,37,224,5,6,3:0:0:0:
65,59,299,1,2,2:0:0:0:
69,80,374,1,2,2:0:0:0:
74,102,449,1,2,2:0:0:0:
79,124,524,2,0,L|124:129,3,40,2|2|2|2,2:0|2:0|2:0|2:0,0:0:0:0:
189,198,824,5,6,3:0:0:0:
184,220,899,1,2,2:0:0:0:
180,242,974,1,2,2:0:0:0:
175,264,1049,1,2,2:0:0:0:
170,285,1124,2,0,L|125:290,3,40,2|2|2|2,2:0|2:0|2:0|2:0,0:0:0:0:
241,350,1424,6,0,L|287:355,7,40,6|2|2|2|2|2|2|2,3:0|2:0|2:0|2:0|2:0|2:0|2:0|2:0,0:0:0:0:
352,270,2024,2,0,L|307:275,7,40,6|2|2|2|2|2|2|2,3:0|2:0|2:0|2:0|2:0|2:0|2:0|2:0,0:0:0:0:
459,268,2624,5,6,3:0:0:0:
463,247,2699,1,2,2:0:0:0:
468,225,2774,1,2,2:0:0:0:
457,204,2849,1,2,2:0:0:0:
445,186,2924,2,0,L|400:181,3,40,2|2|2|2,2:0|2:0|2:0|2:0,0:0:0:0:
310,169,3224,5,6,3:0:0:0:
305,147,3299,1,2,2:0:0:0:
300,125,3374,1,2,2:0:0:0:
311,104,3449,1,2,2:0:0:0:
323,86,3524,2,0,L|368:81,3,40,2|2|2|2,2:0|2:0|2:0|2:0,0:0:0:0:
249,25,3824,6,0,L|203:21,7,40,6|2|2|2|2|2|2|2,3:0|2:0|2:0|2:0|2:0|2:0|2:0|2:0,0:0:0:0:
138,105,4424,2,0,L|183:100,3,40,6|2|2|2,3:0|2:0|2:0|2:0,0:0:0:0:
217,166,4724,2,8,L|265:171,3,40,10|8|10|8,3:0|3:0|3:0|3:0,3:0:0:0:
150,235,5024,6,0,B|145:273|145:273|153:313,1,80,6|2,3:0|2:0,0:0:0:0:
306,366,5324,2,0,B|310:327|310:327|302:287,1,80,6|2,3:0|2:0,0:0:0:0:
281,268,5549,1,2,2:0:0:0:
281,268,5624,2,0,B|275:228|275:228|283:189,1,80,4|2,3:0|2:0,0:0:0:0:
399,136,5924,2,0,B|406:174|406:174|401:213,1,80,4|2,3:0|2:0,0:0:0:0:
334,367,6224,6,0,B|373:384|414:366,1,80,4|2,3:0|2:0,0:0:0:0:
512,234,6524,2,0,B|473:217|432:235,1,80,4|2,3:0|2:0,0:0:0:0:
412,256,6749,1,2,2:0:0:0:
412,256,6824,2,0,B|373:273|332:255,1,80,4|2,3:0|2:0,0:0:0:0:
250,111,7124,2,0,B|289:94|330:112,1,80,4|2,3:0|2:0,0:0:0:0:
475,148,7424,6,0,L|463:52,1,80,4|2,3:0|2:0,0:0:0:0:
337,31,7724,2,0,L|325:126,1,80,4|2,3:0|2:0,0:0:0:0:
353,141,7949,1,2,2:0:0:0:
353,141,8024,2,0,L|362:220,1,80,4|2,3:0|2:0,0:0:0:0:
215,275,8324,2,0,L|224:195,1,80,4|2,3:0|2:0,0:0:0:0:
249,37,8624,5,6,3:0:0:0:
142,162,8774,1,2,3:0:0:0:
142,13,8924,1,6,3:0:0:0:
277,130,9074,1,2,3:0:0:0:
101,94,9224,5,8,3:0:0:0:
80,111,9299,1,8,3:0:0:0:
68,135,9374,1,8,3:0:0:0:
66,160,9449,1,8,3:0:0:0:
70,186,9524,2,0,L|63:238,3,40,8|8|8|8,3:0|3:0|3:0|3:0,0:0:0:0:
101,305,9824,5,2,3:0:0:0:
133,310,9899,1,0,3:0:0:0:
166,315,9974,1,8,3:0:0:0:
198,320,10049,1,0,3:0:0:0:
230,324,10124,2,0,L|237:264,3,44.0000013427735,2|0|10|0,3:0|3:0|3:0|3:0,0:0:0:0:
278,185,10424,5,2,3:0:0:0:
311,180,10499,1,0,3:0:0:0:
343,175,10574,1,8,3:0:0:0:
375,171,10649,1,0,3:0:0:0:
407,166,10724,2,0,L|414:226,3,44.0000013427735,2|0|10|0,3:0|3:0|3:0|3:0,0:0:0:0:
370,301,11024,6,0,L|325:305,3,44.0000013427735,2|0|8|0,3:0|3:0|3:0|3:0,0:0:0:0:
434,361,11324,2,0,L|479:366,3,44.0000013427735,2|0|10|0,3:0|3:0|3:0|3:0,0:0:0:0:
326,304,11624,6,0,B|242:314|242:314|202:365,2,132.00000402832,10|10|10,3:0|3:0|3:0,3:0:0:0:
371,226,12224,5,2,3:0:0:0:
381,194,12299,1,0,3:0:0:0:
376,160,12374,1,8,3:0:0:0:
355,134,12449,1,0,3:0:0:0:
324,120,12524,2,0,L|263:126,3,44.0000013427735,2|0|10|0,3:0|3:0|3:0|3:0,0:0:0:0:
221,190,12824,5,2,3:0:0:0:
189,200,12899,1,0,3:0:0:0:
156,195,12974,1,8,3:0:0:0:
129,174,13049,1,0,3:0:0:0:
115,143,13124,2,0,L|122:82,3,44.0000013427735,2|0|10|0,3:0|3:0|3:0|3:0,0:0:0:0:
202,38,13424,6,0,L|248:43,3,44.0000013427735,2|0|8|0,3:0|3:0|3:0|3:0,0:0:0:0:
324,120,13724,2,0,L|263:126,3,44.0000013427735,2|0|10|0,3:0|3:0|3:0|3:0,0:0:0:0:
221,190,14024,5,10,3:0:0:0:
284,274,14249,5,2,0:0:0:0:
163,362,14474,5,2,0:0:0:0:
41,257,14624,6,0,B|128:235|108:302|196:273,1,160,6|0,3:3|3:2,3:0:0:0:
342,219,15074,1,10,3:0:0:0:
239,91,15224,2,0,P|217:90|171:209,1,160,2|0,3:2|3:2,3:0:0:0:
274,299,15674,1,10,3:0:0:0:
306,135,15824,6,0,L|394:145,1,80,2|8,3:2|3:0,3:0:0:0:
407,172,16049,2,0,L|495:161,1,80,2|0,3:0|3:0,3:0:0:0:
512,139,16274,1,10,3:0:0:0:
379,59,16424,1,2,3:2:0:0:
409,259,16574,1,8,3:0:0:0:
409,259,16649,1,0,3:0:0:0:
409,259,16724,2,0,L|322:249,1,80,2|10,3:2|3:0,3:0:0:0:
204,154,17024,6,0,B|153:160|153:160|104:191|104:191|48:197,1,160,2|0,3:2|3:2,3:0:0:0:
180,66,17474,1,10,3:0:0:0:
196,242,17624,2,0,L|179:376,2,120,2|2|10,3:2|3:0|3:0,3:0:0:0:
171,35,18224,6,0,L|75:46,1,80,2|8,3:2|3:0,3:0:0:0:
8,165,18524,2,0,L|95:175,1,80,0|8,3:2|3:0,3:0:0:0:
107,171,18749,1,0,3:0:0:0:
127,168,18824,1,4,3:0:0:0:
214,37,18974,1,0,3:0:0:0:
214,37,19049,1,0,3:0:0:0:
214,37,19124,2,0,L|224:125,1,80,4|8,3:0|3:0,0:0:0:0:
210,250,19424,6,0,B|247:285|247:285|358:271,1,160,6|0,3:2|3:2,3:0:0:0:
499,250,19874,1,10,3:0:0:0:
400,108,20024,2,0,L|321:98,1,80,2|8,3:2|3:0,3:0:0:0:
295,121,20249,2,0,L|216:130,1,80,2|0,3:0|3:0,3:0:0:0:
186,113,20474,1,10,3:0:0:0:
39,188,20624,6,0,B|30:263|30:263|58:296,2,120,2|2|10,3:2|3:0|3:0,3:0:0:0:
159,260,21224,2,4,B|168:334|168:334|133:376,2,120,2|2|10,3:0|3:0|3:0,3:2:0:0:
106,103,21824,6,0,L|194:113,1,80,2|8,3:3|3:0,3:0:0:0:
268,248,22124,2,0,L|180:258,1,80,2|8,3:2|3:0,3:0:0:0:
323,108,22424,1,2,3:2:0:0:
326,128,22499,1,0,3:0:0:0:
329,148,22574,1,10,3:0:0:0:
430,263,22724,1,2,3:2:0:0:
433,243,22799,1,0,3:0:0:0:
436,223,22874,2,0,L|428:168,1,40,10|0,3:0|3:0,3:0:0:0:
320,93,23024,6,0,L|256:86,3,40,6|0|2|0,3:0|3:0|3:0|3:0,3:0:0:0:
191,24,23324,2,0,L|184:88,1,40,6|0,3:0|3:0,3:0:0:0:
103,113,23474,2,0,L|108:153,1,40,2|0,3:0|3:0,3:0:0:0:
183,223,23624,1,6,3:0:0:0:
183,223,23924,5,8,3:0:0:0:
185,243,23999,1,8,3:0:0:0:
187,263,24074,1,8,3:0:0:0:
189,283,24149,1,8,3:0:0:0:
191,303,24224,6,0,B|228:338|228:338|339:324,1,160,6|0,3:2|3:2,3:0:0:0:
492,300,24674,1,10,3:0:0:0:
346,147,24824,2,0,P|324:146|278:265,1,160,2|0,3:2|3:2,3:0:0:0:
418,348,25274,1,10,3:0:0:0:
455,159,25424,6,0,L|351:171,1,80,2|8,3:2|3:0,3:0:0:0:
346,147,25649,2,0,L|242:134,1,80,2|0,3:0|3:0,3:0:0:0:
237,159,25874,1,10,3:0:0:0:
362,246,26024,1,2,3:2:0:0:
404,59,26174,1,8,3:0:0:0:
404,59,26249,1,0,3:0:0:0:
404,59,26324,2,0,L|317:69,1,80,2|10,3:2|3:0,3:0:0:0:
203,157,26624,6,0,B|94:144|94:144|67:101,1,160,2|0,3:2|3:2,3:0:0:0:
228,62,27074,1,10,3:0:0:0:
295,197,27224,2,0,P|258:240|175:244,2,120,2|2|10,3:2|3:0|3:0,3:0:0:0:
208,38,27824,6,0,L|120:48,1,80,2|8,3:2|3:0,3:0:0:0:
51,164,28124,2,0,L|138:174,1,80,0|8,3:0|3:0,3:0:0:0:
150,170,28349,1,0,3:0:0:0:
170,167,28424,1,4,3:0:0:0:
295,197,28574,1,8,3:0:0:0:
295,197,28649,1,0,3:0:0:0:
295,197,28724,2,0,L|285:284,1,80,4|8,3:0|3:0,0:0:0:0:
117,353,29024,6,0,P|124:277|195:250,1,160,6|0,3:2|3:2,3:0:0:0:
379,299,29474,1,10,3:0:0:0:
349,118,29624,2,0,L|270:108,1,80,2|8,3:2|3:0,3:0:0:0:
244,131,29849,2,0,L|165:140,1,80,2|0,3:0|3:0,3:0:0:0:
135,123,30074,1,10,3:0:0:0:
341,33,30224,6,0,P|399:43|437:87,2,120,2|2|10,3:2|3:0|3:0,3:0:0:0:
252,172,30824,2,0,P|310:161|348:117,2,120,2|2|10,3:2|3:0|3:0,3:0:0:0:
135,123,31424,6,0,L|141:67,3,40,2|0|8|0,3:2|3:0|3:0|3:0,0:0:0:0:
76,182,31724,2,0,L|88:285,1,80,6|8,3:2|3:0,0:0:0:0:
192,352,32024,2,0,P|230:362|269:353,1,80,10|0,3:0|3:0,3:0:0:0:
293,371,32249,2,0,P|331:360|360:333,1,80,10|0,3:0|3:0,3:0:0:0:
369,299,32474,1,10,3:0:0:0:
222,264,32624,5,2,3:0:0:0:
307,222,32774,2,0,L|312:174,5,40,0|0|0|0|0|0,3:0|3:0|3:0|3:0|3:0|3:0,3:0:0:0:
225,177,33224,1,0,3:0:0:0:
225,177,33299,1,0,3:0:0:0:
225,177,33374,1,0,3:0:0:0:
225,177,33449,1,0,3:0:0:0:
225,177,33524,2,0,L|220:129,3,40,0|0|0|0,3:0|3:0|3:0|3:0,3:0:0:0:
288,62,33824,5,6,3:0:0:0:
310,67,33899,1,2,2:0:0:0:
331,72,33974,1,2,2:0:0:0:
353,77,34049,1,2,2:0:0:0:
375,81,34124,2,0,L|380:126,3,40,2|2|2|2,2:0|2:0|2:0|2:0,0:0:0:0:
308,182,34424,5,4,3:0:0:0:
312,204,34499,1,2,2:0:0:0:
317,226,34574,1,2,2:0:0:0:
322,247,34649,1,2,2:0:0:0:
327,269,34724,2,0,L|372:274,3,40,2|2|2|2,2:0|2:0|2:0|2:0,0:0:0:0:
265,339,35024,6,0,L|219:343,7,40,4|2|2|2|2|2|2|2,3:0|2:0|2:0|2:0|2:0|2:0|2:0|2:0,0:0:0:0:
154,259,35624,2,0,L|200:264,7,40,4|2|2|2|2|2|2|2,3:0|2:0|2:0|2:0|2:0|2:0|2:0|2:0,0:0:0:0:
71,271,36224,5,4,3:0:0:0:
67,249,36299,1,2,2:0:0:0:
62,228,36374,1,2,2:0:0:0:
73,207,36449,1,2,2:0:0:0:
85,189,36524,2,0,L|130:184,3,40,4|2|2|2,3:0|2:0|2:0|2:0,0:0:0:0:
208,138,36824,5,4,3:0:0:0:
213,117,36899,1,2,2:0:0:0:
218,95,36974,1,2,2:0:0:0:
206,74,37049,1,2,2:0:0:0:
195,56,37124,2,0,L|149:51,3,40,4|2|2|2,3:0|2:0|2:0|2:0,0:0:0:0:
77,124,37424,5,4,3:2:0:0:
79,140,37499,1,4,3:2:0:0:
81,156,37574,1,4,3:2:0:0:
83,173,37649,1,4,3:2:0:0:
85,189,37724,2,0,L|130:184,3,40,8|8|8|8,3:0|3:0|3:0|3:0,0:0:0:0:
190,236,38024,5,4,3:2:0:0:
188,252,38099,1,4,3:2:0:0:
186,268,38174,1,4,3:2:0:0:
184,285,38249,1,4,3:2:0:0:
182,301,38324,2,0,L|137:296,3,40,8|8|8|8,3:0|3:0|3:0|3:0,0:0:0:0:
272,353,38624,5,2,3:0:0:0:
304,358,38699,1,0,3:0:0:0:
336,362,38774,1,8,3:0:0:0:
368,367,38849,1,0,3:0:0:0:
401,372,38924,2,0,L|407:311,3,44.0000013427735,2|0|10|0,3:0|3:0|3:0|3:0,0:0:0:0:
344,253,39224,5,2,3:0:0:0:
339,221,39299,1,0,3:0:0:0:
334,189,39374,1,8,3:0:0:0:
329,156,39449,1,0,3:0:0:0:
325,124,39524,2,0,L|386:117,3,44.0000013427735,2|0|10|0,3:0|3:0|3:0|3:0,0:0:0:0:
232,76,39824,5,2,3:0:0:0:
200,65,39899,1,0,3:0:0:0:
166,70,39974,1,8,3:0:0:0:
140,91,40049,1,0,3:0:0:0:
125,122,40124,2,0,L|132:183,3,44.0000013427735,2|0|10|0,3:0|3:0|3:0|3:0,0:0:0:0:
216,245,40424,6,0,B|205:329|205:329|155:369,2,132.00000402832,10|10|10,3:0|3:0|3:0,3:0:0:0:
125,122,41024,5,2,3:2:0:0:
140,91,41099,1,0,3:0:0:0:
166,70,41174,1,8,3:0:0:0:
200,65,41249,1,0,3:0:0:0:
229,74,41324,2,0,L|221:134,3,44.0000013427735,2|0|10|0,3:2|3:0|3:0|3:0,0:0:0:0:
303,44,41624,5,2,3:2:0:0:
333,31,41699,1,0,3:0:0:0:
366,27,41774,1,8,3:0:0:0:
398,33,41849,1,0,3:0:0:0:
427,43,41924,2,0,L|435:103,3,44.0000013427735,2|0|10|0,3:2|3:0|3:0|3:0,0:0:0:0:
345,140,42224,5,2,3:2:0:0:
340,173,42299,1,0,3:0:0:0:
335,205,42374,1,8,3:0:0:0:
330,237,42449,1,0,3:0:0:0:
326,269,42524,2,0,L|386:277,3,44.0000013427735,2|0|10|0,3:2|3:0|3:0|3:0,0:0:0:0:
480,200,42824,6,0,B|469:116|469:116|432:86,2,132.00000402832,10|10|10,3:0|3:0|3:0,3:0:0:0:
389,301,43424,5,6,3:2:0:0:
359,320,43499,1,0,0:0:0:0:
324,327,43574,1,8,0:0:0:0:
290,314,43649,1,0,0:0:0:0:
264,289,43724,1,6,3:2:0:0:
230,277,43799,1,0,0:0:0:0:
194,277,43874,1,10,0:0:0:0:
162,293,43949,1,0,0:0:0:0:
138,318,44024,6,0,L|144:373,3,44.0000013427735,6|0|8|0,0:2|0:0|0:0|0:0,0:0:0:0:
56,312,44324,2,0,L|62:256,3,44.0000013427735,6|0|10|0,0:2|0:0|0:0|0:0,0:0:0:0:
125,209,44624,5,6,0:2:0:0:
120,178,44699,1,0,0:0:0:0:
115,147,44774,1,8,0:0:0:0:
110,116,44849,1,0,0:0:0:0:
105,85,44924,2,0,L|49:79,3,44.0000013427735,6|0|10|0,0:2|0:0|0:0|0:0,0:0:0:0:
146,14,45224,2,0,L|190:10,3,44.0000013427735,6|0|10|0,3:2|3:0|3:0|3:0,3:0:0:0:
198,98,45524,2,4,L|242:103,3,44.0000013427735,6|0|10|0,3:2|3:0|3:0|3:0,3:0:0:0:
347,24,45824,5,6,3:2:0:0:
366,53,45899,1,0,3:0:0:0:
373,87,45974,1,8,3:0:0:0:
368,121,46049,1,0,3:0:0:0:
352,152,46124,1,6,3:2:0:0:
336,183,46199,1,0,3:0:0:0:
332,218,46274,1,10,3:0:0:0:
346,250,46349,1,0,3:0:0:0:
374,270,46424,6,0,L|430:264,3,44.0000013427735,6|0|8|0,3:2|3:0|3:0|3:0,0:0:0:0:
477,188,46724,2,0,L|421:182,3,44.0000013427735,6|0|10|0,3:2|3:0|3:0|3:0,0:0:0:0:
480,88,47024,5,6,3:2:0:0:
449,93,47099,1,0,3:0:0:0:
418,98,47174,1,8,3:0:0:0:
387,103,47249,1,0,3:0:0:0:
356,108,47324,2,0,L|350:164,3,44.0000013427735,6|0|10|0,3:2|3:0|3:0|3:0,0:0:0:0:
267,58,47624,5,6,3:2:0:0:
236,53,47699,1,0,3:0:0:0:
205,48,47774,1,8,3:0:0:0:
174,43,47849,1,0,3:0:0:0:
143,39,47924,2,0,L|155:136,1,88.000002685547,2|8,3:0|3:0,3:0:0:0:
164,237,48224,6,0,L|76:226,1,80,2|0,3:0|3:0,3:0:0:0:
49,240,48449,1,2,3:0:0:0:
136,350,48674,2,0,L|223:339,1,80,2|0,3:0|3:0,3:0:0:0:
251,353,48899,1,2,3:0:0:0:
172,245,49124,1,2,3:0:0:0:
172,245,49199,1,2,3:0:0:0:
172,245,49274,1,2,3:0:0:0:
280,148,49424,6,0,L|368:137,1,80,2|0,3:0|3:0,3:0:0:0:
395,151,49649,1,2,3:0:0:0:
452,271,49874,2,0,L|365:260,1,80,2|0,3:0|3:0,3:0:0:0:
337,274,50099,1,2,3:0:0:0:
404,159,50324,1,2,3:0:0:0:
404,159,50399,1,2,3:0:0:0:
404,159,50474,1,2,3:0:0:0:
130,217,50624,5,10,3:0:0:0:
156,245,50849,5,10,3:0:0:0:
216,190,51074,5,10,3:0:0:0:
281,267,51299,5,10,3:0:0:0:
325,176,51524,5,6,3:0:0:0:
411,277,51674,1,6,3:0:0:0:
479,147,51824,5,2,3:0:0:0:
482,123,51899,1,2,3:0:0:0:
485,99,51974,1,10,3:0:0:0:
488,75,52049,1,2,3:0:0:0:
491,51,52124,2,0,L|435:57,3,40,2|2|10|2,3:0|3:0|3:0|3:0,0:0:0:0:
391,116,52424,2,0,L|335:110,3,40,2|2|2|2,3:0|3:0|3:0|3:0,0:0:0:0:
288,43,52724,6,0,L|232:49,1,40,10|8,3:0|3:0,3:0:0:0:
191,136,52874,2,0,L|135:129,1,40,10|0,3:0|3:0,3:0:0:0:
75,47,53024,5,6,3:0:0:0:
256,192,53099,12,0,56174,3:0:0:0:
