osu file format v14

[General]
AudioFilename: audio.mp3
AudioLeadIn: 0
PreviewTime: 33674
Countdown: 0
SampleSet: Drum
StackLeniency: 0.5
Mode: 0
LetterboxInBreaks: 0
WidescreenStoryboard: 1

[Editor]
DistanceSpacing: 1
BeatDivisor: 4
GridSize: 8
TimelineZoom: 4.399998

[Metadata]
Title:FAITH
TitleUnicode:FAITH
Artist:Unlucky Morpheus
ArtistUnicode:Unlucky Morpheus
Creator:MakiDonalds
Version:EXTRA
Source:東方風神録 ~ Mountain of Faith.
Tags:Suwako Moriya Touhou Video Game Instrumental Metal Native ネイティブフェイス 東方Project 洩矢 諏訪子 th10 REBIRTH Revisited c89 comiket 紫煉
BeatmapID:2920787
BeatmapSetID:1414107

[Difficulty]
HPDrainRate:6
CircleSize:4
OverallDifficulty:8.8
ApproachRate:9.3
SliderMultiplier:1.8
SliderTickRate:1

[Events]
//Background and Video events
0,0,"Moriya.Suwako.full.2107561.jpg",0,0
//Break Periods
//Storyboard Layer 0 (Background)
//Storyboard Layer 1 (Fail)
//Storyboard Layer 2 (Pass)
//Storyboard Layer 3 (Foreground)
//Storyboard Layer 4 (Overlay)
//Storyboard Sound Samples

[TimingPoints]
224,300,4,3,1,50,1,0
524,-83.3333333333333,4,3,1,50,0,0
1124,-90.9090909090909,4,3,1,50,0,0
1724,-100,4,3,1,50,0,0
2324,-111.111111111111,4,3,1,50,0,0
2924,-83.3333333333333,4,3,1,50,0,0
3524,-90.9090909090909,4,3,1,50,0,0
4124,-100,4,3,1,50,0,0
4724,-111.111111111111,4,3,1,50,0,0
5024,-83.3333333333333,4,3,1,60,0,0
5624,-90.9090909090909,4,3,1,60,0,0
6224,-100,4,3,1,60,0,0
6824,-111.111111111111,4,3,1,60,0,0
7424,-83.3333333333333,4,3,1,60,0,0
8024,-90.9090909090909,4,3,1,60,0,0
8624,-100,4,3,1,70,0,0
9224,-100,4,3,1,50,0,0
9299,-100,4,3,1,53,0,0
9374,-100,4,3,1,56,0,0
9449,-100,4,3,1,59,0,0
9524,-100,4,3,1,62,0,0
9599,-100,4,3,1,65,0,0
9674,-83.3333333333333,4,3,1,68,0,0
9749,-83.3333333333333,4,3,1,70,0,0
9824,-83.3333333333333,4,3,1,70,0,0
11624,-83.3333333333333,4,3,1,80,0,0
12224,-83.3333333333333,4,3,1,70,0,0
14024,-83.3333333333333,4,3,1,60,0,0
14624,-100,4,3,1,60,0,0
18524,-100,4,3,1,70,0,0
19424,-100,4,3,1,60,0,0
23024,-100,4,3,1,70,0,0
23174,-100,4,3,1,60,0,0
23324,-83.3333333333333,4,3,1,70,0,0
23474,-83.3333333333333,4,3,1,60,0,0
23624,-83.3333333333333,4,3,1,70,0,0
23924,-100,4,3,1,70,0,0
23999,-100,4,3,1,60,0,0
24074,-100,4,3,1,50,0,0
24149,-100,4,3,1,40,0,0
24224,-100,4,3,1,60,0,0
28124,-100,4,3,1,70,0,0
29024,-100,4,3,1,60,0,0
32024,-100,4,3,1,70,0,0
32624,-100,4,3,1,50,0,0
33824,-100,4,3,1,60,0,0
34124,-83.3333333333333,4,3,1,60,0,0
34724,-90.9090909090909,4,3,1,60,0,0
35324,-100,4,3,1,60,0,0
35924,-111.111111111111,4,3,1,60,0,0
36224,-83.3333333333333,4,3,1,60,0,0
36824,-90.9090909090909,4,3,1,60,0,0
37424,-100,4,3,1,50,0,0
37724,-100,4,3,1,60,0,0
38024,-100,4,3,1,50,0,0
38324,-100,4,3,1,60,0,0
38624,-83.3333333333333,4,3,1,80,0,0
40424,-83.3333333333333,4,3,1,80,0,0
41024,-83.3333333333333,4,3,1,80,0,0
42824,-83.3333333333333,4,3,1,80,0,0
47624,-83.3333333333333,4,3,1,70,0,0
48224,-100,4,3,1,70,0,0
52724,-83.3333333333333,4,3,1,70,0,0
56174,-83.3333333333333,4,3,1,5,0,0

[Colours]
Combo1 : 255,128,128
Combo2 : 128,255,255
Combo3 : 255,255,128
Combo4 : 23,180,255

[HitObjects]
4,59,224,5,6,3:0:0:0:
42,36,299,1,2,2:0:0:0:
86,30,374,1,2,2:0:0:0:
127,46,449,1,2,2:0:0:0:
159,77,524,2,0,L|151:131,3,53.9999983520508,2|2|2|2,2:0|2:0|2:0|2:0,0:0:0:0:
223,193,824,5,6,3:0:0:0:
257,213,899,1,2,2:0:0:0:
296,219,974,1,2,2:0:0:0:
333,204,1049,1,2,2:0:0:0:
362,176,1124,2,0,L|355:124,3,49.5000015106202,2|2|2|2,2:0|2:0|2:0|2:0,0:0:0:0:
488,101,1424,5,6,3:0:0:0:
484,135,1499,1,2,2:0:0:0:
480,170,1574,1,2,2:0:0:0:
476,205,1649,1,2,2:0:0:0:
471,239,1724,2,0,P|499:252|518:255,3,45,2|2|2|2,2:0|2:0|2:0|2:0,0:0:0:0:
362,176,2024,5,6,3:0:0:0:
365,206,2099,1,2,2:0:0:0:
369,237,2174,1,2,2:0:0:0:
372,268,2249,1,2,2:0:0:0:
377,299,2324,2,0,P|356:309|334:313,3,40.4999987640381,2|2|2|2,2:0|2:0|2:0|2:0,0:0:0:0:
254,211,2624,5,6,3:0:0:0:
216,188,2699,1,2,2:0:0:0:
172,182,2774,1,2,2:0:0:0:
131,198,2849,1,2,2:0:0:0:
99,229,2924,2,0,L|105:284,3,53.9999983520508,2|2|2|2,2:0|2:0|2:0|2:0,0:0:0:0:
40,116,3224,5,6,3:0:0:0:
74,96,3299,1,2,2:0:0:0:
113,90,3374,1,2,2:0:0:0:
150,105,3449,1,2,2:0:0:0:
179,133,3524,2,0,L|171:187,3,49.5000015106202,2|2|2|2,2:0|2:0|2:0|2:0,0:0:0:0:
254,68,3824,5,6,3:0:0:0:
288,64,3899,1,2,2:0:0:0:
323,60,3974,1,2,2:0:0:0:
358,56,4049,1,2,2:0:0:0:
392,51,4124,2,0,P|405:79|408:98,3,45,2|2|2|2,2:0|2:0|2:0|2:0,0:0:0:0:
492,209,4424,5,6,3:0:0:0:
462,206,4499,1,2,2:0:0:0:
431,202,4574,1,2,2:0:0:0:
400,199,4649,1,2,2:0:0:0:
369,194,4724,2,8,P|358:214|354:236,1,40.4999987640381,10|8,3:0|3:0,3:0:0:0:
285,302,4874,2,8,P|291:323|304:342,1,40.4999987640381,10|8,3:0|3:0,3:0:0:0:
512,308,5024,5,6,3:0:0:0:
512,308,5099,1,2,2:0:0:0:
512,308,5174,2,0,L|456:301,1,53.9999983520508,2|2,2:0|2:0,2:0:0:0:
311,349,5324,1,6,3:0:0:0:
311,349,5399,1,2,2:0:0:0:
311,349,5474,2,0,L|255:355,1,53.9999983520508,2|2,2:0|2:0,2:0:0:0:
139,287,5624,5,4,3:0:0:0:
139,287,5699,1,2,2:0:0:0:
139,287,5774,2,0,L|194:280,1,49.5000015106202,2|2,2:0|2:0,2:0:0:0:
324,189,5924,1,4,3:0:0:0:
324,189,5999,1,2,2:0:0:0:
324,189,6074,2,0,L|379:195,1,49.5000015106202,2|2,2:0|2:0,2:0:0:0:
275,26,6224,5,4,3:0:0:0:
275,26,6299,1,2,2:0:0:0:
275,26,6374,2,0,L|268:81,1,45,2|2,2:0|2:0,2:0:0:0:
179,193,6524,1,4,3:0:0:0:
179,193,6599,1,2,2:0:0:0:
179,193,6674,2,0,L|173:138,1,45,2|2,2:0|2:0,2:0:0:0:
112,29,6824,5,4,3:0:0:0:
112,29,6899,1,2,2:0:0:0:
112,29,6974,2,0,L|105:84,1,40.4999987640381,2|2,2:0|2:0,2:0:0:0:
27,176,7124,2,0,L|21:121,3,40.4999987640381,4|2|2|2,3:0|2:0|2:0|2:0,0:0:0:0:
139,287,7424,5,4,3:0:0:0:
139,287,7499,1,2,2:0:0:0:
139,287,7574,2,0,L|83:280,1,53.9999983520508,2|2,2:0|2:0,2:0:0:0:
314,381,7724,1,4,3:0:0:0:
314,381,7799,1,2,2:0:0:0:
314,381,7874,2,0,L|370:374,1,53.9999983520508,2|2,2:0|2:0,2:0:0:0:
259,233,8024,5,4,3:0:0:0:
259,233,8099,1,2,2:0:0:0:
259,233,8174,2,0,L|252:289,1,49.5000015106202,2|2,2:0|2:0,2:0:0:0:
419,183,8324,1,4,3:0:0:0:
419,183,8399,1,2,2:0:0:0:
419,183,8474,2,0,L|426:239,1,49.5000015106202,2|2,2:0|2:0,2:0:0:0:
293,113,8624,5,6,3:0:0:0:
293,113,8699,1,2,3:0:0:0:
293,113,8774,2,0,L|349:120,1,45,2|2,3:0|3:0,3:0:0:0:
442,37,8924,1,6,3:0:0:0:
442,37,8999,1,2,3:0:0:0:
442,37,9074,2,0,L|386:44,1,45,2|2,3:0|3:0,3:0:0:0:
208,53,9224,5,8,3:0:0:0:
184,91,9299,1,8,3:0:0:0:
189,135,9374,1,8,3:0:0:0:
214,172,9449,1,8,3:0:0:0:
238,210,9524,1,8,3:0:0:0:
233,254,9599,1,8,3:0:0:0:
208,291,9674,2,8,L|152:284,1,53.9999983520508,8|8,3:0|3:0,3:0:0:0:
281,366,9824,5,2,3:0:0:0:
320,382,9899,1,0,3:0:0:0:
363,377,9974,1,8,3:0:0:0:
399,354,10049,1,0,3:0:0:0:
421,316,10124,1,2,3:0:0:0:
419,272,10199,1,0,3:0:0:0:
399,233,10274,2,0,B|370:230|370:230|343:239,1,53.9999983520508,10|0,3:0|3:0,0:0:0:0:
208,291,10424,5,2,3:0:0:0:
178,314,10499,1,0,3:0:0:0:
142,326,10574,1,8,3:0:0:0:
104,323,10649,1,0,3:0:0:0:
67,312,10724,1,2,3:0:0:0:
37,288,10799,1,0,3:0:0:0:
18,255,10874,2,0,B|15:226|15:226|24:199,1,53.9999983520508,10|0,3:0|3:0,0:0:0:0:
102,18,11024,5,2,3:0:0:0:
105,49,11099,1,0,3:0:0:0:
108,81,11174,1,8,3:0:0:0:
112,113,11249,1,0,3:0:0:0:
115,145,11324,1,2,3:0:0:0:
118,177,11399,1,0,3:0:0:0:
122,208,11474,2,0,B|145:215|145:215|174:212,1,53.9999983520508,10|0,3:0|3:0,0:0:0:0:
263,107,11624,6,0,L|256:160,2,53.9999983520508,10|0|0,3:0|3:0|3:0,3:0:0:0:
391,185,11849,2,0,L|348:152,2,53.9999983520508,10|0|0,3:0|3:0|3:0,3:0:0:0:
260,257,12074,2,0,L|309:236,1,53.9999983520508,10|0,3:0|3:0,3:0:0:0:
475,51,12224,5,2,3:0:0:0:
480,93,12299,1,0,3:0:0:0:
485,136,12374,1,8,3:0:0:0:
490,179,12449,1,0,3:0:0:0:
495,221,12524,1,2,3:0:0:0:
501,264,12599,1,0,3:0:0:0:
506,307,12674,2,0,B|482:314|482:314|453:311,1,53.9999983520508,10|0,3:0|3:0,0:0:0:0:
348,152,12824,5,2,3:0:0:0:
309,147,12899,1,0,3:0:0:0:
272,157,12974,1,8,3:0:0:0:
243,181,13049,1,0,3:0:0:0:
213,205,13124,1,2,3:0:0:0:
176,216,13199,1,0,3:0:0:0:
138,209,13274,2,0,B|130:185|130:185|133:156,1,53.9999983520508,10|0,3:0|3:0,0:0:0:0:
10,250,13424,5,2,3:0:0:0:
0,281,13499,1,0,3:0:0:0:
5,313,13574,1,8,3:0:0:0:
24,339,13649,1,0,3:0:0:0:
52,354,13724,1,2,3:0:0:0:
84,357,13799,1,0,3:0:0:0:
115,349,13874,2,0,B|138:341|138:341|167:344,1,53.9999983520508,10|0,3:0|3:0,0:0:0:0:
258,369,14024,5,10,3:0:0:0:
333,310,14249,5,2,0:0:0:0:
441,384,14474,5,2,0:0:0:0:
490,222,14624,6,0,L|500:311,1,90,6|8,3:3|3:0,3:0:0:0:
331,215,14924,1,0,3:2:0:0:
512,128,15074,1,10,3:0:0:0:
341,39,15224,2,0,B|295:27|295:27|238:43,1,90,2|8,3:2|3:0,3:0:0:0:
227,58,15449,1,0,3:0:0:0:
227,58,15524,1,0,3:2:0:0:
148,201,15674,1,10,3:0:0:0:
76,18,15824,6,0,L|66:107,1,90,2|8,3:2|3:0,3:0:0:0:
38,125,16049,2,0,L|48:214,1,90,2|0,3:0|3:0,3:0:0:0:
53,251,16274,1,10,3:0:0:0:
222,366,16424,2,0,B|268:378|268:378|325:362,1,90,2|8,3:2|3:0,3:0:0:0:
246,178,16724,1,2,3:2:0:0:
124,336,16874,1,10,3:0:0:0:
337,222,17024,6,0,L|426:232,1,90,2|8,3:2|3:0,3:0:0:0:
308,366,17324,1,0,3:2:0:0:
246,178,17474,1,10,3:0:0:0:
425,318,17624,2,0,B|437:272|437:272|421:215,1,90,2|8,3:2|3:0,3:0:0:0:
413,200,17849,2,0,B|401:154|401:154|417:97,1,90,2|0,3:0|3:0,3:0:0:0:
426,81,18074,1,10,3:0:0:0:
223,0,18224,6,0,L|233:89,1,90,2|8,3:2|3:0,3:0:0:0:
257,272,18524,1,0,3:2:0:0:
257,272,18599,1,0,3:0:0:0:
257,272,18674,1,8,3:0:0:0:
120,163,18824,2,0,L|175:169,1,45,4|0,3:0|3:0,0:0:0:0:
334,187,18974,1,0,3:0:0:0:
334,187,19049,1,0,3:0:0:0:
334,187,19124,1,4,3:0:0:0:
161,292,19274,1,8,3:0:0:0:
343,346,19424,6,0,B|389:358|389:358|446:342,1,90,6|8,3:2|3:0,3:0:0:0:
328,182,19724,1,0,3:2:0:0:
247,361,19874,1,10,3:0:0:0:
458,255,20024,2,0,L|448:166,1,90,2|8,3:2|3:0,3:0:0:0:
420,148,20249,2,0,L|430:59,1,90,2|0,3:0|3:0,3:0:0:0:
435,22,20474,1,10,3:0:0:0:
328,182,20624,6,0,B|282:194|282:194|225:178,1,90,2|8,3:2|3:0,3:0:0:0:
211,167,20849,1,2,3:0:0:0:
211,167,20924,1,0,3:2:0:0:
117,30,21074,1,10,3:0:0:0:
19,169,21224,2,4,L|29:258,1,90,2|8,3:0|3:0,3:2:0:0:
38,296,21449,1,2,3:0:0:0:
38,296,21524,1,0,3:2:0:0:
122,214,21674,1,10,3:0:0:0:
233,365,21824,6,0,B|279:377|279:377|336:361,1,90,2|8,3:3|3:0,3:0:0:0:
451,206,22124,2,0,B|405:194|405:194|348:210,1,90,2|8,3:2|3:0,3:0:0:0:
225,268,22424,1,2,3:2:0:0:
225,268,22499,1,0,3:0:0:0:
225,268,22574,2,0,L|280:274,1,45,10|0,3:0|3:0,3:0:0:0:
141,196,22724,1,2,3:2:0:0:
141,196,22799,1,0,3:0:0:0:
141,196,22874,2,0,L|85:202,1,45,10|0,3:0|3:0,3:0:0:0:
214,98,23024,6,0,L|220:154,1,45,6|0,3:0|3:0,3:0:0:0:
269,272,23174,2,0,L|275:216,1,45,2|0,3:0|3:0,3:0:0:0:
356,54,23324,6,0,L|362:110,1,53.9999983520508,6|0,3:0|3:0,3:0:0:0:
445,259,23474,2,0,L|450:205,1,53.9999983520508,2|0,3:0|3:0,3:0:0:0:
500,22,23624,5,6,3:0:0:0:
508,29,23924,1,8,3:0:0:0:
508,29,23999,1,8,3:0:0:0:
508,29,24074,2,0,L|512:73,1,45,8|8,3:0|3:0,0:0:0:0:
449,205,24224,6,0,L|360:195,1,90,6|8,3:2|3:0,3:0:0:0:
164,129,24524,1,0,3:2:0:0:
356,54,24674,1,10,3:0:0:0:
266,242,24824,2,0,B|254:196|254:196|265:155,1,90,2|8,3:2|3:0,3:0:0:0:
279,124,25049,1,0,3:0:0:0:
279,124,25124,1,0,3:2:0:0:
158,3,25274,1,10,3:0:0:0:
60,147,25424,6,0,L|70:236,1,90,2|8,3:2|3:0,3:0:0:0:
99,250,25649,2,0,L|89:339,1,90,2|0,3:0|3:0,3:0:0:0:
85,373,25874,1,10,3:0:0:0:
266,241,26024,2,0,B|312:229|312:229|352:240,1,90,2|8,3:2|3:0,3:0:0:0:
222,383,26324,1,2,3:2:0:0:
181,181,26474,1,10,3:0:0:0:
323,348,26624,6,0,L|412:338,1,90,2|8,3:2|3:0,3:0:0:0:
450,134,26924,1,0,3:2:0:0:
266,242,27074,1,10,3:0:0:0:
465,251,27224,2,0,B|477:205|477:205|465:164,1,90,2|8,3:2|3:0,3:0:0:0:
450,134,27449,2,0,B|438:88|438:88|449:47,1,90,2|0,3:0|3:0,3:0:0:0:
466,20,27674,1,10,3:0:0:0:
339,149,27824,6,0,L|250:139,1,90,2|8,3:2|3:0,3:0:0:0:
129,214,28124,2,0,L|200:206,1,45,0|0,3:0|3:0,3:0:0:0:
60,97,28274,1,8,3:0:0:0:
60,97,28349,1,0,3:0:0:0:
60,97,28424,2,0,L|54:141,1,45,4|0,3:0|3:0,0:0:0:0:
147,7,28574,1,8,3:0:0:0:
147,7,28649,1,0,3:0:0:0:
147,7,28724,2,0,L|152:51,1,45,4|0,3:0|3:0,0:0:0:0:
250,139,28874,1,8,3:0:0:0:
365,18,29024,6,0,B|411:6|411:6|468:22,1,90,6|8,3:2|3:0,3:0:0:0:
362,224,29324,1,0,3:2:0:0:
271,33,29474,1,10,3:0:0:0:
490,105,29624,2,0,L|480:194,1,90,2|8,3:2|3:0,3:0:0:0:
455,219,29849,2,0,L|465:308,1,90,2|0,3:0|3:0,3:0:0:0:
472,340,30074,1,10,3:0:0:0:
362,224,30224,6,0,B|316:212|316:212|259:228,1,90,2|8,3:2|3:0,3:0:0:0:
245,239,30449,1,2,3:0:0:0:
245,239,30524,1,2,3:2:0:0:
148,376,30674,1,10,3:0:0:0:
55,227,30824,2,0,L|65:138,1,90,2|8,3:2|3:0,3:0:0:0:
73,107,31049,1,2,3:0:0:0:
73,107,31124,1,0,3:2:0:0:
161,176,31274,1,10,3:0:0:0:
164,32,31424,5,2,3:2:0:0:
164,32,31499,1,0,3:0:0:0:
164,32,31574,2,0,L|170:76,1,45,8|0,3:0|3:0,3:0:0:0:
256,209,31724,1,6,3:2:0:0:
313,50,31874,1,8,3:0:0:0:
313,50,31949,1,0,3:0:0:0:
313,50,32024,6,0,L|260:43,2,45,10|0|0,3:0|3:0|3:0,3:0:0:0:
392,134,32249,2,0,L|339:141,2,45,10|0|0,3:0|3:0|3:0,3:0:0:0:
512,32,32474,2,0,L|459:25,1,45,10|0,3:0|3:0,3:0:0:0:
347,139,32624,5,2,3:0:0:0:
507,212,32774,1,0,3:0:0:0:
366,333,32924,2,0,L|356:244,1,90,0|0,3:0|3:0,0:0:0:0:
232,374,33224,2,0,L|285:381,3,45,0|0|0|0,3:0|3:0|3:0|3:0,0:0:0:0:
168,295,33524,2,0,L|115:302,3,45,0|0|0|0,3:0|3:0|3:0|3:0,3:0:0:0:
231,222,33824,5,6,3:0:0:0:
254,183,33899,1,2,2:0:0:0:
261,138,33974,1,2,2:0:0:0:
248,94,34049,1,2,2:0:0:0:
220,58,34124,2,0,L|166:50,3,53.9999983520508,2|2|2|2,2:0|2:0|2:0|2:0,0:0:0:0:
298,4,34424,5,4,3:0:0:0:
329,28,34499,1,2,2:0:0:0:
367,39,34574,1,2,2:0:0:0:
407,37,34649,1,2,2:0:0:0:
442,18,34724,2,0,L|496:10,3,49.5000015106202,2|2|2|2,2:0|2:0|2:0|2:0,0:0:0:0:
426,130,35024,5,4,3:0:0:0:
392,134,35099,1,2,2:0:0:0:
357,138,35174,1,2,2:0:0:0:
322,143,35249,1,2,2:0:0:0:
287,145,35324,2,0,P|281:175|282:194,3,45,2|2|2|2,2:0|2:0|2:0|2:0,0:0:0:0:
210,82,35624,5,4,3:0:0:0:
180,77,35699,1,2,2:0:0:0:
149,74,35774,1,2,2:0:0:0:
118,69,35849,1,2,2:0:0:0:
87,66,35924,2,0,P|82:43|83:20,3,40.4999987640381,2|2|2|2,2:0|2:0|2:0|2:0,0:0:0:0:
13,137,36224,5,4,3:0:0:0:
13,137,36299,1,2,2:0:0:0:
13,137,36374,2,0,L|20:192,1,53.9999983520508,2|2,2:0|2:0,2:0:0:0:
137,310,36524,1,4,3:0:0:0:
137,310,36599,1,2,2:0:0:0:
137,310,36674,2,0,L|130:365,1,53.9999983520508,2|2,2:0|2:0,2:0:0:0:
203,187,36824,5,4,3:0:0:0:
203,187,36899,1,2,2:0:0:0:
203,187,36974,2,0,L|210:242,1,49.5000015106202,2|2,2:0|2:0,2:0:0:0:
280,319,37124,1,4,3:0:0:0:
280,319,37199,1,2,2:0:0:0:
280,319,37274,2,0,L|273:374,1,49.5000015106202,2|2,2:0|2:0,2:0:0:0:
399,247,37424,6,0,L|344:254,3,45,4|4|4|4,3:2|3:2|3:2|3:2,0:0:0:0:
468,322,37724,1,8,3:0:0:0:
494,285,37799,1,8,3:0:0:0:
504,241,37874,1,8,3:0:0:0:
493,197,37949,1,8,3:0:0:0:
464,162,38024,6,0,L|409:155,3,45,4|4|4|4,3:2|3:2|3:2|3:2,0:0:0:0:
321,158,38324,1,8,3:0:0:0:
295,121,38399,1,8,3:0:0:0:
285,77,38474,1,8,3:0:0:0:
296,33,38549,1,8,3:0:0:0:
329,2,38624,5,2,3:0:0:0:
352,37,38699,1,0,3:0:0:0:
351,80,38774,1,8,3:0:0:0:
327,115,38849,1,0,3:0:0:0:
286,130,38924,1,2,3:0:0:0:
245,115,38999,1,0,3:0:0:0:
219,80,39074,2,0,B|196:72|196:72|167:75,1,53.9999983520508,10|0,3:0|3:0,0:0:0:0:
19,116,39224,5,2,3:0:0:0:
23,152,39299,1,0,3:0:0:0:
28,189,39374,1,8,3:0:0:0:
32,226,39449,1,0,3:0:0:0:
37,262,39524,1,2,3:0:0:0:
41,299,39599,1,0,3:0:0:0:
46,336,39674,2,0,B|69:344|69:344|98:341,1,53.9999983520508,10|0,3:0|3:0,0:0:0:0:
252,295,39824,5,2,3:0:0:0:
283,286,39899,1,0,3:0:0:0:
315,289,39974,1,8,3:0:0:0:
340,309,40049,1,0,3:0:0:0:
365,329,40124,1,2,3:0:0:0:
397,332,40199,1,0,3:0:0:0:
428,323,40274,2,0,B|436:300|436:300|433:271,1,53.9999983520508,10|0,3:0|3:0,0:0:0:0:
328,180,40424,6,0,L|381:187,2,53.9999983520508,10|0|0,3:0|3:0|3:0,3:0:0:0:
406,52,40649,2,0,L|373:95,2,53.9999983520508,10|0|0,3:0|3:0|3:0,3:0:0:0:
478,183,40874,2,0,L|457:134,1,53.9999983520508,10|0,3:0|3:0,3:0:0:0:
311,14,41024,5,2,3:2:0:0:
267,12,41099,1,0,3:0:0:0:
228,32,41174,1,8,3:0:0:0:
203,67,41249,1,0,3:0:0:0:
200,110,41324,1,2,3:2:0:0:
212,151,41399,1,0,3:0:0:0:
243,180,41474,2,0,B|266:188|266:188|295:185,1,53.9999983520508,10|0,3:0|3:0,0:0:0:0:
478,183,41624,5,2,3:2:0:0:
440,181,41699,1,0,3:0:0:0:
407,200,41774,1,8,3:0:0:0:
391,234,41849,1,0,3:0:0:0:
390,271,41924,1,2,3:2:0:0:
408,303,41999,1,0,3:0:0:0:
442,318,42074,2,0,B|450:295|450:295|447:266,1,53.9999983520508,10|0,3:0|3:0,0:0:0:0:
313,335,42224,5,2,3:2:0:0:
282,344,42299,1,0,3:0:0:0:
250,341,42374,1,8,3:0:0:0:
225,321,42449,1,0,3:0:0:0:
200,301,42524,1,2,3:2:0:0:
168,298,42599,1,0,3:0:0:0:
137,307,42674,2,0,B|129:330|129:330|132:359,1,53.9999983520508,10|0,3:0|3:0,0:0:0:0:
52,253,42824,6,0,L|45:200,2,53.9999983520508,10|0|0,3:0|3:0|3:0,3:0:0:0:
180,175,43049,2,0,L|137:208,2,53.9999983520508,10|0|0,3:0|3:0|3:0,3:0:0:0:
49,103,43274,2,0,L|98:124,1,53.9999983520508,10|0,3:0|3:0,3:0:0:0:
269,215,43424,5,6,3:2:0:0:
305,192,43499,1,0,0:0:0:0:
347,184,43574,1,8,0:0:0:0:
387,198,43649,1,0,0:0:0:0:
418,228,43724,1,6,3:2:0:0:
433,268,43799,1,0,0:0:0:0:
430,311,43874,1,10,0:0:0:0:
411,349,43949,1,0,0:0:0:0:
378,377,44024,5,6,0:2:0:0:
359,343,44099,1,0,0:0:0:0:
359,305,44174,1,8,0:0:0:0:
381,274,44249,1,0,0:0:0:0:
415,259,44324,1,6,0:2:0:0:
440,231,44399,1,0,0:0:0:0:
449,194,44474,1,10,0:0:0:0:
437,157,44549,1,0,0:0:0:0:
418,124,44624,5,6,0:2:0:0:
385,128,44699,1,0,0:0:0:0:
352,132,44774,1,8,0:0:0:0:
319,136,44849,1,0,0:0:0:0:
286,140,44924,1,6,0:2:0:0:
254,144,44999,1,0,0:0:0:0:
221,148,45074,1,10,0:0:0:0:
188,152,45149,1,0,0:0:0:0:
155,156,45224,6,0,L|102:149,3,53.9999983520508,6|0|10|0,3:2|3:0|3:0|3:0,3:0:0:0:
62,240,45524,2,4,L|9:247,3,53.9999983520508,6|0|10|0,3:2|3:0|3:0|3:0,3:0:0:0:
54,49,45824,5,6,3:2:0:0:
93,31,45899,1,0,3:0:0:0:
136,30,45974,1,8,3:0:0:0:
173,51,46049,1,0,3:0:0:0:
195,87,46124,1,6,3:2:0:0:
217,123,46199,1,0,3:0:0:0:
254,144,46274,1,10,3:0:0:0:
297,143,46349,1,0,3:0:0:0:
336,125,46424,5,6,3:2:0:0:
324,89,46499,1,0,3:0:0:0:
296,62,46574,1,8,3:0:0:0:
259,53,46649,1,0,3:0:0:0:
221,60,46724,1,6,3:2:0:0:
195,87,46799,1,0,3:0:0:0:
182,122,46874,1,10,3:0:0:0:
185,159,46949,1,0,3:0:0:0:
200,193,47024,5,6,3:2:0:0:
229,179,47099,1,0,3:0:0:0:
261,176,47174,1,8,3:0:0:0:
291,187,47249,1,0,3:0:0:0:
313,209,47324,1,6,3:2:0:0:
335,231,47399,1,0,3:0:0:0:
365,242,47474,1,10,3:0:0:0:
397,239,47549,1,0,3:0:0:0:
424,222,47624,6,0,L|477:215,3,53.9999983520508,6|0|8|0,3:2|3:0|3:0|3:0,0:0:0:0:
378,337,47924,2,0,L|271:322,1,107.999996704102,2|8,3:0|3:0,3:0:0:0:
133,304,48224,6,0,L|140:357,2,45,2|0|0,3:0|3:0|3:0,3:0:0:0:
150,273,48449,2,0,B|162:227|162:227|146:170,1,90,2|0,3:0|3:0,3:0:0:0:
49,144,48674,6,0,L|42:197,2,45,2|0|0,3:0|3:0|3:0,3:0:0:0:
32,113,48899,2,0,B|20:67|20:67|36:10,1,90,2|0,3:0|3:0,3:0:0:0:
122,0,49124,1,2,3:0:0:0:
122,0,49199,1,2,3:0:0:0:
122,0,49274,2,0,L|169:5,1,45,2|0,3:0|3:0,3:0:0:0:
256,88,49424,6,0,L|263:141,2,45,2|0|0,3:0|3:0|3:0,3:0:0:0:
302,30,49649,2,0,B|348:18|348:18|405:34,1,90,2|0,3:0|3:0,3:0:0:0:
485,149,49874,6,0,L|478:96,2,45,2|0|0,3:0|3:0|3:0,3:0:0:0:
440,208,50099,2,0,B|394:220|394:220|337:204,1,90,2|0,3:0|3:0,3:0:0:0:
263,228,50324,1,2,3:0:0:0:
221,210,50399,1,2,3:0:0:0:
176,208,50474,1,2,3:0:0:0:
136,229,50549,1,2,3:0:0:0:
110,266,50624,5,10,3:0:0:0:
269,348,50849,5,10,3:0:0:0:
129,133,51074,5,10,3:0:0:0:
0,364,51299,5,10,3:0:0:0:
263,228,51524,5,6,3:0:0:0:
175,384,51674,1,6,3:0:0:0:
91,223,51824,1,2,3:0:0:0:
91,223,51899,1,2,3:0:0:0:
91,223,51974,2,0,L|135:228,1,45,10|2,3:0|3:0,3:0:0:0:
241,125,52124,1,2,3:0:0:0:
241,125,52199,1,2,3:0:0:0:
241,125,52274,2,0,L|286:120,1,45,10|2,3:0|3:0,3:0:0:0:
367,198,52424,5,2,3:0:0:0:
367,198,52499,1,2,3:0:0:0:
367,198,52574,2,0,L|411:203,1,45,2|2,3:0|3:0,0:0:0:0:
290,67,52724,2,0,B|282:90|282:90|285:119,1,53.9999983520508,10|8,3:0|3:0,3:0:0:0:
502,234,52874,2,0,B|510:211|510:211|507:182,1,53.9999983520508,10|0,3:0|3:0,3:0:0:0:
319,309,53024,5,6,3:0:0:0:
256,192,53099,12,0,56174,3:0:0:0:
