osu file format v14

[General]
AudioFilename: audio.mp3
AudioLeadIn: 0
PreviewTime: 14624
Countdown: 1
SampleSet: None
StackLeniency: 0.7
Mode: 1
LetterboxInBreaks: 0
WidescreenStoryboard: 1

[Editor]
DistanceSpacing: 0.4
BeatDivisor: 4
GridSize: 32
TimelineZoom: 2.4

[Metadata]
Title:FAITH
TitleUnicode:FAITH
Artist:Unlucky Morpheus
ArtistUnicode:Unlucky Morpheus
Creator:Dainesl
Version:Oni
Source:東方Project
Tags:東方風神録 ~ Mountain of Faith. Native Faith ネイティブフェイス Moriya Suwako 洩矢諏訪子 metal touhou th10 REBIRTH Revisited c89 comiket
BeatmapID:1166491
BeatmapSetID:550612

[Difficulty]
HPDrainRate:7.5
CircleSize:5
OverallDifficulty:5.5
ApproachRate:5
SliderMultiplier:1.4
SliderTickRate:1

[Events]
//Background and Video events
//Break Periods
//Storyboard Layer 0 (Background)
//Storyboard Layer 1 (Fail)
//Storyboard Layer 2 (Pass)
//Storyboard Layer 3 (Foreground)
//Storyboard Sound Samples

[TimingPoints]
224,300,4,1,0,100,1,0
9824,-100,4,1,0,100,0,1
14624,-100,4,1,0,100,0,0
38624,-100,4,1,0,100,0,1
43424,-100,4,1,0,100,0,1
48224,-100,4,1,0,100,0,0

[HitObjects]
256,192,224,5,8,0:0:0:0:
256,192,374,1,8,0:0:0:0:
256,192,449,1,8,0:0:0:0:
256,192,524,1,0,0:0:0:0:
256,192,674,1,0,0:0:0:0:
256,192,824,1,8,0:0:0:0:
256,192,974,1,8,0:0:0:0:
256,192,1049,1,8,0:0:0:0:
256,192,1124,1,0,0:0:0:0:
256,192,1424,1,8,0:0:0:0:
256,192,1574,1,0,0:0:0:0:
256,192,1649,1,0,0:0:0:0:
256,192,1724,1,0,0:0:0:0:
256,192,1874,1,0,0:0:0:0:
256,192,2024,1,8,0:0:0:0:
256,192,2174,1,0,0:0:0:0:
256,192,2324,1,0,0:0:0:0:
256,192,2624,1,8,0:0:0:0:
256,192,2774,1,0,0:0:0:0:
256,192,2849,1,8,0:0:0:0:
256,192,2924,1,0,0:0:0:0:
256,192,3074,1,0,0:0:0:0:
256,192,3224,1,8,0:0:0:0:
256,192,3374,1,0,0:0:0:0:
256,192,3449,1,8,0:0:0:0:
256,192,3524,1,0,0:0:0:0:
256,192,3824,1,8,0:0:0:0:
256,192,3974,1,0,0:0:0:0:
256,192,4049,1,0,0:0:0:0:
256,192,4124,1,0,0:0:0:0:
256,192,4274,1,0,0:0:0:0:
256,192,4424,1,8,0:0:0:0:
256,192,4724,1,8,0:0:0:0:
256,192,4799,1,8,0:0:0:0:
256,192,4874,1,0,0:0:0:0:
256,192,5024,1,8,0:0:0:0:
256,192,5174,1,0,0:0:0:0:
256,192,5249,1,0,0:0:0:0:
256,192,5324,1,0,0:0:0:0:
256,192,5474,1,0,0:0:0:0:
256,192,5624,1,8,0:0:0:0:
256,192,5774,1,8,0:0:0:0:
256,192,5849,1,8,0:0:0:0:
256,192,5924,1,0,0:0:0:0:
256,192,6074,1,0,0:0:0:0:
256,192,6224,1,8,0:0:0:0:
256,192,6374,1,8,0:0:0:0:
256,192,6524,1,0,0:0:0:0:
256,192,6674,1,0,0:0:0:0:
256,192,6824,1,8,0:0:0:0:
256,192,7124,1,8,0:0:0:0:
256,192,7199,1,8,0:0:0:0:
256,192,7274,1,0,0:0:0:0:
256,192,7424,1,8,0:0:0:0:
256,192,7574,1,0,0:0:0:0:
256,192,7724,1,0,0:0:0:0:
256,192,7874,1,0,0:0:0:0:
256,192,8024,1,8,0:0:0:0:
256,192,8174,1,8,0:0:0:0:
256,192,8249,1,8,0:0:0:0:
256,192,8324,1,0,0:0:0:0:
256,192,8474,1,0,0:0:0:0:
256,192,8624,1,8,0:0:0:0:
256,192,8924,1,8,0:0:0:0:
256,192,9224,1,8,0:0:0:0:
256,192,9299,1,8,0:0:0:0:
256,192,9374,1,0,0:0:0:0:
256,192,9449,1,0,0:0:0:0:
256,192,9524,1,0,0:0:0:0:
256,192,9674,1,0,0:0:0:0:
256,192,9824,1,8,0:0:0:0:
256,192,9974,1,0,0:0:0:0:
256,192,10124,1,0,0:0:0:0:
256,192,10199,1,0,0:0:0:0:
256,192,10274,1,8,0:0:0:0:
256,192,10424,1,0,0:0:0:0:
256,192,10574,1,8,0:0:0:0:
256,192,10724,1,0,0:0:0:0:
256,192,10799,1,0,0:0:0:0:
256,192,10874,1,8,0:0:0:0:
256,192,11024,1,8,0:0:0:0:
256,192,11174,1,0,0:0:0:0:
256,192,11249,1,0,0:0:0:0:
256,192,11324,1,0,0:0:0:0:
256,192,11474,1,0,0:0:0:0:
256,192,11624,1,8,0:0:0:0:
256,192,11849,1,8,0:0:0:0:
256,192,12074,1,8,0:0:0:0:
256,192,12224,1,0,0:0:0:0:
256,192,12374,1,8,0:0:0:0:
256,192,12524,1,0,0:0:0:0:
256,192,12599,1,0,0:0:0:0:
256,192,12674,1,8,0:0:0:0:
256,192,12824,1,0,0:0:0:0:
256,192,12974,1,8,0:0:0:0:
256,192,13124,1,0,0:0:0:0:
256,192,13424,1,8,0:0:0:0:
256,192,13499,1,8,0:0:0:0:
256,192,13574,1,0,0:0:0:0:
256,192,13649,1,0,0:0:0:0:
256,192,13724,1,0,0:0:0:0:
256,192,13874,1,0,0:0:0:0:
256,192,14024,1,8,0:0:0:0:
256,192,14324,1,0,0:0:0:0:
256,192,14399,1,0,0:0:0:0:
256,192,14474,1,0,0:0:0:0:
256,192,14549,1,0,0:0:0:0:
256,192,14624,1,8,0:0:0:0:
256,192,14774,1,0,0:0:0:0:
256,192,15074,1,0,0:0:0:0:
256,192,15224,1,8,0:0:0:0:
256,192,15374,1,0,0:0:0:0:
256,192,15449,1,0,0:0:0:0:
256,192,15524,1,0,0:0:0:0:
256,192,15674,1,0,0:0:0:0:
256,192,15824,1,8,0:0:0:0:
256,192,16049,1,8,0:0:0:0:
256,192,16274,1,8,0:0:0:0:
256,192,16424,1,0,0:0:0:0:
256,192,16724,1,0,0:0:0:0:
256,192,16799,1,0,0:0:0:0:
256,192,16874,1,0,0:0:0:0:
256,192,17024,1,8,0:0:0:0:
256,192,17174,1,0,0:0:0:0:
256,192,17474,1,0,0:0:0:0:
256,192,17549,1,0,0:0:0:0:
256,192,17624,1,8,0:0:0:0:
256,192,17849,1,8,0:0:0:0:
256,192,18074,1,0,0:0:0:0:
256,192,18224,1,8,0:0:0:0:
256,192,18374,1,0,0:0:0:0:
256,192,18674,1,0,0:0:0:0:
256,192,18749,1,0,0:0:0:0:
256,192,18824,1,8,0:0:0:0:
256,192,18899,1,8,0:0:0:0:
256,192,18974,1,8,0:0:0:0:
256,192,19049,1,8,0:0:0:0:
256,192,19124,1,0,0:0:0:0:
256,192,19274,1,0,0:0:0:0:
256,192,19424,1,8,0:0:0:0:
256,192,19574,1,0,0:0:0:0:
256,192,19874,1,0,0:0:0:0:
256,192,19949,1,0,0:0:0:0:
256,192,20024,1,8,0:0:0:0:
256,192,20249,1,8,0:0:0:0:
256,192,20474,1,0,0:0:0:0:
256,192,20624,1,8,0:0:0:0:
256,192,20849,1,8,0:0:0:0:
256,192,21074,1,0,0:0:0:0:
256,192,21224,1,8,0:0:0:0:
256,192,21449,1,8,0:0:0:0:
256,192,21674,1,8,0:0:0:0:
256,192,21824,1,0,0:0:0:0:
256,192,21974,1,0,0:0:0:0:
256,192,22124,1,8,0:0:0:0:
256,192,22424,1,0,0:0:0:0:
256,192,22499,1,0,0:0:0:0:
256,192,22574,1,0,0:0:0:0:
256,192,22724,1,8,0:0:0:0:
256,192,22874,1,0,0:0:0:0:
256,192,23024,1,8,0:0:0:0:
256,192,23099,1,8,0:0:0:0:
256,192,23174,1,0,0:0:0:0:
256,192,23324,1,8,0:0:0:0:
256,192,23399,1,8,0:0:0:0:
256,192,23474,1,0,0:0:0:0:
256,192,23624,1,8,0:0:0:0:
256,192,23924,1,0,0:0:0:0:
256,192,23999,1,0,0:0:0:0:
256,192,24074,1,0,0:0:0:0:
256,192,24149,1,0,0:0:0:0:
256,192,24224,1,8,0:0:0:0:
256,192,24374,1,0,0:0:0:0:
256,192,24674,1,0,0:0:0:0:
256,192,24824,1,8,0:0:0:0:
256,192,24974,1,0,0:0:0:0:
256,192,25049,1,0,0:0:0:0:
256,192,25124,1,0,0:0:0:0:
256,192,25274,1,0,0:0:0:0:
256,192,25424,1,8,0:0:0:0:
256,192,25649,1,8,0:0:0:0:
256,192,25874,1,8,0:0:0:0:
256,192,26024,1,0,0:0:0:0:
256,192,26324,1,0,0:0:0:0:
256,192,26399,1,0,0:0:0:0:
256,192,26474,1,0,0:0:0:0:
256,192,26624,1,8,0:0:0:0:
256,192,26774,1,0,0:0:0:0:
256,192,27074,1,0,0:0:0:0:
256,192,27149,1,0,0:0:0:0:
256,192,27224,1,8,0:0:0:0:
256,192,27449,1,8,0:0:0:0:
256,192,27674,1,0,0:0:0:0:
256,192,27824,1,8,0:0:0:0:
256,192,27974,1,0,0:0:0:0:
256,192,28124,1,8,0:0:0:0:
256,192,28274,1,0,0:0:0:0:
256,192,28424,1,8,0:0:0:0:
256,192,28499,1,0,0:0:0:0:
256,192,28574,1,0,0:0:0:0:
256,192,28649,1,0,0:0:0:0:
256,192,28724,1,8,0:0:0:0:
256,192,29024,1,8,0:0:0:0:
256,192,29174,1,0,0:0:0:0:
256,192,29474,1,0,0:0:0:0:
256,192,29549,1,0,0:0:0:0:
256,192,29624,1,8,0:0:0:0:
256,192,29849,1,8,0:0:0:0:
256,192,30074,1,0,0:0:0:0:
256,192,30224,1,8,0:0:0:0:
256,192,30449,1,8,0:0:0:0:
256,192,30674,1,0,0:0:0:0:
256,192,30824,1,8,0:0:0:0:
256,192,31049,1,8,0:0:0:0:
256,192,31274,1,8,0:0:0:0:
256,192,31424,1,0,0:0:0:0:
256,192,31499,1,0,0:0:0:0:
256,192,31574,1,0,0:0:0:0:
256,192,31649,1,0,0:0:0:0:
256,192,31724,1,8,0:0:0:0:
256,192,32024,1,0,0:0:0:0:
256,192,32249,1,8,0:0:0:0:
256,192,32474,1,8,0:0:0:0:
256,192,32624,1,8,0:0:0:0:
256,192,32774,1,0,0:0:0:0:
256,192,32849,1,0,0:0:0:0:
256,192,32924,1,0,0:0:0:0:
256,192,33224,1,8,0:0:0:0:
256,192,33374,1,0,0:0:0:0:
256,192,33449,1,0,0:0:0:0:
256,192,33524,1,0,0:0:0:0:
256,192,33674,1,0,0:0:0:0:
256,192,33824,1,8,0:0:0:0:
256,192,33974,1,8,0:0:0:0:
256,192,34049,1,8,0:0:0:0:
256,192,34124,1,0,0:0:0:0:
256,192,34274,1,0,0:0:0:0:
256,192,34424,1,8,0:0:0:0:
256,192,34574,1,8,0:0:0:0:
256,192,34649,1,8,0:0:0:0:
256,192,34724,1,0,0:0:0:0:
256,192,35024,1,8,0:0:0:0:
256,192,35174,1,0,0:0:0:0:
256,192,35249,1,0,0:0:0:0:
256,192,35324,1,0,0:0:0:0:
256,192,35474,1,0,0:0:0:0:
256,192,35624,1,8,0:0:0:0:
256,192,35774,1,0,0:0:0:0:
256,192,35924,1,0,0:0:0:0:
256,192,36224,1,8,0:0:0:0:
256,192,36374,1,0,0:0:0:0:
256,192,36449,1,8,0:0:0:0:
256,192,36524,1,0,0:0:0:0:
256,192,36674,1,0,0:0:0:0:
256,192,36824,1,8,0:0:0:0:
256,192,36974,1,0,0:0:0:0:
256,192,37049,1,8,0:0:0:0:
256,192,37124,1,0,0:0:0:0:
256,192,37424,1,8,0:0:0:0:
256,192,37499,1,8,0:0:0:0:
256,192,37574,1,8,0:0:0:0:
256,192,37724,1,0,0:0:0:0:
256,192,37874,1,0,0:0:0:0:
256,192,38024,1,8,0:0:0:0:
256,192,38099,1,8,0:0:0:0:
256,192,38174,1,0,0:0:0:0:
256,192,38249,1,0,0:0:0:0:
256,192,38324,1,0,0:0:0:0:
256,192,38624,1,8,0:0:0:0:
256,192,38774,1,0,0:0:0:0:
256,192,38924,1,0,0:0:0:0:
256,192,38999,1,0,0:0:0:0:
256,192,39074,1,8,0:0:0:0:
256,192,39224,1,0,0:0:0:0:
256,192,39374,1,8,0:0:0:0:
256,192,39524,1,0,0:0:0:0:
256,192,39599,1,0,0:0:0:0:
256,192,39674,1,8,0:0:0:0:
256,192,39824,1,8,0:0:0:0:
256,192,39899,1,8,0:0:0:0:
256,192,39974,1,0,0:0:0:0:
256,192,40049,1,0,0:0:0:0:
256,192,40124,1,0,0:0:0:0:
256,192,40274,1,0,0:0:0:0:
256,192,40424,1,8,0:0:0:0:
256,192,40649,1,8,0:0:0:0:
256,192,40874,1,8,0:0:0:0:
256,192,41024,1,0,0:0:0:0:
256,192,41174,1,8,0:0:0:0:
256,192,41324,1,0,0:0:0:0:
256,192,41399,1,0,0:0:0:0:
256,192,41474,1,8,0:0:0:0:
256,192,41624,1,0,0:0:0:0:
256,192,41774,1,8,0:0:0:0:
256,192,41924,1,0,0:0:0:0:
256,192,42224,1,8,0:0:0:0:
256,192,42299,1,8,0:0:0:0:
256,192,42374,1,0,0:0:0:0:
256,192,42449,1,0,0:0:0:0:
256,192,42524,1,0,0:0:0:0:
256,192,42674,1,0,0:0:0:0:
256,192,42824,1,8,0:0:0:0:
256,192,43049,1,8,0:0:0:0:
256,192,43274,1,0,0:0:0:0:
256,192,43424,1,8,0:0:0:0:
256,192,43574,1,8,0:0:0:0:
256,192,43649,1,8,0:0:0:0:
256,192,43724,1,0,0:0:0:0:
256,192,43874,1,0,0:0:0:0:
256,192,44024,1,8,0:0:0:0:
256,192,44099,1,8,0:0:0:0:
256,192,44174,1,0,0:0:0:0:
256,192,44249,1,0,0:0:0:0:
256,192,44324,1,8,0:0:0:0:
256,192,44624,1,8,0:0:0:0:
256,192,44774,1,0,0:0:0:0:
256,192,44849,1,0,0:0:0:0:
256,192,44924,1,0,0:0:0:0:
256,192,45074,1,0,0:0:0:0:
256,192,45149,1,0,0:0:0:0:
256,192,45224,1,8,0:0:0:0:
256,192,45374,1,8,0:0:0:0:
256,192,45524,1,0,0:0:0:0:
256,192,45674,1,0,0:0:0:0:
256,192,45824,1,8,0:0:0:0:
256,192,45974,1,8,0:0:0:0:
256,192,46049,1,8,0:0:0:0:
256,192,46124,1,0,0:0:0:0:
256,192,46274,1,0,0:0:0:0:
256,192,46424,1,8,0:0:0:0:
256,192,46499,1,0,0:0:0:0:
256,192,46574,1,0,0:0:0:0:
256,192,46649,1,0,0:0:0:0:
256,192,46724,1,8,0:0:0:0:
256,192,47024,1,8,0:0:0:0:
256,192,47174,1,0,0:0:0:0:
256,192,47249,1,0,0:0:0:0:
256,192,47324,1,8,0:0:0:0:
256,192,47474,1,8,0:0:0:0:
256,192,47549,1,8,0:0:0:0:
256,192,47624,1,0,0:0:0:0:
256,192,47699,1,8,0:0:0:0:
256,192,47774,1,0,0:0:0:0:
256,192,47849,1,0,0:0:0:0:
256,192,47924,1,8,0:0:0:0:
256,192,48224,1,8,0:0:0:0:
256,192,48299,1,8,0:0:0:0:
256,192,48374,1,0,0:0:0:0:
256,192,48449,1,0,0:0:0:0:
256,192,48524,1,0,0:0:0:0:
256,192,48674,1,8,0:0:0:0:
256,192,48749,1,8,0:0:0:0:
256,192,48824,1,0,0:0:0:0:
256,192,48899,1,0,0:0:0:0:
256,192,48974,1,0,0:0:0:0:
256,192,49124,1,8,0:0:0:0:
256,192,49424,1,0,0:0:0:0:
256,192,49499,1,0,0:0:0:0:
256,192,49574,1,8,0:0:0:0:
256,192,49649,1,0,0:0:0:0:
256,192,49724,1,0,0:0:0:0:
256,192,49874,1,0,0:0:0:0:
256,192,49949,1,0,0:0:0:0:
256,192,50024,1,8,0:0:0:0:
256,192,50099,1,0,0:0:0:0:
256,192,50174,1,0,0:0:0:0:
256,192,50324,1,0,0:0:0:0:
256,192,50624,1,0,0:0:0:0:
256,192,50849,1,0,0:0:0:0:
256,192,51074,1,0,0:0:0:0:
256,192,51299,1,0,0:0:0:0:
256,192,51524,1,8,0:0:0:0:
256,192,51674,1,8,0:0:0:0:
256,192,51824,1,8,0:0:0:0:
256,192,51974,1,0,0:0:0:0:
256,192,52049,1,0,0:0:0:0:
256,192,52124,1,0,0:0:0:0:
256,192,52274,1,8,0:0:0:0:
256,192,52424,1,0,0:0:0:0:
256,192,52499,1,0,0:0:0:0:
256,192,52574,1,0,0:0:0:0:
256,192,52724,1,8,0:0:0:0:
256,192,52799,1,8,0:0:0:0:
256,192,52874,1,0,0:0:0:0:
256,192,53024,1,4,0:0:0:0:
