osu file format v14

[General]
AudioFilename: audio.mp3
AudioLeadIn: 0
PreviewTime: 14624
Countdown: 1
SampleSet: None
StackLeniency: 0.7
Mode: 1
LetterboxInBreaks: 0
WidescreenStoryboard: 1

[Editor]
DistanceSpacing: 0.4
BeatDivisor: 2
GridSize: 32
TimelineZoom: 2.4

[Metadata]
Title:FAITH
TitleUnicode:FAITH
Artist:Unlucky Morpheus
ArtistUnicode:Unlucky Morpheus
Creator:Dainesl
Version:Futsuu
Source:東方Project
Tags:東方風神録 ~ Mountain of Faith. Native Faith ネイティブフェイス Moriya Suwako 洩矢諏訪子 metal touhou th10 REBIRTH Revisited c89 comiket
BeatmapID:1166487
BeatmapSetID:550612

[Difficulty]
HPDrainRate:8.5
CircleSize:5
OverallDifficulty:4.5
ApproachRate:5
SliderMultiplier:1.4
SliderTickRate:1

[Events]
//Background and Video events
//Break Periods
//Storyboard Layer 0 (Background)
//Storyboard Layer 1 (Fail)
//Storyboard Layer 2 (Pass)
//Storyboard Layer 3 (Foreground)
//Storyboard Sound Samples

[TimingPoints]
224,300,4,1,0,100,1,0
9824,-100,4,1,0,100,0,1
14624,-100,4,1,0,100,0,0
38624,-100,4,1,0,100,0,1
43424,-100,4,1,0,100,0,1
48224,-100,4,1,0,100,0,0

[HitObjects]
256,192,224,5,8,0:0:0:0:
256,192,524,1,0,0:0:0:0:
256,192,824,1,8,0:0:0:0:
256,192,1124,1,0,0:0:0:0:
256,192,1274,1,0,0:0:0:0:
256,192,1424,1,8,0:0:0:0:
256,192,1724,1,0,0:0:0:0:
256,192,2024,1,8,0:0:0:0:
256,192,2624,1,8,0:0:0:0:
256,192,2924,1,0,0:0:0:0:
256,192,3224,1,8,0:0:0:0:
256,192,3524,1,0,0:0:0:0:
256,192,3674,1,0,0:0:0:0:
256,192,3824,1,8,0:0:0:0:
256,192,4124,1,0,0:0:0:0:
256,192,4424,1,8,0:0:0:0:
256,192,5024,1,8,0:0:0:0:
256,192,5324,1,0,0:0:0:0:
256,192,5624,1,8,0:0:0:0:
256,192,5924,1,0,0:0:0:0:
256,192,6224,1,8,0:0:0:0:
256,192,6524,1,8,0:0:0:0:
256,192,6674,1,0,0:0:0:0:
256,192,6824,1,8,0:0:0:0:
256,192,7424,1,8,0:0:0:0:
256,192,7724,1,0,0:0:0:0:
256,192,8024,1,8,0:0:0:0:
256,192,8324,1,0,0:0:0:0:
256,192,8624,1,8,0:0:0:0:
256,192,8924,1,8,0:0:0:0:
256,192,9224,1,0,0:0:0:0:
256,192,9374,1,0,0:0:0:0:
256,192,9524,1,0,0:0:0:0:
256,192,9824,1,8,0:0:0:0:
256,192,10124,1,0,0:0:0:0:
256,192,10274,1,0,0:0:0:0:
256,192,10424,1,8,0:0:0:0:
256,192,10724,1,8,0:0:0:0:
256,192,11024,1,0,0:0:0:0:
256,192,11324,1,0,0:0:0:0:
256,192,11624,1,8,0:0:0:0:
256,192,12074,1,8,0:0:0:0:
256,192,12224,1,8,0:0:0:0:
256,192,12524,1,0,0:0:0:0:
256,192,12674,1,0,0:0:0:0:
256,192,12824,1,8,0:0:0:0:
256,192,13124,1,0,0:0:0:0:
256,192,13424,1,8,0:0:0:0:
256,192,13724,1,8,0:0:0:0:
256,192,14024,1,0,0:0:0:0:
256,192,14624,1,8,0:0:0:0:
256,192,15074,1,8,0:0:0:0:
256,192,15224,1,8,0:0:0:0:
256,192,15674,1,8,0:0:0:0:
256,192,15824,1,8,0:0:0:0:
256,192,16124,1,0,0:0:0:0:
256,192,16424,1,8,0:0:0:0:
256,192,16724,1,8,0:0:0:0:
256,192,17024,1,0,0:0:0:0:
256,192,17474,1,8,0:0:0:0:
256,192,17624,1,8,0:0:0:0:
256,192,17924,1,8,0:0:0:0:
256,192,18224,1,0,0:0:0:0:
256,192,18824,1,8,0:0:0:0:
256,192,19124,1,8,0:0:0:0:
256,192,19424,1,0,0:0:0:0:
256,192,19874,1,8,0:0:0:0:
256,192,20024,1,8,0:0:0:0:
256,192,20324,1,8,0:0:0:0:
256,192,20624,1,0,0:0:0:0:
256,192,20924,1,0,0:0:0:0:
256,192,21074,1,0,0:0:0:0:
256,192,21224,1,8,0:0:0:0:
256,192,21524,1,8,0:0:0:0:
256,192,21824,1,0,0:0:0:0:
256,192,22424,1,8,0:0:0:0:
256,192,23024,1,8,0:0:0:0:
256,192,23174,1,8,0:0:0:0:
256,192,23324,1,8,0:0:0:0:
256,192,23474,1,8,0:0:0:0:
256,192,23624,1,8,0:0:0:0:
256,192,24224,1,8,0:0:0:0:
256,192,24674,1,8,0:0:0:0:
256,192,24824,1,8,0:0:0:0:
256,192,25274,1,8,0:0:0:0:
256,192,25424,1,8,0:0:0:0:
256,192,25724,1,0,0:0:0:0:
256,192,26024,1,8,0:0:0:0:
256,192,26324,1,8,0:0:0:0:
256,192,26624,1,0,0:0:0:0:
256,192,27074,1,8,0:0:0:0:
256,192,27224,1,8,0:0:0:0:
256,192,27524,1,0,0:0:0:0:
256,192,27824,1,8,0:0:0:0:
256,192,28124,1,8,0:0:0:0:
256,192,28424,1,8,0:0:0:0:
256,192,28724,1,8,0:0:0:0:
256,192,29024,1,0,0:0:0:0:
256,192,29624,1,8,0:0:0:0:
256,192,29924,1,8,0:0:0:0:
256,192,30224,1,0,0:0:0:0:
256,192,30524,1,0,0:0:0:0:
256,192,30674,1,0,0:0:0:0:
256,192,30824,1,8,0:0:0:0:
256,192,31124,1,8,0:0:0:0:
256,192,31424,1,0,0:0:0:0:
256,192,32024,1,8,0:0:0:0:
256,192,32324,1,8,0:0:0:0:
256,192,32474,1,8,0:0:0:0:
256,192,32624,1,8,0:0:0:0:
256,192,33224,1,0,0:0:0:0:
256,192,33524,1,0,0:0:0:0:
256,192,33824,1,8,0:0:0:0:
256,192,34124,1,0,0:0:0:0:
256,192,34424,1,8,0:0:0:0:
256,192,34724,1,0,0:0:0:0:
256,192,35024,1,8,0:0:0:0:
256,192,35324,1,0,0:0:0:0:
256,192,35474,1,0,0:0:0:0:
256,192,35624,1,8,0:0:0:0:
256,192,36224,1,8,0:0:0:0:
256,192,36524,1,0,0:0:0:0:
256,192,36824,1,8,0:0:0:0:
256,192,37124,1,0,0:0:0:0:
256,192,37424,1,8,0:0:0:0:
256,192,37574,1,8,0:0:0:0:
256,192,37724,1,8,0:0:0:0:
256,192,38024,1,0,0:0:0:0:
256,192,38174,1,0,0:0:0:0:
256,192,38324,1,0,0:0:0:0:
256,192,38624,1,8,0:0:0:0:
256,192,38924,1,0,0:0:0:0:
256,192,39074,1,0,0:0:0:0:
256,192,39224,1,8,0:0:0:0:
256,192,39524,1,8,0:0:0:0:
256,192,39824,1,0,0:0:0:0:
256,192,40124,1,0,0:0:0:0:
256,192,40424,1,8,0:0:0:0:
256,192,40874,1,8,0:0:0:0:
256,192,41024,1,8,0:0:0:0:
256,192,41324,1,0,0:0:0:0:
256,192,41474,1,0,0:0:0:0:
256,192,41624,1,8,0:0:0:0:
256,192,41924,1,0,0:0:0:0:
256,192,42224,1,8,0:0:0:0:
256,192,42824,1,0,0:0:0:0:
256,192,43274,1,8,0:0:0:0:
256,192,43424,1,8,0:0:0:0:
256,192,43724,1,0,0:0:0:0:
256,192,44024,1,8,0:0:0:0:
256,192,44324,1,8,0:0:0:0:
256,192,44624,1,0,0:0:0:0:
256,192,44924,1,8,0:0:0:0:
256,192,45074,1,8,0:0:0:0:
256,192,45224,1,8,0:0:0:0:
256,192,45824,1,8,0:0:0:0:
256,192,46124,1,0,0:0:0:0:
256,192,46424,1,8,0:0:0:0:
256,192,46724,1,8,0:0:0:0:
256,192,47024,1,0,0:0:0:0:
256,192,47324,1,0,0:0:0:0:
256,192,47474,1,0,0:0:0:0:
256,192,47624,1,8,0:0:0:0:
256,192,47924,1,8,0:0:0:0:
256,192,48224,1,8,0:0:0:0:
256,192,48524,1,8,0:0:0:0:
256,192,48674,1,8,0:0:0:0:
256,192,49124,1,8,0:0:0:0:
256,192,49424,1,0,0:0:0:0:
256,192,49724,1,0,0:0:0:0:
256,192,49874,1,0,0:0:0:0:
256,192,50324,1,8,0:0:0:0:
256,192,50624,1,0,0:0:0:0:
256,192,51074,1,0,0:0:0:0:
256,192,51524,1,0,0:0:0:0:
256,192,51824,1,8,0:0:0:0:
256,192,52124,1,0,0:0:0:0:
256,192,52424,1,8,0:0:0:0:
256,192,52574,1,8,0:0:0:0:
256,192,52724,1,8,0:0:0:0:
256,192,53024,1,4,0:0:0:0:
